osu file format v14

[General]
AudioFilename: audio.mp3
AudioLeadIn: 0
PreviewTime: 87958
Countdown: 0
SampleSet: Normal
StackLeniency: 0.7
Mode: 1
LetterboxInBreaks: 0
WidescreenStoryboard: 0

[Editor]
Bookmarks: 674,8333,12163,13759,21417,25247,29077,36736,40566,46311,55885,59715,63545,67375,69289,71204,76949,78864,80779,82694,83651,84609,85247,88438,93544,96098,98650,103757,108863,113969,119076,129289,134395,135672
DistanceSpacing: 1.3
BeatDivisor: 12
GridSize: 32
TimelineZoom: 2.699999

[Metadata]
Title:Nee, Kowareta Ningyou ha Doko e Suterareruno?
TitleUnicode:ねぇ、壊れタ人形ハ何処へ棄テらレるノ?
Artist:cosMo@BousouP
ArtistUnicode:cosMo@暴走P
Creator:Mrriichi
Version:Inner Oni
Source:maimai MURASAKI
Tags:
BeatmapID:1283741
BeatmapSetID:607819

[Difficulty]
HPDrainRate:5
CircleSize:5
OverallDifficulty:7
ApproachRate:5
SliderMultiplier:1.4
SliderTickRate:1

[Events]
//Background and Video events
0,0,"0321a.jpg",0,0
//Break Periods
//Storyboard Layer 0 (Background)
//Storyboard Layer 1 (Fail)
//Storyboard Layer 2 (Pass)
//Storyboard Layer 3 (Foreground)
//Storyboard Sound Samples

[TimingPoints]
674,319.148936170213,3,1,0,74,1,0
12163,319.148936170213,5,1,0,74,1,0
13759,319.148936170213,3,1,0,74,1,0
29078,-100,3,1,0,74,0,1
46312,-100,3,1,0,74,0,0
46950,319.148936170213,3,1,0,74,1,0
46950,-200,3,1,0,74,0,0
47269,319.148936170213,3,1,0,74,1,8
47588,-100,3,1,0,74,0,0
55566,-133.333333333333,3,1,0,74,0,0
55886,-100,3,1,0,74,0,1
63545,-100,3,1,0,74,0,0
71205,-100,3,1,0,74,0,1
78864,-100,3,1,0,74,0,0
79822,-66.6666666666667,3,1,0,74,0,0
81737,-100,3,1,0,74,0,0
82694,319.148936170213,3,1,0,74,1,8
82694,-111.111111111111,3,1,0,74,0,0
83333,-125,3,1,0,74,0,0
83651,319.148936170213,3,1,0,74,1,8
84290,-142.857142857143,3,1,0,74,0,0
84608,319.148936170213,3,1,0,74,1,8
85193,-166.666666666667,3,1,0,74,0,0
85565,319.148936170213,3,1,0,74,1,8
86522,319.148936170213,3,1,0,74,1,8
86522,-200,3,1,0,74,0,8
87479,319.148936170213,3,1,0,74,1,8
88117,-100,3,1,0,74,0,0
88436,319.148936170213,4,1,0,74,1,0
88436,-100,4,1,0,74,0,1
119074,-100,4,1,0,74,0,0
120350,-111.111111111111,4,1,0,74,0,0
121627,-125,4,1,0,74,0,0
122904,-142.857142857143,4,1,0,74,0,0
124180,-166.666666666667,4,1,0,74,0,0
126733,-200,4,1,0,74,0,0
134393,-133.333333333333,4,1,0,74,0,0

[HitObjects]
192,256,674,5,0,0:0:0:0:
192,256,993,1,0,0:0:0:0:
160,288,1312,1,2,0:0:0:0:
160,288,1631,1,0,0:0:0:0:
160,288,1950,1,2,0:0:0:0:
160,288,2269,1,2,0:0:0:0:
160,288,2588,1,0,0:0:0:0:
160,288,2908,1,2,0:0:0:0:
160,288,3227,1,0,0:0:0:0:
160,288,3546,1,2,0:0:0:0:
160,288,3865,1,0,0:0:0:0:
160,288,4184,1,2,0:0:0:0:
160,288,4503,1,0,0:0:0:0:
160,288,4822,1,0,0:0:0:0:
160,288,5142,1,2,0:0:0:0:
160,288,5461,1,0,0:0:0:0:
160,288,5780,1,2,0:0:0:0:
160,288,6099,1,2,0:0:0:0:
160,288,6418,1,0,0:0:0:0:
160,288,6737,1,2,0:0:0:0:
160,288,7056,1,0,0:0:0:0:
160,288,7376,1,2,0:0:0:0:
224,288,7535,1,0,0:0:0:0:
224,288,7695,1,2,0:0:0:0:
224,288,8014,1,4,0:0:0:0:
320,256,11205,1,0,0:0:0:0:
320,256,11259,1,0,0:0:0:0:
288,256,11312,1,0,0:0:0:0:
288,256,11365,1,0,0:0:0:0:
288,256,11418,1,2,0:0:0:0:
288,256,11525,1,0,0:0:0:0:
288,256,11684,1,2,0:0:0:0:
224,224,11844,1,0,0:0:0:0:
128,192,11924,1,0,0:0:0:0:
224,192,12003,1,2,0:0:0:0:
160,128,12083,1,2,0:0:0:0:
224,192,12163,1,0,0:0:0:0:
320,256,12322,1,0,0:0:0:0:
320,256,12375,1,0,0:0:0:0:
320,256,12428,1,0,0:0:0:0:
320,256,12482,1,2,0:0:0:0:
320,224,12641,1,2,0:0:0:0:
320,224,12694,1,2,0:0:0:0:
320,224,12748,1,2,0:0:0:0:
320,224,12801,1,0,0:0:0:0:
288,192,13120,1,6,0:0:0:0:
224,256,13439,1,4,0:0:0:0:
128,160,13758,1,0,0:0:0:0:
128,160,14078,1,0,0:0:0:0:
128,160,14237,1,0,0:0:0:0:
128,160,14397,1,2,0:0:0:0:
384,224,14556,1,0,0:0:0:0:
128,160,14716,1,2,0:0:0:0:
288,192,14876,1,0,0:0:0:0:
288,192,14955,1,0,0:0:0:0:
128,160,15035,1,2,0:0:0:0:
128,160,15195,1,2,0:0:0:0:
128,160,15354,1,0,0:0:0:0:
128,160,15673,1,0,0:0:0:0:
128,160,15993,1,2,0:0:0:0:
288,256,16152,1,2,0:0:0:0:
128,160,16312,1,0,0:0:0:0:
352,224,16471,1,0,0:0:0:0:
128,160,16631,1,2,0:0:0:0:
128,160,16790,1,2,0:0:0:0:
352,224,16870,1,2,0:0:0:0:
128,160,16950,1,0,0:0:0:0:
128,160,17110,1,0,0:0:0:0:
128,160,17269,1,2,0:0:0:0:
128,160,17429,1,0,0:0:0:0:
320,192,17509,1,0,0:0:0:0:
128,160,17588,1,2,0:0:0:0:
128,160,17907,1,0,0:0:0:0:
128,160,18067,1,2,0:0:0:0:
128,160,18227,1,0,0:0:0:0:
224,224,18386,1,0,0:0:0:0:
128,160,18546,1,2,0:0:0:0:
224,224,18705,1,0,0:0:0:0:
224,224,18785,1,2,0:0:0:0:
128,160,18865,1,2,0:0:0:0:
128,160,19024,1,0,0:0:0:0:
128,160,19184,1,2,0:0:0:0:
320,256,19344,1,0,0:0:0:0:
320,256,19423,1,0,0:0:0:0:
128,160,19503,1,2,0:0:0:0:
128,160,19822,1,0,0:0:0:0:
128,160,19982,1,0,0:0:0:0:
128,160,20141,1,2,0:0:0:0:
352,320,20301,1,0,0:0:0:0:
128,160,20461,1,2,0:0:0:0:
128,160,20620,1,2,0:0:0:0:
320,256,20700,1,2,0:0:0:0:
128,160,20780,1,0,0:0:0:0:
128,160,20939,1,0,0:0:0:0:
128,160,21099,1,2,0:0:0:0:
224,192,21179,1,0,0:0:0:0:
128,160,21259,1,2,0:0:0:0:
224,192,21338,1,2,0:0:0:0:
128,160,21418,1,0,0:0:0:0:
128,160,21737,1,2,0:0:0:0:
128,160,21897,1,0,0:0:0:0:
128,160,22056,1,2,0:0:0:0:
256,224,22216,1,2,0:0:0:0:
256,224,22296,1,2,0:0:0:0:
128,160,22376,1,0,0:0:0:0:
128,160,22695,1,2,0:0:0:0:
128,160,22854,1,2,0:0:0:0:
128,160,23014,1,0,0:0:0:0:
256,224,23173,1,0,0:0:0:0:
256,224,23253,1,0,0:0:0:0:
128,160,23333,1,2,0:0:0:0:
128,160,23652,1,0,0:0:0:0:
128,160,23971,1,2,0:0:0:0:
256,224,24131,1,2,0:0:0:0:
224,256,24211,1,0,0:0:0:0:
256,224,24290,1,0,0:0:0:0:
256,224,24450,5,0,0:0:0:0:
256,224,24610,1,2,0:0:0:0:
256,224,24769,1,0,0:0:0:0:
192,224,24849,1,0,0:0:0:0:
352,256,24929,1,2,0:0:0:0:
192,224,25088,1,2,0:0:0:0:
192,224,25168,1,2,0:0:0:0:
320,288,25248,1,0,0:0:0:0:
256,160,25567,1,0,0:0:0:0:
256,160,25647,1,2,0:0:0:0:
256,160,25727,1,0,0:0:0:0:
256,160,25806,1,2,0:0:0:0:
256,160,25886,1,0,0:0:0:0:
256,160,25966,1,2,0:0:0:0:
256,160,26046,1,0,0:0:0:0:
256,160,26126,1,2,0:0:0:0:
256,160,26205,1,2,0:0:0:0:
256,160,26365,1,2,0:0:0:0:
256,160,26445,1,0,0:0:0:0:
256,160,26524,1,2,0:0:0:0:
256,160,26604,1,0,0:0:0:0:
256,160,26684,1,2,0:0:0:0:
256,160,26764,1,0,0:0:0:0:
320,128,26844,1,2,0:0:0:0:
320,128,26897,1,2,0:0:0:0:
320,128,26950,1,2,0:0:0:0:
320,128,27003,1,2,0:0:0:0:
320,128,27056,1,2,0:0:0:0:
320,128,27110,1,2,0:0:0:0:
320,128,27163,1,0,0:0:0:0:
224,192,27243,1,2,0:0:0:0:
224,192,27322,1,0,0:0:0:0:
224,192,27402,1,2,0:0:0:0:
192,192,27482,1,0,0:0:0:0:
192,192,27562,1,2,0:0:0:0:
192,192,27641,1,0,0:0:0:0:
192,192,27721,1,2,0:0:0:0:
192,192,27801,1,0,0:0:0:0:
192,192,27881,1,2,0:0:0:0:
192,192,27961,1,0,0:0:0:0:
192,192,28040,1,2,0:0:0:0:
192,192,28120,1,0,0:0:0:0:
192,192,28280,1,2,0:0:0:0:
192,192,28439,1,2,0:0:0:0:
192,192,28599,1,0,0:0:0:0:
192,192,28759,1,6,0:0:0:0:
128,160,29078,1,0,0:0:0:0:
128,160,29397,1,0,0:0:0:0:
128,160,29556,1,0,0:0:0:0:
224,224,29636,1,0,0:0:0:0:
128,160,29716,1,2,0:0:0:0:
384,224,29876,1,0,0:0:0:0:
128,160,30035,1,2,0:0:0:0:
224,224,30115,1,2,0:0:0:0:
288,192,30195,1,0,0:0:0:0:
288,192,30274,1,0,0:0:0:0:
128,160,30354,1,2,0:0:0:0:
128,160,30514,1,2,0:0:0:0:
128,160,30673,1,0,0:0:0:0:
128,160,30993,1,0,0:0:0:0:
128,160,31312,1,2,0:0:0:0:
288,256,31471,1,2,0:0:0:0:
224,224,31551,1,2,0:0:0:0:
128,160,31631,1,0,0:0:0:0:
352,224,31790,1,0,0:0:0:0:
128,160,31950,1,2,0:0:0:0:
224,224,32030,1,0,0:0:0:0:
128,160,32110,1,2,0:0:0:0:
352,224,32189,1,2,0:0:0:0:
128,160,32269,1,0,0:0:0:0:
128,160,32429,1,0,0:0:0:0:
128,160,32588,1,2,0:0:0:0:
128,160,32748,1,0,0:0:0:0:
320,192,32828,1,0,0:0:0:0:
128,160,32907,1,2,0:0:0:0:
128,160,33227,1,0,0:0:0:0:
128,160,33386,1,2,0:0:0:0:
224,224,33466,1,0,0:0:0:0:
128,160,33546,1,0,0:0:0:0:
224,224,33705,1,0,0:0:0:0:
128,160,33865,1,2,0:0:0:0:
224,160,33945,1,0,0:0:0:0:
224,224,34024,1,0,0:0:0:0:
224,224,34104,1,2,0:0:0:0:
128,160,34184,1,2,0:0:0:0:
128,160,34344,1,0,0:0:0:0:
128,160,34503,1,2,0:0:0:0:
320,256,34663,1,0,0:0:0:0:
320,256,34743,1,0,0:0:0:0:
128,160,34822,1,2,0:0:0:0:
128,160,35141,1,0,0:0:0:0:
224,160,35301,1,0,0:0:0:0:
224,160,35381,1,0,0:0:0:0:
128,160,35461,1,2,0:0:0:0:
352,320,35620,1,0,0:0:0:0:
128,160,35780,1,2,0:0:0:0:
128,160,35939,1,2,0:0:0:0:
320,256,36019,1,2,0:0:0:0:
128,160,36099,1,0,0:0:0:0:
128,160,36259,1,0,0:0:0:0:
128,160,36418,1,2,0:0:0:0:
224,192,36498,1,0,0:0:0:0:
128,160,36578,1,2,0:0:0:0:
224,192,36657,1,2,0:0:0:0:
128,160,36737,1,0,0:0:0:0:
128,160,37056,1,2,0:0:0:0:
128,160,37216,1,0,0:0:0:0:
256,192,37296,1,0,0:0:0:0:
128,160,37376,1,2,0:0:0:0:
256,224,37535,1,2,0:0:0:0:
256,224,37615,1,2,0:0:0:0:
128,160,37695,1,0,0:0:0:0:
128,160,38014,1,2,0:0:0:0:
128,160,38173,1,2,0:0:0:0:
256,192,38253,1,2,0:0:0:0:
128,160,38333,1,0,0:0:0:0:
256,224,38493,1,0,0:0:0:0:
256,224,38572,1,0,0:0:0:0:
128,160,38652,1,2,0:0:0:0:
128,160,38971,1,0,0:0:0:0:
128,160,39290,1,2,0:0:0:0:
256,224,39450,1,2,0:0:0:0:
224,256,39530,1,0,0:0:0:0:
256,224,39610,1,0,0:0:0:0:
256,224,39769,5,0,0:0:0:0:
256,224,39929,1,2,0:0:0:0:
256,224,40088,1,0,0:0:0:0:
192,224,40168,1,0,0:0:0:0:
352,256,40248,1,2,0:0:0:0:
384,256,40328,1,0,0:0:0:0:
192,224,40407,1,2,0:0:0:0:
192,224,40487,1,2,0:0:0:0:
320,288,40567,1,0,0:0:0:0:
256,160,40886,5,0,0:0:0:0:
256,160,40966,1,2,0:0:0:0:
256,160,41046,1,0,0:0:0:0:
256,160,41126,1,2,0:0:0:0:
256,160,41205,1,0,0:0:0:0:
256,160,41285,1,2,0:0:0:0:
256,160,41365,1,0,0:0:0:0:
256,160,41445,1,2,0:0:0:0:
256,160,41524,1,2,0:0:0:0:
256,160,41684,1,2,0:0:0:0:
256,160,41764,1,0,0:0:0:0:
256,160,41844,1,2,0:0:0:0:
256,160,41923,1,0,0:0:0:0:
256,160,42003,1,2,0:0:0:0:
256,160,42083,1,0,0:0:0:0:
320,128,42163,1,2,0:0:0:0:
320,128,42216,1,2,0:0:0:0:
320,128,42269,1,2,0:0:0:0:
320,128,42322,1,2,0:0:0:0:
320,128,42376,1,2,0:0:0:0:
320,128,42429,1,2,0:0:0:0:
320,128,42482,1,0,0:0:0:0:
224,192,42562,1,2,0:0:0:0:
224,192,42641,1,0,0:0:0:0:
224,192,42721,1,2,0:0:0:0:
192,192,42801,1,0,0:0:0:0:
192,192,42881,1,2,0:0:0:0:
192,192,42961,1,0,0:0:0:0:
192,192,43040,1,2,0:0:0:0:
192,192,43120,1,0,0:0:0:0:
192,192,43200,1,2,0:0:0:0:
192,192,43280,1,0,0:0:0:0:
192,192,43360,1,2,0:0:0:0:
192,192,43439,1,0,0:0:0:0:
224,160,43519,1,2,0:0:0:0:
224,160,43599,1,2,0:0:0:0:
224,160,43679,1,2,0:0:0:0:
224,160,43759,1,2,0:0:0:0:
224,160,43838,1,2,0:0:0:0:
224,160,43918,1,2,0:0:0:0:
224,160,43998,1,2,0:0:0:0:
224,160,44078,1,2,0:0:0:0:
224,160,44157,1,2,0:0:0:0:
224,160,44237,1,2,0:0:0:0:
224,160,44290,1,2,0:0:0:0:
256,192,44344,1,2,0:0:0:0:
288,192,44397,1,0,0:0:0:0:
224,192,44477,1,2,0:0:0:0:
224,192,44556,1,0,0:0:0:0:
224,192,44636,1,2,0:0:0:0:
224,192,44716,1,0,0:0:0:0:
224,192,44796,1,2,0:0:0:0:
224,192,44876,1,0,0:0:0:0:
224,192,44955,1,2,0:0:0:0:
224,192,45035,1,0,0:0:0:0:
224,192,45115,1,2,0:0:0:0:
224,192,45195,1,0,0:0:0:0:
224,224,45248,1,0,0:0:0:0:
224,224,45301,1,0,0:0:0:0:
224,224,45354,1,2,0:0:0:0:
192,192,45434,1,2,0:0:0:0:
192,192,45514,1,2,0:0:0:0:
192,192,45594,1,2,0:0:0:0:
192,192,45673,1,2,0:0:0:0:
192,192,45753,1,2,0:0:0:0:
192,192,45833,1,2,0:0:0:0:
192,192,45913,1,2,0:0:0:0:
192,192,45993,1,2,0:0:0:0:
160,256,46046,1,2,0:0:0:0:
160,256,46099,1,2,0:0:0:0:
160,256,46152,1,2,0:0:0:0:
160,256,46205,1,2,0:0:0:0:
160,256,46259,1,2,0:0:0:0:
160,256,46312,1,0,0:0:0:0:
224,256,47588,1,2,0:0:0:0:
224,256,47694,1,2,0:0:0:0:
224,256,47800,1,0,0:0:0:0:
224,256,47907,1,2,0:0:0:0:
224,256,48013,1,2,0:0:0:0:
224,256,48120,1,2,0:0:0:0:
224,256,48226,1,0,0:0:0:0:
224,256,48545,1,0,0:0:0:0:
224,256,48651,1,0,0:0:0:0:
224,256,48758,1,2,0:0:0:0:
224,256,48864,1,0,0:0:0:0:
224,256,48971,1,2,0:0:0:0:
224,256,49077,1,0,0:0:0:0:
224,256,49183,1,2,0:0:0:0:
224,256,49290,1,2,0:0:0:0:
224,256,49396,1,0,0:0:0:0:
224,256,49503,1,2,0:0:0:0:
224,256,49609,1,2,0:0:0:0:
224,256,49715,1,0,0:0:0:0:
224,256,49822,1,2,0:0:0:0:
224,256,49928,1,0,0:0:0:0:
224,256,50034,1,0,0:0:0:0:
224,256,50141,1,2,0:0:0:0:
224,256,50247,1,0,0:0:0:0:
224,256,50354,1,0,0:0:0:0:
224,256,50460,1,2,0:0:0:0:
224,256,50566,1,0,0:0:0:0:
224,256,50673,1,2,0:0:0:0:
192,224,50779,1,0,0:0:0:0:
192,224,50886,1,2,0:0:0:0:
192,224,50992,1,0,0:0:0:0:
192,224,51098,1,2,0:0:0:0:
192,224,51205,1,2,0:0:0:0:
192,224,51311,1,0,0:0:0:0:
192,224,51417,1,2,0:0:0:0:
192,224,51524,1,2,0:0:0:0:
192,224,51630,1,0,0:0:0:0:
192,224,51737,1,2,0:0:0:0:
192,224,51843,1,0,0:0:0:0:
192,224,51949,1,2,0:0:0:0:
192,224,52056,1,0,0:0:0:0:
192,224,52375,1,0,0:0:0:0:
192,224,52481,1,0,0:0:0:0:
192,224,52588,1,2,0:0:0:0:
192,224,52694,1,0,0:0:0:0:
192,224,52800,1,2,0:0:0:0:
192,224,52907,1,0,0:0:0:0:
224,256,53013,1,2,0:0:0:0:
224,256,53120,1,2,0:0:0:0:
224,256,53226,1,0,0:0:0:0:
224,256,53332,1,2,0:0:0:0:
160,192,53439,1,2,0:0:0:0:
224,256,53545,1,0,0:0:0:0:
224,256,53651,1,2,0:0:0:0:
224,256,53758,1,0,0:0:0:0:
224,256,53864,1,0,0:0:0:0:
224,256,53971,1,2,0:0:0:0:
224,256,54077,1,0,0:0:0:0:
224,256,54183,1,0,0:0:0:0:
224,256,54290,1,2,0:0:0:0:
224,256,54396,1,0,0:0:0:0:
224,256,54503,1,0,0:0:0:0:
192,224,54609,1,2,0:0:0:0:
192,224,54715,1,2,0:0:0:0:
192,224,54822,1,2,0:0:0:0:
192,224,54928,1,0,0:0:0:0:
288,192,55566,1,2,0:0:0:0:
288,192,55620,1,2,0:0:0:0:
384,224,55886,1,4,0:0:0:0:
224,256,56205,1,0,0:0:0:0:
224,256,56311,1,0,0:0:0:0:
224,256,56417,1,2,0:0:0:0:
224,256,56524,1,0,0:0:0:0:
224,256,56630,1,2,0:0:0:0:
224,256,56737,1,0,0:0:0:0:
224,256,56843,1,2,0:0:0:0:
224,256,56949,1,2,0:0:0:0:
224,192,57003,1,2,0:0:0:0:
224,256,57056,1,0,0:0:0:0:
224,256,57162,1,2,0:0:0:0:
224,256,57269,1,2,0:0:0:0:
224,256,57375,1,0,0:0:0:0:
224,256,57481,1,2,0:0:0:0:
224,256,57588,1,0,0:0:0:0:
224,256,57694,1,0,0:0:0:0:
224,256,57800,1,2,0:0:0:0:
224,224,57880,1,0,0:0:0:0:
224,224,57960,1,0,0:0:0:0:
224,224,58040,1,0,0:0:0:0:
224,256,58120,1,2,0:0:0:0:
256,256,58279,1,2,0:0:0:0:
192,224,58439,1,0,0:0:0:0:
192,224,58545,1,2,0:0:0:0:
192,224,58651,1,0,0:0:0:0:
192,224,58758,1,2,0:0:0:0:
192,224,58864,1,2,0:0:0:0:
224,192,58917,1,0,0:0:0:0:
192,224,58971,1,0,0:0:0:0:
192,224,59077,1,2,0:0:0:0:
192,224,59183,1,2,0:0:0:0:
192,224,59290,1,0,0:0:0:0:
192,224,59396,1,2,0:0:0:0:
192,224,59503,1,0,0:0:0:0:
192,224,59609,1,2,0:0:0:0:
192,224,59715,1,0,0:0:0:0:
160,256,59795,1,0,0:0:0:0:
160,256,59875,1,0,0:0:0:0:
160,256,59955,1,0,0:0:0:0:
160,256,60034,1,2,0:0:0:0:
160,256,60194,1,0,0:0:0:0:
160,256,60354,1,2,0:0:0:0:
160,256,60513,1,0,0:0:0:0:
160,256,60673,1,2,0:0:0:0:
160,256,60753,1,2,0:0:0:0:
160,256,60832,1,2,0:0:0:0:
160,256,60912,1,2,0:0:0:0:
160,256,60992,1,0,0:0:0:0:
160,256,61151,1,2,0:0:0:0:
160,256,61311,1,0,0:0:0:0:
160,256,61471,1,2,0:0:0:0:
256,224,61630,1,0,0:0:0:0:
256,224,61710,1,0,0:0:0:0:
256,224,61790,1,2,0:0:0:0:
256,224,61870,1,2,0:0:0:0:
256,224,61949,1,0,0:0:0:0:
256,224,62029,1,2,0:0:0:0:
256,224,62109,1,0,0:0:0:0:
256,224,62189,1,2,0:0:0:0:
128,224,62269,1,0,0:0:0:0:
128,224,62322,1,0,0:0:0:0:
128,224,62375,1,0,0:0:0:0:
128,224,62428,1,2,0:0:0:0:
224,192,62508,1,2,0:0:0:0:
352,160,62588,1,0,0:0:0:0:
352,160,62641,1,0,0:0:0:0:
352,160,62694,1,0,0:0:0:0:
352,160,62747,1,2,0:0:0:0:
224,192,62827,1,2,0:0:0:0:
320,224,62907,1,0,0:0:0:0:
320,224,62987,1,0,0:0:0:0:
320,224,63066,1,2,0:0:0:0:
320,224,63146,1,2,0:0:0:0:
256,160,63226,1,2,0:0:0:0:
256,160,63279,1,2,0:0:0:0:
256,160,63332,1,2,0:0:0:0:
256,160,63386,1,2,0:0:0:0:
256,160,63439,1,2,0:0:0:0:
256,160,63492,1,2,0:0:0:0:
256,160,63545,1,0,0:0:0:0:
256,160,63864,1,2,0:0:0:0:
352,192,64024,1,2,0:0:0:0:
256,160,64183,1,2,0:0:0:0:
352,192,64343,1,2,0:0:0:0:
352,256,64503,1,4,0:0:0:0:
352,192,64822,1,2,0:0:0:0:
384,160,64981,1,2,0:0:0:0:
352,128,65141,1,2,0:0:0:0:
352,192,65300,1,2,0:0:0:0:
352,256,65460,1,4,0:0:0:0:
256,224,65779,1,2,0:0:0:0:
352,256,65939,1,4,0:0:0:0:
320,128,66258,1,2,0:0:0:0:
320,128,66417,1,2,0:0:0:0:
320,128,66577,1,4,0:0:0:0:
288,160,66737,1,4,0:0:0:0:
320,128,67056,1,2,0:0:0:0:
320,128,67215,1,4,0:0:0:0:
288,160,67375,1,4,0:0:0:0:
256,224,67534,1,0,0:0:0:0:
128,128,67694,1,2,0:0:0:0:
128,128,67854,1,0,0:0:0:0:
128,128,68013,1,2,0:0:0:0:
128,128,68173,1,2,0:0:0:0:
224,224,68253,1,2,0:0:0:0:
128,128,68332,1,0,0:0:0:0:
128,128,68492,1,2,0:0:0:0:
128,128,68651,1,2,0:0:0:0:
128,128,68811,1,0,0:0:0:0:
128,128,68971,1,2,0:0:0:0:
128,128,69130,1,0,0:0:0:0:
160,192,69290,1,0,0:0:0:0:
160,192,69370,1,2,0:0:0:0:
160,192,69449,1,0,0:0:0:0:
160,192,69529,1,2,0:0:0:0:
160,192,69609,1,0,0:0:0:0:
160,192,69689,1,2,0:0:0:0:
288,256,69769,1,0,0:0:0:0:
288,256,69848,1,2,0:0:0:0:
288,256,69928,1,0,0:0:0:0:
192,224,70008,1,2,0:0:0:0:
288,192,70088,1,0,0:0:0:0:
288,256,70247,1,2,0:0:0:0:
288,256,70327,1,0,0:0:0:0:
128,160,70407,1,2,0:0:0:0:
288,256,70487,1,0,0:0:0:0:
288,256,70566,1,2,0:0:0:0:
288,256,70646,1,0,0:0:0:0:
128,160,70726,1,2,0:0:0:0:
288,256,70806,1,0,0:0:0:0:
288,256,70886,1,2,0:0:0:0:
288,256,70965,1,0,0:0:0:0:
128,160,71045,1,2,0:0:0:0:
288,256,71125,1,0,0:0:0:0:
384,224,71205,1,2,0:0:0:0:
128,128,71364,1,0,0:0:0:0:
128,128,71524,1,0,0:0:0:0:
128,128,71683,1,2,0:0:0:0:
192,160,71843,1,2,0:0:0:0:
288,192,71923,1,0,0:0:0:0:
192,160,72003,1,2,0:0:0:0:
224,192,72082,1,2,0:0:0:0:
192,160,72162,1,0,0:0:0:0:
192,160,72322,1,2,0:0:0:0:
192,160,72481,1,2,0:0:0:0:
192,160,72641,1,0,0:0:0:0:
192,160,72800,1,0,0:0:0:0:
192,160,72880,1,2,0:0:0:0:
192,160,72960,1,0,0:0:0:0:
224,192,73040,1,0,0:0:0:0:
192,160,73120,1,2,0:0:0:0:
192,160,73279,1,2,0:0:0:0:
224,160,73359,1,2,0:0:0:0:
224,160,73439,1,0,0:0:0:0:
224,160,73598,1,0,0:0:0:0:
192,160,73758,1,2,0:0:0:0:
192,160,73838,1,0,0:0:0:0:
192,160,73917,1,2,0:0:0:0:
192,160,74077,1,2,0:0:0:0:
192,224,74237,1,0,0:0:0:0:
224,160,74316,1,0,0:0:0:0:
192,224,74396,1,2,0:0:0:0:
192,224,74556,1,0,0:0:0:0:
224,160,74715,1,0,0:0:0:0:
224,160,74795,1,2,0:0:0:0:
224,160,74875,1,0,0:0:0:0:
192,224,75034,1,2,0:0:0:0:
256,256,75114,1,2,0:0:0:0:
224,192,75194,1,0,0:0:0:0:
256,256,75274,1,0,0:0:0:0:
192,192,75354,1,2,0:0:0:0:
192,192,75433,1,0,0:0:0:0:
224,192,75513,1,2,0:0:0:0:
224,192,75673,1,0,0:0:0:0:
224,192,75832,1,2,0:0:0:0:
224,192,75992,1,0,0:0:0:0:
128,160,76072,1,0,0:0:0:0:
224,192,76151,1,2,0:0:0:0:
128,160,76231,1,2,0:0:0:0:
224,192,76311,5,0,0:0:0:0:
128,160,76391,1,2,0:0:0:0:
128,160,76471,1,0,0:0:0:0:
224,192,76630,1,2,0:0:0:0:
224,192,76790,1,0,0:0:0:0:
224,192,76949,1,2,0:0:0:0:
192,192,77029,1,0,0:0:0:0:
192,192,77109,1,2,0:0:0:0:
192,192,77189,1,0,0:0:0:0:
192,192,77269,1,2,0:0:0:0:
192,192,77348,1,0,0:0:0:0:
192,192,77428,1,2,0:0:0:0:
192,192,77508,1,0,0:0:0:0:
192,192,77588,1,2,0:0:0:0:
288,224,77641,1,2,0:0:0:0:
288,224,77694,1,2,0:0:0:0:
192,192,77747,1,2,0:0:0:0:
288,224,77800,1,2,0:0:0:0:
288,224,77854,1,2,0:0:0:0:
192,192,77907,1,0,0:0:0:0:
192,192,77987,1,2,0:0:0:0:
192,192,78066,1,0,0:0:0:0:
192,192,78146,1,2,0:0:0:0:
192,192,78226,1,0,0:0:0:0:
192,192,78306,1,2,0:0:0:0:
192,192,78386,1,0,0:0:0:0:
192,192,78465,1,2,0:0:0:0:
192,192,78545,1,0,0:0:0:0:
224,192,78598,1,2,0:0:0:0:
320,224,78651,1,0,0:0:0:0:
224,192,78705,1,2,0:0:0:0:
224,192,78758,1,0,0:0:0:0:
224,192,78811,1,2,0:0:0:0:
256,192,78864,12,0,80460,0:0:0:0:
256,192,80779,12,0,82375,0:0:0:0:
128,224,82800,5,0,0:0:0:0:
192,224,83598,1,0,0:0:0:0:
64,192,84395,1,2,0:0:0:0:
288,192,85193,1,2,0:0:0:0:
256,192,86841,12,0,87798,0:0:0:0:
160,224,88117,5,6,0:0:0:0:
224,256,88436,1,2,0:0:0:0:
192,224,88595,1,0,0:0:0:0:
352,224,88675,1,0,0:0:0:0:
192,224,88755,1,2,0:0:0:0:
192,224,88914,1,2,0:0:0:0:
192,224,89074,1,0,0:0:0:0:
160,192,89154,1,0,0:0:0:0:
160,192,89233,1,2,0:0:0:0:
160,192,89313,1,2,0:0:0:0:
160,192,89393,1,0,0:0:0:0:
160,192,89553,1,2,0:0:0:0:
320,192,89872,1,2,0:0:0:0:
320,192,89951,1,0,0:0:0:0:
320,192,90031,1,2,0:0:0:0:
320,192,90191,1,0,0:0:0:0:
320,192,90350,1,2,0:0:0:0:
320,192,90510,1,2,0:0:0:0:
320,192,90590,1,2,0:0:0:0:
320,192,90670,1,0,0:0:0:0:
320,192,90749,1,2,0:0:0:0:
320,192,90829,1,0,0:0:0:0:
224,256,90989,1,2,0:0:0:0:
256,192,91148,1,0,0:0:0:0:
256,192,91228,1,2,0:0:0:0:
256,192,91308,1,2,0:0:0:0:
256,192,91467,1,0,0:0:0:0:
256,192,91627,1,2,0:0:0:0:
256,192,91707,1,2,0:0:0:0:
256,192,91787,1,0,0:0:0:0:
256,192,91866,1,0,0:0:0:0:
256,192,91946,1,2,0:0:0:0:
256,192,92106,1,0,0:0:0:0:
256,192,92425,1,0,0:0:0:0:
256,192,92505,1,2,0:0:0:0:
256,192,92584,1,0,0:0:0:0:
256,192,92744,1,2,0:0:0:0:
256,192,92904,1,0,0:0:0:0:
256,192,92983,1,0,0:0:0:0:
256,192,93063,1,2,0:0:0:0:
256,192,93223,1,2,0:0:0:0:
256,192,93303,1,0,0:0:0:0:
256,192,93382,1,2,0:0:0:0:
256,192,93462,1,2,0:0:0:0:
160,192,93542,1,0,0:0:0:0:
160,192,93701,1,2,0:0:0:0:
160,192,93781,1,2,0:0:0:0:
288,224,93861,1,0,0:0:0:0:
288,224,94021,1,2,0:0:0:0:
288,224,94180,1,0,0:0:0:0:
288,224,94260,1,0,0:0:0:0:
128,192,94340,1,2,0:0:0:0:
96,160,94420,1,2,0:0:0:0:
128,192,94499,1,0,0:0:0:0:
224,224,94579,1,2,0:0:0:0:
96,160,94659,1,0,0:0:0:0:
288,224,94818,1,2,0:0:0:0:
288,224,94978,1,0,0:0:0:0:
288,224,95058,1,0,0:0:0:0:
288,224,95138,1,2,0:0:0:0:
288,224,95297,1,0,0:0:0:0:
288,224,95457,1,2,0:0:0:0:
288,192,95537,1,2,0:0:0:0:
352,256,95616,1,0,0:0:0:0:
96,160,95696,1,0,0:0:0:0:
352,256,95776,1,2,0:0:0:0:
224,224,95856,1,0,0:0:0:0:
224,224,95936,1,2,0:0:0:0:
320,224,96095,1,0,0:0:0:0:
320,224,96175,1,2,0:0:0:0:
320,224,96255,1,0,0:0:0:0:
320,224,96334,1,2,0:0:0:0:
320,224,96414,1,0,0:0:0:0:
320,224,96494,1,2,0:0:0:0:
320,224,96574,1,0,0:0:0:0:
320,224,96654,1,2,0:0:0:0:
320,224,96733,1,0,0:0:0:0:
320,224,96813,1,2,0:0:0:0:
320,224,96893,1,0,0:0:0:0:
320,224,96973,1,2,0:0:0:0:
320,224,97053,1,0,0:0:0:0:
320,224,97132,1,2,0:0:0:0:
320,224,97212,1,0,0:0:0:0:
256,192,97372,1,2,0:0:0:0:
256,192,97451,1,0,0:0:0:0:
256,192,97531,1,2,0:0:0:0:
256,192,97611,1,0,0:0:0:0:
256,192,97691,1,2,0:0:0:0:
256,192,97771,1,0,0:0:0:0:
256,192,97850,1,2,0:0:0:0:
256,192,97930,1,0,0:0:0:0:
256,192,98010,1,2,0:0:0:0:
256,192,98090,1,0,0:0:0:0:
256,192,98170,1,2,0:0:0:0:
256,192,98249,1,0,0:0:0:0:
320,224,98329,1,2,0:0:0:0:
320,224,98409,1,0,0:0:0:0:
320,224,98489,1,0,0:0:0:0:
320,224,98568,1,0,0:0:0:0:
320,224,98648,1,2,0:0:0:0:
256,224,98808,1,2,0:0:0:0:
256,224,98888,1,2,0:0:0:0:
256,224,98967,1,0,0:0:0:0:
256,224,99127,1,2,0:0:0:0:
256,224,99207,1,0,0:0:0:0:
256,224,99287,1,0,0:0:0:0:
256,224,99446,1,2,0:0:0:0:
256,224,99526,1,2,0:0:0:0:
256,224,99606,1,0,0:0:0:0:
256,224,99765,1,2,0:0:0:0:
256,224,99845,1,0,0:0:0:0:
256,224,99925,1,0,0:0:0:0:
96,224,100084,1,0,0:0:0:0:
96,224,100164,1,2,0:0:0:0:
96,224,100244,1,2,0:0:0:0:
96,224,100404,1,0,0:0:0:0:
96,224,100483,1,0,0:0:0:0:
96,224,100563,1,2,0:0:0:0:
96,224,100723,1,0,0:0:0:0:
96,224,100803,1,2,0:0:0:0:
96,224,100882,1,2,0:0:0:0:
96,224,101042,1,0,0:0:0:0:
96,224,101122,1,0,0:0:0:0:
96,224,101201,1,2,0:0:0:0:
352,256,101521,1,0,0:0:0:0:
288,256,101680,1,2,0:0:0:0:
288,192,101840,1,0,0:0:0:0:
288,192,101999,1,2,0:0:0:0:
288,192,102079,1,2,0:0:0:0:
288,192,102159,1,0,0:0:0:0:
288,192,102239,1,0,0:0:0:0:
288,192,102318,1,2,0:0:0:0:
288,192,102398,1,2,0:0:0:0:
288,224,102478,1,0,0:0:0:0:
288,256,102638,1,2,0:0:0:0:
288,256,102717,1,0,0:0:0:0:
288,256,102797,1,0,0:0:0:0:
288,256,102957,1,2,0:0:0:0:
288,256,103116,1,0,0:0:0:0:
288,256,103196,1,2,0:0:0:0:
288,256,103276,1,0,0:0:0:0:
288,256,103356,1,2,0:0:0:0:
288,256,103436,1,0,0:0:0:0:
32,224,103755,1,2,0:0:0:0:
256,256,103834,1,2,0:0:0:0:
256,256,103914,1,0,0:0:0:0:
256,256,103994,1,0,0:0:0:0:
256,256,104074,1,2,0:0:0:0:
256,256,104154,1,0,0:0:0:0:
256,256,104233,1,0,0:0:0:0:
256,256,104313,1,2,0:0:0:0:
256,256,104393,1,0,0:0:0:0:
256,256,104473,1,0,0:0:0:0:
256,256,104553,1,2,0:0:0:0:
256,256,104632,1,2,0:0:0:0:
256,256,104712,1,0,0:0:0:0:
256,256,104792,1,2,0:0:0:0:
256,256,104872,1,2,0:0:0:0:
256,256,104951,1,2,0:0:0:0:
256,256,105031,1,0,0:0:0:0:
320,288,105191,1,2,0:0:0:0:
320,288,105271,1,0,0:0:0:0:
320,288,105430,1,2,0:0:0:0:
320,288,105510,1,0,0:0:0:0:
224,192,105670,1,2,0:0:0:0:
224,192,105749,1,0,0:0:0:0:
224,192,105829,1,2,0:0:0:0:
224,192,105909,1,0,0:0:0:0:
224,192,105989,1,2,0:0:0:0:
224,224,106068,1,2,0:0:0:0:
224,224,106148,1,2,0:0:0:0:
224,224,106228,1,2,0:0:0:0:
32,224,106308,1,0,0:0:0:0:
256,256,106388,1,0,0:0:0:0:
256,256,106467,1,2,0:0:0:0:
256,256,106547,1,2,0:0:0:0:
256,256,106627,1,0,0:0:0:0:
256,256,106707,1,2,0:0:0:0:
256,256,106787,1,2,0:0:0:0:
256,256,106866,1,0,0:0:0:0:
256,256,106946,1,2,0:0:0:0:
256,256,107026,1,2,0:0:0:0:
256,256,107106,1,0,0:0:0:0:
256,256,107186,1,0,0:0:0:0:
256,256,107265,1,2,0:0:0:0:
256,256,107345,1,0,0:0:0:0:
256,256,107425,1,0,0:0:0:0:
256,256,107505,1,0,0:0:0:0:
256,256,107584,1,2,0:0:0:0:
224,192,107744,1,0,0:0:0:0:
224,192,107824,1,2,0:0:0:0:
224,192,107983,1,0,0:0:0:0:
224,192,108063,1,2,0:0:0:0:
224,192,108223,1,0,0:0:0:0:
224,192,108303,1,0,0:0:0:0:
224,192,108382,1,2,0:0:0:0:
224,192,108462,1,2,0:0:0:0:
224,192,108542,1,0,0:0:0:0:
192,256,108861,1,2,0:0:0:0:
224,224,109021,1,0,0:0:0:0:
224,224,109100,1,0,0:0:0:0:
224,224,109180,1,2,0:0:0:0:
224,224,109340,1,0,0:0:0:0:
224,224,109420,1,2,0:0:0:0:
224,224,109499,1,2,0:0:0:0:
224,224,109659,1,2,0:0:0:0:
224,224,109818,1,0,0:0:0:0:
224,224,109898,1,0,0:0:0:0:
224,224,109978,1,2,0:0:0:0:
288,288,110138,1,0,0:0:0:0:
256,224,110297,1,0,0:0:0:0:
256,224,110377,1,0,0:0:0:0:
256,224,110457,1,2,0:0:0:0:
256,224,110537,1,2,0:0:0:0:
256,224,110616,1,0,0:0:0:0:
256,224,110696,1,2,0:0:0:0:
256,224,110776,1,0,0:0:0:0:
256,224,110936,1,2,0:0:0:0:
256,224,111095,1,0,0:0:0:0:
256,224,111175,1,2,0:0:0:0:
256,224,111255,1,2,0:0:0:0:
288,288,111414,1,0,0:0:0:0:
192,192,111574,1,2,0:0:0:0:
192,192,111654,1,0,0:0:0:0:
192,192,111733,1,2,0:0:0:0:
192,192,111893,1,2,0:0:0:0:
192,192,111973,1,2,0:0:0:0:
192,192,112053,1,0,0:0:0:0:
192,192,112212,1,2,0:0:0:0:
192,192,112292,1,0,0:0:0:0:
192,192,112372,1,0,0:0:0:0:
192,192,112531,1,2,0:0:0:0:
192,192,112691,1,0,0:0:0:0:
192,192,112771,1,0,0:0:0:0:
192,192,112850,1,2,0:0:0:0:
192,192,112930,1,2,0:0:0:0:
192,192,113010,1,0,0:0:0:0:
192,192,113170,1,2,0:0:0:0:
192,192,113329,1,0,0:0:0:0:
192,192,113409,1,0,0:0:0:0:
192,192,113489,1,2,0:0:0:0:
192,192,113648,1,0,0:0:0:0:
192,192,113728,1,2,0:0:0:0:
192,192,113808,1,2,0:0:0:0:
192,192,113888,1,2,0:0:0:0:
192,256,113967,1,0,0:0:0:0:
224,224,114127,1,2,0:0:0:0:
224,224,114207,1,2,0:0:0:0:
224,224,114287,1,0,0:0:0:0:
224,224,114446,1,2,0:0:0:0:
224,224,114526,1,0,0:0:0:0:
224,224,114606,1,0,0:0:0:0:
416,256,114686,1,2,0:0:0:0:
416,256,114765,1,2,0:0:0:0:
224,224,114925,1,0,0:0:0:0:
224,224,115005,1,2,0:0:0:0:
224,224,115084,1,0,0:0:0:0:
352,256,115244,1,2,0:0:0:0:
256,224,115404,1,0,0:0:0:0:
256,224,115483,1,0,0:0:0:0:
256,224,115563,1,2,0:0:0:0:
256,224,115643,1,2,0:0:0:0:
256,224,115723,1,0,0:0:0:0:
256,224,115803,1,2,0:0:0:0:
256,224,115882,1,0,0:0:0:0:
256,192,115962,1,0,0:0:0:0:
256,224,116042,1,2,0:0:0:0:
256,192,116122,1,2,0:0:0:0:
256,224,116201,1,0,0:0:0:0:
256,224,116281,1,2,0:0:0:0:
384,224,116361,1,0,0:0:0:0:
192,224,116521,1,2,0:0:0:0:
192,224,116680,1,0,0:0:0:0:
192,224,116760,1,2,0:0:0:0:
192,224,116840,1,0,0:0:0:0:
192,224,116999,1,2,0:0:0:0:
192,224,117079,1,0,0:0:0:0:
192,224,117159,1,2,0:0:0:0:
192,224,117318,1,0,0:0:0:0:
192,224,117398,1,0,0:0:0:0:
192,224,117478,1,2,0:0:0:0:
192,224,117558,1,2,0:0:0:0:
192,224,117638,1,0,0:0:0:0:
224,192,117797,1,0,0:0:0:0:
224,192,117877,1,0,0:0:0:0:
224,192,117957,1,2,0:0:0:0:
224,192,118037,1,0,0:0:0:0:
224,192,118116,1,2,0:0:0:0:
224,192,118196,1,2,0:0:0:0:
224,192,118276,1,0,0:0:0:0:
224,192,118356,1,2,0:0:0:0:
224,192,118436,1,0,0:0:0:0:
224,192,118489,1,0,0:0:0:0:
224,192,118542,1,0,0:0:0:0:
224,192,118595,1,2,0:0:0:0:
192,224,118675,1,0,0:0:0:0:
224,192,118755,1,2,0:0:0:0:
224,192,118808,1,2,0:0:0:0:
224,192,118861,1,2,0:0:0:0:
224,192,118914,1,0,0:0:0:0:
160,192,118994,1,2,0:0:0:0:
256,96,119074,1,0,0:0:0:0:
192,128,120350,1,2,0:0:0:0:
192,128,121627,1,0,0:0:0:0:
224,224,124180,1,0,0:0:0:0:
192,224,126733,1,2,0:0:0:0:
192,224,129287,1,0,0:0:0:0:
256,192,132478,12,0,134393,0:0:0:0:
256,192,134872,5,2,0:0:0:0:
256,192,134925,1,2,0:0:0:0:
256,192,134978,1,2,0:0:0:0:
256,192,135031,1,0,0:0:0:0:
