osu file format v14

[General]
AudioFilename: 08 Monopole (Long Ver).mp3
AudioLeadIn: 0
PreviewTime: 157956
Countdown: 0
SampleSet: Soft
StackLeniency: 0.7
Mode: 3
LetterboxInBreaks: 0
SpecialStyle: 0
WidescreenStoryboard: 1

[Editor]
Bookmarks: 149,57434,81315,109971,148180,180419,199523,218628,249971,272359
DistanceSpacing: 1
BeatDivisor: 8
GridSize: 8
TimelineZoom: 3.599997

[Metadata]
Title:Monopole. (Long Ver.)
TitleUnicode:Monopole. (Long Ver.)
Artist:cosMo@BousouP
ArtistUnicode:cosMo@暴走P
Creator:MEGAtive
Version:MONO-pole // Insane
Source:beatmania IIDX 22 PENDUAL
Tags:For UltraPlayers Aste- Shinzo- ARTCORE ROCK EXIT TUNES instrumental konami bemani INFINITAS 楽曲パック vol.9 video game
BeatmapID:1861582
BeatmapSetID:361982

[Difficulty]
HPDrainRate:8.5
CircleSize:6
OverallDifficulty:8
ApproachRate:5
SliderMultiplier:1.4
SliderTickRate:1

[Events]
//Background and Video events
0,0,"monopole.jpg",0,0
//Break Periods
//Storyboard Layer 0 (Background)
//Storyboard Layer 1 (Fail)
//Storyboard Layer 2 (Pass)
//Storyboard Layer 3 (Foreground)
//Storyboard Layer 4 (Overlay)
//Storyboard Sound Samples

[TimingPoints]
136,298.507462686567,4,2,1,50,1,0
158941,-100,4,2,1,50,0,1
178046,-100,4,2,1,50,0,0
250882,-100,4,2,1,50,0,1
269986,-100,4,2,1,50,0,0

[HitObjects]
298,192,136,5,0,0:0:0:0:
42,192,434,1,0,0:0:0:0:
213,192,733,1,0,0:0:0:0:
384,192,1031,1,0,0:0:0:0:
469,192,1330,1,0,0:0:0:0:
128,192,1628,1,0,0:0:0:0:
384,192,1927,1,0,0:0:0:0:
42,192,2225,1,0,0:0:0:0:
298,192,2524,1,0,0:0:0:0:
42,192,2822,1,0,0:0:0:0:
213,192,3121,1,0,0:0:0:0:
384,192,3419,1,0,0:0:0:0:
469,192,3718,1,0,0:0:0:0:
128,192,4016,1,0,0:0:0:0:
384,192,4315,1,0,0:0:0:0:
42,192,4613,1,0,0:0:0:0:
298,192,4912,1,0,0:0:0:0:
42,192,5210,1,0,0:0:0:0:
213,192,5509,1,0,0:0:0:0:
384,192,5807,1,0,0:0:0:0:
469,192,6106,1,0,0:0:0:0:
128,192,6404,1,0,0:0:0:0:
384,192,6703,1,0,0:0:0:0:
42,192,7001,1,0,0:0:0:0:
298,192,7300,1,0,0:0:0:0:
42,192,7598,1,0,0:0:0:0:
213,192,7897,1,0,0:0:0:0:
384,192,8195,1,0,0:0:0:0:
469,192,8494,1,0,0:0:0:0:
128,192,8792,1,0,0:0:0:0:
384,192,9091,1,0,0:0:0:0:
42,192,9389,1,0,0:0:0:0:
298,192,9688,1,0,0:0:0:30:Bell.wav
469,192,9688,1,0,0:0:0:0:
128,192,9837,1,0,0:0:0:0:
298,192,9986,1,0,0:0:0:0:
42,192,10135,1,0,0:0:0:0:
384,192,10285,1,0,0:0:0:0:
128,192,10434,1,0,0:0:0:0:
469,192,10583,1,0,0:0:0:0:
213,192,10733,1,0,0:0:0:0:
298,192,10882,1,0,0:0:0:0:
469,192,11031,1,0,0:0:0:0:
213,192,11180,1,0,0:0:0:0:
384,192,11330,1,0,0:0:0:0:
128,192,11479,1,0,0:0:0:0:
298,192,11628,1,0,0:0:0:0:
42,192,11777,1,0,0:0:0:0:
213,192,11927,1,0,0:0:0:0:
298,192,12076,1,0,0:0:0:0:
469,192,12076,1,0,0:0:0:0:
128,192,12225,1,0,0:0:0:0:
298,192,12374,1,0,0:0:0:0:
42,192,12524,1,0,0:0:0:0:
384,192,12673,1,0,0:0:0:0:
128,192,12822,1,0,0:0:0:0:
469,192,12971,1,0,0:0:0:0:
213,192,13121,1,0,0:0:0:0:
298,192,13270,1,0,0:0:0:0:
469,192,13419,1,0,0:0:0:0:
213,192,13568,1,0,0:0:0:0:
384,192,13718,1,0,0:0:0:0:
128,192,13867,1,0,0:0:0:0:
298,192,14016,1,0,0:0:0:0:
42,192,14165,1,0,0:0:0:0:
213,192,14315,1,0,0:0:0:0:
298,192,14464,1,0,0:0:0:0:
469,192,14464,1,0,0:0:0:0:
128,192,14613,1,0,0:0:0:0:
298,192,14762,1,0,0:0:0:0:
42,192,14912,1,0,0:0:0:0:
384,192,15061,1,0,0:0:0:0:
128,192,15210,1,0,0:0:0:0:
469,192,15359,1,0,0:0:0:0:
213,192,15509,1,0,0:0:0:0:
384,192,15658,1,0,0:0:0:0:
128,192,15807,1,0,0:0:0:0:
469,192,15956,1,0,0:0:0:0:
213,192,16106,1,0,0:0:0:0:
384,192,16255,1,0,0:0:0:0:
128,192,16404,1,0,0:0:0:0:
298,192,16553,1,0,0:0:0:0:
42,192,16703,1,0,0:0:0:0:
298,192,16852,1,0,0:0:0:0:
469,192,16852,1,0,0:0:0:0:
128,192,17001,1,0,0:0:0:0:
298,192,17150,1,0,0:0:0:0:
42,192,17300,1,0,0:0:0:0:
384,192,17449,1,0,0:0:0:0:
128,192,17598,1,0,0:0:0:0:
469,192,17747,1,0,0:0:0:0:
213,192,17897,1,0,0:0:0:0:
298,192,18046,1,0,0:0:0:0:
469,192,18195,1,0,0:0:0:0:
213,192,18344,1,0,0:0:0:0:
384,192,18494,1,0,0:0:0:0:
128,192,18643,1,0,0:0:0:0:
298,192,18792,1,0,0:0:0:0:
42,192,18941,1,0,0:0:0:0:
213,192,19091,1,0,0:0:0:0:
42,192,19240,1,0,0:0:0:30:Bell.wav
384,192,19240,1,0,0:0:0:0:
469,192,19240,1,0,0:0:0:0:
213,192,19389,1,0,0:0:0:0:
298,192,19464,1,0,0:0:0:0:
213,192,19538,1,0,0:0:0:0:
42,192,19688,1,0,0:0:0:0:
469,192,19688,1,0,0:0:0:0:
298,192,19837,1,0,0:0:0:0:
128,192,19986,1,0,0:0:0:0:
213,192,20135,1,0,0:0:0:0:
469,192,20135,1,0,0:0:0:0:
42,192,20285,1,0,0:0:0:0:
298,192,20285,1,0,0:0:0:0:
384,192,20434,1,0,0:0:0:0:
42,192,20583,1,0,0:0:0:0:
298,192,20658,1,0,0:0:0:0:
42,192,20733,1,0,0:0:0:0:
469,192,20733,1,0,0:0:0:0:
384,192,20882,1,0,0:0:0:0:
42,192,21031,1,0,0:0:0:0:
213,192,21031,1,0,0:0:0:0:
213,192,21180,1,0,0:0:0:0:
298,192,21330,1,0,0:0:0:0:
469,192,21330,1,0,0:0:0:0:
298,192,21479,1,0,0:0:0:0:
128,192,21628,1,0,0:0:0:0:
384,192,21628,1,0,0:0:0:0:
213,192,21777,1,0,0:0:0:0:
469,192,21852,1,0,0:0:0:0:
213,192,21927,1,0,0:0:0:0:
42,192,22076,1,0,0:0:0:0:
298,192,22076,1,0,0:0:0:0:
384,192,22225,1,0,0:0:0:0:
128,192,22374,1,0,0:0:0:0:
298,192,22524,1,0,0:0:0:0:
469,192,22524,1,0,0:0:0:0:
42,192,22673,1,0,0:0:0:0:
213,192,22673,1,0,0:0:0:0:
384,192,22822,1,0,0:0:0:0:
298,192,22971,1,0,0:0:0:0:
128,192,23046,1,0,0:0:0:0:
42,192,23121,1,0,0:0:0:0:
469,192,23121,1,0,0:0:0:0:
213,192,23270,1,0,0:0:0:0:
298,192,23419,1,0,0:0:0:0:
469,192,23419,1,0,0:0:0:0:
298,192,23568,1,0,0:0:0:0:
469,192,23568,1,0,0:0:0:0:
42,192,23718,1,0,0:0:0:0:
128,192,23718,1,0,0:0:0:0:
384,192,23718,1,0,0:0:0:0:
42,192,23867,1,0,0:0:0:0:
128,192,23867,1,0,0:0:0:0:
384,192,23867,1,0,0:0:0:0:
213,192,24016,1,0,0:0:0:0:
469,192,24016,1,0,0:0:0:0:
298,192,24165,1,0,0:0:0:0:
128,192,24240,1,0,0:0:0:0:
298,192,24315,1,0,0:0:0:0:
42,192,24464,1,0,0:0:0:0:
384,192,24464,1,0,0:0:0:0:
213,192,24613,1,0,0:0:0:0:
298,192,24762,1,0,0:0:0:0:
128,192,24912,1,0,0:0:0:0:
469,192,24912,1,0,0:0:0:0:
42,192,25061,1,0,0:0:0:0:
384,192,25061,1,0,0:0:0:0:
213,192,25210,1,0,0:0:0:0:
298,192,25359,1,0,0:0:0:0:
128,192,25434,1,0,0:0:0:0:
298,192,25509,1,0,0:0:0:0:
213,192,25658,1,0,0:0:0:0:
469,192,25658,1,0,0:0:0:0:
42,192,25807,1,0,0:0:0:0:
128,192,25807,1,0,0:0:0:0:
42,192,25956,1,0,0:0:0:0:
298,192,26106,1,0,0:0:0:0:
469,192,26106,1,0,0:0:0:0:
469,192,26255,1,0,0:0:0:0:
213,192,26404,1,0,0:0:0:0:
384,192,26404,1,0,0:0:0:0:
128,192,26553,1,0,0:0:0:0:
469,192,26628,1,0,0:0:0:0:
128,192,26703,1,0,0:0:0:0:
42,192,26852,1,0,0:0:0:0:
298,192,26852,1,0,0:0:0:0:
213,192,27001,1,0,0:0:0:0:
384,192,27150,1,0,0:0:0:0:
128,192,27300,1,0,0:0:0:0:
298,192,27300,1,0,0:0:0:0:
42,192,27449,1,0,0:0:0:0:
469,192,27449,1,0,0:0:0:0:
213,192,27598,1,0,0:0:0:0:
384,192,27747,1,0,0:0:0:0:
42,192,27822,1,0,0:0:0:0:
298,192,27897,1,0,0:0:0:0:
469,192,27897,1,0,0:0:0:0:
128,192,28046,1,0,0:0:0:0:
213,192,28195,1,0,0:0:0:0:
384,192,28195,1,0,0:0:0:0:
469,192,28295,1,0,0:0:0:0:
42,192,28394,1,0,0:0:0:0:
213,192,28394,1,0,0:0:0:0:
298,192,28494,1,0,0:0:0:0:
384,192,28494,1,0,0:0:0:0:
128,192,28593,1,0,0:0:0:0:
213,192,28593,1,0,0:0:0:0:
298,192,28693,1,0,0:0:0:0:
469,192,28693,1,0,0:0:0:0:
42,192,28792,1,0,0:0:0:0:
128,192,28792,1,0,0:0:0:0:
298,192,28941,1,0,0:0:0:0:
213,192,29016,1,0,0:0:0:0:
298,192,29091,1,0,0:0:0:0:
42,192,29240,1,0,0:0:0:0:
469,192,29240,1,0,0:0:0:0:
213,192,29389,1,0,0:0:0:0:
384,192,29538,1,0,0:0:0:0:
42,192,29688,1,0,0:0:0:0:
298,192,29688,1,0,0:0:0:0:
213,192,29837,1,0,0:0:0:0:
469,192,29837,1,0,0:0:0:0:
128,192,29986,1,0,0:0:0:0:
469,192,30135,1,0,0:0:0:0:
213,192,30210,1,0,0:0:0:0:
42,192,30285,1,0,0:0:0:0:
469,192,30285,1,0,0:0:0:0:
128,192,30434,1,0,0:0:0:0:
298,192,30583,1,0,0:0:0:0:
469,192,30583,1,0,0:0:0:0:
298,192,30733,1,0,0:0:0:0:
42,192,30882,1,0,0:0:0:0:
213,192,30882,1,0,0:0:0:0:
213,192,31031,1,0,0:0:0:0:
128,192,31180,1,0,0:0:0:0:
384,192,31180,1,0,0:0:0:0:
298,192,31330,1,0,0:0:0:0:
42,192,31404,1,0,0:0:0:0:
298,192,31479,1,0,0:0:0:0:
213,192,31628,1,0,0:0:0:0:
469,192,31628,1,0,0:0:0:0:
128,192,31777,1,0,0:0:0:0:
384,192,31927,1,0,0:0:0:0:
42,192,32076,1,0,0:0:0:0:
213,192,32076,1,0,0:0:0:0:
298,192,32225,1,0,0:0:0:0:
469,192,32225,1,0,0:0:0:0:
128,192,32374,1,0,0:0:0:0:
213,192,32524,1,0,0:0:0:0:
384,192,32598,1,0,0:0:0:0:
42,192,32673,1,0,0:0:0:0:
469,192,32673,1,0,0:0:0:0:
298,192,32822,1,0,0:0:0:0:
384,192,32822,1,0,0:0:0:0:
42,192,32971,1,0,0:0:0:0:
213,192,32971,1,0,0:0:0:0:
42,192,33121,1,0,0:0:0:0:
213,192,33121,1,0,0:0:0:0:
128,192,33270,1,0,0:0:0:0:
384,192,33270,1,0,0:0:0:0:
469,192,33270,1,0,0:0:0:0:
128,192,33419,1,0,0:0:0:0:
384,192,33419,1,0,0:0:0:0:
469,192,33419,1,0,0:0:0:0:
42,192,33568,1,0,0:0:0:0:
298,192,33568,1,0,0:0:0:0:
213,192,33718,1,0,0:0:0:0:
384,192,33792,1,0,0:0:0:0:
213,192,33867,1,0,0:0:0:0:
128,192,34016,1,0,0:0:0:0:
469,192,34016,1,0,0:0:0:0:
298,192,34165,1,0,0:0:0:0:
213,192,34315,1,0,0:0:0:0:
42,192,34464,1,0,0:0:0:0:
384,192,34464,1,0,0:0:0:0:
128,192,34613,1,0,0:0:0:0:
469,192,34613,1,0,0:0:0:0:
298,192,34762,1,0,0:0:0:0:
213,192,34912,1,0,0:0:0:0:
384,192,34986,1,0,0:0:0:0:
213,192,35061,1,0,0:0:0:0:
42,192,35210,1,0,0:0:0:0:
298,192,35210,1,0,0:0:0:0:
384,192,35359,1,0,0:0:0:0:
469,192,35359,1,0,0:0:0:0:
469,192,35509,1,0,0:0:0:0:
42,192,35658,1,0,0:0:0:0:
213,192,35658,1,0,0:0:0:0:
42,192,35807,1,0,0:0:0:0:
128,192,35956,1,0,0:0:0:0:
298,192,35956,1,0,0:0:0:0:
384,192,36106,1,0,0:0:0:0:
42,192,36180,1,0,0:0:0:0:
384,192,36255,1,0,0:0:0:0:
213,192,36404,1,0,0:0:0:0:
469,192,36404,1,0,0:0:0:0:
298,192,36553,1,0,0:0:0:0:
128,192,36703,1,0,0:0:0:0:
213,192,36852,1,0,0:0:0:0:
384,192,36852,1,0,0:0:0:0:
42,192,37001,1,0,0:0:0:0:
469,192,37001,1,0,0:0:0:0:
128,192,37150,128,0,38344:0:0:0:0:
384,192,37150,128,0,38344:0:0:0:0:
213,192,37300,1,0,0:0:0:0:
298,192,37374,1,0,0:0:0:0:
213,192,37449,1,0,0:0:0:0:
298,192,37598,1,0,0:0:0:0:
213,192,37747,1,8,0:0:0:0:
298,192,37847,1,8,0:0:0:0:
213,192,37946,1,8,0:0:0:0:
298,192,38046,1,8,0:0:0:0:
213,192,38145,1,8,0:0:0:0:
298,192,38245,1,8,0:0:0:0:
42,192,38344,1,8,0:0:0:30:Bell.wav
469,192,38344,1,0,0:0:0:0:
213,192,38494,1,0,0:0:0:0:
298,192,38643,1,0,0:0:0:0:
469,192,38792,1,0,0:0:0:0:
42,192,38941,1,8,0:0:0:0:
213,192,38941,1,0,0:0:0:0:
384,192,38941,1,0,0:0:0:0:
128,192,39091,1,0,0:0:0:0:
298,192,39240,1,0,0:0:0:0:
469,192,39389,1,0,0:0:0:0:
42,192,39538,1,8,0:0:0:0:
128,192,39538,1,0,0:0:0:0:
384,192,39538,1,0,0:0:0:0:
298,192,39688,1,0,0:0:0:0:
42,192,39837,1,0,0:0:0:0:
298,192,39837,1,0,0:0:0:0:
469,192,39837,1,0,0:0:0:0:
213,192,39986,1,0,0:0:0:0:
128,192,40135,1,8,0:0:0:0:
384,192,40135,1,0,0:0:0:0:
469,192,40135,1,0,0:0:0:0:
298,192,40285,1,0,0:0:0:0:
42,192,40434,1,0,0:0:0:0:
384,192,40583,1,0,0:0:0:0:
42,192,40733,1,8,0:0:0:0:
213,192,40733,1,0,0:0:0:0:
469,192,40733,1,0,0:0:0:0:
298,192,40882,1,0,0:0:0:0:
128,192,41031,1,0,0:0:0:0:
384,192,41180,1,0,0:0:0:0:
42,192,41330,1,8,0:0:0:0:
213,192,41330,1,0,0:0:0:0:
469,192,41330,1,0,0:0:0:0:
298,192,41479,1,0,0:0:0:0:
128,192,41628,1,0,0:0:0:0:
384,192,41777,1,0,0:0:0:0:
42,192,41927,1,8,0:0:0:0:
298,192,41927,1,0,0:0:0:0:
469,192,41927,1,0,0:0:0:0:
213,192,42076,1,0,0:0:0:0:
128,192,42225,1,0,0:0:0:0:
384,192,42225,1,0,0:0:0:0:
469,192,42374,1,0,0:0:0:0:
42,192,42524,1,8,0:0:0:0:
128,192,42524,1,0,0:0:0:0:
298,192,42524,1,0,0:0:0:0:
213,192,42673,1,0,0:0:0:0:
298,192,42822,1,0,0:0:0:0:
469,192,42822,1,0,0:0:0:0:
298,192,42971,1,0,0:0:0:0:
469,192,42971,1,0,0:0:0:0:
42,192,43121,1,8,0:0:0:0:
213,192,43121,1,8,0:0:0:30:Bell.wav
384,192,43121,1,0,0:0:0:0:
213,192,43270,1,0,0:0:0:0:
128,192,43419,1,0,0:0:0:0:
469,192,43419,1,0,0:0:0:0:
298,192,43568,1,0,0:0:0:0:
42,192,43718,1,8,0:0:0:0:
298,192,43718,1,0,0:0:0:0:
469,192,43718,1,0,0:0:0:0:
42,192,43867,1,0,0:0:0:0:
213,192,44016,1,0,0:0:0:0:
384,192,44016,1,0,0:0:0:0:
469,192,44165,1,0,0:0:0:0:
42,192,44315,1,8,0:0:0:0:
128,192,44315,1,0,0:0:0:0:
469,192,44315,1,0,0:0:0:0:
128,192,44464,1,0,0:0:0:0:
213,192,44613,1,0,0:0:0:0:
384,192,44613,1,0,0:0:0:0:
298,192,44762,1,0,0:0:0:0:
42,192,44912,1,8,0:0:0:0:
298,192,44912,1,0,0:0:0:0:
469,192,44912,1,0,0:0:0:0:
42,192,45061,1,0,0:0:0:0:
128,192,45210,1,0,0:0:0:0:
469,192,45210,1,0,0:0:0:0:
213,192,45359,1,0,0:0:0:0:
213,192,45509,1,8,0:0:0:0:
298,192,45509,1,8,0:0:0:30:Bell.wav
384,192,45509,1,0,0:0:0:0:
384,192,45658,1,0,0:0:0:0:
42,192,45807,1,0,0:0:0:0:
469,192,45807,1,0,0:0:0:0:
128,192,45956,1,0,0:0:0:0:
128,192,46106,1,8,0:0:0:0:
298,192,46106,1,0,0:0:0:0:
384,192,46106,1,0,0:0:0:0:
298,192,46255,1,0,0:0:0:0:
42,192,46404,1,0,0:0:0:0:
213,192,46404,1,0,0:0:0:0:
128,192,46553,1,0,0:0:0:0:
128,192,46703,1,8,0:0:0:0:
384,192,46703,1,0,0:0:0:0:
469,192,46703,1,0,0:0:0:0:
384,192,46852,1,0,0:0:0:0:
42,192,47001,1,0,0:0:0:0:
213,192,47001,1,0,0:0:0:0:
298,192,47150,1,0,0:0:0:0:
128,192,47300,1,8,0:0:0:0:
298,192,47300,1,0,0:0:0:0:
469,192,47300,1,0,0:0:0:0:
128,192,47449,1,0,0:0:0:0:
384,192,47598,1,0,0:0:0:0:
469,192,47598,1,0,0:0:0:0:
213,192,47747,1,0,0:0:0:0:
42,192,47897,1,8,0:0:0:0:
213,192,47897,1,8,0:0:0:30:Bell.wav
469,192,47897,1,0,0:0:0:0:
384,192,48046,1,0,0:0:0:0:
42,192,48195,1,8,0:0:0:0:
298,192,48195,1,0,0:0:0:0:
213,192,48344,1,0,0:0:0:0:
384,192,48419,1,0,0:0:0:0:
42,192,48494,1,8,0:0:0:0:
213,192,48494,1,0,0:0:0:0:
384,192,48568,1,0,0:0:0:0:
213,192,48643,1,0,0:0:0:0:
298,192,48792,1,8,0:0:0:0:
469,192,48792,1,0,0:0:0:0:
469,192,48941,1,0,0:0:0:0:
42,192,49091,1,8,0:0:0:0:
213,192,49091,1,0,0:0:0:0:
213,192,49240,1,0,0:0:0:0:
128,192,49389,1,8,0:0:0:0:
469,192,49389,1,0,0:0:0:0:
384,192,49538,1,0,0:0:0:0:
213,192,49613,1,0,0:0:0:0:
298,192,49688,1,8,0:0:0:0:
384,192,49688,1,0,0:0:0:0:
213,192,49762,1,0,0:0:0:0:
384,192,49837,1,0,0:0:0:0:
42,192,49986,1,8,0:0:0:0:
128,192,49986,1,0,0:0:0:0:
128,192,50135,1,8,0:0:0:0:
298,192,50135,1,0,0:0:0:0:
298,192,50285,1,8,0:0:0:0:
469,192,50285,1,0,0:0:0:0:
213,192,50434,1,0,0:0:0:0:
42,192,50583,1,8,0:0:0:0:
384,192,50583,1,0,0:0:0:0:
213,192,50733,1,0,0:0:0:0:
469,192,50807,1,0,0:0:0:0:
42,192,50882,1,8,0:0:0:0:
213,192,50882,1,0,0:0:0:0:
469,192,50956,1,0,0:0:0:0:
213,192,51031,1,0,0:0:0:0:
298,192,51180,1,8,0:0:0:0:
384,192,51180,1,0,0:0:0:0:
128,192,51330,1,0,0:0:0:0:
213,192,51479,1,8,0:0:0:0:
469,192,51479,1,0,0:0:0:0:
298,192,51628,1,0,0:0:0:0:
42,192,51703,1,0,0:0:0:0:
213,192,51777,1,8,0:0:0:0:
384,192,51777,1,0,0:0:0:0:
42,192,51852,1,0,0:0:0:0:
298,192,51927,1,0,0:0:0:0:
128,192,52076,1,8,0:0:0:0:
384,192,52076,1,0,0:0:0:0:
469,192,52150,1,0,0:0:0:0:
128,192,52225,1,0,0:0:0:0:
469,192,52300,1,0,0:0:0:0:
42,192,52374,1,8,0:0:0:0:
298,192,52374,1,0,0:0:0:0:
213,192,52449,1,0,0:0:0:0:
384,192,52524,1,0,0:0:0:0:
469,192,52524,1,0,0:0:0:0:
128,192,52598,1,0,0:0:0:0:
42,192,52673,1,8,0:0:0:0:
213,192,52673,1,4,0:0:0:0:
469,192,52673,1,0,0:0:0:30:Bell.wav
298,192,52822,1,0,0:0:0:0:
42,192,52971,1,8,0:0:0:0:
213,192,52971,1,4,0:0:0:0:
469,192,52971,1,0,0:0:0:0:
298,192,53121,1,0,0:0:0:0:
42,192,53270,1,8,0:0:0:0:
213,192,53270,1,4,0:0:0:0:
469,192,53270,1,0,0:0:0:0:
298,192,53419,1,0,0:0:0:0:
42,192,53568,1,4,0:0:0:0:
128,192,53568,1,8,0:0:0:0:
469,192,53568,1,0,0:0:0:0:
42,192,53718,1,4,0:0:0:0:
128,192,53718,1,0,0:0:0:0:
42,192,53867,1,4,0:0:0:0:
298,192,53867,1,8,0:0:0:0:
469,192,53867,1,0,0:0:0:0:
213,192,54016,1,0,0:0:0:0:
42,192,54165,1,8,0:0:0:0:
298,192,54165,1,4,0:0:0:0:
469,192,54165,1,0,0:0:0:0:
213,192,54315,1,0,0:0:0:0:
42,192,54464,1,8,0:0:0:0:
298,192,54464,1,4,0:0:0:0:
469,192,54464,1,0,0:0:0:0:
213,192,54613,1,0,0:0:0:0:
42,192,54762,1,4,0:0:0:0:
384,192,54762,1,8,0:0:0:0:
469,192,54762,1,0,0:0:0:0:
384,192,54912,1,8,0:0:0:0:
469,192,54912,1,0,0:0:0:0:
42,192,55061,1,4,0:0:0:0:
213,192,55061,1,8,0:0:0:0:
469,192,55061,1,0,0:0:0:0:
213,192,55210,1,8,0:0:0:0:
384,192,55210,1,4,0:0:0:0:
42,192,55359,1,4,0:0:0:0:
298,192,55359,1,8,0:0:0:0:
42,192,55509,1,8,0:0:0:0:
469,192,55509,1,4,0:0:0:0:
298,192,55658,1,8,0:0:0:0:
469,192,55658,1,4,0:0:0:0:
128,192,55733,1,8,0:0:0:0:
298,192,55807,1,8,0:0:0:0:
469,192,55807,1,4,0:0:0:0:
128,192,55882,1,8,0:0:0:0:
213,192,55956,1,4,0:0:0:0:
384,192,55956,1,8,0:0:0:0:
469,192,56031,1,8,0:0:0:0:
42,192,56106,1,8,0:0:0:0:
213,192,56106,1,4,0:0:0:0:
469,192,56180,1,8,0:0:0:0:
128,192,56255,1,8,0:0:0:0:
213,192,56354,1,0,0:0:0:0:
298,192,56454,1,0,0:0:0:0:
384,192,56553,1,0,0:0:0:0:
298,192,56653,1,0,0:0:0:0:
213,192,56752,1,0,0:0:0:0:
42,192,56852,1,0,0:0:0:0:
298,192,56951,1,0,0:0:0:0:
384,192,57051,1,0,0:0:0:0:
128,192,57150,1,0,0:0:0:0:
384,192,57250,1,0,0:0:0:0:
469,192,57349,1,0,0:0:0:0:
42,192,57449,1,8,0:0:0:0:
213,192,57449,1,4,0:0:0:0:
298,192,57449,1,0,0:0:0:0:
42,192,57548,1,0,0:0:0:0:
42,192,57648,1,0,0:0:0:0:
298,192,57747,1,8,0:0:0:0:
384,192,57747,1,0,0:0:0:0:
384,192,57847,1,0,0:0:0:0:
384,192,57946,1,0,0:0:0:0:
42,192,58046,1,8,0:0:0:0:
213,192,58046,1,0,0:0:0:0:
213,192,58145,1,0,0:0:0:0:
213,192,58245,1,0,0:0:0:0:
128,192,58344,1,8,0:0:0:0:
469,192,58344,1,0,0:0:0:0:
128,192,58444,1,0,0:0:0:0:
128,192,58543,1,0,0:0:0:0:
298,192,58643,128,8,58941:0:0:0:0:
384,192,58643,128,0,58941:0:0:0:0:
42,192,58941,1,8,0:0:0:0:
213,192,58941,1,0,0:0:0:0:
213,192,59041,1,0,0:0:0:0:
384,192,59140,1,0,0:0:0:0:
128,192,59240,1,8,0:0:0:0:
298,192,59240,1,0,0:0:0:0:
469,192,59339,1,0,0:0:0:0:
128,192,59339,1,8,0:0:0:0:
469,192,59439,1,0,0:0:0:0:
213,192,59439,1,8,0:0:0:0:
42,192,59538,1,8,0:0:0:0:
298,192,59538,1,4,0:0:0:0:
384,192,59538,1,0,0:0:0:0:
128,192,59837,1,8,0:0:0:0:
213,192,59837,1,4,0:0:0:0:
469,192,59837,1,0,0:0:0:0:
128,192,59936,1,0,0:0:0:0:
128,192,60036,1,0,0:0:0:0:
42,192,60135,1,8,0:0:0:0:
298,192,60135,1,0,0:0:0:0:
384,192,60135,1,0,0:0:0:0:
384,192,60235,1,0,0:0:0:0:
384,192,60335,1,0,0:0:0:0:
42,192,60434,1,8,0:0:0:0:
213,192,60434,1,0,0:0:0:0:
469,192,60434,1,0,0:0:0:0:
213,192,60534,1,0,0:0:0:0:
213,192,60633,1,0,0:0:0:0:
298,192,60733,1,8,0:0:0:0:
384,192,60733,1,0,0:0:0:0:
298,192,60832,1,0,0:0:0:0:
298,192,60932,1,0,0:0:0:0:
42,192,61031,1,8,0:0:0:0:
128,192,61031,1,4,0:0:0:0:
469,192,61031,1,0,0:0:0:0:
42,192,61330,1,8,0:0:0:0:
213,192,61330,1,0,0:0:0:0:
298,192,61404,1,8,0:0:0:0:
384,192,61479,1,8,0:0:0:0:
469,192,61553,1,8,0:0:0:0:
42,192,61628,1,4,0:0:0:0:
298,192,61628,1,0,0:0:0:0:
128,192,61678,1,4,0:0:0:0:
213,192,61728,1,4,0:0:0:0:
213,192,61827,1,4,0:0:0:0:
469,192,61927,1,4,0:0:0:0:
469,192,62026,1,4,0:0:0:0:
469,192,62126,1,4,0:0:0:0:
42,192,62225,1,4,0:0:0:0:
213,192,62225,1,8,0:0:0:0:
384,192,62225,1,0,0:0:0:0:
128,192,62374,1,0,0:0:0:0:
298,192,62374,1,0,0:0:0:0:
42,192,62524,1,4,0:0:0:0:
469,192,62524,1,8,0:0:0:0:
213,192,62673,1,0,0:0:0:0:
384,192,62673,1,0,0:0:0:0:
42,192,62822,1,8,0:0:0:0:
298,192,62822,1,0,0:0:0:0:
128,192,62971,1,0,0:0:0:0:
384,192,62971,1,0,0:0:0:0:
213,192,63121,1,8,0:0:0:0:
469,192,63121,1,4,0:0:0:0:
128,192,63270,1,0,0:0:0:0:
384,192,63270,1,0,0:0:0:0:
298,192,63419,1,8,0:0:0:0:
469,192,63419,1,0,0:0:0:0:
42,192,63568,1,0,0:0:0:0:
213,192,63568,1,0,0:0:0:0:
128,192,63718,1,4,0:0:0:0:
384,192,63718,1,8,0:0:0:0:
213,192,63867,1,0,0:0:0:0:
469,192,63867,1,0,0:0:0:0:
42,192,64016,1,8,0:0:0:0:
298,192,64016,1,0,0:0:0:0:
128,192,64165,1,0,0:0:0:0:
469,192,64165,1,0,0:0:0:0:
213,192,64315,1,8,0:0:0:0:
384,192,64315,1,4,0:0:0:0:
42,192,64464,1,0,0:0:0:0:
298,192,64464,1,0,0:0:0:0:
128,192,64613,1,8,0:0:0:0:
213,192,64613,1,0,0:0:0:0:
384,192,64762,1,0,0:0:0:0:
128,192,64837,1,0,0:0:0:0:
298,192,64912,1,4,0:0:0:0:
469,192,64912,1,8,0:0:0:0:
213,192,65061,1,0,0:0:0:0:
384,192,65135,1,0,0:0:0:0:
42,192,65210,1,8,0:0:0:0:
128,192,65210,1,0,0:0:0:0:
384,192,65285,1,0,0:0:0:0:
213,192,65359,1,0,0:0:0:0:
298,192,65509,1,4,0:0:0:0:
469,192,65509,1,8,0:0:0:0:
213,192,65658,1,0,0:0:0:0:
298,192,65658,1,0,0:0:0:0:
42,192,65807,1,8,0:0:0:0:
384,192,65807,1,0,0:0:0:0:
469,192,65882,1,8,0:0:0:0:
213,192,65956,1,8,0:0:0:0:
128,192,65956,1,0,0:0:0:0:
298,192,66031,1,8,0:0:0:0:
213,192,66106,1,4,0:0:0:0:
384,192,66106,1,8,0:0:0:0:
42,192,66255,1,0,0:0:0:0:
128,192,66255,1,0,0:0:0:0:
298,192,66404,1,8,0:0:0:0:
469,192,66404,1,0,0:0:0:0:
128,192,66479,1,8,0:0:0:0:
298,192,66553,1,8,0:0:0:0:
469,192,66553,1,0,0:0:0:0:
128,192,66628,1,8,0:0:0:0:
298,192,66703,1,8,0:0:0:0:
469,192,66703,1,0,0:0:0:0:
298,192,66852,1,0,0:0:0:0:
469,192,66852,1,0,0:0:0:0:
42,192,67001,1,8,0:0:0:0:
213,192,67001,1,4,0:0:0:0:
384,192,67001,1,0,0:0:0:0:
42,192,67150,1,0,0:0:0:0:
213,192,67150,1,0,0:0:0:0:
298,192,67300,1,4,0:0:0:0:
469,192,67300,1,8,0:0:0:0:
298,192,67449,1,0,0:0:0:0:
128,192,67524,1,0,0:0:0:0:
42,192,67598,1,8,0:0:0:0:
298,192,67598,1,0,0:0:0:0:
213,192,67747,1,0,0:0:0:0:
469,192,67747,1,0,0:0:0:0:
213,192,67897,1,4,0:0:0:0:
384,192,67897,1,8,0:0:0:0:
128,192,68046,1,0,0:0:0:0:
298,192,68046,1,0,0:0:0:0:
42,192,68195,1,8,0:0:0:0:
469,192,68195,1,0,0:0:0:0:
298,192,68295,1,0,0:0:0:0:
469,192,68394,1,0,0:0:0:0:
213,192,68494,1,8,0:0:0:0:
384,192,68494,1,4,0:0:0:0:
42,192,68593,1,0,0:0:0:0:
213,192,68693,1,0,0:0:0:0:
128,192,68792,1,8,0:0:0:0:
298,192,68792,1,0,0:0:0:0:
298,192,68941,1,0,0:0:0:0:
469,192,68941,1,0,0:0:0:0:
42,192,69091,1,8,0:0:0:0:
469,192,69091,1,4,0:0:0:0:
42,192,69240,1,0,0:0:0:0:
213,192,69240,1,0,0:0:0:0:
298,192,69389,1,8,0:0:0:0:
469,192,69389,1,0,0:0:0:0:
128,192,69538,1,0,0:0:0:0:
213,192,69538,1,0,0:0:0:0:
128,192,69688,1,4,0:0:0:0:
384,192,69688,1,8,0:0:0:0:
384,192,69837,1,0,0:0:0:0:
469,192,69837,1,0,0:0:0:0:
42,192,69986,1,8,0:0:0:0:
213,192,69986,1,0,0:0:0:0:
298,192,70135,1,0,0:0:0:0:
384,192,70135,1,0,0:0:0:0:
128,192,70285,1,4,0:0:0:0:
469,192,70285,1,8,0:0:0:0:
42,192,70434,1,0,0:0:0:0:
213,192,70434,1,0,0:0:0:0:
298,192,70583,1,8,0:0:0:0:
384,192,70583,1,4,0:0:0:0:
469,192,70583,1,0,0:0:0:0:
128,192,70733,1,8,0:0:0:0:
213,192,70733,1,0,0:0:0:0:
128,192,70882,1,8,0:0:0:0:
213,192,70882,1,0,0:0:0:0:
298,192,71031,1,8,0:0:0:0:
384,192,71031,1,4,0:0:0:0:
469,192,71031,1,0,0:0:0:0:
128,192,71180,1,8,0:0:0:0:
213,192,71180,1,0,0:0:0:0:
298,192,71255,1,8,0:0:0:0:
128,192,71330,1,8,0:0:0:0:
213,192,71330,1,0,0:0:0:0:
298,192,71404,1,8,0:0:0:0:
42,192,71479,1,0,0:0:0:0:
469,192,71479,1,0,0:0:0:0:
384,192,71553,1,0,0:0:0:0:
128,192,71628,1,0,0:0:0:0:
213,192,71703,1,0,0:0:0:0:
42,192,71777,1,4,0:0:0:0:
298,192,71777,1,8,0:0:0:0:
469,192,71777,1,0,0:0:0:0:
42,192,71927,1,0,0:0:0:0:
213,192,71927,1,0,0:0:0:0:
298,192,72076,1,4,0:0:0:0:
469,192,72076,1,8,0:0:0:0:
128,192,72225,1,0,0:0:0:0:
298,192,72225,1,0,0:0:0:0:
213,192,72374,1,0,0:0:0:0:
469,192,72374,1,0,0:0:0:0:
42,192,72524,1,8,0:0:0:0:
384,192,72524,1,0,0:0:0:0:
42,192,72673,1,4,0:0:0:0:
298,192,72673,1,8,0:0:0:0:
213,192,72822,1,0,0:0:0:0:
469,192,72822,1,0,0:0:0:0:
42,192,72971,1,8,0:0:0:0:
213,192,72971,1,0,0:0:0:0:
298,192,73121,1,0,0:0:0:0:
469,192,73121,1,0,0:0:0:0:
128,192,73270,1,8,0:0:0:0:
298,192,73270,1,4,0:0:0:0:
128,192,73419,1,0,0:0:0:0:
384,192,73419,1,0,0:0:0:0:
213,192,73568,1,0,0:0:0:0:
384,192,73568,1,0,0:0:0:0:
42,192,73718,1,8,0:0:0:0:
213,192,73718,1,0,0:0:0:0:
298,192,73867,1,8,0:0:0:0:
469,192,73867,1,4,0:0:0:0:
42,192,74016,1,0,0:0:0:0:
298,192,74016,1,0,0:0:0:0:
128,192,74165,1,8,0:0:0:0:
384,192,74165,1,0,0:0:0:0:
213,192,74315,1,0,0:0:0:0:
469,192,74315,1,0,0:0:0:0:
298,192,74389,1,0,0:0:0:0:
42,192,74464,1,4,0:0:0:0:
384,192,74464,1,8,0:0:0:0:
128,192,74613,1,0,0:0:0:0:
213,192,74613,1,0,0:0:0:0:
469,192,74688,1,0,0:0:0:0:
298,192,74762,1,0,0:0:0:0:
384,192,74762,1,0,0:0:0:0:
42,192,74912,1,8,0:0:0:0:
213,192,74912,1,0,0:0:0:0:
128,192,75061,1,8,0:0:0:0:
384,192,75061,1,4,0:0:0:0:
298,192,75210,1,0,0:0:0:0:
469,192,75210,1,0,0:0:0:0:
42,192,75359,1,8,0:0:0:0:
213,192,75359,1,0,0:0:0:0:
298,192,75509,1,0,0:0:0:0:
384,192,75509,1,0,0:0:0:0:
42,192,75658,1,8,0:0:0:0:
128,192,75658,1,4,0:0:0:0:
213,192,75807,1,0,0:0:0:0:
469,192,75807,1,0,0:0:0:0:
128,192,75956,1,8,0:0:0:0:
298,192,75956,1,0,0:0:0:0:
384,192,76031,1,8,0:0:0:0:
128,192,76106,1,8,0:0:0:0:
298,192,76106,1,0,0:0:0:0:
384,192,76180,1,8,0:0:0:0:
42,192,76255,1,8,0:0:0:0:
128,192,76255,1,4,0:0:0:0:
298,192,76255,1,0,0:0:0:0:
298,192,76404,1,0,0:0:0:0:
469,192,76404,1,0,0:0:0:0:
42,192,76553,1,4,0:0:0:0:
213,192,76553,1,8,0:0:0:0:
384,192,76553,1,0,0:0:0:0:
128,192,76703,1,0,0:0:0:0:
469,192,76703,1,0,0:0:0:0:
42,192,76852,1,4,0:0:0:0:
298,192,76852,1,8,0:0:0:0:
213,192,77001,1,0,0:0:0:0:
469,192,77001,1,0,0:0:0:0:
298,192,77076,1,0,0:0:0:0:
128,192,77150,1,0,0:0:0:0:
384,192,77150,1,0,0:0:0:0:
42,192,77300,1,8,0:0:0:0:
298,192,77300,1,0,0:0:0:0:
42,192,77449,1,4,0:0:0:0:
213,192,77449,1,8,0:0:0:0:
298,192,77598,1,0,0:0:0:0:
469,192,77598,1,0,0:0:0:0:
128,192,77747,1,8,0:0:0:0:
384,192,77747,1,0,0:0:0:0:
213,192,77847,1,0,0:0:0:0:
298,192,77946,1,0,0:0:0:0:
128,192,78046,1,8,0:0:0:0:
469,192,78046,1,4,0:0:0:0:
298,192,78145,1,0,0:0:0:0:
384,192,78245,1,0,0:0:0:0:
42,192,78344,1,0,0:0:0:0:
213,192,78344,1,0,0:0:0:0:
213,192,78494,1,8,0:0:0:0:
469,192,78494,1,0,0:0:0:0:
128,192,78643,1,8,0:0:0:0:
469,192,78643,1,4,0:0:0:0:
42,192,78792,1,0,0:0:0:0:
384,192,78792,1,0,0:0:0:0:
213,192,78941,1,8,0:0:0:0:
298,192,78941,1,0,0:0:0:0:
384,192,79091,1,0,0:0:0:0:
469,192,79091,1,0,0:0:0:0:
42,192,79240,1,4,0:0:0:0:
213,192,79240,1,8,0:0:0:0:
128,192,79389,1,0,0:0:0:0:
384,192,79389,1,0,0:0:0:0:
298,192,79538,1,0,0:0:0:0:
469,192,79538,1,0,0:0:0:0:
213,192,79688,1,8,0:0:0:0:
384,192,79688,1,0,0:0:0:0:
42,192,79837,1,8,0:0:0:0:
128,192,79837,1,4,0:0:0:0:
298,192,79986,1,0,0:0:0:0:
469,192,79986,1,0,0:0:0:0:
42,192,80135,1,8,0:0:0:0:
213,192,80135,1,0,0:0:0:0:
384,192,80285,1,0,0:0:0:0:
469,192,80285,1,0,0:0:0:0:
128,192,80434,1,4,0:0:0:0:
298,192,80434,1,8,0:0:0:0:
42,192,80583,1,0,0:0:0:0:
213,192,80583,1,0,0:0:0:0:
298,192,80733,1,8,0:0:0:0:
469,192,80733,1,0,0:0:0:0:
42,192,80807,1,8,0:0:0:0:
298,192,80882,1,8,0:0:0:0:
469,192,80882,1,0,0:0:0:0:
42,192,80956,1,8,0:0:0:0:
128,192,81031,1,8,0:0:0:0:
384,192,81031,1,0,0:0:0:0:
469,192,81031,1,0,0:0:0:0:
298,192,81106,1,8,0:0:0:0:
42,192,81180,1,8,0:0:0:0:
213,192,81180,1,0,0:0:0:0:
298,192,81255,1,8,0:0:0:0:
42,192,81330,1,4,0:0:0:0:
384,192,81330,1,8,0:0:0:0:
469,192,81330,1,0,0:0:0:30:Bell.wav
213,192,81479,1,8,0:0:0:0:
384,192,81553,1,0,0:0:0:0:
42,192,81628,1,4,0:0:0:0:
213,192,81628,1,8,0:0:0:0:
384,192,81703,1,0,0:0:0:0:
213,192,81777,1,0,0:0:0:0:
298,192,81927,1,0,0:0:0:0:
128,192,82001,1,0,0:0:0:0:
298,192,82076,1,8,0:0:0:0:
384,192,82076,1,0,0:0:0:0:
128,192,82150,1,0,0:0:0:0:
42,192,82225,1,4,0:0:0:0:
298,192,82225,1,8,0:0:0:0:
213,192,82374,1,0,0:0:0:0:
384,192,82449,1,0,0:0:0:0:
42,192,82524,1,8,0:0:0:0:
128,192,82524,1,0,0:0:0:0:
298,192,82598,1,0,0:0:0:0:
213,192,82673,1,8,0:0:0:0:
298,192,82747,1,0,0:0:0:0:
42,192,82822,1,4,0:0:0:0:
469,192,82822,1,8,0:0:0:0:
298,192,82897,1,0,0:0:0:0:
213,192,82971,1,0,0:0:0:0:
298,192,83046,1,0,0:0:0:0:
42,192,83121,1,0,0:0:0:0:
469,192,83121,1,0,0:0:0:0:
384,192,83195,1,0,0:0:0:0:
298,192,83270,1,8,0:0:0:0:
128,192,83344,1,0,0:0:0:0:
42,192,83419,1,4,0:0:0:0:
469,192,83419,1,8,0:0:0:0:
213,192,83494,1,0,0:0:0:0:
384,192,83568,1,0,0:0:0:0:
298,192,83643,1,0,0:0:0:0:
128,192,83718,1,8,0:0:0:0:
469,192,83718,1,0,0:0:0:0:
213,192,83792,1,0,0:0:0:0:
298,192,83867,1,8,0:0:0:0:
213,192,83941,1,0,0:0:0:0:
42,192,84016,1,8,0:0:0:0:
384,192,84016,1,4,0:0:0:0:
128,192,84091,1,0,0:0:0:0:
298,192,84165,1,0,0:0:0:0:
128,192,84240,1,0,0:0:0:0:
384,192,84315,1,0,0:0:0:0:
298,192,84389,1,0,0:0:0:0:
213,192,84464,1,8,0:0:0:0:
128,192,84538,1,0,0:0:0:0:
298,192,84613,1,4,0:0:0:0:
469,192,84613,1,8,0:0:0:0:
213,192,84688,1,0,0:0:0:0:
128,192,84762,1,0,0:0:0:0:
42,192,84837,1,0,0:0:0:0:
298,192,84912,1,8,0:0:0:0:
384,192,84912,1,0,0:0:0:0:
469,192,84986,1,0,0:0:0:0:
213,192,85061,1,8,0:0:0:0:
298,192,85135,1,0,0:0:0:0:
42,192,85210,1,4,0:0:0:0:
384,192,85210,1,8,0:0:0:0:
128,192,85285,1,0,0:0:0:0:
298,192,85359,1,4,0:0:0:0:
469,192,85434,1,4,0:0:0:0:
298,192,85608,1,8,0:0:0:0:
384,192,85608,1,0,0:0:0:0:
298,192,85708,1,8,0:0:0:0:
384,192,85708,1,0,0:0:0:0:
298,192,85807,1,8,0:0:0:0:
384,192,85807,1,0,0:0:0:0:
42,192,85907,1,8,0:0:0:0:
128,192,85907,1,0,0:0:0:0:
42,192,86006,1,8,0:0:0:0:
128,192,86006,1,0,0:0:0:0:
42,192,86106,1,4,0:0:0:0:
128,192,86106,1,8,0:0:0:0:
384,192,86106,1,0,0:0:0:0:
298,192,86180,1,8,0:0:0:0:
213,192,86255,1,8,0:0:0:0:
469,192,86255,1,0,0:0:0:0:
384,192,86330,1,8,0:0:0:0:
42,192,86404,1,4,0:0:0:0:
298,192,86404,1,8,0:0:0:0:
213,192,86479,1,0,0:0:0:0:
384,192,86553,1,0,0:0:0:0:
128,192,86628,1,0,0:0:0:0:
298,192,86703,1,0,0:0:0:0:
469,192,86777,1,0,0:0:0:0:
42,192,86852,1,8,0:0:0:0:
213,192,86927,1,0,0:0:0:0:
384,192,87001,1,8,0:0:0:0:
469,192,87001,1,4,0:0:0:0:
128,192,87076,1,0,0:0:0:0:
298,192,87150,1,0,0:0:0:0:
42,192,87225,1,0,0:0:0:0:
469,192,87300,1,8,0:0:0:0:
213,192,87374,1,0,0:0:0:0:
128,192,87449,1,8,0:0:0:0:
384,192,87524,1,0,0:0:0:0:
213,192,87598,1,4,0:0:0:0:
298,192,87598,1,8,0:0:0:0:
42,192,87673,1,0,0:0:0:0:
384,192,87747,1,0,0:0:0:0:
469,192,87822,1,0,0:0:0:0:
213,192,87897,1,0,0:0:0:0:
298,192,88046,1,8,0:0:0:0:
42,192,88195,1,4,0:0:0:0:
298,192,88195,1,8,0:0:0:0:
213,192,88270,1,0,0:0:0:0:
128,192,88344,1,0,0:0:0:0:
384,192,88419,1,0,0:0:0:0:
42,192,88494,1,8,0:0:0:0:
298,192,88494,1,0,0:0:0:0:
469,192,88568,1,0,0:0:0:0:
213,192,88643,1,8,0:0:0:0:
384,192,88718,1,0,0:0:0:0:
128,192,88792,1,8,0:0:0:0:
298,192,88792,1,4,0:0:0:0:
469,192,88867,1,0,0:0:0:0:
213,192,88941,1,0,0:0:0:0:
384,192,89016,1,0,0:0:0:0:
42,192,89091,1,0,0:0:0:0:
128,192,89165,1,0,0:0:0:0:
213,192,89240,1,8,0:0:0:0:
298,192,89315,1,0,0:0:0:0:
384,192,89389,1,8,0:0:0:0:
469,192,89389,1,4,0:0:0:0:
128,192,89464,1,8,0:0:0:0:
42,192,89538,1,8,0:0:0:0:
298,192,89538,1,0,0:0:0:0:
213,192,89613,1,8,0:0:0:0:
384,192,89688,1,8,0:0:0:0:
469,192,89688,1,0,0:0:0:0:
42,192,89762,1,8,0:0:0:0:
128,192,89762,1,0,0:0:0:0:
384,192,89837,1,8,0:0:0:0:
469,192,89837,1,0,0:0:0:0:
42,192,89912,1,8,0:0:0:0:
128,192,89912,1,0,0:0:0:0:
384,192,89986,1,8,0:0:0:0:
469,192,89986,1,0,0:0:0:0:
42,192,90061,1,8,0:0:0:0:
128,192,90061,1,0,0:0:0:0:
384,192,90135,1,8,0:0:0:0:
469,192,90135,1,0,0:0:0:0:
42,192,90210,1,8,0:0:0:0:
128,192,90210,1,0,0:0:0:0:
384,192,90285,1,8,0:0:0:0:
469,192,90285,1,0,0:0:0:0:
128,192,90434,1,8,0:0:0:0:
213,192,90471,1,0,0:0:0:0:
298,192,90509,1,8,0:0:0:0:
384,192,90546,1,0,0:0:0:0:
42,192,90583,1,4,0:0:0:0:
469,192,90583,1,8,0:0:0:0:
298,192,90733,1,8,0:0:0:0:
213,192,90770,1,0,0:0:0:0:
128,192,90807,1,8,0:0:0:0:
42,192,90844,1,0,0:0:0:0:
384,192,90882,1,8,0:0:0:0:
469,192,90882,1,4,0:0:0:0:
213,192,91031,1,8,0:0:0:0:
298,192,91106,1,0,0:0:0:0:
42,192,91180,1,8,0:0:0:0:
384,192,91180,1,4,0:0:0:0:
213,192,91255,1,0,0:0:0:0:
298,192,91330,1,0,0:0:0:0:
128,192,91404,1,0,0:0:0:0:
42,192,91479,1,0,0:0:0:0:
384,192,91553,1,0,0:0:0:0:
213,192,91628,1,8,0:0:0:0:
469,192,91628,1,0,0:0:0:0:
42,192,91703,1,0,0:0:0:0:
128,192,91777,1,8,0:0:0:0:
298,192,91777,1,4,0:0:0:0:
384,192,91852,1,0,0:0:0:0:
213,192,91927,1,0,0:0:0:0:
298,192,92001,1,0,0:0:0:0:
128,192,92076,128,8,92225:0:0:0:0:
469,192,92076,1,0,0:0:0:0:
213,192,92225,1,8,0:0:0:0:
384,192,92225,128,0,92374:0:0:0:0:
42,192,92374,128,8,92971:0:0:0:0:
298,192,92374,1,4,0:0:0:0:
213,192,92524,1,0,0:0:0:0:
384,192,92598,1,0,0:0:0:0:
298,192,92673,1,0,0:0:0:0:
384,192,92747,1,0,0:0:0:0:
128,192,92822,1,8,0:0:0:0:
298,192,92822,1,0,0:0:0:0:
213,192,92971,128,4,93121:0:0:0:0:
469,192,92971,1,8,0:0:0:0:
298,192,93121,128,0,93270:0:0:0:0:
42,192,93270,1,8,0:0:0:0:
384,192,93270,1,0,0:0:0:0:
128,192,93344,1,0,0:0:0:0:
213,192,93419,1,8,0:0:0:0:
298,192,93494,1,0,0:0:0:0:
128,192,93568,1,4,0:0:0:0:
469,192,93568,1,8,0:0:0:0:
213,192,93643,1,0,0:0:0:0:
298,192,93718,1,0,0:0:0:0:
384,192,93792,1,0,0:0:0:0:
213,192,93867,1,0,0:0:0:0:
298,192,93941,1,0,0:0:0:0:
42,192,94016,1,8,0:0:0:0:
384,192,94016,1,0,0:0:0:0:
469,192,94091,1,0,0:0:0:0:
42,192,94165,1,8,0:0:0:0:
128,192,94165,1,4,0:0:0:0:
298,192,94240,1,0,0:0:0:0:
213,192,94315,1,0,0:0:0:0:
384,192,94389,1,0,0:0:0:0:
42,192,94464,1,8,0:0:0:0:
298,192,94464,128,4,94912:0:0:0:0:
469,192,94464,128,0,95359:0:0:0:0:
213,192,94613,1,0,0:0:0:0:
213,192,94762,1,8,0:0:0:0:
42,192,94912,1,4,0:0:0:0:
128,192,94912,128,8,95359:0:0:0:0:
298,192,95061,1,0,0:0:0:0:
298,192,95210,1,8,0:0:0:0:
42,192,95359,128,4,95658:0:0:0:0:
213,192,95359,1,8,0:0:0:0:
384,192,95359,1,0,0:0:0:0:
213,192,95509,1,8,0:0:0:0:
384,192,95509,1,4,0:0:0:0:
298,192,95658,128,4,95807:0:0:0:0:
469,192,95658,1,8,0:0:0:0:
128,192,95807,128,8,95956:0:0:0:0:
42,192,95956,128,8,96106:0:0:0:0:
469,192,95956,1,4,0:0:0:0:
384,192,96106,128,0,96255:0:0:0:0:
213,192,96255,128,0,96404:0:0:0:0:
128,192,96404,128,8,96553:0:0:0:0:
469,192,96404,1,0,0:0:0:0:
42,192,96553,1,8,0:0:0:0:
298,192,96553,128,4,96703:0:0:0:0:
469,192,96703,128,0,96852:0:0:0:0:
128,192,96852,1,8,0:0:0:0:
213,192,96852,128,0,97001:0:0:0:0:
384,192,97001,128,8,97150:0:0:0:0:
42,192,97150,1,8,0:0:0:0:
469,192,97150,128,4,97300:0:0:0:0:
128,192,97300,128,0,97449:0:0:0:0:
298,192,97449,128,0,97598:0:0:0:0:
213,192,97598,1,8,0:0:0:0:
384,192,97598,128,0,97747:0:0:0:0:
42,192,97747,128,8,97897:0:0:0:0:
469,192,97747,1,4,0:0:0:0:
213,192,97897,128,0,98046:0:0:0:0:
42,192,98046,1,8,0:0:0:0:
469,192,98046,1,0,0:0:0:0:
298,192,98121,1,0,0:0:0:0:
128,192,98195,1,8,0:0:0:0:
384,192,98270,1,0,0:0:0:0:
213,192,98344,1,4,0:0:0:0:
469,192,98344,1,8,0:0:0:0:
42,192,98419,1,0,0:0:0:0:
298,192,98494,1,8,0:0:0:0:
469,192,98568,1,0,0:0:0:0:
213,192,98643,1,0,0:0:0:0:
384,192,98718,1,0,0:0:0:0:
128,192,98792,1,8,0:0:0:0:
298,192,98867,1,0,0:0:0:0:
42,192,98941,1,4,0:0:0:0:
213,192,98941,1,8,0:0:0:0:
384,192,99016,1,0,0:0:0:0:
128,192,99091,1,8,0:0:0:0:
298,192,99165,1,0,0:0:0:0:
42,192,99240,1,4,0:0:0:0:
213,192,99240,1,8,0:0:0:0:
469,192,99240,1,0,0:0:0:0:
384,192,99315,1,0,0:0:0:0:
128,192,99389,1,8,0:0:0:0:
298,192,99464,1,0,0:0:0:0:
42,192,99538,1,8,0:0:0:0:
469,192,99538,1,4,0:0:0:0:
213,192,99613,1,0,0:0:0:0:
384,192,99688,1,8,0:0:0:0:
128,192,99762,1,0,0:0:0:0:
298,192,99837,1,8,0:0:0:0:
469,192,99837,1,0,0:0:0:0:
42,192,99912,1,8,0:0:0:0:
298,192,99986,1,8,0:0:0:0:
469,192,99986,1,0,0:0:0:0:
42,192,100061,1,8,0:0:0:0:
128,192,100135,1,8,0:0:0:0:
384,192,100135,1,0,0:0:0:0:
469,192,100210,1,8,0:0:0:0:
42,192,100285,1,8,0:0:0:0:
213,192,100285,1,0,0:0:0:0:
469,192,100359,1,8,0:0:0:0:
42,192,100434,1,8,0:0:0:0:
213,192,100434,1,0,0:0:0:30:Bell.wav
298,192,100434,1,0,0:0:0:0:
384,192,100583,1,8,0:0:0:0:
469,192,100583,1,0,0:0:0:0:
42,192,100733,1,8,0:0:0:0:
213,192,100733,1,4,0:0:0:0:
384,192,100882,1,0,0:0:0:0:
469,192,100882,1,0,0:0:0:0:
128,192,101031,1,0,0:0:0:0:
298,192,101031,1,0,0:0:0:0:
42,192,101180,1,8,0:0:0:0:
384,192,101180,1,0,0:0:0:0:
213,192,101330,1,4,0:0:0:0:
469,192,101330,1,8,0:0:0:0:
128,192,101479,1,0,0:0:0:0:
298,192,101479,1,0,0:0:0:0:
42,192,101628,1,8,0:0:0:0:
213,192,101628,1,0,0:0:0:0:
384,192,101777,1,8,0:0:0:0:
469,192,101777,1,0,0:0:0:0:
42,192,101927,1,8,0:0:0:0:
128,192,101927,1,4,0:0:0:0:
298,192,102076,1,0,0:0:0:0:
469,192,102076,1,0,0:0:0:0:
128,192,102225,1,0,0:0:0:0:
213,192,102225,1,0,0:0:0:0:
384,192,102374,1,8,0:0:0:0:
469,192,102374,1,0,0:0:0:0:
42,192,102524,1,8,0:0:0:0:
128,192,102524,1,4,0:0:0:0:
298,192,102673,1,0,0:0:0:0:
384,192,102673,1,0,0:0:0:0:
213,192,102822,1,8,0:0:0:0:
469,192,102822,1,0,0:0:0:0:
42,192,102971,1,8,0:0:0:0:
128,192,102971,1,0,0:0:0:0:
298,192,103046,1,0,0:0:0:0:
384,192,103121,1,4,0:0:0:0:
469,192,103121,1,8,0:0:0:0:
42,192,103270,1,0,0:0:0:0:
298,192,103270,1,0,0:0:0:0:
213,192,103344,1,0,0:0:0:0:
298,192,103419,1,0,0:0:0:0:
469,192,103419,1,0,0:0:0:0:
128,192,103568,1,8,0:0:0:0:
213,192,103568,1,0,0:0:0:0:
298,192,103718,1,4,0:0:0:0:
384,192,103718,1,8,0:0:0:0:
128,192,103867,1,0,0:0:0:0:
469,192,103867,1,0,0:0:0:0:
42,192,104016,1,8,0:0:0:0:
298,192,104016,1,0,0:0:0:0:
213,192,104165,1,8,0:0:0:0:
469,192,104165,1,0,0:0:0:0:
42,192,104315,1,4,0:0:0:0:
384,192,104315,1,8,0:0:0:0:
128,192,104464,1,0,0:0:0:0:
213,192,104464,1,0,0:0:0:0:
298,192,104613,1,8,0:0:0:0:
469,192,104613,1,0,0:0:0:0:
42,192,104688,1,8,0:0:0:0:
298,192,104762,1,8,0:0:0:0:
469,192,104762,1,0,0:0:0:0:
42,192,104837,1,8,0:0:0:0:
213,192,104912,1,8,0:0:0:0:
384,192,104912,1,4,0:0:0:0:
469,192,104912,1,0,0:0:0:0:
213,192,105061,1,0,0:0:0:0:
384,192,105061,1,0,0:0:0:0:
42,192,105210,1,8,0:0:0:0:
128,192,105210,1,4,0:0:0:0:
298,192,105210,1,0,0:0:0:0:
384,192,105359,1,8,0:0:0:0:
469,192,105359,1,0,0:0:0:0:
128,192,105509,1,8,0:0:0:0:
213,192,105509,1,4,0:0:0:0:
298,192,105658,1,0,0:0:0:0:
384,192,105658,1,0,0:0:0:0:
213,192,105733,1,0,0:0:0:0:
42,192,105807,1,0,0:0:0:0:
469,192,105807,1,0,0:0:0:0:
128,192,105956,1,8,0:0:0:0:
298,192,105956,1,0,0:0:0:0:
213,192,106106,1,4,0:0:0:0:
469,192,106106,1,8,0:0:0:0:
128,192,106255,1,0,0:0:0:0:
384,192,106255,1,0,0:0:0:0:
42,192,106404,1,8,0:0:0:0:
298,192,106404,1,0,0:0:0:0:
469,192,106504,1,0,0:0:0:0:
298,192,106603,1,0,0:0:0:0:
42,192,106703,1,8,0:0:0:0:
384,192,106703,1,4,0:0:0:0:
213,192,106802,1,0,0:0:0:0:
42,192,106902,1,0,0:0:0:0:
128,192,107001,1,0,0:0:0:0:
469,192,107001,1,0,0:0:0:0:
128,192,107150,1,8,0:0:0:0:
469,192,107150,1,0,0:0:0:0:
213,192,107300,1,4,0:0:0:0:
384,192,107300,1,8,0:0:0:0:
42,192,107449,1,0,0:0:0:0:
298,192,107449,1,0,0:0:0:0:
42,192,107598,1,8,0:0:0:0:
213,192,107598,1,0,0:0:0:0:
469,192,107598,1,0,0:0:0:0:
298,192,107747,1,8,0:0:0:0:
384,192,107747,1,0,0:0:0:0:
128,192,107897,1,8,0:0:0:0:
213,192,107897,1,4,0:0:0:0:
298,192,108046,1,0,0:0:0:0:
469,192,108046,1,0,0:0:0:0:
42,192,108195,1,0,0:0:0:0:
213,192,108195,1,0,0:0:0:0:
128,192,108344,1,8,0:0:0:0:
384,192,108344,1,0,0:0:0:0:
298,192,108494,1,8,0:0:0:0:
469,192,108494,1,4,0:0:0:0:
128,192,108643,1,0,0:0:0:0:
213,192,108643,1,0,0:0:0:0:
298,192,108792,1,8,0:0:0:0:
384,192,108792,1,0,0:0:0:0:
42,192,108941,1,8,0:0:0:0:
469,192,108941,1,0,0:0:0:0:
128,192,109091,1,4,0:0:0:0:
298,192,109091,1,8,0:0:0:0:
213,192,109240,1,0,0:0:0:0:
384,192,109240,1,0,0:0:0:0:
298,192,109389,1,8,0:0:0:0:
469,192,109389,1,0,0:0:0:0:
42,192,109464,1,8,0:0:0:0:
298,192,109538,1,8,0:0:0:0:
42,192,109613,1,8,0:0:0:0:
213,192,109688,1,8,0:0:0:0:
384,192,109762,1,8,0:0:0:0:
128,192,109837,1,8,0:0:0:0:
298,192,109912,1,8,0:0:0:0:
42,192,109986,1,8,0:0:0:0:
469,192,109986,1,4,0:0:0:0:
128,192,110086,1,0,0:0:0:0:
213,192,110185,1,0,0:0:0:0:
298,192,110285,1,0,0:0:0:0:
384,192,110384,1,0,0:0:0:0:
469,192,110484,1,0,0:0:0:0:
128,192,110583,1,0,0:0:0:0:
298,192,110683,1,0,0:0:0:0:
384,192,110782,1,0,0:0:0:0:
42,192,110882,1,0,0:0:0:0:
213,192,110981,1,0,0:0:0:0:
298,192,111081,1,0,0:0:0:0:
128,192,111180,1,0,0:0:0:0:
469,192,111180,1,0,0:0:0:0:
384,192,111280,1,0,0:0:0:0:
298,192,111379,1,0,0:0:0:0:
213,192,111479,1,0,0:0:0:0:
128,192,111578,1,0,0:0:0:0:
42,192,111678,1,0,0:0:0:0:
384,192,111777,1,0,0:0:0:0:
213,192,111877,1,0,0:0:0:0:
128,192,111976,1,0,0:0:0:0:
469,192,112076,1,0,0:0:0:0:
298,192,112175,1,0,0:0:0:0:
213,192,112275,1,0,0:0:0:0:
42,192,112374,1,0,0:0:0:0:
384,192,112374,1,0,0:0:0:0:
128,192,112474,1,0,0:0:0:0:
213,192,112573,1,0,0:0:0:0:
298,192,112673,1,0,0:0:0:0:
384,192,112772,1,0,0:0:0:0:
469,192,112872,1,0,0:0:0:0:
128,192,112971,1,0,0:0:0:0:
298,192,113071,1,0,0:0:0:0:
384,192,113170,1,0,0:0:0:0:
42,192,113270,1,0,0:0:0:0:
213,192,113369,1,0,0:0:0:0:
298,192,113469,1,0,0:0:0:0:
128,192,113568,1,0,0:0:0:0:
469,192,113568,1,0,0:0:0:0:
384,192,113668,1,0,0:0:0:0:
298,192,113767,1,0,0:0:0:0:
213,192,113867,1,0,0:0:0:0:
128,192,113966,1,0,0:0:0:0:
42,192,114066,1,0,0:0:0:0:
384,192,114165,1,0,0:0:0:0:
213,192,114265,1,0,0:0:0:0:
128,192,114364,1,0,0:0:0:0:
469,192,114464,1,0,0:0:0:0:
298,192,114563,1,0,0:0:0:0:
213,192,114663,1,0,0:0:0:0:
42,192,114762,1,0,0:0:0:40:Bell.wav
384,192,114762,1,0,0:0:0:0:
469,192,114762,1,0,0:0:0:0:
128,192,114862,1,0,0:0:0:0:
213,192,114961,1,0,0:0:0:0:
298,192,115061,1,0,0:0:0:0:
384,192,115160,1,0,0:0:0:0:
469,192,115260,1,0,0:0:0:0:
128,192,115359,1,0,0:0:0:0:
298,192,115459,1,0,0:0:0:0:
384,192,115558,1,0,0:0:0:0:
42,192,115658,1,0,0:0:0:0:
213,192,115757,1,0,0:0:0:0:
298,192,115857,1,0,0:0:0:0:
128,192,115956,1,0,0:0:0:0:
469,192,115956,1,0,0:0:0:0:
384,192,116056,1,0,0:0:0:0:
298,192,116155,1,0,0:0:0:0:
213,192,116255,1,0,0:0:0:0:
128,192,116354,1,0,0:0:0:0:
42,192,116454,1,0,0:0:0:0:
384,192,116553,1,0,0:0:0:0:
213,192,116653,1,0,0:0:0:0:
128,192,116752,1,0,0:0:0:0:
469,192,116852,1,0,0:0:0:0:
298,192,116951,1,0,0:0:0:0:
213,192,117051,1,0,0:0:0:0:
42,192,117150,1,0,0:0:0:40:Bell.wav
384,192,117150,1,0,0:0:0:0:
128,192,117250,1,0,0:0:0:0:
213,192,117349,1,0,0:0:0:0:
298,192,117449,1,0,0:0:0:0:
384,192,117548,1,0,0:0:0:0:
469,192,117648,1,0,0:0:0:0:
128,192,117747,1,0,0:0:0:0:
298,192,117847,1,0,0:0:0:0:
384,192,117946,1,0,0:0:0:0:
42,192,118046,1,0,0:0:0:0:
213,192,118145,1,0,0:0:0:0:
298,192,118245,1,0,0:0:0:0:
128,192,118344,1,0,0:0:0:0:
469,192,118344,1,0,0:0:0:0:
384,192,118444,1,0,0:0:0:0:
298,192,118543,1,0,0:0:0:0:
213,192,118643,1,0,0:0:0:0:
128,192,118742,1,0,0:0:0:0:
42,192,118842,1,0,0:0:0:0:
384,192,118941,1,4,0:0:0:0:
298,192,119041,1,4,0:0:0:0:
469,192,119140,1,4,0:0:0:0:
213,192,119240,1,4,0:0:0:0:
128,192,119339,1,4,0:0:0:0:
298,192,119439,1,4,0:0:0:0:
42,192,119538,1,4,0:0:0:0:
384,192,119538,1,8,0:0:0:0:
469,192,119538,1,0,0:0:0:40:Bell.wav
128,192,119638,1,0,0:0:0:0:
213,192,119737,1,0,0:0:0:0:
298,192,119837,1,0,0:0:0:0:
384,192,119936,1,0,0:0:0:0:
469,192,120036,1,0,0:0:0:0:
128,192,120135,1,0,0:0:0:0:
298,192,120235,1,0,0:0:0:0:
384,192,120335,1,0,0:0:0:0:
42,192,120434,1,0,0:0:0:0:
213,192,120534,1,0,0:0:0:0:
298,192,120633,1,0,0:0:0:0:
128,192,120733,1,0,0:0:0:0:
469,192,120733,1,0,0:0:0:0:
384,192,120832,1,0,0:0:0:0:
298,192,120932,1,0,0:0:0:0:
213,192,121031,1,0,0:0:0:0:
128,192,121131,1,0,0:0:0:0:
469,192,121131,1,0,0:0:0:0:
42,192,121230,1,0,0:0:0:0:
384,192,121330,1,0,0:0:0:0:
213,192,121429,1,0,0:0:0:0:
128,192,121529,1,0,0:0:0:0:
42,192,121628,1,0,0:0:0:0:
469,192,121628,1,0,0:0:0:0:
298,192,121728,1,0,0:0:0:0:
213,192,121827,1,0,0:0:0:0:
42,192,121927,1,0,0:0:0:40:Bell.wav
384,192,121927,1,0,0:0:0:0:
469,192,121927,1,0,0:0:0:0:
128,192,122026,1,0,0:0:0:0:
213,192,122126,1,0,0:0:0:0:
298,192,122225,1,0,0:0:0:0:
384,192,122325,1,0,0:0:0:0:
469,192,122424,1,0,0:0:0:0:
128,192,122524,1,0,0:0:0:0:
298,192,122623,1,0,0:0:0:0:
384,192,122723,1,0,0:0:0:0:
42,192,122822,1,0,0:0:0:0:
213,192,122922,1,0,0:0:0:0:
298,192,123021,1,0,0:0:0:0:
42,192,123121,1,0,0:0:0:40:Bell.wav
128,192,123121,1,0,0:0:0:0:
469,192,123121,1,0,0:0:0:0:
384,192,123220,1,0,0:0:0:0:
298,192,123320,1,0,0:0:0:0:
213,192,123419,1,0,0:0:0:0:
128,192,123519,1,0,0:0:0:0:
42,192,123618,1,0,0:0:0:0:
384,192,123718,1,0,0:0:0:0:
213,192,123817,1,0,0:0:0:0:
128,192,123917,1,0,0:0:0:0:
469,192,124016,1,0,0:0:0:0:
298,192,124116,1,0,0:0:0:0:
213,192,124215,1,0,0:0:0:0:
42,192,124315,1,0,0:0:0:40:Bell.wav
384,192,124315,1,0,0:0:0:0:
469,192,124315,1,0,0:0:0:0:
128,192,124414,1,0,0:0:0:0:
213,192,124514,1,0,0:0:0:0:
298,192,124613,1,0,0:0:0:0:
384,192,124713,1,0,0:0:0:0:
469,192,124812,1,0,0:0:0:0:
128,192,124912,1,0,0:0:0:0:
298,192,125011,1,0,0:0:0:0:
384,192,125111,1,0,0:0:0:0:
42,192,125210,1,0,0:0:0:0:
469,192,125210,1,0,0:0:0:0:
213,192,125310,1,0,0:0:0:0:
298,192,125409,1,0,0:0:0:0:
42,192,125509,1,0,0:0:0:0:
128,192,125509,1,0,0:0:0:0:
469,192,125509,1,0,0:0:0:0:
384,192,125608,1,0,0:0:0:0:
298,192,125708,1,0,0:0:0:0:
213,192,125807,1,0,0:0:0:0:
128,192,125907,1,0,0:0:0:0:
42,192,126006,1,0,0:0:0:0:
384,192,126106,1,0,0:0:0:0:
213,192,126205,1,0,0:0:0:0:
128,192,126305,1,0,0:0:0:0:
42,192,126404,1,0,0:0:0:0:
469,192,126404,1,0,0:0:0:0:
298,192,126504,1,0,0:0:0:0:
213,192,126603,1,0,0:0:0:0:
42,192,126703,1,0,0:0:0:40:Bell.wav
384,192,126703,1,0,0:0:0:0:
469,192,126703,1,0,0:0:0:0:
128,192,126802,1,0,0:0:0:0:
213,192,126902,1,0,0:0:0:0:
298,192,127001,1,0,0:0:0:0:
384,192,127101,1,0,0:0:0:0:
469,192,127200,1,0,0:0:0:0:
42,192,127300,1,0,0:0:0:0:
128,192,127300,1,0,0:0:0:0:
298,192,127399,1,0,0:0:0:0:
384,192,127499,1,0,0:0:0:0:
42,192,127598,1,0,0:0:0:0:
213,192,127698,1,0,0:0:0:0:
298,192,127797,1,0,0:0:0:0:
42,192,127897,1,0,0:0:0:0:
128,192,127897,1,0,0:0:0:0:
469,192,127897,1,0,0:0:0:0:
384,192,127996,1,0,0:0:0:0:
298,192,128096,1,0,0:0:0:0:
213,192,128195,1,0,0:0:0:0:
42,192,128295,1,0,0:0:0:0:
298,192,128394,1,8,0:0:0:0:
384,192,128394,1,0,0:0:0:0:
42,192,128494,1,8,0:0:0:0:
128,192,128494,1,0,0:0:0:0:
384,192,128593,1,8,0:0:0:0:
469,192,128593,1,0,0:0:0:0:
128,192,128693,1,8,0:0:0:0:
213,192,128693,1,0,0:0:0:0:
384,192,128792,1,8,0:0:0:0:
469,192,128792,1,0,0:0:0:0:
42,192,128892,1,8,0:0:0:0:
298,192,128892,1,0,0:0:0:0:
128,192,128991,1,8,0:0:0:0:
213,192,128991,1,0,0:0:0:0:
42,192,129091,1,4,0:0:0:0:
384,192,129091,128,8,130882:0:0:0:0:
469,192,129091,1,0,0:0:0:40:Bell.wav
298,192,129389,1,0,0:0:0:0:
128,192,129489,1,0,0:0:0:0:
298,192,129588,1,0,0:0:0:0:
42,192,129688,1,8,0:0:0:0:
128,192,129688,1,0,0:0:0:0:
298,192,129787,1,0,0:0:0:0:
42,192,129887,1,0,0:0:0:0:
298,192,129986,1,0,0:0:0:0:
42,192,130086,1,0,0:0:0:0:
213,192,130185,1,0,0:0:0:0:
42,192,130285,1,8,0:0:0:0:
298,192,130285,1,0,0:0:0:0:
213,192,130384,1,0,0:0:0:0:
128,192,130484,1,0,0:0:0:0:
298,192,130583,1,0,0:0:0:0:
213,192,130683,1,0,0:0:0:0:
298,192,130782,1,0,0:0:0:0:
42,192,130882,1,8,0:0:0:0:
128,192,130882,128,0,131479:0:0:0:0:
469,192,130981,1,0,0:0:0:0:
298,192,131081,1,0,0:0:0:0:
213,192,131180,1,0,0:0:0:0:
384,192,131280,1,0,0:0:0:0:
298,192,131379,1,0,0:0:0:0:
42,192,131479,1,8,0:0:0:0:
469,192,131479,128,0,133270:0:0:0:0:
213,192,131777,1,0,0:0:0:0:
42,192,131877,1,0,0:0:0:0:
128,192,131976,1,0,0:0:0:0:
298,192,132076,1,8,0:0:0:0:
384,192,132076,1,0,0:0:0:0:
42,192,132175,1,0,0:0:0:0:
213,192,132275,1,0,0:0:0:0:
298,192,132374,1,0,0:0:0:0:
128,192,132474,1,0,0:0:0:0:
213,192,132573,1,0,0:0:0:0:
42,192,132673,1,8,0:0:0:0:
384,192,132673,1,0,0:0:0:0:
128,192,132772,1,0,0:0:0:0:
298,192,132872,1,0,0:0:0:0:
384,192,132971,1,0,0:0:0:0:
128,192,133071,1,0,0:0:0:0:
213,192,133170,1,0,0:0:0:0:
42,192,133270,128,8,133867:0:0:0:0:
298,192,133270,1,0,0:0:0:0:
384,192,133369,1,0,0:0:0:0:
128,192,133469,1,0,0:0:0:0:
213,192,133568,1,0,0:0:0:0:
469,192,133668,1,0,0:0:0:0:
213,192,133767,1,0,0:0:0:0:
298,192,133867,128,8,135061:0:0:0:0:
469,192,133867,1,0,0:0:0:0:
128,192,134165,1,0,0:0:0:0:
42,192,134265,1,0,0:0:0:0:
384,192,134364,1,0,0:0:0:0:
213,192,134464,1,8,0:0:0:0:
469,192,134464,1,0,0:0:0:0:
128,192,134563,1,0,0:0:0:0:
384,192,134663,1,0,0:0:0:0:
42,192,134762,1,0,0:0:0:0:
213,192,134862,1,0,0:0:0:0:
469,192,134961,1,0,0:0:0:0:
42,192,135061,1,8,0:0:0:0:
128,192,135061,1,0,0:0:0:0:
384,192,135061,128,0,135658:0:0:0:0:
213,192,135160,1,0,0:0:0:0:
298,192,135260,1,0,0:0:0:0:
469,192,135359,1,0,0:0:0:0:
128,192,135459,1,0,0:0:0:0:
298,192,135558,1,0,0:0:0:0:
42,192,135658,1,8,0:0:0:0:
213,192,135658,128,0,136255:0:0:0:0:
469,192,135757,1,0,0:0:0:0:
128,192,135857,1,0,0:0:0:0:
298,192,135956,1,0,0:0:0:0:
384,192,136056,1,0,0:0:0:0:
128,192,136155,1,0,0:0:0:0:
42,192,136255,128,8,137449:0:0:0:0:
469,192,136255,1,0,0:0:0:0:
384,192,136553,1,0,0:0:0:0:
213,192,136653,1,0,0:0:0:0:
469,192,136752,1,0,0:0:0:0:
128,192,136852,1,8,0:0:0:0:
298,192,136852,1,0,0:0:0:0:
384,192,136951,1,0,0:0:0:0:
213,192,137051,1,0,0:0:0:0:
298,192,137150,1,0,0:0:0:0:
469,192,137250,1,0,0:0:0:0:
128,192,137349,1,0,0:0:0:0:
213,192,137449,1,8,0:0:0:0:
384,192,137449,128,0,138046:0:0:0:0:
298,192,137548,1,0,0:0:0:0:
128,192,137648,1,0,0:0:0:0:
213,192,137747,1,0,0:0:0:0:
42,192,137847,1,0,0:0:0:0:
298,192,137946,1,0,0:0:0:0:
213,192,138046,128,8,138643:0:0:0:0:
469,192,138046,1,0,0:0:0:0:
42,192,138145,1,8,0:0:0:0:
298,192,138245,1,8,0:0:0:0:
128,192,138344,1,8,0:0:0:0:
384,192,138444,1,8,0:0:0:0:
298,192,138543,1,8,0:0:0:0:
42,192,138643,1,8,0:0:0:0:
469,192,138643,1,0,0:0:0:40:Bell.wav
128,192,138742,1,0,0:0:0:0:
213,192,138842,1,0,0:0:0:0:
42,192,138941,1,8,0:0:0:0:
384,192,138941,1,0,0:0:0:0:
298,192,139041,1,0,0:0:0:0:
213,192,139140,1,0,0:0:0:0:
42,192,139240,1,8,0:0:0:0:
469,192,139240,1,0,0:0:0:0:
298,192,139339,1,0,0:0:0:0:
384,192,139439,1,0,0:0:0:0:
213,192,139538,1,8,0:0:0:0:
469,192,139538,1,0,0:0:0:0:
128,192,139638,1,0,0:0:0:0:
42,192,139737,1,0,0:0:0:0:
213,192,139837,1,8,0:0:0:0:
469,192,139837,1,0,0:0:0:0:
298,192,139936,1,0,0:0:0:0:
384,192,140036,1,0,0:0:0:0:
213,192,140135,1,8,0:0:0:0:
469,192,140135,1,0,0:0:0:0:
128,192,140235,1,0,0:0:0:0:
42,192,140335,1,0,0:0:0:0:
213,192,140434,1,8,0:0:0:0:
298,192,140434,1,0,0:0:0:40:Bell.wav
384,192,140534,1,0,0:0:0:0:
469,192,140633,1,0,0:0:0:0:
42,192,140733,1,8,0:0:0:0:
298,192,140733,1,0,0:0:0:0:
213,192,140832,1,0,0:0:0:0:
128,192,140932,1,0,0:0:0:0:
42,192,141031,1,8,0:0:0:0:
469,192,141031,1,0,0:0:0:40:Bell.wav
128,192,141131,1,0,0:0:0:0:
213,192,141230,1,0,0:0:0:0:
42,192,141330,1,8,0:0:0:0:
384,192,141330,1,0,0:0:0:0:
298,192,141429,1,0,0:0:0:0:
213,192,141529,1,0,0:0:0:0:
42,192,141628,1,8,0:0:0:0:
469,192,141628,1,0,0:0:0:0:
298,192,141728,1,0,0:0:0:0:
384,192,141827,1,0,0:0:0:0:
213,192,141927,1,8,0:0:0:0:
469,192,141927,1,0,0:0:0:0:
128,192,142026,1,0,0:0:0:0:
42,192,142126,1,0,0:0:0:0:
213,192,142225,1,8,0:0:0:0:
469,192,142225,1,0,0:0:0:40:Bell.wav
298,192,142325,1,0,0:0:0:0:
384,192,142424,1,0,0:0:0:0:
213,192,142524,1,8,0:0:0:0:
469,192,142524,1,0,0:0:0:0:
128,192,142623,1,0,0:0:0:0:
42,192,142723,1,0,0:0:0:0:
213,192,142822,1,8,0:0:0:0:
298,192,142822,1,0,0:0:0:40:Bell.wav
384,192,142922,1,8,0:0:0:0:
469,192,143021,1,8,0:0:0:0:
42,192,143121,1,8,0:0:0:0:
298,192,143121,1,0,0:0:0:0:
213,192,143220,1,8,0:0:0:0:
128,192,143320,1,8,0:0:0:0:
42,192,143419,1,12,0:0:0:0:
469,192,143419,1,0,0:0:0:40:Bell.wav
384,192,143519,1,0,0:0:0:0:
298,192,143618,1,0,0:0:0:0:
128,192,143718,1,8,0:0:0:0:
213,192,143718,1,0,0:0:0:0:
298,192,143817,1,0,0:0:0:0:
384,192,143917,1,0,0:0:0:0:
128,192,144016,1,8,0:0:0:0:
469,192,144016,1,0,0:0:0:0:
384,192,144116,1,0,0:0:0:0:
298,192,144215,1,0,0:0:0:0:
42,192,144315,1,8,0:0:0:0:
213,192,144315,1,0,0:0:0:0:
298,192,144414,1,0,0:0:0:0:
384,192,144514,1,0,0:0:0:0:
42,192,144613,1,4,0:0:0:0:
298,192,144613,1,8,0:0:0:0:
469,192,144613,1,0,0:0:0:40:Bell.wav
128,192,144713,1,0,0:0:0:0:
213,192,144812,1,0,0:0:0:0:
298,192,144912,1,8,0:0:0:0:
384,192,144912,1,0,0:0:0:0:
213,192,145011,1,0,0:0:0:0:
128,192,145111,1,0,0:0:0:0:
42,192,145210,1,8,0:0:0:0:
384,192,145210,1,0,0:0:0:0:
128,192,145310,1,0,0:0:0:0:
213,192,145409,1,0,0:0:0:0:
298,192,145509,1,8,0:0:0:0:
469,192,145509,1,0,0:0:0:0:
213,192,145608,1,0,0:0:0:0:
128,192,145708,1,0,0:0:0:0:
42,192,145807,1,4,0:0:0:0:
384,192,145807,1,8,0:0:0:0:
469,192,145807,1,0,0:0:0:40:Bell.wav
298,192,145907,1,0,0:0:0:0:
213,192,146006,1,0,0:0:0:0:
128,192,146106,1,8,0:0:0:0:
469,192,146106,1,0,0:0:0:0:
213,192,146205,1,0,0:0:0:0:
298,192,146305,1,0,0:0:0:0:
42,192,146404,1,8,0:0:0:0:
128,192,146404,1,0,0:0:0:0:
384,192,146404,1,0,0:0:0:0:
298,192,146504,1,0,0:0:0:0:
213,192,146603,1,0,0:0:0:0:
128,192,146703,1,8,0:0:0:0:
469,192,146703,1,0,0:0:0:0:
213,192,146802,1,0,0:0:0:0:
298,192,146902,1,0,0:0:0:0:
42,192,147001,1,4,0:0:0:0:
384,192,147001,1,8,0:0:0:0:
469,192,147001,1,0,0:0:0:0:
128,192,147101,1,0,0:0:0:0:
213,192,147200,1,0,0:0:0:0:
298,192,147300,1,8,0:0:0:0:
469,192,147300,1,0,0:0:0:0:
128,192,147598,1,8,0:0:0:0:
213,192,147598,1,0,0:0:0:0:
298,192,147698,1,8,0:0:0:0:
469,192,147698,1,0,0:0:0:0:
298,192,147797,1,8,0:0:0:0:
469,192,147797,1,0,0:0:0:0:
298,192,147897,1,8,0:0:0:0:
469,192,147897,1,0,0:0:0:0:
42,192,147996,1,8,0:0:0:0:
213,192,147996,1,0,0:0:0:0:
42,192,148096,1,8,0:0:0:0:
213,192,148096,1,0,0:0:0:0:
42,192,148195,1,8,0:0:0:0:
213,192,148195,1,4,0:0:0:0:
384,192,148195,1,0,0:0:0:0:
469,192,148195,1,0,0:0:0:0:
384,192,148344,1,0,0:0:0:0:
128,192,148494,1,8,0:0:0:0:
298,192,148494,1,4,0:0:0:0:
128,192,148643,1,0,0:0:0:0:
213,192,148718,1,0,0:0:0:0:
384,192,148792,1,8,0:0:0:0:
469,192,148792,1,0,0:0:0:0:
42,192,148941,1,0,0:0:0:0:
42,192,149091,1,8,0:0:0:0:
298,192,149091,1,4,0:0:0:0:
469,192,149240,1,0,0:0:0:0:
213,192,149389,1,8,0:0:0:0:
469,192,149389,1,0,0:0:0:0:
213,192,149538,1,0,0:0:0:0:
42,192,149688,1,4,0:0:0:0:
298,192,149688,1,8,0:0:0:0:
298,192,149837,1,0,0:0:0:0:
128,192,149986,1,8,0:0:0:0:
384,192,149986,1,0,0:0:0:0:
128,192,150135,1,0,0:0:0:0:
298,192,150285,1,8,0:0:0:0:
469,192,150285,1,4,0:0:0:0:
469,192,150434,1,0,0:0:0:0:
213,192,150509,1,0,0:0:0:0:
42,192,150583,1,4,0:0:0:0:
128,192,150583,1,8,0:0:0:0:
384,192,150583,1,0,0:0:0:0:
298,192,150733,1,0,0:0:0:0:
42,192,150882,1,8,0:0:0:0:
213,192,150882,1,4,0:0:0:0:
42,192,151031,1,0,0:0:0:0:
298,192,151106,1,0,0:0:0:0:
128,192,151180,1,4,0:0:0:0:
469,192,151180,1,8,0:0:0:0:
213,192,151330,1,0,0:0:0:0:
298,192,151479,1,8,0:0:0:0:
469,192,151479,1,4,0:0:0:0:
469,192,151628,1,0,0:0:0:0:
42,192,151777,1,8,0:0:0:0:
213,192,151777,1,0,0:0:0:0:
298,192,151852,1,8,0:0:0:0:
469,192,151852,1,0,0:0:0:0:
42,192,151927,1,8,0:0:0:0:
213,192,151927,1,0,0:0:0:0:
298,192,152001,1,8,0:0:0:0:
469,192,152001,1,0,0:0:0:0:
42,192,152076,1,8,0:0:0:0:
384,192,152076,1,4,0:0:0:0:
213,192,152150,1,0,0:0:0:0:
298,192,152225,1,0,0:0:0:0:
128,192,152300,1,0,0:0:0:0:
298,192,152374,1,8,0:0:0:0:
469,192,152374,1,0,0:0:0:0:
42,192,152449,1,8,0:0:0:0:
213,192,152449,1,0,0:0:0:0:
298,192,152524,1,8,0:0:0:0:
469,192,152524,1,0,0:0:0:0:
42,192,152598,1,8,0:0:0:0:
213,192,152598,1,0,0:0:0:0:
128,192,152673,1,4,0:0:0:0:
384,192,152673,1,8,0:0:0:0:
469,192,152673,1,0,0:0:0:0:
298,192,152822,1,0,0:0:0:0:
42,192,152971,1,8,0:0:0:0:
298,192,152971,1,4,0:0:0:0:
469,192,152971,1,0,0:0:0:0:
213,192,153121,1,0,0:0:0:0:
42,192,153270,1,4,0:0:0:0:
298,192,153270,1,8,0:0:0:0:
469,192,153270,1,0,0:0:0:0:
213,192,153419,1,0,0:0:0:0:
128,192,153494,1,0,0:0:0:0:
42,192,153568,1,4,0:0:0:0:
298,192,153568,1,8,0:0:0:0:
469,192,153568,1,0,0:0:0:0:
298,192,153718,1,0,0:0:0:0:
42,192,153867,1,8,0:0:0:0:
213,192,153867,1,4,0:0:0:0:
384,192,153867,1,0,0:0:0:0:
42,192,154016,1,8,0:0:0:0:
213,192,154016,1,4,0:0:0:0:
128,192,154165,1,4,0:0:0:0:
298,192,154165,1,8,0:0:0:0:
469,192,154165,1,0,0:0:0:0:
469,192,154315,1,0,0:0:0:0:
42,192,154464,1,8,0:0:0:0:
213,192,154464,1,4,0:0:0:0:
384,192,154464,1,0,0:0:0:0:
213,192,154613,1,0,0:0:0:0:
42,192,154762,1,8,0:0:0:0:
298,192,154762,1,4,0:0:0:0:
469,192,154762,1,0,0:0:0:0:
42,192,154912,1,0,0:0:0:0:
384,192,154986,1,4,0:0:0:0:
128,192,155061,1,8,0:0:0:0:
298,192,155061,1,4,0:0:0:0:
298,192,155210,1,4,0:0:0:0:
469,192,155210,1,8,0:0:0:0:
42,192,155359,1,8,0:0:0:0:
213,192,155359,1,4,0:0:0:0:
213,192,155509,1,4,0:0:0:0:
384,192,155509,1,8,0:0:0:0:
42,192,155658,1,4,0:0:0:0:
213,192,155658,1,8,0:0:0:0:
469,192,155658,1,0,0:0:0:0:
213,192,155807,1,8,0:0:0:0:
384,192,155807,1,4,0:0:0:0:
42,192,155956,1,4,0:0:0:0:
298,192,155956,1,8,0:0:0:0:
298,192,156106,1,8,0:0:0:0:
469,192,156106,1,4,0:0:0:0:
42,192,156255,1,8,0:0:0:0:
128,192,156255,1,4,0:0:0:0:
298,192,156255,1,0,0:0:0:0:
298,192,156404,1,8,0:0:0:0:
384,192,156404,1,4,0:0:0:0:
42,192,156553,1,8,0:0:0:0:
213,192,156553,1,4,0:0:0:0:
469,192,156553,128,0,157150:0:0:0:0:
298,192,156628,1,8,0:0:0:0:
128,192,156703,1,8,0:0:0:0:
298,192,156777,1,8,0:0:0:0:
42,192,156852,1,8,0:0:0:0:
213,192,156927,1,8,0:0:0:0:
384,192,157001,1,8,0:0:0:0:
128,192,157076,1,8,0:0:0:0:
42,192,157150,1,4,0:0:0:0:
298,192,157150,1,8,0:0:0:0:
384,192,157150,1,0,0:0:0:0:
128,192,157349,1,4,0:0:0:0:
384,192,157349,1,8,0:0:0:0:
469,192,157349,1,0,0:0:0:0:
213,192,157548,1,8,0:0:0:0:
298,192,157548,1,4,0:0:0:0:
469,192,157548,1,0,0:0:0:0:
42,192,158046,1,8,0:0:0:0:
213,192,158046,128,0,158344:0:0:0:0:
469,192,158046,128,0,158344:0:0:0:0:
128,192,158344,1,8,0:0:0:0:
384,192,158344,1,0,0:0:0:0:
42,192,158419,1,8,0:0:0:0:
213,192,158494,1,8,0:0:0:0:
298,192,158494,1,0,0:0:0:0:
384,192,158568,1,8,0:0:0:0:
42,192,158643,1,8,0:0:0:0:
213,192,158643,1,0,0:0:0:0:
298,192,158718,1,8,0:0:0:0:
469,192,158718,1,0,0:0:0:0:
42,192,158792,1,8,0:0:0:0:
213,192,158792,1,0,0:0:0:0:
298,192,158867,1,8,0:0:0:0:
469,192,158867,1,0,0:0:0:0:
42,192,158941,1,4,0:0:0:0:
213,192,158941,1,8,0:0:0:0:
384,192,158941,128,0,159091:0:0:0:0:
128,192,159091,128,8,159240:0:0:0:0:
469,192,159091,1,0,0:0:0:0:
213,192,159240,1,8,0:0:0:0:
298,192,159240,128,4,159389:0:0:0:0:
42,192,159389,1,0,0:0:0:0:
469,192,159389,128,0,159837:0:0:0:0:
128,192,159464,1,0,0:0:0:0:
213,192,159538,1,0,0:0:0:0:
298,192,159613,1,0,0:0:0:0:
42,192,159688,1,8,0:0:0:0:
384,192,159688,1,0,0:0:0:0:
42,192,159837,1,4,0:0:0:0:
213,192,159837,128,8,160135:0:0:0:0:
298,192,159986,1,0,0:0:0:0:
384,192,160135,128,8,160285:0:0:0:0:
469,192,160135,1,0,0:0:0:0:
128,192,160285,128,8,160434:0:0:0:0:
42,192,160434,1,4,0:0:0:0:
384,192,160434,128,8,160583:0:0:0:0:
213,192,160583,128,0,161031:0:0:0:0:
298,192,160583,1,0,0:0:0:0:
469,192,160658,1,0,0:0:0:0:
384,192,160733,1,0,0:0:0:0:
298,192,160807,1,0,0:0:0:0:
42,192,160882,1,8,0:0:0:0:
128,192,160882,1,0,0:0:0:0:
42,192,161031,128,4,161330:0:0:0:0:
384,192,161031,1,8,0:0:0:0:
213,192,161180,1,0,0:0:0:0:
298,192,161330,1,8,0:0:0:0:
469,192,161330,1,0,0:0:0:0:
213,192,161479,1,8,0:0:0:0:
298,192,161553,1,0,0:0:0:0:
42,192,161628,1,4,0:0:0:0:
384,192,161628,128,8,161777:0:0:0:0:
128,192,161777,128,0,162076:0:0:0:0:
213,192,161777,1,0,0:0:0:0:
298,192,161852,1,0,0:0:0:0:
469,192,161927,1,0,0:0:0:0:
384,192,162001,1,0,0:0:0:0:
42,192,162076,1,8,0:0:0:0:
298,192,162076,128,0,162225:0:0:0:0:
213,192,162225,1,8,0:0:0:0:
469,192,162225,128,4,162374:0:0:0:0:
298,192,162374,128,0,162524:0:0:0:0:
42,192,162524,128,8,162673:0:0:0:0:
128,192,162524,1,0,0:0:0:0:
213,192,162673,128,8,162822:0:0:0:0:
384,192,162822,128,4,162971:0:0:0:0:
469,192,162822,1,8,0:0:0:0:
42,192,162897,1,0,0:0:0:0:
128,192,162971,128,0,163270:0:0:0:0:
298,192,162971,1,0,0:0:0:0:
213,192,163121,1,0,0:0:0:0:
469,192,163195,1,0,0:0:0:0:
42,192,163270,1,8,0:0:0:0:
384,192,163344,1,0,0:0:0:0:
213,192,163419,1,4,0:0:0:0:
298,192,163419,128,8,163568:0:0:0:0:
42,192,163568,128,8,163718:0:0:0:0:
469,192,163568,1,4,0:0:0:0:
213,192,163718,128,8,164016:0:0:0:0:
384,192,163718,1,4,0:0:0:0:
298,192,163867,1,8,0:0:0:0:
298,192,164016,1,4,0:0:0:0:
469,192,164016,1,8,0:0:0:0:
42,192,164165,1,0,0:0:0:0:
128,192,164165,128,0,164464:0:0:0:0:
384,192,164240,1,0,0:0:0:0:
298,192,164315,1,0,0:0:0:0:
213,192,164389,1,0,0:0:0:0:
384,192,164464,1,8,0:0:0:0:
469,192,164464,1,0,0:0:0:0:
42,192,164613,1,4,0:0:0:0:
298,192,164613,128,8,164912:0:0:0:0:
213,192,164762,1,0,0:0:0:0:
42,192,164912,1,8,0:0:0:0:
128,192,164912,1,4,0:0:0:0:
469,192,164912,128,0,165135:0:0:0:0:
384,192,165061,1,8,0:0:0:0:
213,192,165135,128,0,165359:0:0:0:0:
42,192,165210,1,4,0:0:0:0:
128,192,165210,1,8,0:0:0:0:
384,192,165359,128,0,165658:0:0:0:0:
469,192,165359,1,0,0:0:0:0:
42,192,165434,1,0,0:0:0:0:
128,192,165509,1,0,0:0:0:0:
213,192,165583,1,0,0:0:0:0:
298,192,165658,128,8,165807:0:0:0:0:
469,192,165658,1,0,0:0:0:0:
128,192,165807,128,8,165956:0:0:0:0:
213,192,165807,1,4,0:0:0:0:
42,192,165956,128,0,166106:0:0:0:0:
384,192,165956,1,0,0:0:0:0:
213,192,166106,1,4,0:0:0:0:
298,192,166106,128,8,166553:0:0:0:0:
384,192,166106,1,0,0:0:0:0:
128,192,166255,1,8,0:0:0:0:
42,192,166404,1,4,0:0:0:0:
469,192,166404,1,8,0:0:0:0:
128,192,166553,1,8,0:0:0:0:
213,192,166553,1,0,0:0:0:0:
42,192,166628,1,8,0:0:0:0:
384,192,166628,1,0,0:0:0:0:
213,192,166703,1,8,0:0:0:0:
469,192,166703,128,4,166852:0:0:0:0:
128,192,166852,128,8,167001:0:0:0:0:
213,192,167001,128,8,167150:0:0:0:0:
298,192,167001,1,0,0:0:0:0:
42,192,167150,1,8,0:0:0:0:
384,192,167150,128,0,167300:0:0:0:0:
128,192,167300,1,8,0:0:0:0:
469,192,167300,128,4,167524:0:0:0:0:
42,192,167524,128,8,167747:0:0:0:0:
298,192,167524,1,0,0:0:0:0:
213,192,167747,128,8,167897:0:0:0:0:
469,192,167747,1,0,0:0:0:0:
128,192,167897,1,8,0:0:0:0:
384,192,167897,128,4,168195:0:0:0:0:
42,192,167971,1,8,0:0:0:0:
213,192,168046,1,8,0:0:0:0:
128,192,168121,1,8,0:0:0:0:
298,192,168195,128,8,168494:0:0:0:0:
469,192,168195,1,0,0:0:0:0:
42,192,168270,1,8,0:0:0:0:
384,192,168344,1,8,0:0:0:0:
213,192,168419,1,8,0:0:0:0:
42,192,168494,1,8,0:0:0:0:
128,192,168494,128,4,168941:0:0:0:0:
469,192,168494,1,0,0:0:0:0:
384,192,168643,1,8,0:0:0:0:
42,192,168792,1,8,0:0:0:0:
213,192,168792,1,4,0:0:0:0:
384,192,168941,128,0,169389:0:0:0:0:
469,192,168941,1,0,0:0:0:0:
42,192,169016,1,0,0:0:0:0:
128,192,169091,1,0,0:0:0:0:
213,192,169165,1,0,0:0:0:0:
42,192,169240,1,8,0:0:0:0:
298,192,169240,1,0,0:0:0:0:
42,192,169389,1,4,0:0:0:0:
213,192,169389,128,8,169688:0:0:0:0:
469,192,169538,1,0,0:0:0:0:
42,192,169688,1,8,0:0:0:0:
298,192,169688,128,0,169837:0:0:0:0:
128,192,169837,128,8,169986:0:0:0:0:
298,192,169986,128,8,170135:0:0:0:0:
469,192,169986,1,4,0:0:0:0:
213,192,170135,1,0,0:0:0:0:
384,192,170135,128,0,170583:0:0:0:0:
128,192,170210,1,0,0:0:0:0:
42,192,170285,1,0,0:0:0:0:
298,192,170359,1,0,0:0:0:0:
128,192,170434,1,8,0:0:0:0:
469,192,170434,1,0,0:0:0:0:
128,192,170583,1,8,0:0:0:0:
213,192,170583,128,4,170882:0:0:0:0:
298,192,170733,1,0,0:0:0:0:
42,192,170882,1,8,0:0:0:0:
469,192,170882,1,0,0:0:0:0:
128,192,171031,1,8,0:0:0:0:
298,192,171106,1,0,0:0:0:0:
384,192,171180,128,4,171330:0:0:0:0:
469,192,171180,1,8,0:0:0:0:
42,192,171330,128,0,171628:0:0:0:0:
213,192,171330,1,0,0:0:0:0:
298,192,171404,1,0,0:0:0:0:
384,192,171479,1,0,0:0:0:0:
469,192,171553,1,0,0:0:0:0:
128,192,171628,128,8,171777:0:0:0:0:
298,192,171628,1,0,0:0:0:0:
213,192,171777,128,8,171927:0:0:0:0:
298,192,171777,1,4,0:0:0:0:
384,192,171927,128,0,172076:0:0:0:0:
42,192,172076,1,4,0:0:0:0:
213,192,172076,1,8,0:0:0:0:
469,192,172076,128,0,172300:0:0:0:0:
298,192,172225,1,0,0:0:0:0:
128,192,172300,128,0,172524:0:0:0:0:
213,192,172374,1,0,0:0:0:0:
384,192,172449,1,0,0:0:0:0:
298,192,172524,128,8,172673:0:0:0:0:
42,192,172673,128,8,172971:0:0:0:0:
469,192,172673,1,0,0:0:0:0:
213,192,172772,1,8,0:0:0:0:
469,192,172872,1,8,0:0:0:0:
128,192,172971,1,8,0:0:0:0:
298,192,172971,1,0,0:0:0:0:
213,192,173071,1,8,0:0:0:0:
384,192,173071,1,0,0:0:0:0:
298,192,173170,1,8,0:0:0:0:
469,192,173170,1,0,0:0:0:0:
42,192,173270,1,8,0:0:0:0:
213,192,173270,1,4,0:0:0:0:
384,192,173270,1,0,0:0:0:0:
128,192,173419,1,8,0:0:0:0:
42,192,173568,1,4,0:0:0:0:
213,192,173568,1,8,0:0:0:0:
469,192,173568,128,0,173718:0:0:0:0:
298,192,173718,128,8,173867:0:0:0:0:
128,192,173867,128,8,174016:0:0:0:0:
384,192,173867,1,4,0:0:0:0:
469,192,173867,1,0,0:0:0:0:
42,192,174016,128,8,174165:0:0:0:0:
213,192,174165,128,4,174315:0:0:0:0:
298,192,174165,1,8,0:0:0:0:
469,192,174165,1,0,0:0:0:0:
128,192,174315,1,8,0:0:0:0:
384,192,174315,128,4,174464:0:0:0:0:
42,192,174464,1,8,0:0:0:0:
213,192,174464,1,4,0:0:0:0:
469,192,174464,128,0,174688:0:0:0:0:
298,192,174613,1,8,0:0:0:0:
128,192,174688,128,0,174912:0:0:0:0:
42,192,174762,1,8,0:0:0:0:
298,192,174762,1,4,0:0:0:0:
384,192,174912,128,8,175061:0:0:0:0:
42,192,175061,128,4,175359:0:0:0:0:
298,192,175061,1,8,0:0:0:0:
469,192,175061,1,0,0:0:0:0:
128,192,175210,1,8,0:0:0:0:
298,192,175359,1,8,0:0:0:0:
469,192,175359,1,4,0:0:0:0:
213,192,175434,1,0,0:0:0:0:
298,192,175509,1,4,0:0:0:0:
469,192,175509,1,8,0:0:0:0:
213,192,175583,1,0,0:0:0:0:
128,192,175658,1,8,0:0:0:0:
298,192,175658,1,4,0:0:0:0:
384,192,175733,1,0,0:0:0:0:
128,192,175807,1,8,0:0:0:0:
384,192,175882,1,0,0:0:0:0:
42,192,175956,1,8,0:0:0:0:
213,192,175956,1,4,0:0:0:0:
469,192,176031,1,0,0:0:0:0:
298,192,176106,1,8,0:0:0:0:
128,192,176180,1,0,0:0:0:0:
469,192,176255,1,8,0:0:0:0:
42,192,176255,1,4,0:0:0:0:
384,192,176330,1,0,0:0:0:0:
213,192,176404,1,8,0:0:0:0:
42,192,176479,1,0,0:0:0:0:
298,192,176553,1,8,0:0:0:0:
469,192,176553,1,4,0:0:0:0:
128,192,176628,1,0,0:0:0:0:
384,192,176703,1,8,0:0:0:0:
213,192,176777,1,0,0:0:0:0:
42,192,176852,1,8,0:0:0:0:
298,192,176852,1,4,0:0:0:0:
469,192,176927,1,8,0:0:0:0:
128,192,177001,1,8,0:0:0:0:
384,192,177001,1,0,0:0:0:0:
42,192,177076,1,8,0:0:0:0:
213,192,177150,1,8,0:0:0:0:
469,192,177150,1,0,0:0:0:0:
128,192,177225,1,8,0:0:0:0:
298,192,177300,1,8,0:0:0:0:
384,192,177300,1,0,0:0:0:0:
128,192,177374,1,8,0:0:0:0:
469,192,177449,1,8,0:0:0:0:
384,192,177486,1,8,0:0:0:0:
298,192,177524,1,8,0:0:0:0:
213,192,177561,1,8,0:0:0:0:
128,192,177598,1,8,0:0:0:0:
42,192,177635,1,8,0:0:0:0:
469,192,177673,1,8,0:0:0:0:
384,192,177710,1,8,0:0:0:0:
298,192,177747,1,8,0:0:0:0:
213,192,177785,1,8,0:0:0:0:
128,192,177822,1,8,0:0:0:0:
42,192,177859,1,8,0:0:0:0:
469,192,177897,1,8,0:0:0:0:
384,192,177934,1,8,0:0:0:0:
298,192,177971,1,8,0:0:0:0:
213,192,178009,1,8,0:0:0:0:
42,192,178046,1,8,0:0:0:0:
128,192,178046,1,0,0:0:0:0:
42,192,178195,1,8,0:0:0:0:
128,192,178195,1,0,0:0:0:0:
298,192,178344,1,8,0:0:0:0:
384,192,178344,1,4,0:0:0:0:
469,192,178344,1,0,0:0:0:0:
42,192,178494,1,8,0:0:0:0:
213,192,178494,1,0,0:0:0:0:
42,192,178643,1,8,0:0:0:0:
213,192,178643,1,0,0:0:0:0:
298,192,178792,1,8,0:0:0:0:
384,192,178792,1,4,0:0:0:0:
469,192,178792,1,0,0:0:0:0:
128,192,178941,1,8,0:0:0:0:
213,192,178941,1,0,0:0:0:0:
128,192,179091,1,8,0:0:0:0:
213,192,179091,1,0,0:0:0:0:
298,192,179240,1,4,0:0:0:0:
469,192,179240,1,8,0:0:0:0:
42,192,179389,1,8,0:0:0:0:
298,192,179389,1,0,0:0:0:0:
42,192,179538,1,8,0:0:0:0:
213,192,179538,1,4,0:0:0:0:
384,192,179688,1,8,0:0:0:0:
469,192,179688,1,0,0:0:0:0:
42,192,179837,1,8,0:0:0:0:
128,192,179837,1,0,0:0:0:0:
298,192,179912,1,8,0:0:0:0:
128,192,179986,1,8,0:0:0:0:
298,192,180061,1,8,0:0:0:0:
42,192,180135,1,4,0:0:0:0:
213,192,180135,1,8,0:0:0:0:
469,192,180135,1,0,0:0:0:0:
384,192,180210,1,8,0:0:0:0:
213,192,180285,1,8,0:0:0:0:
384,192,180359,1,8,0:0:0:0:
42,192,180434,1,4,0:0:0:0:
128,192,180434,1,8,0:0:0:0:
298,192,180434,1,0,0:0:0:0:
42,192,180583,1,0,0:0:0:0:
213,192,180733,1,8,0:0:0:0:
384,192,180733,1,4,0:0:0:0:
469,192,180733,1,0,0:0:0:0:
213,192,180882,1,0,0:0:0:0:
298,192,180956,1,0,0:0:0:0:
384,192,180956,1,0,0:0:0:0:
42,192,181031,1,8,0:0:0:0:
128,192,181031,1,0,0:0:0:0:
469,192,181031,1,0,0:0:0:0:
128,192,181180,1,0,0:0:0:0:
213,192,181330,1,4,0:0:0:0:
384,192,181330,1,8,0:0:0:0:
469,192,181330,1,0,0:0:0:0:
469,192,181479,1,0,0:0:0:0:
42,192,181628,1,8,0:0:0:0:
128,192,181628,1,0,0:0:0:0:
298,192,181628,1,0,0:0:0:0:
213,192,181777,1,0,0:0:0:0:
42,192,181927,1,8,0:0:0:0:
298,192,181927,1,4,0:0:0:0:
469,192,181927,1,0,0:0:0:0:
213,192,182076,1,0,0:0:0:0:
42,192,182225,1,8,0:0:0:0:
128,192,182225,1,0,0:0:0:0:
469,192,182225,1,0,0:0:0:0:
384,192,182374,1,0,0:0:0:0:
42,192,182524,1,8,0:0:0:0:
213,192,182524,1,4,0:0:0:0:
298,192,182524,1,0,0:0:0:0:
128,192,182673,1,0,0:0:0:0:
42,192,182822,1,8,0:0:0:0:
298,192,182822,1,0,0:0:0:0:
469,192,182822,1,0,0:0:0:0:
298,192,182971,1,0,0:0:0:0:
42,192,183121,1,8,0:0:0:0:
213,192,183121,1,4,0:0:0:0:
384,192,183121,1,0,0:0:0:0:
213,192,183270,1,0,0:0:0:0:
42,192,183344,1,0,0:0:0:0:
128,192,183344,1,0,0:0:0:0:
213,192,183419,1,8,0:0:0:0:
298,192,183419,1,0,0:0:0:0:
469,192,183419,1,0,0:0:0:0:
469,192,183568,1,0,0:0:0:0:
42,192,183718,1,8,0:0:0:0:
213,192,183718,1,4,0:0:0:0:
384,192,183718,1,0,0:0:0:0:
42,192,183867,1,0,0:0:0:0:
128,192,184016,1,8,0:0:0:0:
298,192,184016,1,0,0:0:0:0:
469,192,184016,1,0,0:0:0:0:
298,192,184165,1,0,0:0:0:0:
42,192,184315,1,4,0:0:0:0:
213,192,184315,1,8,0:0:0:0:
469,192,184315,1,0,0:0:0:0:
384,192,184389,1,0,0:0:0:0:
213,192,184464,1,0,0:0:0:0:
42,192,184613,1,0,0:0:0:0:
128,192,184613,1,0,0:0:0:0:
384,192,184613,1,0,0:0:0:0:
298,192,184688,1,0,0:0:0:0:
42,192,184762,1,0,0:0:0:0:
384,192,184762,1,0,0:0:0:0:
469,192,184837,1,0,0:0:0:0:
128,192,184912,1,8,0:0:0:0:
213,192,184912,1,0,0:0:0:0:
298,192,184912,1,0,0:0:0:0:
213,192,185061,1,0,0:0:0:0:
42,192,185210,1,8,0:0:0:0:
298,192,185210,1,4,0:0:0:0:
469,192,185210,1,0,0:0:0:0:
42,192,185359,1,0,0:0:0:0:
213,192,185509,1,8,0:0:0:0:
384,192,185509,1,4,0:0:0:0:
469,192,185509,1,0,0:0:0:0:
384,192,185658,1,0,0:0:0:0:
213,192,185733,1,0,0:0:0:0:
42,192,185807,1,8,0:0:0:0:
128,192,185807,1,0,0:0:0:0:
384,192,185807,1,0,0:0:0:0:
128,192,185956,1,0,0:0:0:0:
213,192,186106,1,8,0:0:0:0:
298,192,186106,1,4,0:0:0:0:
469,192,186106,1,0,0:0:0:0:
469,192,186255,1,0,0:0:0:0:
42,192,186404,1,8,0:0:0:0:
128,192,186404,1,4,0:0:0:0:
298,192,186404,1,0,0:0:0:0:
384,192,186404,1,0,0:0:0:0:
213,192,186553,1,0,0:0:0:0:
42,192,186703,1,4,0:0:0:0:
298,192,186703,1,8,0:0:0:0:
469,192,186703,1,0,0:0:0:0:
213,192,186852,1,0,0:0:0:0:
42,192,187001,1,8,0:0:0:0:
128,192,187001,1,0,0:0:0:0:
469,192,187001,1,0,0:0:0:0:
384,192,187150,1,0,0:0:0:0:
42,192,187300,1,8,0:0:0:0:
213,192,187300,1,4,0:0:0:0:
298,192,187300,1,0,0:0:0:0:
128,192,187449,1,0,0:0:0:0:
42,192,187598,1,4,0:0:0:0:
298,192,187598,1,8,0:0:0:0:
469,192,187598,1,0,0:0:0:0:
298,192,187747,1,0,0:0:0:0:
42,192,187897,1,8,0:0:0:0:
213,192,187897,1,4,0:0:0:0:
384,192,187897,1,0,0:0:0:0:
213,192,188046,1,0,0:0:0:0:
384,192,188121,1,0,0:0:0:0:
42,192,188195,1,8,0:0:0:0:
128,192,188195,1,0,0:0:0:0:
298,192,188195,1,0,0:0:0:0:
469,192,188195,1,0,0:0:0:0:
469,192,188344,1,0,0:0:0:0:
42,192,188494,1,8,0:0:0:0:
213,192,188494,1,4,0:0:0:0:
384,192,188494,1,0,0:0:0:0:
42,192,188643,1,0,0:0:0:0:
213,192,188643,1,0,0:0:0:0:
128,192,188792,1,8,0:0:0:0:
298,192,188792,1,0,0:0:0:0:
469,192,188792,1,0,0:0:0:0:
384,192,188941,1,0,0:0:0:0:
298,192,188979,1,0,0:0:0:0:
213,192,189016,1,0,0:0:0:0:
128,192,189053,1,0,0:0:0:0:
42,192,189091,1,0,0:0:0:0:
469,192,189091,1,0,0:0:0:0:
213,192,189240,1,8,0:0:0:0:
384,192,189240,1,4,0:0:0:0:
469,192,189240,1,0,0:0:0:0:
42,192,189389,1,8,0:0:0:0:
128,192,189389,1,0,0:0:0:0:
298,192,189389,1,0,0:0:0:0:
469,192,189464,1,0,0:0:0:0:
42,192,189538,1,8,0:0:0:0:
213,192,189538,1,0,0:0:0:0:
384,192,189613,1,0,0:0:0:0:
128,192,189688,1,8,0:0:0:0:
469,192,189688,1,0,0:0:0:0:
298,192,189762,1,8,0:0:0:0:
128,192,189837,1,8,0:0:0:0:
384,192,189837,1,0,0:0:0:0:
213,192,189912,1,8,0:0:0:0:
42,192,189986,128,4,190583:0:0:0:0:
128,192,189986,1,8,0:0:0:0:
298,192,189986,1,0,0:0:0:0:
298,192,190135,1,0,0:0:0:0:
213,192,190285,1,8,0:0:0:0:
469,192,190285,1,4,0:0:0:0:
213,192,190434,1,0,0:0:0:0:
128,192,190583,1,8,0:0:0:0:
384,192,190583,1,0,0:0:0:0:
469,192,190583,128,0,191180:0:0:0:0:
128,192,190733,1,0,0:0:0:0:
42,192,190882,1,8,0:0:0:0:
298,192,190882,1,4,0:0:0:0:
298,192,191031,1,0,0:0:0:0:
42,192,191180,1,4,0:0:0:0:
213,192,191180,1,8,0:0:0:0:
384,192,191180,128,0,191479:0:0:0:0:
128,192,191330,1,0,0:0:0:0:
42,192,191479,1,8,0:0:0:0:
298,192,191479,128,4,191777:0:0:0:0:
469,192,191479,1,0,0:0:0:0:
128,192,191628,1,0,0:0:0:0:
213,192,191777,128,8,192076:0:0:0:0:
384,192,191777,1,0,0:0:0:0:
469,192,191777,1,0,0:0:0:0:
298,192,191927,1,0,0:0:0:0:
128,192,192076,128,8,192374:0:0:0:0:
384,192,192076,1,4,0:0:0:0:
469,192,192076,1,0,0:0:0:0:
213,192,192225,1,0,0:0:0:0:
42,192,192374,128,8,192971:0:0:0:0:
298,192,192374,1,4,0:0:0:0:
469,192,192374,1,0,0:0:0:0:
298,192,192524,1,0,0:0:0:0:
213,192,192673,1,8,0:0:0:0:
384,192,192673,1,4,0:0:0:0:
384,192,192822,1,0,0:0:0:0:
128,192,192971,1,8,0:0:0:0:
298,192,192971,128,0,193568:0:0:0:0:
469,192,192971,1,0,0:0:0:0:
128,192,193121,1,0,0:0:0:0:
42,192,193270,1,8,0:0:0:0:
384,192,193270,1,4,0:0:0:0:
384,192,193419,1,0,0:0:0:0:
42,192,193568,1,4,0:0:0:0:
213,192,193568,1,8,0:0:0:0:
469,192,193568,128,0,194165:0:0:0:0:
213,192,193718,1,0,0:0:0:0:
42,192,193867,1,4,0:0:0:0:
384,192,193867,1,8,0:0:0:0:
384,192,194016,1,0,0:0:0:0:
42,192,194165,1,8,0:0:0:0:
128,192,194165,1,0,0:0:0:0:
213,192,194165,128,0,194464:0:0:0:0:
128,192,194315,1,0,0:0:0:0:
298,192,194464,1,4,0:0:0:0:
384,192,194464,128,8,194762:0:0:0:0:
469,192,194464,1,0,0:0:0:0:
298,192,194613,1,0,0:0:0:0:
42,192,194762,1,8,0:0:0:0:
213,192,194762,1,4,0:0:0:0:
469,192,194762,128,0,195956:0:0:0:0:
128,192,194912,1,0,0:0:0:0:
42,192,195061,1,8,0:0:0:0:
298,192,195061,1,4,0:0:0:0:
213,192,195210,1,0,0:0:0:0:
128,192,195359,1,8,0:0:0:0:
384,192,195359,1,4,0:0:0:0:
298,192,195509,1,0,0:0:0:0:
213,192,195658,1,8,0:0:0:0:
42,192,195658,1,4,0:0:0:0:
298,192,195807,1,8,0:0:0:0:
213,192,195807,1,4,0:0:0:0:
42,192,195956,128,4,196553:0:0:0:0:
128,192,195956,1,8,0:0:0:0:
298,192,195956,1,0,0:0:0:0:
469,192,196106,1,0,0:0:0:0:
128,192,196255,1,4,0:0:0:0:
384,192,196255,1,8,0:0:0:0:
298,192,196404,1,0,0:0:0:0:
128,192,196553,1,4,0:0:0:0:
213,192,196553,128,8,197150:0:0:0:0:
469,192,196553,1,0,0:0:0:0:
384,192,196703,1,0,0:0:0:0:
42,192,196852,1,4,0:0:0:0:
298,192,196852,1,8,0:0:0:0:
42,192,197001,1,8,0:0:0:0:
469,192,197001,1,4,0:0:0:0:
298,192,197150,1,8,0:0:0:0:
384,192,197150,128,4,198344:0:0:0:0:
469,192,197150,1,0,0:0:0:0:
42,192,197300,1,8,0:0:0:0:
128,192,197300,1,4,0:0:0:0:
213,192,197449,1,4,0:0:0:0:
298,192,197449,1,8,0:0:0:0:
128,192,197598,1,8,0:0:0:0:
469,192,197598,1,4,0:0:0:0:
42,192,197747,1,4,0:0:0:0:
298,192,197747,1,8,0:0:0:0:
128,192,197897,1,8,0:0:0:0:
213,192,197897,1,4,0:0:0:0:
42,192,198046,1,8,0:0:0:0:
298,192,198046,1,4,0:0:0:0:
128,192,198195,1,8,0:0:0:0:
469,192,198195,1,4,0:0:0:0:
213,192,198344,128,8,198941:0:0:0:0:
42,192,198344,1,4,0:0:0:0:
469,192,198419,1,12,0:0:0:0:
384,192,198494,1,12,0:0:0:0:
298,192,198568,1,12,0:0:0:0:
42,192,198643,1,4,0:0:0:0:
128,192,198643,1,8,0:0:0:0:
469,192,198718,1,12,0:0:0:0:
384,192,198792,1,12,0:0:0:0:
298,192,198867,1,12,0:0:0:0:
42,192,198941,128,8,199538:0:0:0:0:
128,192,198941,1,0,0:0:0:0:
469,192,198941,128,0,199538:0:0:0:0:
384,192,199016,1,8,0:0:0:0:
213,192,199091,1,8,0:0:0:0:
298,192,199165,1,8,0:0:0:0:
128,192,199240,1,8,0:0:0:0:
384,192,199315,1,8,0:0:0:0:
213,192,199389,1,8,0:0:0:0:
298,192,199464,1,8,0:0:0:0:
128,192,199538,1,8,0:0:0:0:
384,192,199538,1,0,0:0:0:0:
298,192,199688,1,0,0:0:0:0:
128,192,199837,1,0,0:0:0:0:
384,192,199986,1,0,0:0:0:0:
469,192,200135,1,0,0:0:0:0:
213,192,200285,1,0,0:0:0:0:
384,192,200434,1,0,0:0:0:0:
128,192,200583,1,0,0:0:0:0:
42,192,200733,1,0,0:0:0:0:
298,192,200882,1,0,0:0:0:0:
128,192,201031,1,0,0:0:0:0:
384,192,201180,1,0,0:0:0:0:
469,192,201330,1,0,0:0:0:0:
213,192,201479,1,0,0:0:0:0:
384,192,201628,1,0,0:0:0:0:
128,192,201777,1,0,0:0:0:0:
42,192,201927,1,0,0:0:0:0:
298,192,202076,1,0,0:0:0:0:
128,192,202225,1,0,0:0:0:0:
384,192,202374,1,0,0:0:0:0:
469,192,202524,1,0,0:0:0:0:
213,192,202673,1,0,0:0:0:0:
384,192,202822,1,0,0:0:0:0:
128,192,202971,1,0,0:0:0:0:
42,192,203121,1,0,0:0:0:0:
298,192,203270,1,0,0:0:0:0:
128,192,203419,1,0,0:0:0:0:
384,192,203568,1,0,0:0:0:0:
469,192,203718,1,0,0:0:0:0:
213,192,203867,1,0,0:0:0:0:
384,192,204016,1,0,0:0:0:0:
128,192,204091,1,0,0:0:0:0:
384,192,204165,1,0,0:0:0:0:
128,192,204240,1,0,0:0:0:0:
42,192,204315,1,0,0:0:0:0:
469,192,204315,1,0,0:0:0:0:
298,192,204464,1,0,0:0:0:0:
42,192,204613,1,0,0:0:0:0:
213,192,204613,1,0,0:0:0:0:
384,192,204762,1,0,0:0:0:0:
128,192,204837,1,0,0:0:0:0:
469,192,204912,1,0,0:0:0:0:
128,192,204986,1,0,0:0:0:0:
298,192,205061,1,0,0:0:0:0:
213,192,205210,1,0,0:0:0:0:
469,192,205210,1,0,0:0:0:0:
128,192,205359,1,0,0:0:0:0:
42,192,205509,1,0,0:0:0:0:
384,192,205509,1,0,0:0:0:0:
298,192,205658,1,0,0:0:0:0:
128,192,205807,1,0,0:0:0:0:
384,192,205956,1,0,0:0:0:0:
42,192,206031,1,0,0:0:0:0:
469,192,206106,1,0,0:0:0:0:
42,192,206180,1,0,0:0:0:0:
298,192,206255,1,0,0:0:0:0:
213,192,206404,1,0,0:0:0:0:
384,192,206404,1,0,0:0:0:0:
469,192,206479,1,0,0:0:0:0:
128,192,206553,1,0,0:0:0:0:
298,192,206628,1,0,0:0:0:0:
42,192,206703,1,0,0:0:0:0:
298,192,206852,1,0,0:0:0:0:
128,192,207001,1,0,0:0:0:0:
384,192,207150,1,0,0:0:0:0:
213,192,207225,1,0,0:0:0:0:
469,192,207300,1,0,0:0:0:0:
213,192,207374,1,0,0:0:0:0:
298,192,207449,1,0,0:0:0:0:
128,192,207598,1,0,0:0:0:0:
384,192,207598,1,0,0:0:0:0:
213,192,207747,1,0,0:0:0:0:
42,192,207897,128,0,209091:0:0:0:0:
298,192,207897,1,0,0:0:0:0:
469,192,207897,128,0,209091:0:0:0:0:
213,192,208046,1,0,0:0:0:0:
128,192,208195,1,0,0:0:0:0:
298,192,208344,1,0,0:0:0:0:
384,192,208494,1,0,0:0:0:0:
213,192,208643,1,0,0:0:0:0:
298,192,208792,1,0,0:0:0:0:
128,192,208941,1,0,0:0:0:0:
213,192,209091,1,0,0:0:0:0:
298,192,209091,1,0,0:0:0:0:
384,192,209091,1,0,0:0:0:0:
128,192,209240,1,0,0:0:0:0:
213,192,209389,1,0,0:0:0:0:
384,192,209389,1,0,0:0:0:0:
469,192,209538,1,0,0:0:0:0:
213,192,209688,1,0,0:0:0:0:
384,192,209688,1,0,0:0:0:0:
42,192,209837,1,0,0:0:0:0:
213,192,209986,1,0,0:0:0:0:
384,192,209986,1,0,0:0:0:0:
298,192,210135,1,0,0:0:0:0:
128,192,210285,1,0,0:0:0:0:
469,192,210285,1,0,0:0:0:0:
213,192,210434,1,0,0:0:0:0:
128,192,210583,1,0,0:0:0:0:
469,192,210583,1,0,0:0:0:0:
298,192,210733,1,0,0:0:0:0:
128,192,210882,1,0,0:0:0:0:
469,192,210882,1,0,0:0:0:0:
384,192,211031,1,0,0:0:0:0:
128,192,211180,1,0,0:0:0:0:
469,192,211180,1,0,0:0:0:0:
128,192,211330,1,0,0:0:0:0:
42,192,211479,1,0,0:0:0:0:
298,192,211479,1,0,0:0:0:0:
384,192,211628,1,0,0:0:0:0:
42,192,211777,1,0,0:0:0:0:
298,192,211777,1,0,0:0:0:0:
213,192,211927,1,0,0:0:0:0:
42,192,212076,1,0,0:0:0:0:
298,192,212076,1,0,0:0:0:0:
469,192,212225,1,0,0:0:0:0:
42,192,212374,1,0,0:0:0:0:
298,192,212374,1,0,0:0:0:0:
128,192,212524,1,0,0:0:0:0:
213,192,212673,1,0,0:0:0:0:
469,192,212673,1,0,0:0:0:0:
384,192,212822,1,0,0:0:0:0:
213,192,212971,1,0,0:0:0:0:
469,192,212971,1,0,0:0:0:0:
128,192,213121,1,0,0:0:0:0:
213,192,213270,1,4,0:0:0:0:
469,192,213270,1,0,0:0:0:0:
298,192,213344,1,4,0:0:0:0:
213,192,213419,1,4,0:0:0:0:
298,192,213494,1,4,0:0:0:0:
42,192,213568,1,4,0:0:0:0:
469,192,213568,1,0,0:0:0:0:
42,192,213718,1,0,0:0:0:0:
213,192,213867,1,0,0:0:0:0:
298,192,213867,1,0,0:0:0:0:
384,192,213867,1,0,0:0:0:0:
128,192,214016,1,0,0:0:0:0:
213,192,214165,1,0,0:0:0:0:
384,192,214165,1,0,0:0:0:0:
469,192,214315,1,0,0:0:0:0:
213,192,214464,1,0,0:0:0:0:
384,192,214464,1,0,0:0:0:0:
42,192,214613,1,0,0:0:0:0:
213,192,214762,1,0,0:0:0:0:
384,192,214762,1,0,0:0:0:0:
298,192,214912,1,0,0:0:0:0:
128,192,215061,1,0,0:0:0:0:
469,192,215061,1,0,0:0:0:0:
213,192,215210,1,0,0:0:0:0:
128,192,215359,1,0,0:0:0:0:
469,192,215359,1,0,0:0:0:0:
298,192,215509,1,0,0:0:0:0:
128,192,215658,1,0,0:0:0:0:
469,192,215658,1,0,0:0:0:0:
384,192,215807,1,0,0:0:0:0:
128,192,215956,1,0,0:0:0:0:
469,192,215956,1,0,0:0:0:0:
128,192,216106,1,0,0:0:0:0:
42,192,216255,1,0,0:0:0:0:
298,192,216255,1,0,0:0:0:0:
384,192,216404,1,0,0:0:0:0:
42,192,216553,1,0,0:0:0:0:
298,192,216553,1,0,0:0:0:0:
213,192,216703,1,0,0:0:0:0:
42,192,216852,1,0,0:0:0:0:
298,192,216852,1,0,0:0:0:0:
469,192,217001,1,0,0:0:0:0:
42,192,217150,1,0,0:0:0:0:
298,192,217150,1,0,0:0:0:0:
128,192,217300,1,0,0:0:0:0:
213,192,217449,1,0,0:0:0:0:
469,192,217449,1,0,0:0:0:0:
42,192,217598,1,0,0:0:0:0:
298,192,217747,1,0,0:0:0:0:
128,192,217897,1,0,0:0:0:0:
384,192,218046,1,0,0:0:0:0:
213,192,218195,1,0,0:0:0:0:
469,192,218344,1,0,0:0:0:0:
298,192,218494,1,0,0:0:0:0:
42,192,218643,1,8,0:0:0:0:
213,192,218643,1,4,0:0:0:0:
384,192,218643,1,0,0:0:0:0:
469,192,218643,1,0,0:0:0:0:
384,192,218792,1,0,0:0:0:0:
128,192,218941,1,8,0:0:0:0:
298,192,218941,1,4,0:0:0:0:
128,192,219091,1,0,0:0:0:0:
384,192,219091,1,0,0:0:0:0:
213,192,219165,1,0,0:0:0:0:
384,192,219240,1,8,0:0:0:0:
469,192,219240,1,0,0:0:0:0:
42,192,219389,1,0,0:0:0:0:
213,192,219389,1,0,0:0:0:0:
42,192,219538,1,4,0:0:0:0:
298,192,219538,1,8,0:0:0:0:
298,192,219688,1,0,0:0:0:0:
469,192,219688,1,0,0:0:0:0:
42,192,219837,1,8,0:0:0:0:
213,192,219837,1,0,0:0:0:0:
469,192,219837,1,0,0:0:0:0:
213,192,219986,1,0,0:0:0:0:
42,192,220135,1,4,0:0:0:0:
298,192,220135,1,8,0:0:0:0:
469,192,220135,1,0,0:0:0:0:
298,192,220285,1,0,0:0:0:0:
42,192,220434,1,8,0:0:0:0:
128,192,220434,1,0,0:0:0:0:
384,192,220434,1,0,0:0:0:0:
128,192,220583,1,0,0:0:0:0:
213,192,220733,1,8,0:0:0:0:
298,192,220733,1,4,0:0:0:0:
469,192,220733,1,0,0:0:0:0:
469,192,220882,1,0,0:0:0:0:
213,192,220956,1,0,0:0:0:0:
298,192,220956,1,0,0:0:0:0:
42,192,221031,1,8,0:0:0:0:
128,192,221031,1,4,0:0:0:0:
384,192,221031,1,0,0:0:0:0:
128,192,221180,1,0,0:0:0:0:
42,192,221330,1,8,0:0:0:0:
213,192,221330,1,4,0:0:0:0:
469,192,221330,1,0,0:0:0:0:
469,192,221479,1,0,0:0:0:0:
128,192,221553,1,0,0:0:0:0:
213,192,221553,1,0,0:0:0:0:
42,192,221628,1,4,0:0:0:0:
298,192,221628,1,8,0:0:0:0:
469,192,221628,1,0,0:0:0:0:
42,192,221777,1,0,0:0:0:0:
213,192,221927,1,4,0:0:0:0:
298,192,221927,1,8,0:0:0:0:
384,192,221927,1,0,0:0:0:0:
384,192,222076,1,0,0:0:0:0:
42,192,222225,1,8,0:0:0:0:
213,192,222225,1,0,0:0:0:0:
298,192,222300,1,8,0:0:0:0:
469,192,222300,1,0,0:0:0:0:
42,192,222374,1,8,0:0:0:0:
213,192,222374,1,0,0:0:0:0:
298,192,222449,1,8,0:0:0:0:
469,192,222449,1,0,0:0:0:0:
42,192,222524,1,4,0:0:0:0:
384,192,222524,1,8,0:0:0:0:
213,192,222598,1,0,0:0:0:0:
298,192,222673,1,0,0:0:0:0:
128,192,222747,1,0,0:0:0:0:
298,192,222822,1,8,0:0:0:0:
469,192,222822,1,0,0:0:0:0:
42,192,222897,1,8,0:0:0:0:
213,192,222897,1,0,0:0:0:0:
298,192,222971,1,8,0:0:0:0:
469,192,222971,1,0,0:0:0:0:
42,192,223046,1,8,0:0:0:0:
213,192,223046,1,0,0:0:0:0:
128,192,223121,1,8,0:0:0:0:
384,192,223121,1,4,0:0:0:0:
469,192,223121,1,0,0:0:0:0:
298,192,223270,1,0,0:0:0:0:
42,192,223419,1,8,0:0:0:0:
298,192,223419,1,4,0:0:0:0:
469,192,223419,1,0,0:0:0:0:
213,192,223568,1,0,0:0:0:0:
42,192,223718,1,8,0:0:0:0:
298,192,223718,1,4,0:0:0:0:
469,192,223718,1,0,0:0:0:0:
213,192,223867,1,0,0:0:0:0:
128,192,223941,1,0,0:0:0:0:
42,192,224016,1,8,0:0:0:0:
298,192,224016,1,4,0:0:0:0:
469,192,224016,1,0,0:0:0:0:
298,192,224165,1,0,0:0:0:0:
42,192,224315,1,8,0:0:0:0:
213,192,224315,1,4,0:0:0:0:
384,192,224315,1,0,0:0:0:0:
42,192,224464,1,4,0:0:0:0:
213,192,224464,1,8,0:0:0:0:
128,192,224613,1,4,0:0:0:0:
298,192,224613,1,8,0:0:0:0:
469,192,224613,1,0,0:0:0:0:
469,192,224762,1,0,0:0:0:0:
42,192,224912,1,4,0:0:0:0:
213,192,224912,1,8,0:0:0:0:
384,192,224912,1,0,0:0:0:0:
213,192,225061,1,0,0:0:0:0:
42,192,225210,1,8,0:0:0:0:
298,192,225210,1,4,0:0:0:0:
469,192,225210,1,0,0:0:0:0:
42,192,225359,1,0,0:0:0:0:
384,192,225434,1,0,0:0:0:0:
128,192,225509,1,8,0:0:0:0:
298,192,225509,1,4,0:0:0:0:
298,192,225658,1,0,0:0:0:0:
469,192,225658,1,0,0:0:0:0:
42,192,225807,1,8,0:0:0:0:
213,192,225807,1,4,0:0:0:0:
384,192,225807,1,0,0:0:0:0:
213,192,225956,1,8,0:0:0:0:
384,192,225956,1,4,0:0:0:0:
42,192,226106,1,8,0:0:0:0:
213,192,226106,1,4,0:0:0:0:
469,192,226106,1,0,0:0:0:0:
213,192,226255,1,8,0:0:0:0:
384,192,226255,1,4,0:0:0:0:
42,192,226404,1,8,0:0:0:0:
298,192,226404,1,4,0:0:0:0:
298,192,226553,1,8,0:0:0:0:
469,192,226553,1,4,0:0:0:0:
42,192,226703,1,8,0:0:0:0:
128,192,226703,1,4,0:0:0:0:
298,192,226703,1,0,0:0:0:0:
298,192,226852,1,8,0:0:0:0:
384,192,226852,1,4,0:0:0:0:
42,192,227001,1,8,0:0:0:0:
213,192,227001,1,4,0:0:0:0:
469,192,227001,128,0,227598:0:0:0:0:
298,192,227076,1,12,0:0:0:0:
128,192,227150,1,12,0:0:0:0:
298,192,227225,1,12,0:0:0:0:
42,192,227300,1,12,0:0:0:0:
213,192,227374,1,12,0:0:0:0:
384,192,227449,1,12,0:0:0:0:
128,192,227524,1,12,0:0:0:0:
42,192,227598,1,8,0:0:0:0:
298,192,227598,1,4,0:0:0:0:
384,192,227598,1,0,0:0:0:0:
128,192,227797,1,8,0:0:0:0:
384,192,227797,1,4,0:0:0:0:
469,192,227797,1,0,0:0:0:0:
213,192,227996,1,8,0:0:0:0:
298,192,227996,1,4,0:0:0:0:
469,192,227996,1,0,0:0:0:0:
42,192,228494,128,0,231180:0:0:0:0:
213,192,228494,128,0,231255:0:0:0:0:
384,192,228494,128,0,231330:0:0:0:0:
469,192,228494,128,0,231404:0:0:0:0:
128,192,231578,1,0,0:0:0:0:
298,192,231678,1,0,0:0:0:0:
469,192,231777,1,0,0:0:0:0:
213,192,232225,1,0,0:0:0:0:
42,192,232374,1,0,0:0:0:0:
384,192,232673,1,0,0:0:0:0:
42,192,232971,1,0,0:0:0:0:
213,192,232971,1,0,0:0:0:0:
384,192,233121,1,0,0:0:0:0:
298,192,233270,1,0,0:0:0:0:
469,192,233419,1,0,0:0:0:0:
128,192,233867,1,0,0:0:0:0:
42,192,234165,1,0,0:0:0:0:
213,192,234165,1,0,0:0:0:0:
298,192,234389,1,0,0:0:0:0:
469,192,234389,1,0,0:0:0:0:
469,192,234613,1,0,0:0:0:0:
213,192,234663,1,0,0:0:0:0:
298,192,235061,1,0,0:0:0:0:
469,192,235061,1,0,0:0:0:0:
213,192,235210,1,0,0:0:0:0:
213,192,235359,1,0,0:0:0:0:
42,192,235509,1,0,0:0:0:0:
298,192,235658,1,0,0:0:0:0:
469,192,235807,1,0,0:0:0:0:
128,192,236255,1,0,0:0:0:0:
384,192,236255,1,0,0:0:0:0:
42,192,236404,1,0,0:0:0:0:
298,192,236404,1,0,0:0:0:0:
213,192,236553,1,0,0:0:0:0:
469,192,236553,1,0,0:0:0:0:
384,192,236852,1,0,0:0:0:0:
128,192,237001,1,0,0:0:0:0:
298,192,237150,1,0,0:0:0:0:
384,192,237449,1,0,0:0:0:0:
42,192,237747,1,0,0:0:0:0:
213,192,237897,1,0,0:0:0:0:
384,192,238046,1,0,0:0:0:0:
384,192,238195,1,0,0:0:0:0:
298,192,238233,1,0,0:0:0:0:
469,192,238494,1,0,0:0:0:0:
298,192,238643,1,0,0:0:0:0:
128,192,238792,1,0,0:0:0:0:
42,192,238941,1,0,0:0:0:0:
469,192,238941,1,0,0:0:0:0:
213,192,239240,1,0,0:0:0:0:
384,192,239389,1,0,0:0:0:0:
128,192,239538,1,0,0:0:0:0:
298,192,239688,1,0,0:0:0:0:
42,192,239837,1,0,0:0:0:0:
298,192,239986,1,0,0:0:0:0:
213,192,240135,1,0,0:0:0:0:
469,192,240135,1,0,0:0:0:0:
42,192,240359,1,0,0:0:0:0:
213,192,240359,1,0,0:0:0:0:
42,192,240583,1,0,0:0:0:0:
384,192,240583,1,0,0:0:0:0:
128,192,240733,1,0,0:0:0:0:
213,192,240733,1,0,0:0:0:0:
469,192,241031,1,0,0:0:0:0:
384,192,241068,1,0,0:0:0:0:
42,192,241330,1,0,0:0:0:0:
298,192,241330,1,0,0:0:0:0:
469,192,241479,1,0,0:0:0:0:
128,192,241628,1,0,0:0:0:0:
213,192,241777,1,0,0:0:0:0:
384,192,241777,1,0,0:0:0:0:
42,192,241927,1,0,0:0:0:0:
213,192,241927,1,0,0:0:0:0:
469,192,242076,1,0,0:0:0:0:
128,192,242225,1,0,0:0:0:0:
298,192,242225,1,0,0:0:0:0:
42,192,242374,1,0,0:0:0:0:
298,192,242524,1,0,0:0:0:0:
469,192,242524,1,0,0:0:0:0:
42,192,242673,1,0,0:0:0:0:
213,192,242673,1,0,0:0:0:0:
298,192,242822,1,0,0:0:0:0:
384,192,242822,1,0,0:0:0:0:
42,192,242971,1,0,0:0:0:0:
128,192,242971,1,0,0:0:0:0:
42,192,243121,1,0,0:0:0:0:
128,192,243121,1,0,0:0:0:0:
298,192,243270,1,0,0:0:0:0:
213,192,243419,1,0,0:0:0:0:
469,192,243419,1,0,0:0:0:0:
384,192,243568,1,0,0:0:0:0:
42,192,243718,1,0,0:0:0:0:
213,192,243718,1,0,0:0:0:0:
469,192,243867,1,0,0:0:0:0:
128,192,243941,1,0,0:0:0:0:
298,192,243941,1,0,0:0:0:0:
384,192,244016,1,0,0:0:0:0:
42,192,244165,1,0,0:0:0:0:
213,192,244165,1,0,0:0:0:0:
469,192,244315,1,0,0:0:0:0:
128,192,244464,1,0,0:0:0:0:
298,192,244464,1,0,0:0:0:0:
298,192,244613,1,0,0:0:0:0:
384,192,244613,1,0,0:0:0:0:
42,192,244762,1,0,0:0:0:0:
298,192,244762,1,0,0:0:0:0:
128,192,244912,1,0,0:0:0:0:
469,192,244912,1,0,0:0:0:0:
298,192,245098,1,0,0:0:0:0:
469,192,245098,1,0,0:0:0:0:
42,192,245310,1,0,0:0:0:0:
213,192,245310,1,0,0:0:0:0:
42,192,245509,1,0,0:0:0:0:
469,192,245509,1,0,0:0:0:0:
213,192,245658,1,0,0:0:0:0:
298,192,245807,1,0,0:0:0:0:
384,192,245807,1,0,0:0:0:0:
298,192,245956,1,0,0:0:0:0:
42,192,246106,1,0,0:0:0:0:
213,192,246106,1,0,0:0:0:0:
42,192,246255,1,0,0:0:0:0:
298,192,246404,1,0,0:0:0:0:
469,192,246404,1,0,0:0:0:0:
128,192,246553,1,0,0:0:0:0:
384,192,246628,1,0,0:0:0:0:
213,192,246703,1,0,0:0:0:0:
384,192,246777,1,0,0:0:0:0:
128,192,246852,1,0,0:0:0:0:
298,192,247001,1,0,0:0:0:0:
469,192,247001,1,0,0:0:0:0:
42,192,247076,1,0,0:0:0:0:
469,192,247150,1,0,0:0:0:0:
42,192,247225,1,0,0:0:0:0:
128,192,247300,1,0,0:0:0:0:
384,192,247300,1,0,0:0:0:0:
384,192,247449,1,0,0:0:0:0:
42,192,247598,1,0,0:0:0:0:
213,192,247598,1,0,0:0:0:0:
384,192,247747,1,0,0:0:0:0:
128,192,247822,1,0,0:0:0:0:
298,192,247897,1,0,0:0:0:0:
128,192,247971,1,0,0:0:0:0:
384,192,248046,1,0,0:0:0:0:
42,192,248195,1,0,0:0:0:0:
213,192,248195,1,0,0:0:0:0:
298,192,248344,1,0,0:0:0:0:
128,192,248419,1,0,0:0:0:0:
298,192,248494,1,8,0:0:0:0:
469,192,248494,1,0,0:0:0:0:
42,192,248643,1,8,0:0:0:0:
384,192,248718,1,0,0:0:0:0:
42,192,248792,1,8,0:0:0:0:
384,192,248867,1,0,0:0:0:0:
42,192,248941,1,8,0:0:0:0:
213,192,248941,1,0,0:0:0:0:
384,192,249016,1,8,0:0:0:0:
213,192,249091,1,8,0:0:0:0:
469,192,249091,1,0,0:0:0:0:
128,192,249165,1,8,0:0:0:0:
298,192,249240,1,8,0:0:0:0:
384,192,249240,1,0,0:0:0:0:
128,192,249315,1,8,0:0:0:0:
298,192,249389,1,8,0:0:0:0:
384,192,249389,1,0,0:0:0:0:
42,192,249464,1,8,0:0:0:0:
128,192,249538,1,8,0:0:0:0:
469,192,249538,1,0,0:0:0:0:
213,192,249613,1,8,0:0:0:0:
42,192,249688,1,8,0:0:0:0:
298,192,249688,1,0,0:0:0:0:
469,192,249688,1,0,0:0:0:0:
42,192,249986,1,8,0:0:0:0:
213,192,249986,128,4,250285:0:0:0:0:
384,192,249986,1,0,0:0:0:0:
469,192,249986,128,0,250285:0:0:0:0:
128,192,250285,1,8,0:0:0:0:
384,192,250285,1,0,0:0:0:0:
42,192,250359,1,8,0:0:0:0:
213,192,250434,1,8,0:0:0:0:
298,192,250434,1,0,0:0:0:0:
384,192,250509,1,8,0:0:0:0:
42,192,250583,1,8,0:0:0:0:
213,192,250583,1,0,0:0:0:0:
298,192,250658,1,8,0:0:0:0:
469,192,250658,1,0,0:0:0:0:
42,192,250733,1,8,0:0:0:0:
213,192,250733,1,0,0:0:0:0:
298,192,250807,1,8,0:0:0:0:
469,192,250807,1,0,0:0:0:0:
42,192,250882,1,8,0:0:0:0:
213,192,250882,1,0,0:0:0:0:
384,192,250882,128,0,251031:0:0:0:0:
128,192,251031,128,8,251180:0:0:0:0:
469,192,251031,1,0,0:0:0:0:
213,192,251180,1,8,0:0:0:0:
298,192,251180,128,4,251330:0:0:0:0:
42,192,251330,1,0,0:0:0:0:
469,192,251330,128,0,251777:0:0:0:0:
128,192,251404,1,0,0:0:0:0:
213,192,251479,1,0,0:0:0:0:
298,192,251553,1,0,0:0:0:0:
42,192,251628,1,8,0:0:0:0:
384,192,251628,1,0,0:0:0:0:
42,192,251777,1,8,0:0:0:0:
213,192,251777,128,4,252076:0:0:0:0:
298,192,251927,1,0,0:0:0:0:
384,192,252076,128,8,252225:0:0:0:0:
469,192,252076,1,0,0:0:0:0:
128,192,252225,128,8,252374:0:0:0:0:
298,192,252374,1,4,0:0:0:0:
384,192,252374,128,8,252524:0:0:0:0:
42,192,252524,1,0,0:0:0:0:
213,192,252524,128,0,252971:0:0:0:0:
469,192,252598,1,0,0:0:0:0:
384,192,252673,1,0,0:0:0:0:
298,192,252747,1,0,0:0:0:0:
42,192,252822,1,8,0:0:0:0:
128,192,252822,1,0,0:0:0:0:
42,192,252971,128,4,253270:0:0:0:0:
384,192,252971,1,8,0:0:0:0:
213,192,253121,1,0,0:0:0:0:
298,192,253270,1,8,0:0:0:0:
469,192,253270,1,0,0:0:0:0:
213,192,253419,1,8,0:0:0:0:
298,192,253494,1,0,0:0:0:0:
42,192,253568,1,8,0:0:0:0:
384,192,253568,128,4,253718:0:0:0:0:
128,192,253718,128,0,254016:0:0:0:0:
213,192,253718,1,0,0:0:0:0:
298,192,253792,1,0,0:0:0:0:
469,192,253867,1,0,0:0:0:0:
384,192,253941,1,0,0:0:0:0:
42,192,254016,1,8,0:0:0:0:
298,192,254016,128,0,254165:0:0:0:0:
213,192,254165,1,8,0:0:0:0:
469,192,254165,128,4,254315:0:0:0:0:
298,192,254315,128,0,254464:0:0:0:0:
42,192,254464,128,8,254613:0:0:0:0:
128,192,254464,1,0,0:0:0:0:
213,192,254613,128,8,254762:0:0:0:0:
384,192,254762,128,4,254912:0:0:0:0:
469,192,254762,1,8,0:0:0:0:
42,192,254837,1,0,0:0:0:0:
128,192,254912,128,0,255210:0:0:0:0:
298,192,254912,1,0,0:0:0:0:
213,192,255061,1,0,0:0:0:0:
469,192,255135,1,0,0:0:0:0:
42,192,255210,1,8,0:0:0:0:
384,192,255285,1,0,0:0:0:0:
213,192,255359,1,8,0:0:0:0:
298,192,255359,128,4,255509:0:0:0:0:
42,192,255509,128,0,255658:0:0:0:0:
469,192,255509,1,0,0:0:0:0:
213,192,255658,128,4,255956:0:0:0:0:
384,192,255658,1,8,0:0:0:0:
298,192,255807,1,8,0:0:0:0:
298,192,255956,1,4,0:0:0:0:
469,192,255956,1,8,0:0:0:0:
42,192,256106,1,0,0:0:0:0:
128,192,256106,128,0,256404:0:0:0:0:
384,192,256180,1,0,0:0:0:0:
298,192,256255,1,0,0:0:0:0:
213,192,256330,1,0,0:0:0:0:
384,192,256404,1,8,0:0:0:0:
469,192,256404,1,0,0:0:0:0:
42,192,256553,1,8,0:0:0:0:
298,192,256553,128,4,256852:0:0:0:0:
213,192,256703,1,0,0:0:0:0:
42,192,256852,1,4,0:0:0:0:
128,192,256852,1,8,0:0:0:0:
469,192,256852,128,0,257076:0:0:0:0:
384,192,257001,1,8,0:0:0:0:
213,192,257076,128,0,257300:0:0:0:0:
42,192,257150,1,4,0:0:0:0:
128,192,257150,1,8,0:0:0:0:
384,192,257300,128,0,257598:0:0:0:0:
469,192,257300,1,0,0:0:0:0:
42,192,257374,1,0,0:0:0:0:
128,192,257449,1,0,0:0:0:0:
213,192,257524,1,0,0:0:0:0:
298,192,257598,128,8,257747:0:0:0:0:
469,192,257598,1,0,0:0:0:0:
128,192,257747,128,8,257897:0:0:0:0:
213,192,257747,1,4,0:0:0:0:
42,192,257897,128,0,258046:0:0:0:0:
384,192,257897,1,0,0:0:0:0:
213,192,258046,1,8,0:0:0:0:
298,192,258046,128,4,258494:0:0:0:0:
384,192,258046,1,0,0:0:0:0:
128,192,258195,1,8,0:0:0:0:
42,192,258344,1,8,0:0:0:0:
469,192,258344,1,4,0:0:0:0:
128,192,258494,1,8,0:0:0:0:
213,192,258494,1,0,0:0:0:0:
42,192,258568,1,8,0:0:0:0:
384,192,258568,1,0,0:0:0:0:
213,192,258643,1,8,0:0:0:0:
469,192,258643,128,0,258792:0:0:0:0:
128,192,258792,128,12,258941:0:0:0:0:
213,192,258941,128,8,259091:0:0:0:0:
298,192,258941,1,0,0:0:0:0:
42,192,259091,1,8,0:0:0:0:
384,192,259091,128,0,259240:0:0:0:0:
128,192,259240,1,4,0:0:0:0:
469,192,259240,128,8,259464:0:0:0:0:
42,192,259464,128,8,259688:0:0:0:0:
298,192,259464,1,4,0:0:0:0:
213,192,259688,128,8,259837:0:0:0:0:
469,192,259688,1,4,0:0:0:0:
128,192,259837,1,8,0:0:0:0:
384,192,259837,128,4,260135:0:0:0:0:
42,192,259912,1,8,0:0:0:0:
213,192,259986,1,8,0:0:0:0:
128,192,260061,1,8,0:0:0:0:
298,192,260135,128,4,260434:0:0:0:0:
469,192,260135,1,0,0:0:0:0:
42,192,260210,1,4,0:0:0:0:
384,192,260285,1,4,0:0:0:0:
213,192,260359,1,4,0:0:0:0:
42,192,260434,1,8,0:0:0:0:
128,192,260434,128,4,260882:0:0:0:0:
469,192,260434,1,0,0:0:0:0:
384,192,260583,1,8,0:0:0:0:
42,192,260733,1,8,0:0:0:0:
213,192,260733,1,4,0:0:0:0:
384,192,260882,128,0,261330:0:0:0:0:
469,192,260882,1,0,0:0:0:0:
42,192,260956,1,0,0:0:0:0:
128,192,261031,1,0,0:0:0:0:
213,192,261106,1,0,0:0:0:0:
42,192,261180,1,8,0:0:0:0:
298,192,261180,1,0,0:0:0:0:
42,192,261330,1,8,0:0:0:0:
213,192,261330,128,4,261628:0:0:0:0:
469,192,261479,1,0,0:0:0:0:
42,192,261628,1,8,0:0:0:0:
298,192,261628,128,0,261777:0:0:0:0:
128,192,261777,128,8,261927:0:0:0:0:
298,192,261927,128,4,262076:0:0:0:0:
469,192,261927,1,8,0:0:0:0:
213,192,262076,1,0,0:0:0:0:
384,192,262076,128,0,262524:0:0:0:0:
128,192,262150,1,0,0:0:0:0:
42,192,262225,1,0,0:0:0:0:
298,192,262300,1,0,0:0:0:0:
128,192,262374,1,8,0:0:0:0:
469,192,262374,1,0,0:0:0:0:
128,192,262524,1,4,0:0:0:0:
213,192,262524,128,8,262822:0:0:0:0:
298,192,262673,1,0,0:0:0:0:
42,192,262822,1,8,0:0:0:0:
469,192,262822,1,0,0:0:0:0:
128,192,262971,1,8,0:0:0:0:
298,192,263046,1,0,0:0:0:0:
384,192,263121,128,8,263270:0:0:0:0:
469,192,263121,1,4,0:0:0:0:
42,192,263270,128,0,263568:0:0:0:0:
213,192,263270,1,0,0:0:0:0:
298,192,263344,1,0,0:0:0:0:
384,192,263419,1,0,0:0:0:0:
469,192,263494,1,0,0:0:0:0:
128,192,263568,128,8,263718:0:0:0:0:
298,192,263568,1,0,0:0:0:0:
213,192,263718,128,4,263867:0:0:0:0:
298,192,263718,1,8,0:0:0:0:
384,192,263867,128,0,264016:0:0:0:0:
42,192,264016,1,8,0:0:0:0:
469,192,264016,128,4,264240:0:0:0:0:
298,192,264165,1,0,0:0:0:0:
128,192,264240,128,12,264464:0:0:0:0:
213,192,264315,1,0,0:0:0:0:
384,192,264389,1,0,0:0:0:0:
298,192,264464,128,12,264613:0:0:0:0:
42,192,264613,128,8,264912:0:0:0:0:
469,192,264613,1,4,0:0:0:0:
213,192,264713,1,8,0:0:0:0:
469,192,264812,1,8,0:0:0:0:
128,192,264912,1,8,0:0:0:0:
298,192,264912,1,0,0:0:0:0:
213,192,265011,1,8,0:0:0:0:
384,192,265011,1,0,0:0:0:0:
469,192,265111,1,0,0:0:0:0:
298,192,265111,1,8,0:0:0:0:
42,192,265210,1,4,0:0:0:0:
213,192,265210,1,8,0:0:0:0:
384,192,265210,1,0,0:0:0:0:
128,192,265359,1,0,0:0:0:0:
42,192,265509,1,4,0:0:0:0:
213,192,265509,1,8,0:0:0:0:
469,192,265509,128,0,265658:0:0:0:0:
298,192,265658,128,0,265807:0:0:0:0:
128,192,265807,128,4,265956:0:0:0:0:
384,192,265807,1,8,0:0:0:0:
469,192,265807,1,0,0:0:0:0:
42,192,265956,128,0,266106:0:0:0:0:
213,192,266106,128,8,266255:0:0:0:0:
298,192,266106,1,4,0:0:0:0:
469,192,266106,1,0,0:0:0:0:
128,192,266255,1,8,0:0:0:0:
384,192,266255,128,4,266404:0:0:0:0:
42,192,266404,1,4,0:0:0:0:
213,192,266404,1,8,0:0:0:0:
469,192,266404,128,0,266628:0:0:0:0:
298,192,266553,1,0,0:0:0:0:
128,192,266628,128,0,266852:0:0:0:0:
42,192,266703,1,8,0:0:0:0:
298,192,266703,1,4,0:0:0:0:
384,192,266852,128,0,267001:0:0:0:0:
42,192,267001,128,8,267300:0:0:0:0:
298,192,267001,1,4,0:0:0:0:
469,192,267001,1,0,0:0:0:0:
128,192,267150,1,0,0:0:0:0:
298,192,267300,1,4,0:0:0:0:
469,192,267300,1,8,0:0:0:0:
213,192,267374,1,0,0:0:0:0:
298,192,267449,1,8,0:0:0:0:
469,192,267449,1,4,0:0:0:0:
213,192,267524,1,0,0:0:0:0:
128,192,267598,1,4,0:0:0:0:
298,192,267598,1,8,0:0:0:0:
384,192,267673,1,0,0:0:0:0:
128,192,267747,1,12,0:0:0:0:
384,192,267822,1,0,0:0:0:0:
42,192,267897,1,4,0:0:0:0:
213,192,267897,1,8,0:0:0:0:
469,192,267971,1,0,0:0:0:0:
298,192,268046,1,12,0:0:0:0:
128,192,268121,1,0,0:0:0:0:
469,192,268195,1,8,0:0:0:0:
42,192,268195,1,4,0:0:0:0:
384,192,268270,1,0,0:0:0:0:
213,192,268344,1,12,0:0:0:0:
42,192,268419,1,0,0:0:0:0:
298,192,268494,1,8,0:0:0:0:
469,192,268494,1,4,0:0:0:0:
128,192,268568,1,0,0:0:0:0:
384,192,268643,1,12,0:0:0:0:
213,192,268718,1,0,0:0:0:0:
42,192,268792,1,4,0:0:0:0:
298,192,268792,1,8,0:0:0:0:
469,192,268867,1,12,0:0:0:0:
128,192,268941,1,4,0:0:0:0:
384,192,268941,1,8,0:0:0:0:
42,192,269016,1,12,0:0:0:0:
213,192,269091,1,8,0:0:0:0:
469,192,269091,1,4,0:0:0:0:
128,192,269165,1,12,0:0:0:0:
298,192,269240,1,4,0:0:0:0:
384,192,269240,1,8,0:0:0:0:
128,192,269315,1,12,0:0:0:0:
469,192,269389,1,8,0:0:0:0:
384,192,269427,1,8,0:0:0:0:
298,192,269464,1,8,0:0:0:0:
213,192,269501,1,8,0:0:0:0:
128,192,269538,1,8,0:0:0:0:
42,192,269576,1,8,0:0:0:0:
469,192,269613,1,8,0:0:0:0:
384,192,269650,1,8,0:0:0:0:
298,192,269688,1,8,0:0:0:0:
213,192,269725,1,8,0:0:0:0:
128,192,269762,1,8,0:0:0:0:
42,192,269800,1,8,0:0:0:0:
469,192,269837,1,8,0:0:0:0:
384,192,269874,1,8,0:0:0:0:
298,192,269912,1,8,0:0:0:0:
213,192,269949,1,8,0:0:0:0:
42,192,269986,1,8,0:0:0:0:
128,192,269986,1,0,0:0:0:0:
42,192,270135,1,8,0:0:0:0:
128,192,270135,1,0,0:0:0:0:
298,192,270285,1,8,0:0:0:0:
384,192,270285,1,4,0:0:0:0:
469,192,270285,1,0,0:0:0:0:
42,192,270434,1,8,0:0:0:0:
213,192,270434,1,0,0:0:0:0:
42,192,270583,1,8,0:0:0:0:
213,192,270583,1,0,0:0:0:0:
298,192,270733,1,8,0:0:0:0:
384,192,270733,1,4,0:0:0:0:
469,192,270733,1,0,0:0:0:0:
128,192,270882,1,8,0:0:0:0:
213,192,270882,1,0,0:0:0:0:
128,192,271031,1,8,0:0:0:0:
213,192,271031,1,0,0:0:0:0:
298,192,271180,1,4,0:0:0:0:
469,192,271180,1,8,0:0:0:0:
42,192,271330,1,0,0:0:0:0:
298,192,271330,1,0,0:0:0:0:
42,192,271479,1,4,0:0:0:0:
213,192,271479,1,8,0:0:0:0:
384,192,271628,1,4,0:0:0:0:
469,192,271628,1,0,0:0:0:0:
42,192,271777,1,8,0:0:0:0:
128,192,271777,1,0,0:0:0:0:
298,192,271852,1,8,0:0:0:0:
128,192,271927,1,8,0:0:0:0:
298,192,272001,1,8,0:0:0:0:
42,192,272076,1,8,0:0:0:0:
213,192,272076,1,4,0:0:0:0:
469,192,272076,1,0,0:0:0:0:
384,192,272225,1,0,0:0:0:0:
42,192,272374,128,4,272971:0:0:0:0:
128,192,272374,1,8,0:0:0:0:
298,192,272374,1,0,0:0:0:0:
469,192,272374,1,0,0:0:0:0:
298,192,272524,1,8,0:0:0:0:
213,192,272673,1,8,0:0:0:0:
469,192,272673,1,4,0:0:0:0:
384,192,272822,1,0,0:0:0:0:
298,192,272897,1,0,0:0:0:0:
213,192,272971,128,0,273568:0:0:0:0:
469,192,272971,1,0,0:0:0:0:
384,192,273046,1,0,0:0:0:0:
298,192,273121,1,8,0:0:0:0:
42,192,273270,1,8,0:0:0:0:
128,192,273270,1,4,0:0:0:0:
469,192,273419,1,0,0:0:0:0:
42,192,273568,1,8,0:0:0:0:
384,192,273568,128,0,274165:0:0:0:0:
42,192,273718,1,8,0:0:0:0:
213,192,273867,1,4,0:0:0:0:
298,192,273867,1,8,0:0:0:0:
128,192,274016,1,0,0:0:0:0:
213,192,274091,1,0,0:0:0:0:
42,192,274165,1,0,0:0:0:0:
469,192,274165,128,0,274762:0:0:0:0:
128,192,274240,1,0,0:0:0:0:
213,192,274315,1,8,0:0:0:0:
298,192,274464,1,4,0:0:0:0:
384,192,274464,1,8,0:0:0:0:
213,192,274613,1,0,0:0:0:0:
42,192,274762,128,8,275359:0:0:0:0:
298,192,274762,1,0,0:0:0:0:
298,192,274912,1,8,0:0:0:0:
213,192,275061,1,8,0:0:0:0:
469,192,275061,1,4,0:0:0:0:
298,192,275210,1,0,0:0:0:0:
384,192,275285,1,0,0:0:0:0:
128,192,275359,128,0,275956:0:0:0:0:
469,192,275359,1,0,0:0:0:0:
298,192,275434,1,0,0:0:0:0:
384,192,275509,1,8,0:0:0:0:
213,192,275658,1,4,0:0:0:0:
469,192,275658,1,8,0:0:0:0:
384,192,275807,1,0,0:0:0:0:
42,192,275956,1,8,0:0:0:0:
298,192,275956,128,0,276553:0:0:0:0:
213,192,276106,1,0,0:0:0:0:
128,192,276180,1,0,0:0:0:0:
384,192,276255,1,0,0:0:0:0:
128,192,276330,1,0,0:0:0:0:
213,192,276404,1,0,0:0:0:0:
128,192,276553,1,8,0:0:0:0:
384,192,276553,1,0,0:0:0:0:
469,192,276553,128,0,277150:0:0:0:0:
42,192,276628,1,8,0:0:0:0:
213,192,276703,1,8,0:0:0:0:
298,192,276703,1,0,0:0:0:0:
384,192,276777,1,8,0:0:0:0:
42,192,276852,1,4,0:0:0:0:
128,192,276852,1,8,0:0:0:0:
213,192,276852,1,0,0:0:0:0:
42,192,277150,1,8,0:0:0:0:
128,192,277150,1,4,0:0:0:0:
298,192,277150,1,0,0:0:0:0:
384,192,277150,1,0,0:0:0:0:
213,192,277300,1,8,0:0:0:0:
298,192,277374,1,0,0:0:0:0:
42,192,277449,1,4,0:0:0:0:
384,192,277449,1,8,0:0:0:0:
298,192,277524,1,0,0:0:0:0:
213,192,277598,1,0,0:0:0:0:
128,192,277673,1,0,0:0:0:0:
298,192,277747,1,0,0:0:0:0:
469,192,277747,1,0,0:0:0:0:
42,192,277822,1,0,0:0:0:0:
128,192,277897,1,8,0:0:0:0:
213,192,277897,1,0,0:0:0:0:
384,192,277971,1,0,0:0:0:0:
42,192,278046,1,8,0:0:0:0:
298,192,278046,1,4,0:0:0:0:
213,192,278121,1,0,0:0:0:0:
384,192,278195,1,0,0:0:0:0:
469,192,278195,1,0,0:0:0:0:
128,192,278270,1,0,0:0:0:0:
298,192,278344,1,8,0:0:0:0:
469,192,278344,1,0,0:0:0:0:
42,192,278419,1,0,0:0:0:0:
298,192,278494,1,8,0:0:0:0:
213,192,278568,1,0,0:0:0:0:
42,192,278643,1,4,0:0:0:0:
469,192,278643,1,8,0:0:0:0:
128,192,278718,1,0,0:0:0:0:
298,192,278792,1,0,0:0:0:0:
213,192,278867,1,0,0:0:0:0:
42,192,278941,1,0,0:0:0:0:
384,192,278941,1,0,0:0:0:0:
298,192,279016,1,0,0:0:0:0:
128,192,279091,1,8,0:0:0:0:
469,192,279091,1,0,0:0:0:0:
213,192,279165,1,0,0:0:0:0:
42,192,279240,1,8,0:0:0:0:
384,192,279240,1,4,0:0:0:0:
298,192,279315,1,0,0:0:0:0:
128,192,279389,1,0,0:0:0:0:
469,192,279389,1,0,0:0:0:0:
384,192,279464,1,0,0:0:0:0:
42,192,279538,1,8,0:0:0:0:
213,192,279538,1,0,0:0:0:0:
469,192,279613,1,0,0:0:0:0:
128,192,279688,1,8,0:0:0:0:
384,192,279762,1,0,0:0:0:0:
42,192,279837,1,4,0:0:0:0:
298,192,279837,1,8,0:0:0:0:
213,192,279912,1,0,0:0:0:0:
384,192,279986,1,0,0:0:0:0:
298,192,280061,1,0,0:0:0:0:
128,192,280135,1,0,0:0:0:0:
469,192,280135,1,0,0:0:0:0:
213,192,280210,1,0,0:0:0:0:
298,192,280285,1,8,0:0:0:0:
384,192,280285,1,0,0:0:0:0:
42,192,280359,1,0,0:0:0:0:
128,192,280434,1,4,0:0:0:0:
298,192,280434,1,8,0:0:0:0:
469,192,280509,1,0,0:0:0:0:
213,192,280583,1,0,0:0:0:0:
384,192,280658,1,0,0:0:0:0:
42,192,280733,1,8,0:0:0:0:
128,192,280733,1,0,0:0:0:0:
298,192,280807,1,0,0:0:0:0:
469,192,280882,1,8,0:0:0:0:
213,192,280956,1,0,0:0:0:0:
42,192,281031,1,8,0:0:0:0:
469,192,281031,1,0,0:0:0:0:
298,192,281106,1,8,0:0:0:0:
128,192,281180,1,8,0:0:0:0:
384,192,281255,1,0,0:0:0:0:
42,192,281330,1,4,0:0:0:0:
213,192,281330,1,8,0:0:0:0:
469,192,281404,1,12,0:0:0:0:
42,192,281479,1,4,0:0:0:0:
213,192,281479,1,8,0:0:0:0:
469,192,281553,1,12,0:0:0:0:
128,192,281628,1,4,0:0:0:0:
384,192,281628,1,8,0:0:0:0:
42,192,281703,1,12,0:0:0:0:
298,192,281777,1,4,0:0:0:0:
469,192,281777,1,8,0:0:0:0:
42,192,281852,1,12,0:0:0:0:
128,192,281927,1,4,0:0:0:0:
298,192,281927,1,8,0:0:0:0:
469,192,281927,1,0,0:0:0:0:
213,192,282225,1,0,0:0:0:0:
384,192,282225,1,0,0:0:0:0:
42,192,282524,1,0,0:0:0:0:
128,192,282548,1,0,0:0:0:0:
213,192,282573,1,0,0:0:0:0:
298,192,282598,1,0,0:0:0:0:
42,192,282822,1,0,0:0:0:0:
128,192,283121,1,0,0:0:0:0:
298,192,283121,1,0,0:0:0:0:
469,192,283121,1,0,0:0:0:0:
213,192,283419,1,0,0:0:0:0:
384,192,283419,1,0,0:0:0:0:
128,192,283718,1,0,0:0:0:0:
298,192,283718,1,0,0:0:0:0:
42,192,284016,1,0,0:0:0:0:
213,192,284016,1,0,0:0:0:0:
42,192,284315,1,0,0:0:0:0:
469,192,284315,1,0,0:0:0:0:
213,192,284613,1,0,0:0:0:0:
298,192,284762,1,0,0:0:0:0:
384,192,284787,1,0,0:0:0:0:
469,192,284812,1,0,0:0:0:0:
128,192,284912,1,0,0:0:0:0:
213,192,284936,1,0,0:0:0:0:
298,192,284961,1,0,0:0:0:0:
384,192,284986,1,0,0:0:0:0:
42,192,285210,1,0,0:0:0:0:
213,192,285310,1,0,0:0:0:0:
42,192,285509,1,0,0:0:0:0:
298,192,285509,1,0,0:0:0:0:
469,192,285509,1,0,0:0:0:0:
128,192,285708,1,0,0:0:0:0:
213,192,285807,1,0,0:0:0:0:
384,192,285907,1,0,0:0:0:0:
469,192,286006,1,0,0:0:0:0:
42,192,286106,1,0,0:0:0:0:
213,192,286106,1,0,0:0:0:0:
213,192,286404,1,0,0:0:0:0:
384,192,286404,1,0,0:0:0:0:
42,192,286703,1,8,0:0:0:0:
128,192,286703,1,4,0:0:0:0:
298,192,286703,1,0,0:0:0:0:
469,192,286703,1,0,0:0:0:0:
213,192,286852,1,0,0:0:0:0:
298,192,287001,1,4,0:0:0:0:
469,192,287001,1,8,0:0:0:0:
128,192,287076,1,0,0:0:0:0:
213,192,287150,1,0,0:0:0:0:
298,192,287225,1,0,0:0:0:0:
42,192,287300,1,8,0:0:0:0:
384,192,287300,1,4,0:0:0:0:
128,192,287374,1,0,0:0:0:0:
298,192,287449,1,0,0:0:0:0:
469,192,287524,1,4,0:0:0:0:
42,192,287598,1,4,0:0:0:0:
213,192,287598,1,8,0:0:0:0:
42,192,287747,1,8,0:0:0:0:
213,192,287747,1,4,0:0:0:0:
42,192,287897,1,8,0:0:0:0:
213,192,287897,1,4,0:0:0:0:
384,192,287897,1,0,0:0:0:0:
469,192,287897,1,0,0:0:0:0:
298,192,288046,1,0,0:0:0:0:
42,192,288195,1,8,0:0:0:0:
213,192,288195,1,4,0:0:0:0:
384,192,288270,1,0,0:0:0:0:
298,192,288344,1,0,0:0:0:0:
128,192,288419,1,0,0:0:0:0:
42,192,288494,1,4,0:0:0:0:
469,192,288494,1,8,0:0:0:0:
384,192,288568,1,0,0:0:0:0:
213,192,288643,1,0,0:0:0:0:
128,192,288718,1,4,0:0:0:0:
298,192,288792,1,8,0:0:0:0:
469,192,288792,1,4,0:0:0:0:
42,192,288867,1,0,0:0:0:0:
298,192,288941,1,8,0:0:0:0:
469,192,288941,1,4,0:0:0:0:
42,192,289016,1,0,0:0:0:0:
298,192,289091,1,8,0:0:0:0:
469,192,289091,1,4,0:0:0:0:
128,192,289165,1,0,0:0:0:0:
213,192,289240,1,8,0:0:0:0:
384,192,289240,1,4,0:0:0:0:
469,192,289315,1,0,0:0:0:0:
128,192,289389,1,4,0:0:0:0:
298,192,289389,1,8,0:0:0:0:
384,192,289464,1,0,0:0:0:0:
42,192,289538,1,4,0:0:0:0:
213,192,289538,1,8,0:0:0:0:
298,192,289613,1,0,0:0:0:0:
128,192,289688,1,8,0:0:0:0:
384,192,289688,1,4,0:0:0:0:
42,192,289762,1,0,0:0:0:0:
213,192,289837,1,8,0:0:0:0:
469,192,289837,1,4,0:0:0:0:
128,192,289912,1,0,0:0:0:0:
298,192,289986,1,8,0:0:0:0:
469,192,289986,1,4,0:0:0:0:
213,192,290061,1,0,0:0:0:0:
42,192,290135,1,8,0:0:0:0:
384,192,290135,1,4,0:0:0:0:
298,192,290210,1,0,0:0:0:0:
42,192,290285,1,8,0:0:0:0:
213,192,290285,1,4,0:0:0:0:
469,192,290359,1,12,0:0:0:0:
128,192,290434,1,8,0:0:0:0:
384,192,290434,1,4,0:0:0:0:
298,192,290509,1,12,0:0:0:0:
42,192,290583,1,8,0:0:0:0:
213,192,290583,1,4,0:0:0:0:
298,192,290658,1,12,0:0:0:0:
128,192,290733,1,8,0:0:0:0:
384,192,290733,1,4,0:0:0:0:
469,192,290807,1,12,0:0:0:0:
42,192,290882,1,8,0:0:0:0:
213,192,290882,1,0,0:0:0:0:
298,192,290956,1,8,0:0:0:0:
469,192,290956,1,0,0:0:0:0:
42,192,291031,1,8,0:0:0:0:
213,192,291031,1,0,0:0:0:0:
298,192,291106,1,8,0:0:0:0:
469,192,291106,1,0,0:0:0:0:
42,192,291180,1,8,0:0:0:0:
213,192,291180,1,0,0:0:0:0:
298,192,291255,1,8,0:0:0:0:
469,192,291255,1,0,0:0:0:0:
42,192,291330,1,8,0:0:0:0:
213,192,291330,1,0,0:0:0:0:
298,192,291404,1,8,0:0:0:0:
469,192,291404,1,0,0:0:0:0:
42,192,291479,128,0,291628:0:0:0:0:
213,192,291479,128,0,291628:0:0:0:0:
42,192,291777,128,8,297449:0:0:0:0:
128,192,291777,1,4,0:0:0:0:
384,192,291777,1,0,0:0:0:0:
469,192,291777,128,0,297449:0:0:0:0:
128,192,293270,1,0,0:0:0:0:
213,192,293618,1,0,0:0:0:0:
384,192,293941,1,0,0:0:0:0:
298,192,294389,1,0,0:0:0:0:
384,192,294787,1,0,0:0:0:0:
213,192,295210,1,0,0:0:0:0:
128,192,295633,1,0,0:0:0:0:
384,192,295733,1,0,0:0:0:0:
384,192,296180,1,0,0:0:0:0:
298,192,296230,1,0,0:0:0:0:
213,192,296280,1,0,0:0:0:0:
298,192,297150,128,0,297449:0:0:0:0:
213,192,297300,128,0,297449:0:0:0:0:
384,192,297449,128,0,297747:0:0:0:0:
128,192,297598,128,0,297897:0:0:0:0:
469,192,297747,128,0,298792:0:0:0:0:
213,192,297897,128,0,298842:0:0:0:0:
42,192,298046,128,0,298892:0:0:0:0:
