osu file format v14

[General]
AudioFilename: audio.mp3
AudioLeadIn: 0
PreviewTime: 278329
Countdown: 0
SampleSet: Soft
StackLeniency: 0.7
Mode: 0
LetterboxInBreaks: 0
WidescreenStoryboard: 1

[Editor]
Bookmarks: 131894,280680,325680,327951
DistanceSpacing: 0.8
BeatDivisor: 3
GridSize: 4
TimelineZoom: 1.899999

[Metadata]
Title:Hatsune Miku No Bunretsu->Hakai(2018Remake)
TitleUnicode:初音ミクの分裂→破壊(2018Remake)
Artist:cosMo@BousouP
ArtistUnicode:cosMo@暴走P
Creator:Dr_Marc
Version:Fading Existences
Source:
Tags:Vocaloid Hakai cosmo@BousouP GAiA
BeatmapID:1702668
BeatmapSetID:811730

[Difficulty]
HPDrainRate:6
CircleSize:4
OverallDifficulty:8.5
ApproachRate:9.6
SliderMultiplier:1.4
SliderTickRate:1

[Events]
//Background and Video events
0,0,"maxresdefault.jpg",0,0
//Break Periods
2,139067,148596
//Storyboard Layer 0 (Background)
//Storyboard Layer 1 (Fail)
//Storyboard Layer 2 (Pass)
//Storyboard Layer 3 (Foreground)
//Storyboard Sound Samples

[TimingPoints]
2732,697.674418604651,4,2,1,13,1,0
3080,-76.9230769230769,4,2,1,13,0,0
3429,-100,4,2,1,13,0,0
5871,-76.9230769230769,4,2,1,13,0,0
6220,-100,4,2,1,13,0,0
7266,-76.9230769230769,4,2,1,13,0,0
7615,-100,4,2,1,13,0,0
9592,-58.8235294117647,4,2,2,5,0,0
9941,-100,4,2,1,13,0,0
11918,-76.9230769230769,4,2,2,5,0,0
12266,-100,4,2,1,13,0,0
14708,-76.9230769230769,4,2,2,5,0,0
15057,-100,4,2,1,13,0,0
16104,-76.9230769230769,4,2,2,5,0,0
16452,-100,4,2,1,13,0,0
16685,-66.6666666666667,4,2,1,13,0,0
18429,-76.9230769230769,4,2,1,13,0,0
18778,-100,4,2,1,20,0,0
19476,-66.6666666666667,4,2,1,20,0,0
19912,-76.9230769230769,4,2,1,20,0,0
20435,-100,4,2,1,20,0,0
24185,-100,4,2,1,20,0,0
24285,-100,4,1,1,50,0,0
24705,324.324324324324,4,2,1,60,1,0
24705,-68.9655172413793,4,2,1,60,0,0
25353,-48.780487804878,4,2,1,60,0,0
25515,-68.9655172413793,4,2,1,60,0,0
26488,-57.1428571428571,4,2,1,60,0,0
27299,-68.9655172413793,4,2,1,60,0,0
27948,-52.6315789473684,4,2,1,60,0,0
28110,-68.9655172413793,4,2,1,60,0,0
29083,-57.1428571428571,4,2,1,60,0,0
29894,-54.9450549450549,4,2,1,60,0,0
32488,-51.2820512820513,4,2,1,60,0,0
32975,-60.6060606060606,4,2,1,60,0,0
33623,-80,4,2,1,60,0,0
34110,-153.846153846154,4,2,2,30,0,0
34759,-153.846153846154,4,2,2,44,0,0
34921,-153.846153846154,4,2,2,55,0,0
35083,-68.9655172413793,4,2,1,60,0,0
40272,-62.5,4,2,2,50,0,0
40353,-62.5,4,2,1,60,0,0
40596,-62.5,4,2,2,50,0,0
40677,-62.5,4,2,1,60,0,0
41732,-62.5,4,2,2,60,0,0
41813,-62.5,4,2,1,60,0,0
42056,-62.5,4,2,2,60,0,0
42137,-55.5555555555556,4,2,2,60,0,0
43840,-55.5555555555556,4,2,2,30,0,0
44245,-55.5555555555556,4,2,2,60,0,0
45461,-62.5,4,2,1,60,0,0
47083,-58.1395348837209,4,2,1,60,0,0
47407,-53.475935828877,4,2,1,60,0,0
47732,-51.2820512820513,4,2,1,60,0,0
48056,-62.5,4,2,1,60,0,0
50650,-62.5,4,2,2,60,0,0
50732,-62.5,4,2,1,60,0,0
51137,-62.5,4,2,2,60,0,0
51218,-62.5,4,2,1,60,0,0
51623,-62.5,4,2,2,60,0,0
51704,-62.5,4,2,1,60,0,0
51948,-62.5,4,2,2,60,0,0
52029,-62.5,4,2,1,60,0,0
52434,-62.5,4,2,2,60,0,0
52515,-62.5,4,2,1,60,0,0
53245,-62.5,4,2,1,60,0,0
55840,-55.5555555555556,4,1,1,45,0,1
63623,-55.5555555555556,4,1,1,45,0,1
66218,-55.5555555555556,4,1,1,52,0,1
76272,-71.4285714285714,4,1,1,52,0,1
76596,-62.5,4,2,1,65,0,0
86650,-48.780487804878,4,2,1,62,0,0
86975,-68.9655172413793,4,2,1,62,0,0
91515,-68.9655172413793,4,2,1,50,0,0
92164,-68.9655172413793,4,2,1,62,0,0
97353,-76.9230769230769,4,2,1,62,0,0
102542,-62.5,4,1,1,62,0,0
103029,-58.8235294117647,4,1,1,62,0,0
103677,-54.054054054054,4,1,1,62,0,0
104326,-50,4,1,1,62,0,0
105137,-55.5555555555556,4,2,1,62,0,0
106434,-62.5,4,2,1,62,0,0
107732,-76.9230769230769,4,1,1,62,0,0
112921,-62.5,4,1,1,62,0,0
115515,-55.5555555555556,4,1,1,62,0,0
117786,-55.5555555555556,4,1,1,55,0,0
118110,-55.5555555555556,4,2,1,60,0,0
128488,-76.9230769230769,4,2,1,60,0,0
133677,-100,4,2,1,40,0,0
134975,-62.5,4,2,1,40,0,0
135299,-100,4,2,1,40,0,0
136272,-62.5,4,2,1,60,0,0
136596,-100,4,2,1,40,0,0
137569,-62.5,4,2,1,50,0,0
137894,-100,4,2,1,40,0,0
138867,-100,4,2,1,40,0,0
149245,-65.359477124183,4,2,1,20,0,0
152813,-100,4,2,1,20,0,0
153137,-65.359477124183,4,2,1,20,0,0
155569,-100,4,2,1,20,0,0
157029,-65.359477124183,4,2,1,20,0,0
158488,-65.359477124183,4,2,3,40,0,0
159623,-60.6060606060606,4,2,3,40,0,0
168704,-54.9450549450549,4,2,3,44,0,0
170002,-48.780487804878,4,2,3,48,0,0
190759,-153.846153846154,4,1,1,27,0,0
197245,-285.714285714286,4,1,1,27,0,0
200407,-285.714285714286,4,1,1,5,0,0
201137,-117.647058823529,4,1,1,27,0,0
203367,-76.9230769230769,4,2,1,60,0,0
206002,-55.5555555555556,4,2,1,55,0,0
206326,-62.5,4,2,1,62,0,0
214110,-83.3333333333333,4,2,1,62,0,0
214759,-66.6666666666667,4,2,1,62,0,0
215407,-62.5,4,2,1,62,0,0
216704,-55.5555555555556,4,1,1,62,0,1
227083,-62.5,4,2,1,62,0,0
230975,-76.9230769230769,4,2,1,62,0,0
231461,-100,4,2,1,62,0,0
231948,-62.5,4,2,1,62,0,0
236813,-76.9230769230769,4,2,1,62,0,0
239083,-62.5,4,2,1,62,0,0
247840,-55.5555555555556,4,2,1,62,0,1
257569,-55.5555555555556,4,2,1,46,0,1
258218,-62.5,4,1,1,62,0,0
265353,-58.1395348837209,4,1,1,62,0,0
265677,-54.054054054054,4,1,1,62,0,0
266002,-62.5,4,1,1,62,0,0
269893,-76.9230769230769,4,2,1,62,0,0
277677,-68.9655172413793,4,1,1,58,0,0
278326,-62.5,4,1,1,68,0,0
278975,-55.5555555555556,4,1,1,78,0,0
280272,-50,4,1,1,70,0,1
290650,-50,4,1,1,75,0,1
305569,-50,4,1,1,59,0,1
305894,-50,4,1,1,85,0,0
306218,-50,4,1,1,60,0,1
308813,-50,4,1,1,60,0,0
310110,-62.5,4,1,1,60,0,0
311407,-45.4545454545455,4,1,1,60,0,0
312704,-41.6666666666667,4,1,1,60,0,0
314002,-45.4545454545455,4,1,1,60,0,1
315299,-40,4,1,1,67,0,1
316596,-50,4,1,1,60,0,0
321786,-43.1034482758621,4,1,1,60,0,0
323164,-43.1034482758621,4,2,0,5,0,0

[Colours]
Combo1 : 74,134,255
Combo2 : 40,123,43
Combo3 : 61,38,149
Combo4 : 106,234,124

[HitObjects]
256,192,21918,12,0,24185,0:0:0:0:
345,103,24359,5,12,0:0:0:0:
93,313,24705,6,0,P|129:336|214:333,1,101.500003097534,0|8,0:0|0:0,0:0:0:0:
381,290,25029,1,4,0:0:0:0:
261,257,25191,1,0,0:0:0:0:
504,318,25353,2,0,B|456:274|456:274|416:309|383:260|320:322,1,143.500002189636,0|8,0:0|0:0,0:0:0:0:
384,147,25677,1,4,0:0:0:0:
384,147,25840,1,0,0:0:0:0:
160,129,26002,6,2,P|180:166|255:206,1,101.500003097534,6|2,0:0|0:0,0:0:0:0:
257,91,26326,1,8,0:0:0:0:
199,312,26488,2,2,B|254:306|254:306|269:266|315:278|315:278|314:201,1,183.750001752377
311,152,26813,1,0,0:0:0:0:
319,355,26975,1,4,0:0:0:0:
319,355,27056,1,0,0:0:0:0:
319,355,27137,1,8,0:0:0:0:
206,158,27299,6,0,P|233:126|243:41,1,101.500003097534,0|8,0:0|0:0,0:0:0:0:
79,175,27623,1,4,0:0:0:0:
247,69,27786,1,0,0:0:0:0:
65,310,27948,2,0,B|99:267|99:267|152:251|155:207,1,132.999996448517,0|8,0:0|0:0,0:0:0:0:
304,309,28272,1,4,0:0:0:0:
304,309,28434,1,0,0:0:0:0:
251,74,28596,5,4,0:0:0:0:
109,147,28759,1,0,0:0:0:0:
327,165,28921,1,4,0:0:0:0:
43,57,29083,2,2,B|75:107|94:61|131:46|131:46|168:67|176:109,1,183.750001752377
109,147,29407,1,0,0:0:0:0:
338,75,29569,1,8,0:0:0:0:
290,87,29650,1,8,0:0:0:0:
254,121,29732,1,8,0:0:0:0:
239,168,29813,1,8,0:0:0:0:
249,216,29894,5,8,0:0:0:0:
388,187,30056,1,0,0:0:0:0:
327,369,30218,1,0,0:0:0:0:
173,236,30380,2,0,B|189:288|189:288|231:297|269:327,1,127.400004276734,2|2,0:0|0:0,0:0:0:0:
512,216,30704,2,2,B|496:164|496:164|454:155|416:125,1,127.400004276734
126,67,31029,2,2,B|110:135|110:135|151:173|174:231,1,127.400004276734
372,234,31353,2,2,B|387:165|387:165|346:127|323:69,1,127.400004276734
136,323,31677,2,2,B|183:285|167:240|167:240|150:197|217:154,1,191.1000064151
287,131,32002,1,0,0:0:0:0:
291,300,32164,1,0,0:0:0:0:
207,162,32326,1,0,0:0:0:0:
459,165,32488,5,8,0:0:0:0:
291,300,32650,1,8,0:0:0:0:
369,100,32813,1,8,2:0:0:0:
150,243,32975,2,0,P|214:307|311:285,1,173.250001652241,8|0,0:0|0:0,0:0:0:0:
160,88,33299,2,0,B|136:174|136:174|41:204,1,173.250001652241,4|0,0:0|0:0,0:0:0:0:
227,180,33623,2,0,B|260:157|260:157|296:172|291:119|320:104|360:110|360:110,1,131.25,8|0,0:0|0:0,0:0:0:0:
407,93,33948,1,4,0:0:0:0:
407,93,34029,1,0,0:0:0:0:
407,93,34110,6,0,L|427:198,1,90.9999958343508
385,325,34596,1,0,0:0:0:0:
373,323,34677,1,0,0:0:0:0:
359,316,34759,1,0,0:0:0:0:
342,300,34840,1,0,0:0:0:0:
330,273,34921,1,0,0:0:0:0:
328,235,35002,1,0,0:0:0:0:
346,195,35083,6,0,P|401:185|390:117,1,101.500003097534
256,250,35407,1,0,0:0:0:0:
211,331,35569,1,0,0:0:0:0:
242,131,35732,2,0,P|203:93|137:75,1,101.500003097534
378,282,36056,2,0,P|416:320|482:338,1,101.500003097534
399,95,36380,2,0,L|297:30,1,101.500003097534
481,278,36704,1,0,0:0:0:0:
435,158,36867,1,0,0:0:0:0:
202,345,37029,2,0,B|230:299|268:307|268:307|304:314|336:264,1,152.250004646301,2|0,0:0|0:0,0:0:0:0:
273,232,37353,5,8,0:0:0:0:
138,289,37515,1,0,0:0:0:0:
351,27,37677,6,0,P|403:41|413:92,1,101.500003097534
178,106,38002,2,0,P|192:54|243:44,1,101.500003097534
376,251,38326,2,0,P|344:291|275:302,1,101.500003097534
178,106,38650,2,0,P|209:65|278:54,1,101.500003097534
238,323,38975,2,0,L|150:210,1,101.500003097534
351,27,39299,2,0,L|439:140,1,101.500003097534
222,28,39623,1,0,0:0:0:0:
47,209,39786,1,8,0:0:0:0:
47,209,39867,1,8,0:0:0:0:
47,209,39948,2,0,L|158:251,1,101.500003097534,8|0,0:0|0:0,0:0:0:0:
388,105,40272,6,0,B|366:151|366:151|333:160|333:160|315:190|315:190,1,112,8|0,0:0|0:0,0:0:0:0:
276,35,40596,1,0,0:0:0:0:
106,242,40759,2,0,B|156:238|181:262|181:262|216:262|216:262,1,112,8|0,0:0|0:0,0:0:0:0:
225,332,41083,2,0,B|267:303|300:311|300:311|330:294|330:294,1,112,8|0,0:0|0:0,0:0:0:0:
490,231,41407,2,0,B|448:260|415:252|415:252|385:269|385:269,1,112,8|0,0:0|0:0,0:0:0:0:
444,358,41732,5,4,0:0:0:0:
333,179,41894,1,0,0:0:0:0:
221,357,42056,1,4,0:0:0:0:
160,244,42218,1,0,0:0:0:0:
157,202,42299,1,0,0:0:0:0:
178,165,42380,1,4,0:0:0:0:
216,146,42461,1,0,0:0:0:0:
258,152,42542,1,0,0:0:0:0:
310,173,42623,1,0,0:0:0:0:
354,206,42704,1,0,0:3:0:0:
407,216,42786,1,0,0:3:0:0:
459,202,42867,5,8,0:3:0:0:
279,75,43029,1,0,0:0:0:0:
279,75,43110,1,0,0:0:0:0:
279,75,43191,1,0,0:0:0:0:
36,157,43353,2,0,L|168:58,1,125.999996154785,4|8,0:0|0:0,0:0:0:0:
25,38,43677,1,0,0:0:0:0:
77,270,43840,1,8,0:0:0:0:
123,296,43921,1,8,0:0:0:0:
175,300,44002,1,8,0:0:0:0:
223,281,44083,1,8,0:0:0:0:
258,243,44164,2,0,P|274:205|275:172,3,62.9999980773926,8|0|0|0,0:0|0:0|0:0|0:0,0:0:0:0:
191,208,44488,5,0,0:0:0:0:
148,178,44569,1,0,0:0:0:0:
138,126,44650,1,0,0:0:0:0:
167,82,44732,1,0,0:0:0:0:
218,71,44813,5,2,0:0:0:0:
226,80,44894,1,0,0:0:0:0:
234,89,44975,1,2,0:0:0:0:
242,98,45056,1,0,0:0:0:0:
250,107,45137,1,2,0:0:0:0:
258,116,45218,1,0,0:0:0:0:
266,125,45299,1,2,0:0:0:0:
274,134,45380,1,0,0:0:0:0:
282,143,45461,6,0,B|353:219|353:219|270:219|243:288,1,224,2|0,0:0|0:0,0:0:0:0:
100,84,45948,1,0,0:0:0:0:
100,84,46029,1,0,0:0:0:0:
100,84,46110,2,0,P|159:78|211:102,1,112,4|0,0:0|0:0,0:0:0:0:
49,234,46434,1,0,0:0:0:0:
282,143,46596,1,8,0:0:0:0:
185,251,46759,2,0,P|244:257|296:233,1,112
118,26,47083,6,2,B|106:62|123:92|123:92|109:127|123:155,1,120.400001837158,10|2,0:0|0:0,0:0:0:0:
417,18,47407,2,0,B|368:38|368:38|381:92|336:137,1,130.899997403412,2|0,0:0|0:0,0:0:0:0:
219,352,47732,2,2,B|279:334|279:334|297:280|370:281,1,136.500000520706,10|2,0:0|0:0,0:0:0:0:
118,26,48056,6,2,P|143:80|190:113,1,112
50,102,48380,1,8,0:0:0:0:
260,237,48542,1,0,0:0:0:0:
260,237,48623,1,0,0:0:0:0:
260,237,48704,1,4,0:0:0:0:
170,157,48867,1,4,0:0:0:0:
338,144,49029,1,4,0:0:0:0:
181,327,49191,1,8,0:0:0:0:
45,111,49353,6,0,P|69:165|116:198,1,112
366,276,49677,2,0,P|341:221|294:188,1,112,8|0,0:0|0:0,0:0:0:0:
461,186,50002,1,4,0:0:0:0:
461,186,50164,1,4,0:0:0:0:
211,82,50326,1,0,0:0:0:0:
202,125,50407,1,8,0:0:0:0:
215,166,50488,1,8,0:0:0:0:
246,195,50569,1,0,0:0:0:0:
288,205,50650,5,10,0:0:0:0:
288,205,50813,1,0,0:0:0:0:
117,297,50975,1,0,0:0:0:0:
123,103,51137,5,10,0:0:0:0:
123,103,51299,1,0,0:0:0:0:
204,249,51461,1,0,0:0:0:0:
123,103,51623,5,10,0:0:0:0:
344,106,51786,1,0,0:0:0:0:
248,172,51948,5,10,0:0:0:0:
248,172,52110,1,0,0:0:0:0:
449,233,52272,1,0,0:0:0:0:
191,294,52434,5,10,0:0:0:0:
191,294,52596,1,0,0:0:0:0:
332,185,52759,2,0,L|229:268,1,112
261,103,53083,1,4,0:0:0:0:
136,245,53245,6,0,L|66:200,2,74.6666666666667,4|0|0,0:0|0:0|0:0,0:0:0:0:
221,307,53569,2,0,L|266:237,2,74.6666666666667,8|0|0,0:0|0:0|0:0,0:0:0:0:
334,98,53894,5,4,0:0:0:0:
271,73,54002,1,0,0:0:0:0:
210,99,54110,1,0,0:0:0:0:
148,75,54218,2,0,L|73:34,2,74.6666666666667
141,144,54542,5,4,0:0:0:0:
64,174,54650,1,0,0:0:0:0:
51,255,54759,1,0,0:0:0:0:
114,306,54867,2,0,L|152:237,2,74.6666666666667,8|0|0,0:0|0:0|0:0,0:0:0:0:
237,198,55191,5,4,0:0:0:0:
248,195,55272,1,0,0:0:0:0:
259,192,55353,1,0,0:0:0:0:
270,189,55434,1,0,0:0:0:0:
281,186,55515,2,0,L|314:176,6,28
336,89,55840,5,4,0:0:0:0:
301,73,55921,1,0,0:0:0:0:
263,66,56002,1,8,0:0:0:0:
224,69,56083,1,0,0:0:0:0:
187,81,56164,1,4,0:0:0:0:
154,102,56245,1,0,0:0:0:0:
129,131,56326,1,8,0:0:0:0:
121,149,56407,1,0,0:0:0:0:
117,168,56488,5,4,0:0:0:0:
155,194,56569,1,0,0:0:0:0:
190,210,56650,1,8,0:0:0:0:
228,217,56732,1,0,0:0:0:0:
267,214,56813,1,4,0:0:0:0:
304,202,56894,1,0,0:0:0:0:
337,181,56975,1,8,0:0:0:0:
362,152,57056,1,0,0:0:0:0:
368,115,57137,5,4,0:0:0:0:
385,132,57218,1,0,0:0:0:0:
402,150,57299,1,8,0:0:0:0:
417,169,57380,1,0,0:0:0:0:
431,189,57461,6,0,L|492:256,3,62.9999980773926,4|0|8|0,0:0|0:0|0:0|0:0,0:0:0:0:
291,202,57786,2,0,L|237:148,3,62.9999980773926,4|0|8|0,0:0|0:0|0:0|0:0,0:0:0:0:
368,115,58110,2,0,L|426:65,3,62.9999980773926,4|0|8|0,0:0|0:0|0:0|0:0,0:0:0:0:
375,241,58434,5,4,0:0:0:0:
347,283,58515,1,0,0:0:0:0:
305,311,58596,1,8,0:0:0:0:
256,321,58677,1,0,0:0:0:0:
206,311,58759,1,4,0:0:0:0:
164,283,58840,1,0,0:0:0:0:
136,241,58921,1,8,0:0:0:0:
126,191,59002,1,0,0:0:0:0:
138,141,59083,5,4,0:0:0:0:
168,169,59164,1,0,0:0:0:0:
205,185,59245,1,8,0:0:0:0:
245,187,59326,1,0,0:0:0:0:
284,175,59407,1,4,0:0:0:0:
315,150,59488,1,0,0:0:0:0:
338,116,59569,1,8,0:0:0:0:
347,76,59650,1,0,0:0:0:0:
348,35,59732,5,4,0:0:0:0:
317,41,59813,1,0,0:0:0:0:
286,47,59894,1,8,0:0:0:0:
255,53,59975,1,0,0:0:0:0:
223,58,60056,2,0,L|112:77,3,62.9999980773926,4|0|8|0,0:0|0:0|0:0|0:0,0:0:0:0:
32,162,60380,5,4,0:0:0:0:
37,224,60461,1,0,0:0:0:0:
62,281,60542,1,8,0:0:0:0:
105,326,60623,1,0,0:0:0:0:
162,348,60704,2,0,L|236:351,3,62.9999980773926,4|0|8|0,0:0|0:0|0:0|0:0,0:0:0:0:
234,139,61029,6,0,P|207:207|234:261,1,125.999996154785,4|8,0:0|0:0,0:0:0:0:
264,285,61272,1,0,0:0:0:0:
264,285,61353,1,4,0:0:0:0:
264,285,61434,1,0,0:0:0:0:
264,285,61515,1,8,0:0:0:0:
455,182,61677,6,4,P|387:209|333:182,1,125.999996154785,4|8,0:0|0:0,0:0:0:0:
309,152,61921,1,0,0:0:0:0:
309,152,62002,1,4,0:0:0:0:
309,152,62083,1,0,0:0:0:0:
309,152,62164,1,8,0:0:0:0:
258,153,62245,1,0,0:0:0:0:
216,182,62326,2,0,L|266:223,3,62.9999980773926,4|0|8|0,0:0|0:0|0:0|0:0,0:0:0:0:
183,71,62650,1,4,0:0:0:0:
214,30,62732,1,0,0:0:0:0:
263,14,62813,1,8,0:0:0:0:
311,28,62894,1,0,0:0:0:0:
352,57,62975,6,0,P|397:121|398:201,1,125.999996154785,4|8,0:0|0:0,0:0:0:0:
317,291,63218,2,0,P|289:216|309:138,1,125.999996154785
352,57,63461,1,8,0:0:0:0:
195,168,63623,1,4,0:0:0:0:
212,36,63786,5,8,0:0:0:0:
227,81,63867,1,0,0:0:0:0:
217,127,63948,1,4,0:0:0:0:
195,168,64029,1,0,0:0:0:0:
173,209,64110,1,8,0:0:0:0:
163,254,64191,1,0,0:0:0:0:
176,297,64272,1,4,0:0:0:0:
224,323,64353,1,0,0:0:0:0:
277,307,64434,1,8,0:0:0:0:
313,265,64515,1,0,0:0:0:0:
323,210,64596,1,4,0:0:0:0:
304,157,64677,1,0,0:0:0:0:
261,120,64759,1,8,0:0:0:0:
205,109,64840,1,0,0:0:0:0:
151,127,64921,2,0,L|77:177,3,62.9999980773926,4|0|8|0,0:0|0:0|0:0|0:0,0:0:0:0:
139,250,65245,5,4,0:0:0:0:
147,258,65326,1,0,0:0:0:0:
155,267,65407,1,8,0:0:0:0:
163,275,65488,1,0,0:0:0:0:
172,286,65569,2,0,P|236:331|317:332,1,125.999996154785,4|8,0:0|0:0,0:0:0:0:
323,210,65813,2,0,P|257:163|177:162,1,125.999996154785
377,252,66056,1,12,0:0:0:0:
415,74,66218,5,12,0:0:0:0:
375,55,66299,1,0,0:0:0:0:
331,46,66380,1,8,0:0:0:0:
287,47,66461,1,0,0:0:0:0:
245,59,66542,1,12,0:0:0:0:
206,80,66623,1,0,0:0:0:0:
173,109,66704,1,8,0:0:0:0:
160,127,66786,1,0,0:0:0:0:
152,147,66867,5,12,0:0:0:0:
196,170,66948,1,0,0:0:0:0:
214,215,67029,1,8,0:0:0:0:
198,261,67110,1,0,0:0:0:0:
156,285,67191,1,12,0:0:0:0:
108,276,67272,1,0,0:0:0:0:
77,238,67353,1,8,0:0:0:0:
73,189,67434,1,0,0:0:0:0:
94,144,67515,1,12,0:0:0:0:
132,112,67596,1,0,0:0:0:0:
178,94,67677,1,8,0:0:0:0:
227,88,67759,1,0,0:0:0:0:
276,90,67840,6,0,L|342:110,3,62.9999980773926,4|0|0|0,0:0|0:0|0:0|0:0,0:0:0:0:
239,220,68164,2,0,L|173:200,3,62.9999980773926,4|0|0|0,0:0|0:0|0:0|0:0,0:0:0:0:
77,238,68488,2,0,L|41:164,3,62.9999980773926,4|0|8|0,0:0|0:0|0:0|0:0,0:0:0:0:
82,111,68813,5,12,0:0:0:0:
126,86,68894,1,0,0:0:0:0:
176,95,68975,1,8,0:0:0:0:
208,134,69056,1,0,0:0:0:0:
208,184,69137,1,12,0:0:0:0:
183,228,69218,1,0,0:0:0:0:
183,278,69299,5,8,0:0:0:0:
215,317,69380,1,0,0:0:0:0:
265,326,69461,1,12,0:0:0:0:
309,301,69542,1,0,0:0:0:0:
326,254,69623,1,8,0:0:0:0:
317,204,69704,1,0,0:0:0:0:
291,160,69786,1,12,0:0:0:0:
281,109,69867,1,0,0:0:0:0:
297,59,69948,1,8,0:0:0:0:
341,30,70029,1,0,0:0:0:0:
391,38,70110,5,12,0:0:0:0:
395,62,70191,1,0,0:0:0:0:
399,86,70272,1,8,0:0:0:0:
403,110,70353,1,0,0:0:0:0:
407,135,70434,2,0,L|422:204,3,62.9999980773926,4|0|8|0,0:0|0:0|0:0|0:0,0:0:0:0:
352,195,70759,5,12,0:0:0:0:
324,152,70840,1,0,0:0:0:0:
273,141,70921,1,8,0:0:0:0:
230,169,71002,1,0,0:0:0:0:
184,192,71083,1,0,0:0:0:0:
134,176,71164,1,8,0:0:0:0:
111,130,71245,1,0,0:0:0:0:
128,80,71326,1,0,0:0:0:0:
160,60,71407,6,0,L|245:52,1,62.9999980773926,4|0,0:0|0:0,0:0:0:0:
385,89,71569,2,0,L|300:97,1,62.9999980773926,8|0,0:0|0:0,0:0:0:0:
187,197,71732,2,0,L|272:189,1,62.9999980773926,4|0,0:0|0:0,0:0:0:0:
412,226,71894,2,0,L|327:234,1,62.9999980773926,8|0,0:0|0:0,0:0:0:0:
266,276,72056,1,12,0:0:0:0:
222,239,72137,1,0,0:0:0:0:
165,228,72218,1,12,0:0:0:0:
108,217,72299,1,0,0:0:0:0:
64,178,72380,1,12,0:0:0:0:
60,119,72461,1,0,0:0:0:0:
98,74,72542,1,12,0:0:0:0:
156,70,72623,1,0,0:0:0:0:
199,108,72704,2,0,L|226:173,3,62.9999980773926,4|0|8|0,0:0|0:0|0:0|0:0,0:0:0:0:
290,68,73029,2,0,L|332:12,3,62.9999980773926,4|0|8|0,0:0|0:0|0:0|0:0,0:0:0:0:
305,168,73353,6,0,L|452:137,1,125.999996154785,4|8,0:0|0:0,0:0:0:0:
476,228,73596,2,0,L|349:253,1,125.999996154785,8|0,0:0|0:0,0:0:0:0:
318,345,73840,1,8,0:0:0:0:
252,159,74002,5,12,0:0:0:0:
208,184,74083,1,0,0:0:0:0:
183,228,74164,1,8,0:0:0:0:
183,278,74245,1,0,0:0:0:0:
215,317,74326,1,12,0:0:0:0:
265,326,74407,1,0,0:0:0:0:
309,301,74488,1,8,0:0:0:0:
326,254,74569,1,0,0:0:0:0:
317,204,74650,1,12,0:0:0:0:
291,160,74732,1,0,0:0:0:0:
281,109,74813,1,8,0:0:0:0:
297,59,74894,1,0,0:0:0:0:
341,30,74975,1,12,0:0:0:0:
392,40,75056,1,0,0:0:0:0:
425,78,75137,1,8,0:0:0:0:
425,128,75218,1,0,0:0:0:0:
392,166,75299,5,4,0:0:0:0:
320,149,75380,1,4,0:0:0:0:
268,202,75461,1,8,0:0:0:0:
287,273,75542,1,4,0:0:0:0:
358,291,75623,2,4,L|440:247,3,62.9999980773926
486,191,75948,6,0,L|362:258,1,125.999996154785
171,344,76272,2,0,P|200:305|139:271,1,97.9999970092774
270,341,76596,6,0,B|328:292|296:233|296:233|258:166|329:123,1,224
115,216,77083,1,0,0:0:0:0:
115,216,77164,1,0,0:0:0:0:
115,216,77245,1,4,0:0:0:0:
305,140,77407,1,4,0:0:0:0:
111,93,77569,1,8,0:0:0:0:
174,257,77732,1,0,0:0:0:0:
210,27,77894,5,0,0:0:0:0:
281,231,78056,1,0,0:0:0:0:
300,189,78137,1,0,0:0:0:0:
299,145,78218,1,8,0:0:0:0:
272,107,78299,1,0,0:0:0:0:
231,88,78380,1,0,0:0:0:0:
365,85,78542,1,4,0:0:0:0:
365,85,78704,1,4,0:0:0:0:
378,265,78867,2,0,P|409:207|404:144,1,112,8|0,0:0|0:0,0:0:0:0:
134,35,79191,5,0,0:0:0:0:
260,63,79353,1,0,0:0:0:0:
260,63,79434,1,0,0:0:0:0:
260,63,79515,1,8,0:0:0:0:
85,154,79677,1,0,0:0:0:0:
85,154,79759,1,0,0:0:0:0:
85,154,79840,1,4,0:0:0:0:
245,276,80002,1,4,0:0:0:0:
172,103,80164,2,0,P|170:168|204:221,1,112,8|0,0:0|0:0,0:0:0:0:
370,104,80488,5,0,0:0:0:0:
245,276,80650,1,0,0:0:0:0:
194,142,80813,1,0,0:0:0:0:
333,302,80975,1,0,0:0:0:0:
438,146,81137,1,4,0:0:0:0:
171,232,81299,1,4,0:0:0:0:
253,360,81461,1,8,0:0:0:0:
297,352,81542,1,8,0:0:0:0:
331,323,81623,1,8,0:0:0:0:
345,280,81704,1,8,0:0:0:0:
335,235,81786,6,0,B|374:280|374:280|419:249|441:165,1,168,6|0,0:0|0:0,0:0:0:0:
261,270,82110,1,2,0:0:0:0:
125,367,82272,1,2,0:0:0:0:
193,235,82434,1,4,0:0:0:0:
193,235,82596,1,4,0:0:0:0:
100,144,82759,2,0,P|165:146|217:181,1,112,8|0,0:0|0:0,0:0:0:0:
28,140,83083,5,0,0:0:0:0:
129,345,83245,1,0,0:0:0:0:
172,348,83326,1,0,0:0:0:0:
213,328,83407,1,0,0:0:0:0:
237,291,83488,1,0,0:0:0:0:
239,245,83569,1,0,0:0:0:0:
386,349,83732,1,4,0:0:0:0:
386,349,83894,1,4,0:0:0:0:
342,151,84056,2,0,P|397:185|425:242,1,112,8|0,0:0|0:0,0:0:0:0:
218,43,84380,5,0,0:0:0:0:
374,29,84542,1,0,0:0:0:0:
374,29,84623,1,0,0:0:0:0:
374,29,84704,1,8,0:0:0:0:
157,71,84867,1,0,0:0:0:0:
157,71,84948,1,0,0:0:0:0:
157,71,85029,2,0,P|101:105|73:162,1,112,4|4,0:0|0:0,0:0:0:0:
241,247,85353,2,0,P|305:261|364:240,1,112,8|0,0:0|0:0,0:0:0:0:
374,29,85677,5,8,0:0:0:0:
495,194,85840,1,0,0:0:0:0:
475,227,85921,1,0,0:0:0:0:
447,253,86002,1,0,0:0:0:0:
402,275,86083,1,0,0:0:0:0:
352,284,86164,1,0,0:0:0:0:
301,279,86245,1,0,0:0:0:0:
253,260,86326,5,4,0:0:0:0:
195,237,86407,1,0,0:0:0:0:
132,240,86488,1,4,0:0:0:0:
76,269,86569,1,0,0:0:0:0:
37,318,86650,2,0,P|45:240|90:157,1,143.500002189636,8|0,0:0|0:0,0:0:0:0:
271,68,86975,5,4,0:0:0:0:
271,68,87137,1,4,0:0:0:0:
183,284,87299,2,0,L|222:184,1,101.500003097534,8|0,0:0|0:0,0:0:0:0:
129,215,87542,1,0,0:0:0:0:
129,215,87623,1,4,0:0:0:0:
302,334,87786,1,4,0:0:0:0:
363,145,87948,1,8,0:0:0:0:
363,145,88110,1,0,0:0:0:0:
391,300,88272,5,4,0:0:0:0:
391,300,88434,1,4,0:0:0:0:
202,138,88596,2,0,L|302:176,1,101.500003097534,8|0,0:0|0:0,0:0:0:0:
284,53,88840,1,0,0:0:0:0:
284,53,88921,1,4,0:0:0:0:
127,228,89083,1,4,0:0:0:0:
447,114,89245,1,8,0:0:0:0:
447,114,89407,1,0,0:0:0:0:
273,261,89569,5,4,0:0:0:0:
273,261,89732,1,4,0:0:0:0:
487,322,89894,2,0,L|388:365,1,101.500003097534,8|0,0:0|0:0,0:0:0:0:
383,214,90137,1,0,0:0:0:0:
383,214,90218,1,4,0:0:0:0:
219,324,90380,1,4,0:0:0:0:
149,135,90542,1,10,0:0:0:0:
128,241,90704,1,0,0:0:0:0:
59,339,90867,5,0,0:0:0:0:
38,292,90948,1,0,0:0:0:0:
34,240,91029,1,0,0:0:0:0:
48,189,91110,1,0,0:0:0:0:
78,145,91191,1,4,0:0:0:0:
87,142,91272,1,0,0:0:0:0:
96,139,91353,1,0,0:0:0:0:
105,136,91434,1,0,0:0:0:0:
114,133,91515,5,8,0:0:0:0:
147,183,91596,1,8,0:0:0:0:
185,223,91677,1,8,0:0:0:0:
239,233,91759,1,8,0:0:0:0:
288,210,91840,1,8,0:0:0:0:
316,162,91921,1,8,0:0:0:0:
312,108,92002,1,8,0:0:0:0:
277,66,92083,1,8,0:0:0:0:
224,51,92164,6,0,B|175:52|175:52|140:23|101:32|101:32|102:66,1,152.250004646301,4|0,0:0|0:0,0:0:0:0:
347,50,92488,1,4,0:0:0:0:
49,123,92650,1,0,0:0:0:0:
49,123,92732,1,0,0:0:0:0:
49,123,92813,2,0,B|98:122|98:122|133:151|172:142|172:142|171:108,1,152.250004646301,4|0,0:0|0:0,0:0:0:0:
0,188,93137,2,0,B|48:183|62:244|116:254|116:254|94:283,1,152.250004646301,4|0,0:0|0:0,0:0:0:0:
306,142,93461,5,4,0:0:0:0:
206,242,93623,1,0,0:0:0:0:
221,25,93786,5,4,0:0:0:0:
184,161,93948,1,0,0:0:0:0:
496,176,94110,5,4,0:0:0:0:
292,230,94272,1,0,0:0:0:0:
421,305,94434,1,4,0:0:0:0:
367,101,94596,1,0,0:0:0:0:
213,357,94759,6,0,B|271:343|271:343|316:363|344:343|344:343|332:309,1,152.250004646301,4|0,0:0|0:0,0:0:0:0:
189,237,95083,1,8,0:0:0:0:
373,209,95245,1,8,0:0:0:0:
373,209,95326,1,8,0:0:0:0:
373,209,95407,1,4,0:0:0:0:
118,115,95569,1,4,0:0:0:0:
336,63,95732,1,12,0:0:0:0:
271,277,95894,1,0,0:0:0:0:
237,27,96056,5,8,0:0:0:0:
185,32,96137,1,0,0:0:0:0:
138,54,96218,1,0,0:0:0:0:
101,92,96299,1,0,0:0:0:0:
78,140,96380,1,8,0:0:0:0:
80,149,96461,1,0,0:0:0:0:
82,159,96542,1,0,0:0:0:0:
84,168,96623,1,0,0:0:0:0:
86,177,96704,5,8,0:0:0:0:
142,181,96786,1,0,0:0:0:0:
191,208,96867,1,0,0:0:0:0:
223,253,96948,1,0,0:0:0:0:
255,298,97029,1,8,0:0:0:0:
303,325,97110,1,0,0:0:0:0:
357,329,97191,1,0,0:0:0:0:
407,309,97272,1,0,0:0:0:0:
443,269,97353,6,0,B|441:227|416:196|416:196|397:167|374:160|374:160|361:156|337:134|338:105|348:81|348:81|364:49|396:41|426:53|426:53|459:68|473:97|455:137|455:137|440:160|421:174|372:161|372:161|335:162|335:162|279:161|255:112,1,636.999970840455,8|0,0:0|0:0,0:0:0:0:
186,75,98650,1,4,0:0:0:0:
186,75,98813,1,4,0:0:0:0:
132,318,98975,2,0,P|183:298|179:240,1,90.9999958343508,8|0,0:0|0:0,0:0:0:0:
47,199,99299,2,0,P|101:207|126:154,1,90.9999958343508
66,34,99623,2,0,P|108:68|157:35,1,90.9999958343508,8|0,0:0|0:0,0:0:0:0:
276,269,99948,5,4,0:0:0:0:
247,135,100110,1,4,0:0:0:0:
149,336,100272,2,0,L|193:246,1,90.9999958343508,8|0,0:0|0:0,0:0:0:0:
290,51,100596,1,0,0:0:0:0:
289,181,100759,1,0,0:0:0:0:
486,49,100921,1,8,0:0:0:0:
290,51,101083,1,0,0:0:0:0:
484,129,101245,1,4,0:0:0:0:
385,53,101407,1,4,0:0:0:0:
385,53,101488,1,0,0:0:0:0:
385,53,101569,1,8,0:0:0:0:
383,223,101732,6,2,B|348:247|351:277|351:277|355:312|336:328|336:328|315:319,1,136.499993751526
192,164,102056,1,2,0:0:0:0:
121,364,102218,1,8,0:0:0:0:
321,322,102380,1,0,0:0:0:0:
33,310,102542,6,0,B|84:278|84:278|109:202,1,112,4|4,0:0|0:0,0:0:0:0:
130,143,102867,1,0,0:0:0:0:
173,47,103029,6,0,B|224:79|224:79|227:119|253:157,1,119.000002269745,4|4,0:0|0:0,0:0:0:0:
293,236,103353,1,4,0:0:0:0:
353,7,103515,1,4,0:0:0:0:
372,219,103677,6,0,B|400:165|400:165|382:123|385:69,1,129.499999505997,8|0,0:0|0:0,0:0:0:0:
23,99,104002,1,4,0:0:0:0:
215,68,104164,1,4,0:0:0:0:
280,272,104326,6,0,B|203:255|203:255|158:242|127:186,1,140,8|0,0:0|0:0,0:0:0:0:
30,342,104650,1,4,0:0:0:0:
199,178,104813,2,0,B|329:50|329:50|307:2,1,210,8|0,0:0|0:0,0:0:0:0:
379,157,105137,6,2,B|334:197|334:197|288:191|240:207,1,125.999996154785,10|2,0:0|0:0,0:0:0:0:
160,77,105461,1,0,0:0:0:0:
202,260,105623,1,2,0:0:0:0:
347,103,105786,1,0,0:0:0:0:
302,246,105948,1,0,0:0:0:0:
166,110,106110,1,10,0:0:0:0:
192,227,106272,1,0,0:0:0:0:
314,206,106434,6,2,B|282:155|282:155|205:130,1,112
417,182,106759,1,8,0:0:0:0:
264,336,106921,2,0,B|296:285|296:285|372:260,1,112
417,182,107245,1,2,0:0:0:0:
449,292,107407,1,12,0:0:0:0:
346,269,107569,1,0,0:0:0:0:
467,105,107732,6,0,B|462:169|462:169|407:214|297:114|275:275|434:359|372:361|372:361|230:325|230:325|267:258|239:174,1,636.999970840455
138,122,109029,1,4,0:0:0:0:
138,122,109191,1,4,0:0:0:0:
348,38,109353,2,0,P|328:89|270:85,1,90.9999958343508,8|0,0:0|0:0,0:0:0:0:
408,175,109677,2,0,P|365:209|316:176,1,90.9999958343508
385,336,110002,2,0,P|330:344|305:291,1,90.9999958343508,10|0,0:0|0:0,0:0:0:0:
497,229,110326,5,4,0:0:0:0:
334,200,110488,1,4,0:0:0:0:
405,37,110650,2,0,L|430:146,1,90.9999958343508,8|2,0:0|0:0,0:0:0:0:
192,52,110975,1,0,0:0:0:0:
279,156,111137,1,2,0:0:0:0:
67,192,111299,1,8,0:0:0:0:
286,246,111461,1,0,0:0:0:0:
286,246,111623,1,4,0:0:0:0:
192,131,111786,1,4,0:0:0:0:
192,131,111867,1,0,0:0:0:0:
192,131,111948,1,8,0:0:0:0:
146,351,112110,6,0,B|177:323|161:287|161:287|144:258|148:250|148:250|179:232,1,136.499993751526,2|0,0:0|0:0,0:0:0:0:
258,328,112434,1,2,0:0:0:0:
366,157,112596,1,8,0:0:0:0:
340,291,112759,1,0,0:0:0:0:
237,202,112921,5,12,0:0:0:0:
482,211,113083,1,0,0:0:0:0:
482,211,113164,1,0,0:0:0:0:
482,211,113245,1,8,0:0:0:0:
275,81,113407,1,2,0:0:0:0:
390,298,113569,2,0,B|377:245|338:223|344:177,1,112
173,337,113894,2,4,B|130:197|130:197|97:176,1,168
253,247,114218,5,12,0:0:0:0:
337,101,114380,1,0,0:0:0:0:
169,101,114542,1,8,0:0:0:0:
336,245,114704,1,2,0:0:0:0:
252,100,114867,1,0,0:0:0:0:
168,245,115029,1,0,0:0:0:0:
169,10,115191,2,0,B|167:158|167:158|141:178,1,168,8|0,0:0|0:0,0:0:0:0:
353,47,115515,5,12,0:0:0:0:
470,194,115677,1,0,0:0:0:0:
313,123,115840,5,4,0:0:0:0:
291,309,116002,1,0,0:0:0:0:
307,190,116164,5,4,0:0:0:0:
136,322,116326,1,0,0:0:0:0:
218,141,116488,5,4,0:0:0:0:
4,117,116650,1,0,0:0:0:0:
152,134,116813,6,0,L|116:71,3,62.9999980773926,4|0|0|0,0:0|0:0|0:0|0:0,0:0:0:0:
178,214,117137,2,0,L|177:286,3,62.9999980773926,4|0|0|0,0:0|0:0|0:0|0:0,0:0:0:0:
264,112,117461,2,0,L|300:49,3,62.9999980773926,4|0|0|0,0:0|0:0|0:0|0:0,0:0:0:0:
278,246,117786,1,8,0:0:0:0:
265,306,117867,1,8,0:0:0:0:
219,350,117948,1,8,0:0:0:0:
156,359,118029,1,8,0:0:0:0:
98,330,118110,6,0,P|61:277|83:212,1,125.999996154785,2|0,0:0|0:0,0:0:0:0:
179,107,118434,1,8,0:0:0:0:
361,196,118596,2,0,P|308:233|243:211,1,125.999996154785
142,52,118921,1,2,0:0:0:0:
216,163,119083,1,10,0:0:0:0:
145,57,119245,1,2,0:0:0:0:
408,37,119407,6,0,P|344:48|313:109,1,125.999996154785,0|0,0:3|0:3,0:3:0:0:
294,292,119732,1,8,0:0:0:0:
160,163,119894,2,0,P|213:126|278:147,2,125.999996154785,0|0|0,0:3|0:3|0:3,0:3:0:0:
138,334,120380,2,0,P|203:273|300:297,1,188.999994232178,2|0,0:3|0:3,0:3:0:0:
358,324,120704,6,0,P|305:360|240:339,1,125.999996154785,2|0,0:3|0:3,0:3:0:0:
126,237,121029,1,8,0:0:0:0:
257,107,121191,2,0,P|230:49|162:35,1,125.999996154785,2|0,0:3|0:3,0:3:0:0:
38,153,121515,1,0,0:0:0:0:
225,167,121677,2,0,P|335:172|420:212,1,188.999994232178,2|0,0:0|0:0,0:0:0:0:
332,100,122002,5,2,0:0:0:0:
243,258,122164,1,2,0:0:0:0:
158,169,122326,1,10,0:0:0:0:
440,142,122488,1,2,0:0:0:0:
388,95,122813,1,2,0:0:0:0:
413,276,122975,1,10,0:0:0:0:
388,95,123137,1,10,0:0:0:0:
284,323,123299,5,6,0:0:0:0:
338,206,123461,1,0,0:0:0:0:
85,246,123623,2,0,B|5:267|118:313|22:341,1,125.999996154785,0|2,0:0|0:0,0:0:0:0:
143,141,123948,1,0,0:0:0:0:
195,324,124110,1,2,0:0:0:0:
255,199,124272,1,10,0:0:0:0:
195,324,124434,1,2,0:0:0:0:
363,168,124596,6,0,B|442:146|329:100|425:72,1,125.999996154785,2|0,0:0|0:0,0:0:0:0:
293,280,124921,1,8,0:0:0:0:
92,34,125083,2,0,P|33:106|96:152,1,188.999994232178,2|0,0:0|0:0,0:0:0:0:
162,36,125407,1,2,0:0:0:0:
117,228,125569,1,10,0:0:0:0:
162,36,125732,1,2,0:0:0:0:
211,224,125894,6,0,B|170:296|283:248|234:336,1,125.999996154785,6|0,0:0|0:0,0:0:0:0:
194,130,126218,1,8,0:0:0:0:
449,59,126380,2,0,B|377:18|425:131|337:82,2,125.999996154785,2|0|0,0:0|0:0|0:0,0:0:0:0:
255,195,126867,1,10,0:0:0:0:
255,195,127029,1,0,0:0:0:0:
489,260,127191,5,14,0:0:0:0:
372,347,127353,1,8,0:0:0:0:
372,347,127434,1,8,0:0:0:0:
372,347,127515,1,8,0:0:0:0:
476,140,127677,1,6,0:0:0:0:
481,348,127840,1,4,0:0:0:0:
399,83,128002,1,4,0:0:0:0:
295,250,128164,1,8,0:0:0:0:
300,199,128245,1,8,0:0:0:0:
291,148,128326,1,8,0:0:0:0:
269,101,128407,1,8,0:0:0:0:
235,61,128488,6,2,P|193:91|180:137,1,90.9999958343508,0|0,0:0|0:0,0:0:0:0:
204,345,128813,1,0,0:0:0:0:
175,190,128975,1,0,0:0:0:0:
74,341,129137,5,0,0:0:0:0:
189,266,129299,1,0,0:0:0:0:
59,310,129461,1,0,0:0:0:0:
196,302,129623,1,0,0:0:0:0:
75,150,129786,6,0,L|109:246,1,90.9999958343508,2|0,0:0|0:0,0:0:0:0:
377,224,130110,1,0,0:0:0:0:
255,228,130272,1,0,0:0:0:0:
438,101,130434,5,0,0:0:0:0:
441,256,130596,1,0,0:0:0:0:
502,131,130759,1,0,0:0:0:0:
377,224,130921,1,0,0:0:0:0:
369,21,131083,5,2,0:0:0:0:
369,21,131245,1,0,0:0:0:0:
180,122,131407,1,0,0:0:0:0:
272,75,131569,1,0,0:0:0:0:
237,233,131732,5,0,0:0:0:0:
133,166,131894,1,0,0:0:0:0:
202,293,132056,1,0,0:0:0:0:
84,214,132218,1,0,0:0:0:0:
169,3,132380,6,0,P|211:33|224:79,1,90.9999958343508,2|0,0:0|0:0,0:0:0:0:
102,115,132704,2,0,P|153:119|187:153,1,90.9999958343508,2|0,0:0|0:0,0:0:0:0:
99,229,133029,2,0,P|145:207|192:219,1,90.9999958343508,2|0,0:0|0:0,0:0:0:0:
133,305,133353,2,0,P|163:263|209:250,1,90.9999958343508,2|0,0:0|0:0,0:0:0:0:
451,282,133677,5,4,0:0:0:0:
198,250,134002,2,0,L|292:262,1,70,4|0,0:0|0:0,0:0:0:0:
142,153,134650,1,4,0:0:0:0:
31,348,134975,6,0,B|83:315|83:315|113:248,1,112,8|0,0:0|0:0,0:0:0:0:
270,346,135299,1,0,0:0:0:0:
313,274,135461,2,0,P|340:200|330:119,1,140
308,82,135948,1,0,0:0:0:0:
308,82,136029,1,0,0:0:0:0:
308,82,136110,1,0,0:0:0:0:
72,207,136272,6,0,B|124:174|124:174|154:107,1,112,4|0,0:0|0:0,0:0:0:0:
128,33,136596,1,0,0:0:0:0:
145,128,136759,2,0,P|178:199|242:249,1,140
286,270,137245,1,0,0:0:0:0:
107,233,137569,6,0,B|74:181|74:181|7:151,1,112,4|0,0:0|0:0,0:0:0:0:
181,52,137894,1,0,0:0:0:0:
181,52,138056,1,0,0:0:0:0:
328,194,138542,1,0,0:0:0:0:
280,147,138867,1,0,0:0:0:0:
213,75,149245,6,0,B|278:83|278:83|303:126|303:126|313:157|344:157|344:157,1,160.650007231407
307,238,149569,2,0,B|255:197|255:197|207:210|207:210|178:225|155:206|155:206,1,160.650007231407
209,309,149894,2,0,P|253:345|275:347,3,53.5500024104692
98,338,150218,2,0,P|41:340|42:288,1,107.100004820938
209,309,150542,2,0,P|253:345|275:347,3,53.5500024104692
272,307,150867,1,0,0:0:0:0:
272,109,151029,2,0,L|243:68,4,26.7750012052346
379,56,151353,1,0,0:0:0:0:
442,146,151515,2,0,L|480:212,1,53.5500024104692
492,227,151677,1,0,0:0:0:0:
378,185,151840,6,0,B|332:216|357:256|357:256|382:295|339:329,1,160.650007231407
252,185,152164,2,0,L|230:126,1,53.5500024104692
180,82,152326,2,0,L|158:141,1,53.5500024104692
109,191,152488,2,0,L|87:132,1,53.5500024104692
73,68,152650,1,0,0:0:0:0:
168,338,152813,6,0,B|240:261,1,105
375,221,153137,6,0,B|336:236|336:236|311:290|249:293|218:233,1,160.650007231407
395,287,153461,1,0,0:0:0:0:
345,98,153623,2,0,L|367:57,4,26.7750012052346
145,31,154110,2,0,L|107:97,1,53.5500024104692
152,160,154272,2,0,L|190:94,1,53.5500024104692
85,127,154434,5,0,0:0:0:0:
386,337,154759,1,0,0:0:0:0:
370,66,155083,2,0,L|412:27,1,53.5500024104692
483,31,155245,1,0,0:0:0:0:
219,33,155407,2,0,L|180:75,1,53.5500024104692
184,140,155569,6,0,B|246:191|246:191|326:131|414:130|424:255|379:313|223:315|216:248|216:248|125:207|104:288|138:326,1,630
148,68,157353,6,0,L|187:32,1,53.5500024104692
180,156,157515,2,0,L|140:194,1,53.5500024104692
57,269,157677,2,0,P|21:225|19:203,3,53.5500024104692
110,319,158002,2,0,P|154:355|176:357,3,53.5500024104692
123,249,158326,1,0,0:0:0:0:
246,338,158488,5,8,0:0:0:0:
298,349,158569,1,8,0:0:0:0:
342,320,158650,2,0,P|370:288|337:227,1,107.100004820938,8|0,0:0|0:0,0:0:0:0:
480,216,158975,1,8,0:0:0:0:
491,164,159056,1,8,0:0:0:0:
462,120,159137,1,8,0:0:0:0:
488,351,159299,1,8,0:0:0:0:
326,178,159461,1,8,0:0:0:0:
351,273,159623,5,8,0:0:0:0:
409,52,159786,1,0,0:0:0:0:
409,52,159867,1,0,0:0:0:0:
409,52,159948,2,0,B|426:88|463:113|463:113|479:162,1,115.500001101494,0|4,0:0|0:0,0:0:0:0:
139,263,160272,2,0,B|187:278|187:278|236:326|244:254|244:254|265:218,1,173.250001652241,8|0,0:0|0:0,0:0:0:0:
128,116,160596,1,0,0:0:0:0:
140,172,160677,1,0,0:0:0:0:
188,203,160759,1,0,0:0:0:0:
121,39,160921,6,0,B|83:25|39:34|39:34|-6:10,1,115.500001101494,8|0,0:0|0:0,0:0:0:0:
310,169,161245,1,8,0:0:0:0:
242,5,161407,1,0,0:0:0:0:
174,255,161569,1,12,0:0:0:0:
241,132,161732,1,8,0:0:0:0:
241,132,161813,1,0,0:0:0:0:
241,132,161894,1,4,0:0:0:0:
255,316,162056,1,0,0:0:0:0:
174,255,162218,5,8,0:0:0:0:
417,288,162380,1,0,0:0:0:0:
417,288,162461,1,0,0:0:0:0:
417,288,162542,2,0,B|381:305|356:342|356:342|307:358,1,115.500001101494,0|8,0:0|0:0,0:0:0:0:
474,34,162867,2,0,B|429:57|429:57|360:58|406:114|406:114|416:154,1,173.250001652241,12|0,0:0|0:0,0:0:0:0:
347,14,163191,1,0,0:0:0:0:
316,62,163272,1,0,0:0:0:0:
328,118,163353,1,0,0:0:0:0:
149,39,163515,5,8,0:0:0:0:
149,39,163677,1,0,0:0:0:0:
297,211,163840,5,8,0:0:0:0:
297,211,164002,1,8,0:0:0:0:
246,101,164164,1,12,0:0:0:0:
93,304,164326,1,8,0:0:0:0:
122,254,164407,1,0,0:0:0:0:
178,241,164488,1,12,0:0:0:0:
32,196,164650,1,0,0:0:0:0:
257,355,164813,6,2,P|242:292|264:232,1,115.500001101494
428,153,165056,1,0,0:0:0:0:
428,153,165137,2,2,P|443:216|421:276,1,115.500001101494
281,42,165461,1,14,0:0:0:0:
261,155,165623,1,0,0:0:0:0:
348,228,165786,1,2,0:0:0:0:
348,228,165867,1,0,0:0:0:0:
348,228,165948,1,0,0:0:0:0:
119,325,166110,5,10,0:0:0:0:
184,164,166272,1,0,0:0:0:0:
212,335,166434,5,10,0:0:0:0:
348,228,166596,1,0,0:0:0:0:
62,116,166759,5,14,0:0:0:0:
269,199,166921,1,10,0:0:0:0:
269,199,167002,1,0,0:0:0:0:
269,199,167083,1,10,0:0:0:0:
177,232,167245,1,0,0:0:0:0:
130,52,167407,6,2,P|185:85|212:143,1,115.500001101494,10|2,0:0|0:0,0:0:0:0:
151,315,167650,1,0,0:0:0:0:
151,315,167732,2,2,P|95:281|68:223,1,115.500001101494,2|10,0:0|0:0,0:0:0:0:
314,331,168056,1,6,0:0:0:0:
276,244,168218,1,2,0:0:0:0:
465,274,168380,1,2,0:0:0:0:
465,274,168461,1,0,0:0:0:0:
465,274,168542,1,0,0:0:0:0:
35,119,168704,6,2,B|198:157,1,127.400004276734,14|2,0:0|0:0,0:0:0:0:
37,196,169029,1,8,0:0:0:0:
194,50,169191,1,4,0:0:0:0:
202,258,169353,1,8,0:0:0:0:
202,258,169434,1,0,0:0:0:0:
202,258,169515,5,8,0:0:0:0:
169,218,169596,1,0,0:0:0:0:
173,166,169677,1,12,0:0:0:0:
212,132,169759,1,0,0:0:0:0:
263,135,169840,1,0,0:0:0:0:
296,173,169921,1,0,0:0:0:0:
292,223,170002,6,0,B|361:238|361:238|406:205|418:141,1,143.500002189636,10|6,0:0|0:0,0:0:0:0:
414,110,170245,1,4,0:0:0:0:
387,43,170326,1,4,0:0:0:0:
489,261,170488,1,8,0:0:0:0:
270,342,170650,2,0,B|309:336|309:336|341:319,1,71.7500010948181,4|0,0:0|0:0,0:0:0:0:
254,148,170813,1,8,0:0:0:0:
254,148,170894,1,8,0:0:0:0:
254,148,170975,2,0,L|177:99,3,71.7500010948181,10|0|0|0,0:0|0:0|0:0|0:0,0:0:0:0:
37,151,171299,2,0,L|114:200,3,71.7500010948181,10|8|8|0,0:0|0:0|0:0|0:0,0:0:0:0:
133,261,171623,6,0,B|164:237|164:237|184:206,1,71.7500010948181,8|0,0:0|0:0,0:0:0:0:
135,17,171786,2,0,B|119:53|119:53|117:89,1,71.7500010948181,4|0,0:0|0:0,0:0:0:0:
389,26,171948,1,12,0:0:0:0:
389,26,172029,1,8,0:0:0:0:
389,26,172110,2,0,L|308:108,1,71.7500010948181,8|0,0:0|0:0,0:0:0:0:
250,303,172272,2,0,B|281:279|281:279|301:248,1,71.7500010948181,2|0,0:0|0:0,0:0:0:0:
269,65,172434,2,0,B|253:101|253:101|251:137,1,71.7500010948181,8|0,0:0|0:0,0:0:0:0:
496,276,172596,6,0,B|427:291|427:291|382:258|370:194,1,143.500002189636,10|4,0:0|0:0,0:0:0:0:
374,163,172840,1,4,0:0:0:0:
401,96,172921,1,4,0:0:0:0:
378,346,173083,1,8,0:0:0:0:
182,377,173245,1,4,0:0:0:0:
126,359,173326,1,4,0:0:0:0:
87,315,173407,1,4,0:0:0:0:
74,258,173488,1,4,0:0:0:0:
93,200,173569,2,4,L|179:170,3,71.7500010948181,6|4|4|4,0:0|0:0|0:0|0:0,0:0:0:0:
181,248,173894,5,10,0:0:0:0:
243,283,173975,1,8,0:0:0:0:
312,263,174056,1,8,0:0:0:0:
133,33,174218,1,8,0:0:0:0:
162,178,174380,1,12,0:0:0:0:
267,26,174542,2,4,L|218:103,3,71.7500010948181,14|4|4|4,0:0|0:0|0:0|0:0,0:0:0:0:
158,69,174867,1,12,0:0:0:0:
89,80,174948,1,12,0:0:0:0:
48,138,175029,1,12,0:0:0:0:
293,119,175191,5,10,0:0:0:0:
470,183,175353,1,4,0:0:0:0:
470,183,175434,1,4,0:0:0:0:
470,183,175515,1,4,0:0:0:0:
337,220,175677,1,8,0:0:0:0:
486,297,175840,1,4,0:0:0:0:
449,342,175921,1,4,0:0:0:0:
395,363,176002,1,4,0:0:0:0:
336,354,176083,1,4,0:0:0:0:
289,316,176164,6,4,L|292:224,3,71.7500010948181
221,230,176488,1,10,0:0:0:0:
153,240,176569,1,8,0:0:0:0:
112,299,176650,1,8,0:0:0:0:
76,125,176813,1,8,0:0:0:0:
209,80,176975,6,4,B|173:64|173:64|137:62,1,71.7500010948181
31,196,177137,2,4,B|67:212|67:212|103:214,1,71.7500010948181,12|4,0:0|0:0,0:0:0:0:
312,186,177299,1,8,0:0:0:0:
312,186,177380,1,8,0:0:0:0:
312,186,177461,1,8,0:0:0:0:
202,278,177623,1,8,0:0:0:0:
447,169,177786,6,0,B|463:133|463:133|465:97,1,71.7500010948181,8|0,0:0|0:0,0:0:0:0:
382,21,177948,1,4,0:0:0:0:
382,21,178029,1,4,0:0:0:0:
382,21,178110,2,0,B|366:57|366:57|364:93,1,71.7500010948181,4|0,0:0|0:0,0:0:0:0:
349,233,178272,2,0,B|365:197|365:197|367:161,1,71.7500010948181,8|0,0:0|0:0,0:0:0:0:
263,28,178434,1,12,0:0:0:0:
295,91,178515,1,4,0:0:0:0:
273,158,178596,1,4,0:0:0:0:
210,189,178677,1,4,0:0:0:0:
143,166,178759,2,4,L|71:140,3,71.7500010948181
92,260,179083,5,8,0:0:0:0:
92,260,179164,1,8,0:0:0:0:
92,260,179245,1,8,0:0:0:0:
181,296,179407,1,8,0:0:0:0:
17,328,179569,1,12,0:0:0:0:
257,280,179732,1,4,0:0:0:0:
280,332,179813,1,4,0:0:0:0:
327,367,179894,1,4,0:0:0:0:
386,373,179975,1,4,0:0:0:0:
441,349,180056,2,14,B|457:313|457:313|459:277,1,71.7500010948181
328,197,180218,2,0,B|342:233|342:233|366:260,1,71.7500010948181,4|0,0:0|0:0,0:0:0:0:
454,139,180380,5,10,0:0:0:0:
263,237,180542,1,4,0:0:0:0:
263,237,180623,1,4,0:0:0:0:
263,237,180704,1,12,0:0:0:0:
167,11,180867,2,0,B|151:47|151:47|149:83,1,71.7500010948181
157,211,181029,2,0,B|193:196|193:196|220:172,1,71.7500010948181,8|0,0:0|0:0,0:0:0:0:
316,58,181191,1,4,0:0:0:0:
316,58,181272,1,4,0:0:0:0:
316,58,181353,2,0,L|342:130,3,71.7500010948181,14|0|8|0,0:0|0:0|0:0|0:0,0:0:0:0:
492,206,181677,6,2,B|453:265|453:265|398:273|344:237,1,143.500002189636,10|2,0:0|0:0,0:0:0:0:
179,194,182002,1,8,0:0:0:0:
357,319,182164,1,4,0:0:0:0:
75,281,182326,2,0,B|111:297|111:297|147:299,1,71.7500010948181,4|0,0:0|0:0,0:0:0:0:
275,291,182488,2,0,B|260:254|260:254|236:227,1,71.7500010948181,8|0,0:0|0:0,0:0:0:0:
145,118,182650,2,0,B|120:148|120:148|108:182,1,71.7500010948181,14|0,0:0|0:0,0:0:0:0:
41,134,182813,1,8,0:0:0:0:
19,65,182894,1,8,0:0:0:0:
52,0,182975,5,10,0:0:0:0:
30,277,183137,1,4,0:0:0:0:
30,277,183218,1,4,0:0:0:0:
30,277,183299,1,12,0:0:0:0:
142,350,183461,1,0,0:0:0:0:
142,350,183542,1,0,0:0:0:0:
142,350,183623,2,0,B|211:364|211:364|256:331|268:268,1,143.500002189636,8|0,0:0|0:0,0:0:0:0:
309,184,183867,1,8,0:0:0:0:
309,184,183948,1,10,0:0:0:0:
255,307,184110,1,8,0:0:0:0:
270,72,184272,6,0,P|226:129|289:248,1,215.250003284454
365,216,184596,1,8,0:0:0:0:
255,307,184759,1,4,0:0:0:0:
444,267,184921,2,0,L|513:234,3,71.7500010948181,6|0|0|0,0:0|0:0|0:0|0:0,0:0:0:0:
502,164,185245,1,4,0:0:0:0:
479,96,185326,1,4,0:0:0:0:
416,65,185407,1,8,0:0:0:0:
350,87,185488,1,8,0:0:0:0:
318,150,185569,6,0,B|285:127|285:127|250:118,1,71.7500010948181,8|0,0:0|0:0,0:0:0:0:
175,44,185732,1,4,0:0:0:0:
175,44,185813,1,4,0:0:0:0:
175,44,185894,1,12,0:0:0:0:
31,46,186056,1,4,0:0:0:0:
108,310,186218,2,0,B|40:288|40:288|18:237|39:175,1,143.500002189636,8|8,0:0|0:0,0:0:0:0:
58,151,186461,1,8,0:0:0:0:
115,106,186542,1,8,0:0:0:0:
121,239,186704,1,4,0:0:0:0:
188,115,186867,6,2,B|254:91|247:65|320:61,1,143.500002189636,10|6,0:0|0:0,0:0:0:0:
220,190,187191,1,8,0:0:0:0:
357,121,187353,1,12,0:0:0:0:
350,286,187515,2,0,B|327:254|327:254|317:219,1,71.7500010948181,12|0,0:0|0:0,0:0:0:0:
456,38,187677,1,4,0:0:0:0:
456,38,187759,1,4,0:0:0:0:
456,38,187840,1,12,0:0:0:0:
279,76,188002,1,8,0:0:0:0:
279,76,188083,1,8,0:0:0:0:
279,76,188164,5,8,0:0:0:0:
329,354,188326,2,0,B|292:339|292:339|265:315,1,71.7500010948181,4|0,0:0|0:0,0:0:0:0:
214,178,188488,2,0,B|251:192|251:192|278:216,1,71.7500010948181,12|0,0:0|0:0,0:0:0:0:
114,231,188650,1,0,0:0:0:0:
221,57,188813,2,0,L|267:-5,1,71.7500010948181,12|0,0:0|0:0,0:0:0:0:
331,102,188975,1,4,0:0:0:0:
331,102,189056,1,4,0:0:0:0:
331,102,189137,2,0,L|285:164,1,71.7500010948181,12|0,0:0|0:0,0:0:0:0:
288,291,189299,2,0,L|334:229,1,71.7500010948181,8|0,0:0|0:0,0:0:0:0:
198,366,189461,6,0,B|174:300|148:307|144:234,1,143.500002189636,12|0,0:0|0:0,0:0:0:0:
145,90,189786,1,12,0:0:0:0:
399,234,189948,1,12,0:0:0:0:
257,327,190110,1,12,0:0:0:0:
222,314,190191,1,0,0:0:0:0:
191,293,190272,1,0,0:0:0:0:
166,264,190353,1,0,0:0:0:0:
149,230,190434,5,12,0:0:0:0:
184,185,190515,1,8,0:0:0:0:
238,165,190596,1,8,0:0:0:0:
294,172,190677,1,8,0:0:0:0:
335,203,190759,6,2,B|410:204|410:204|417:259|331:284|382:359,1,227.499989585877
373,344,191732,1,2,0:0:0:0:
190,306,192056,2,2,P|218:294|235:280,1,45.4999979171754
79,138,193029,1,0,0:0:0:0:
121,83,193353,2,0,B|165:88|177:139|248:107|248:107|252:143|225:193,1,227.499989585877,2|0,0:0|0:0,0:0:0:0:
224,193,194326,1,0,0:0:0:0:
396,333,194650,2,0,P|451:294|454:222,1,136.499993751526,2|0,0:0|0:0,0:0:0:0:
388,35,195299,2,0,P|333:74|330:146,1,136.499993751526,2|0,0:0|0:0,0:0:0:0:
270,339,195948,2,0,B|226:202|172:378|45:355,1,272.999987503052,2|0,0:0|0:0,0:0:0:0:
256,192,197245,12,0,200488,0:0:0:0:
73,67,201137,6,0,B|129:106|36:171|114:222|114:222|160:145|241:175,1,297.500005674362,2|0,0:0|0:0,0:0:0:0:
214,167,202110,2,2,P|208:196|196:222,1,59.5000011348725
221,307,202434,2,2,P|245:289|262:266,1,59.5000011348725
424,45,203367,6,0,B|406:78|406:78|418:146|418:146|345:133|345:133|337:91|337:91,1,204.749990627289
256,191,204704,5,0,0:0:0:0:
343,261,205029,2,0,P|333:165|96:136,1,363.999983337403
306,38,205840,1,8,0:0:0:0:
151,298,206002,6,0,B|193:252|193:252|214:169,1,125.999996154785,12|0,0:0|0:0,0:0:0:0:
10,13,206326,6,0,P|72:32|113:80,1,112
204,281,206650,1,2,0:0:0:0:
179,54,206813,2,0,B|187:113|256:52|215:144|267:140|333:104,1,168,2|0,0:0|0:0,0:0:0:0:
169,171,207137,1,2,0:0:0:0:
327,181,207299,1,2,0:0:0:0:
169,171,207461,1,2,0:0:0:0:
510,271,207623,6,0,B|456:326|440:244|370:317,1,112
271,126,207948,1,0,0:0:0:0:
447,207,208110,1,0,0:0:0:0:
271,126,208272,2,0,P|290:63|338:22,1,112
494,202,208596,2,0,B|518:242|481:286|415:283|491:380|539:317,1,168
379,345,208921,6,0,B|324:291|406:275|333:205,1,112,2|0,0:0|0:0,0:0:0:0:
190,219,209245,1,0,0:0:0:0:
61,277,209407,1,0,0:0:0:0:
183,123,209569,2,0,P|245:142|286:190,1,112
192,19,209894,1,0,0:0:0:0:
395,92,210056,1,2,0:0:0:0:
395,92,210137,1,2,0:0:0:0:
395,92,210218,2,0,P|332:72|291:24,1,112,2|0,0:0|0:0,0:0:0:0:
463,118,210542,1,0,0:0:0:0:
22,289,210867,5,0,0:0:0:0:
39,311,210948,1,0,0:0:0:0:
61,327,211029,1,0,0:0:0:0:
86,336,211110,1,0,0:0:0:0:
112,338,211191,2,0,B|152:313|196:350|193:416|290:340|227:292,1,168
283,129,211515,6,0,L|259:258,1,112,2|0,0:0|0:0,0:0:0:0:
373,91,211840,1,2,0:0:0:0:
217,26,212002,2,0,B|169:-10|163:81|127:-12|93:27|72:99,1,168,2|0,0:0|0:0,0:0:0:0:
234,100,212326,1,2,0:0:0:0:
93,169,212488,1,2,0:0:0:0:
234,100,212650,1,2,0:0:0:0:
60,304,212813,6,0,B|88:255|88:255|157:215,1,112,2|0,0:0|0:0,0:0:0:0:
258,148,213137,1,2,0:0:0:0:
167,282,213299,1,2,0:0:0:0:
391,142,213461,2,0,B|363:191|363:191|294:231,1,112,2|0,0:0|0:0,0:0:0:0:
400,296,213786,5,0,0:0:0:0:
425,285,213867,1,0,0:0:0:0:
447,268,213948,1,0,0:0:0:0:
462,247,214029,1,0,0:0:0:0:
471,222,214110,6,0,B|473:202|473:202|460:182|460:182|467:160|467:160|462:139|462:139,1,83.9999974365235,8|0,0:0|0:0,0:0:0:0:
378,70,214326,6,0,B|376:90|376:90|389:110|389:110|382:132|382:132|387:153|387:153,1,83.9999974365235
314,251,214542,6,0,B|316:231|316:231|303:211|303:211|310:189|310:189|305:168|305:168,1,83.9999974365235
170,36,214759,6,0,B|168:56|168:56|181:76|181:76|161:108|187:145|187:145,1,105.000004005432,8|0,0:0|0:0,0:0:0:0:
191,167,214975,5,0,0:0:0:0:
36,51,215164,1,0,0:0:0:0:
237,317,215407,5,4,0:0:0:0:
237,317,215569,2,0,B|188:289|188:289|148:220,1,112,4|0,0:0|0:0,0:0:0:0:
252,31,216056,1,0,0:0:0:0:
228,81,216137,1,0,0:0:0:0:
246,133,216218,1,0,0:0:0:0:
264,185,216299,1,0,0:0:0:0:
239,234,216380,2,0,P|272:283|310:257,1,112,12|0,0:0|0:0,0:0:0:0:
403,22,216704,6,0,B|429:24|429:24|436:34|436:34|454:29|470:56|485:49|485:49|491:62|491:62|454:120,1,125.999996154785,0|0,0:0|0:0,0:3:0:0:
380,214,217029,1,0,0:0:0:0:
347,48,217191,1,0,0:0:0:0:
315,235,217353,2,0,B|299:193|299:193|292:189|292:189|286:177|286:177|272:180|272:180|251:198|214:180,1,125.999996154785
403,22,217677,2,0,B|398:52|398:52|399:60|403:78|403:78|440:73|419:88|419:88|409:106|409:106|365:73,1,125.999996154785
95,52,218002,6,0,L|122:245,1,188.999994232178
41,202,218326,1,0,0:0:0:0:
298,318,218488,1,0,0:0:0:0:
122,240,218650,2,0,B|137:253|137:253|136:271|136:271|143:288|158:293|158:293|168:306|168:306|184:315|184:315|265:322,1,125.999996154785
212,148,218975,2,0,B|207:134|207:134|194:132|194:132|195:120|195:120|181:117|181:117|186:107|186:107|137:103|137:103|146:69|146:69,1,125.999996154785
122,240,219299,6,0,B|195:272|209:273|209:273|224:281|224:281|236:273|236:273|312:271,1,188.999994232178
487,217,219623,2,0,B|422:264|417:274|417:274|419:288|419:288|394:313|394:313|365:366,1,188.999994232178
273,164,219948,1,0,0:0:0:0:
273,164,220110,2,0,P|428:203|428:203,1,125.999996154785,2|0,0:0|0:0,0:0:0:0:
323,16,220434,1,0,0:0:0:0:
323,16,220596,1,0,0:0:0:0:
61,156,220759,1,2,0:0:0:0:
95,103,220840,1,2,0:0:0:0:
156,89,220921,2,0,P|311:128|311:128,1,125.999996154785,2|0,0:0|0:0,0:0:0:0:
257,243,221245,6,0,B|173:254|173:254|167:245|167:245|116:263|116:263|64:270,1,188.999994232178
26,230,221569,1,0,0:0:0:0:
0,160,221650,1,0,0:0:0:0:
4,83,221732,1,0,0:0:0:0:
176,117,221894,6,0,B|209:175|226:192|226:192|231:204|231:204|239:195|239:195|243:205|243:205|315:248,1,188.999994232178,2|0,0:0|0:0,0:0:0:0:
346,53,222218,1,0,0:0:0:0:
221,52,222380,1,0,0:0:0:0:
449,204,222542,2,0,P|369:195|268:135,1,188.999994232178,2|0,0:0|0:0,0:0:0:0:
124,161,222867,2,0,P|142:238|213:331,1,188.999994232178
230,185,223191,5,0,0:0:0:0:
211,132,223272,1,0,0:0:0:0:
162,108,223353,1,0,0:0:0:0:
129,61,223434,1,0,0:0:0:0:
72,68,223515,2,0,B|43:111|43:111|44:131|44:131|31:158|31:158|20:162|20:162|9:190,1,125.999996154785,2|0,0:0|0:0,0:0:0:0:
329,11,223840,2,0,B|351:82|351:82|345:95|345:95|376:125|375:153|375:153|389:196,1,188.999994232178,2|0,0:0|0:0,0:0:0:0:
512,309,224164,2,0,B|501:273|501:273|475:261|493:175|469:161|469:161|455:124,1,188.999994232178,2|0,0:0|0:0,0:0:0:0:
356,335,224488,5,2,0:0:0:0:
318,214,224650,1,0,0:0:0:0:
211,109,224813,1,2,0:0:0:0:
249,229,224975,1,0,0:0:0:0:
84,34,225137,2,0,L|144:219,1,188.999994232178,2|0,0:0|0:0,0:0:0:0:
333,21,225461,1,6,0:0:0:0:
208,37,225623,1,0,0:0:0:0:
438,218,225786,5,6,0:0:0:0:
263,84,225948,1,0,0:0:0:0:
367,280,226110,1,2,0:0:0:0:
333,21,226272,1,0,0:0:0:0:
270,254,226434,1,2,0:0:0:0:
254,226,226515,1,2,0:0:0:0:
238,198,226596,1,2,0:0:0:0:
222,170,226677,1,2,0:0:0:0:
205,142,226759,2,0,L|163:69,3,62.9999980773926,2|0|0|0,0:0|0:0|0:0|0:0,0:0:0:0:
64,160,227083,5,2,0:0:0:0:
40,197,227164,1,0,0:0:0:0:
32,239,227245,1,0,0:0:0:0:
38,281,227326,1,0,0:0:0:0:
59,317,227407,1,2,0:0:0:0:
90,343,227488,1,0,0:0:0:0:
129,357,227569,1,0,0:0:0:0:
170,355,227650,1,0,0:0:0:0:
208,340,227732,5,2,0:0:0:0:
188,289,227813,1,0,0:0:0:0:
196,234,227894,1,0,0:0:0:0:
230,190,227975,1,0,0:0:0:0:
281,168,228056,2,0,L|347:195,3,56,2|0|0|0,0:0|0:0|0:0|0:0,0:0:0:0:
458,116,228380,5,2,0:0:0:0:
405,74,228461,1,0,0:0:0:0:
342,47,228542,1,2,0:0:0:0:
274,37,228623,1,0,0:0:0:0:
160,55,228704,2,0,L|87:42,3,56,2|0|0|0,0:0|0:0|0:0|0:0,0:0:0:0:
236,160,229029,5,0,0:0:0:0:
253,182,229110,1,0,0:0:0:0:
269,205,229191,1,0,0:0:0:0:
285,228,229272,1,0,0:0:0:0:
301,251,229353,2,0,L|347:314,3,56
457,362,229677,5,2,0:0:0:0:
455,308,229759,1,0,0:0:0:0:
442,251,229840,1,2,0:0:0:0:
444,192,229921,1,0,0:0:0:0:
461,135,230002,2,0,L|493:76,3,56,2|0|0|0,0:0|0:0|0:0|0:0,0:0:0:0:
373,39,230326,6,0,B|404:36|404:36|478:43,1,56,2|0,0:0|0:0,0:0:0:0:
256,99,230488,2,0,B|225:96|225:96|151:103,1,56,2|0,0:0|0:0,0:0:0:0:
305,191,230650,1,2,0:0:0:0:
271,234,230732,1,0,0:0:0:0:
216,240,230813,1,2,0:0:0:0:
172,205,230894,1,0,0:0:0:0:
97,113,230975,6,0,P|36:123|43:243,1,181.999991668702,2|0,0:0|0:0,0:0:0:0:
292,337,231461,2,0,P|348:318|409:245,1,140,2|0,0:0|0:0,0:0:0:0:
107,353,231948,5,0,0:0:0:0:
85,333,232029,1,0,0:0:0:0:
64,313,232110,1,0,0:0:0:0:
43,293,232191,1,0,0:0:0:0:
23,274,232272,1,4,0:0:0:0:
256,193,232596,1,8,0:0:0:0:
101,20,232921,5,2,0:0:0:0:
156,23,233002,1,0,0:0:0:0:
208,40,233083,1,0,0:0:0:0:
254,70,233164,1,0,0:0:0:0:
296,105,233245,1,2,0:0:0:0:
345,130,233326,1,0,0:0:0:0:
399,141,233407,1,0,0:0:0:0:
454,138,233488,1,0,0:0:0:0:
506,120,233569,2,0,L|467:189,3,56,2|0|0|0,0:0|0:0|0:0|0:0,0:0:0:0:
413,277,233894,5,2,0:0:0:0:
376,291,233975,1,0,0:0:0:0:
336,293,234056,1,0,0:0:0:0:
297,280,234137,1,0,0:0:0:0:
266,176,234218,5,2,0:0:0:0:
229,162,234299,1,0,0:0:0:0:
189,160,234380,1,0,0:0:0:0:
150,173,234461,1,0,0:0:0:0:
85,280,234542,5,2,0:0:0:0:
66,231,234623,1,0,0:0:0:0:
64,179,234704,1,0,0:0:0:0:
81,129,234786,1,0,0:0:0:0:
114,87,234867,6,0,L|171:30,3,56,2|0|2|0,0:0|0:0|0:0|0:0,0:0:0:0:
293,129,235191,1,2,0:0:0:0:
232,129,235272,1,0,0:0:0:0:
182,163,235353,1,2,0:0:0:0:
161,219,235434,1,0,0:0:0:0:
177,276,235515,1,2,0:0:0:0:
242,258,235596,1,0,0:0:0:0:
311,256,235677,1,2,0:0:0:0:
378,272,235759,1,0,0:0:0:0:
293,129,235840,2,0,L|346:150,3,56,2|0|2|0,0:0|0:0|0:0|0:0,0:0:0:0:
135,6,236164,5,6,0:0:0:0:
97,61,236245,1,0,0:0:0:0:
74,123,236326,1,2,0:0:0:0:
67,188,236407,1,0,0:0:0:0:
77,252,236488,1,2,0:0:0:0:
121,245,236569,1,0,0:3:0:0:
157,271,236650,1,0,0:3:0:0:
164,314,236732,1,0,0:3:0:0:
138,349,236813,6,0,P|86:313|69:276,2,60.6666638895672,8|0|0,0:0|0:0|0:0,0:0:0:0:
349,241,237137,2,0,P|401:205|418:168,2,60.6666638895672,8|0|0,0:0|0:0|0:0,0:0:0:0:
106,38,237461,6,0,B|161:44|202:68|202:68|97:224|21:147|21:147|88:83|202:177|202:177|180:235|120:248|120:248|208:293|292:234,1,818.999962509157,8|0,0:0|0:0,0:0:0:0:
419,112,239083,1,0,0:0:0:0:
419,112,239245,1,0,0:0:0:0:
162,91,239407,2,0,B|217:57|295:76,1,112
481,202,239732,2,0,B|466:139|397:97,1,112
185,225,240056,6,0,P|266:229|199:300,1,224,4|0,0:0|0:0,0:0:0:0:
325,184,240542,1,0,0:0:0:0:
325,184,240704,2,0,P|406:188|326:247,1,224,4|0,0:0|0:0,0:0:0:0:
87,47,241191,1,0,0:0:0:0:
87,47,241353,2,0,P|83:128|24:48,1,224,4|0,0:0|0:0,0:0:0:0:
279,181,241840,1,0,0:0:0:0:
160,143,242002,2,0,B|182:64|270:26|352:64|352:64,1,224,4|0,0:0|0:0,0:0:0:0:
275,347,242488,1,0,0:0:0:0:
309,304,242569,1,0,0:0:0:0:
316,250,242650,6,0,P|255:196|270:294,1,224,4|0,0:0|0:0,0:0:0:0:
316,136,243137,2,0,P|204:145|150:265,1,224,8|0,0:0|0:0,0:0:0:0:
378,320,243623,1,4,0:0:0:0:
316,136,243786,1,8,0:0:0:0:
452,338,243948,2,0,B|486:283|467:205,1,112,4|0,0:0|0:0,0:0:0:0:
433,125,244272,1,8,0:0:0:0:
433,125,244434,1,0,0:0:0:0:
227,28,244596,5,4,0:0:0:0:
301,112,244759,1,0,0:0:0:0:
99,1,244921,1,4,0:0:0:0:
75,51,245002,1,0,0:0:0:0:
64,105,245083,1,8,0:0:0:0:
67,160,245164,1,0,0:0:0:0:
84,212,245245,5,12,0:0:0:0:
155,106,245407,1,0,0:0:0:0:
155,106,245488,1,0,0:0:0:0:
155,106,245569,1,0,0:0:0:0:
247,229,245732,2,0,B|192:263|114:244,1,112,12|0,0:0|0:0,0:0:0:0:
139,248,245975,1,0,0:0:0:0:
139,248,246056,1,0,0:0:0:0:
300,302,246218,2,0,B|355:336|433:317,1,112,4|0,0:0|0:0,0:0:0:0:
397,259,246461,1,0,0:0:0:0:
397,259,246542,5,4,0:0:0:0:
473,43,246704,2,0,B|439:98|458:176,1,112,8|4,0:0|0:0,0:0:0:0:
361,19,247029,1,8,0:0:0:0:
253,193,247191,1,4,0:0:0:0:
253,215,247272,1,0,0:0:0:0:
253,237,247353,1,8,0:0:0:0:
253,259,247434,1,0,0:0:0:0:
202,233,247515,5,6,0:0:0:0:
144,230,247596,1,2,0:0:0:0:
90,251,247677,1,10,0:0:0:0:
49,292,247759,1,2,0:0:0:0:
29,346,247840,5,6,0:0:0:0:
69,168,248002,1,0,0:0:0:0:
124,343,248164,5,4,0:0:0:0:
69,168,248326,1,0,0:0:0:0:
249,208,248488,5,4,0:0:0:0:
184,1,248650,1,0,0:0:0:0:
344,149,248813,5,4,0:0:0:0:
184,1,248975,1,0,0:0:0:0:
136,215,249137,2,0,B|174:158|174:158|252:98,1,125.999996154785,8|0,0:0|0:0,0:0:0:0:
19,280,249461,6,0,B|56:334|56:334|153:341,1,125.999996154785,4|0,0:0|0:0,0:0:0:0:
363,338,249786,2,0,B|326:284|326:284|229:277,1,125.999996154785,4|0,0:0|0:0,0:0:0:0:
63,20,250110,2,0,B|9:57|9:57|2:154,1,125.999996154785,4|0,0:0|0:0,0:0:0:0:
430,24,250434,2,2,P|487:75|360:142,1,251.999992309571,6|2,0:0|0:0,0:0:0:0:
233,28,250921,1,8,0:0:0:0:
233,28,251083,2,2,P|290:79|163:146,1,251.999992309571
361,219,251569,1,8,0:0:0:0:
361,219,251732,6,2,P|418:270|291:337,1,251.999992309571
227,267,252218,1,8,0:0:0:0:
227,267,252380,2,2,P|224:348|157:341,1,125.999996154785
161,239,252623,1,4,0:0:0:0:
168,176,252704,1,4,0:0:0:0:
128,126,252786,1,4,0:0:0:0:
64,118,252867,1,4,0:0:0:0:
73,148,252948,1,4,0:0:0:0:
82,178,253029,6,2,B|130:129|130:129|84:78|84:78|76:-1|-16:29,1,251.999992309571
339,38,253515,1,4,0:0:0:0:
339,38,253677,2,2,P|415:33|372:170,1,251.999992309571
258,35,254164,1,0,0:0:0:0:
386,261,254326,5,4,0:0:0:0:
282,188,254488,1,0,0:0:0:0:
360,366,254650,1,0,0:0:0:0:
306,250,254813,1,0,0:0:0:0:
188,228,254975,1,4,0:0:0:0:
290,82,255137,1,0,0:0:0:0:
41,191,255299,2,8,P|91:126|141:171,1,125.999996154785,0|0,0:0|0:0,0:0:0:0:
291,333,255623,5,4,0:0:0:0:
424,217,255786,1,8,0:0:0:0:
424,217,255867,1,0,0:0:0:0:
424,217,255948,1,0,0:0:0:0:
113,315,256110,1,0,0:0:0:0:
0,201,256272,1,8,0:0:0:0:
0,201,256353,1,0,0:0:0:0:
0,201,256434,1,0,0:0:0:0:
302,68,256596,1,0,0:0:0:0:
131,33,256759,1,8,0:0:0:0:
131,33,256840,1,0,0:0:0:0:
131,33,256921,1,0,0:0:0:0:
434,33,257083,5,0,0:0:0:0:
434,33,257164,1,0,0:0:0:0:
434,33,257245,1,0,0:0:0:0:
470,76,257326,1,0,0:0:0:0:
450,128,257407,1,0,0:0:0:0:
394,136,257488,1,0,0:0:0:0:
359,91,257569,5,12,0:0:0:0:
290,99,257650,1,8,0:0:0:0:
263,161,257732,1,8,0:0:0:0:
302,215,257813,1,8,0:0:0:0:
368,207,257894,1,12,0:0:0:0:
383,234,257975,1,8,0:0:0:0:
398,261,258056,1,8,0:0:0:0:
413,288,258137,1,8,0:0:0:0:
428,315,258218,6,0,P|365:330|275:313,1,112,6|0,0:0|0:0,0:0:0:0:
179,271,258542,2,0,P|123:237|72:161,1,112
285,46,258867,1,0,0:0:0:0:
260,238,259029,1,0,0:0:0:0:
107,121,259191,2,0,P|162:154|213:230,1,112,0|2,0:0|0:0,0:0:0:0:
47,161,259434,1,2,0:0:0:0:
47,161,259515,6,0,P|91:207|121:293,1,112,2|0,0:0|0:0,0:0:0:0:
226,369,259840,2,0,P|281:335|332:259,1,112
482,27,260164,1,2,0:0:0:0:
388,175,260326,1,0,0:0:0:0:
407,13,260488,2,0,P|351:46|300:122,1,112
92,303,260813,5,6,0:0:0:0:
204,123,260975,1,0,0:0:0:0:
167,317,261137,2,0,P|222:283|273:207,1,112
367,355,261461,1,0,0:0:0:0:
153,126,261623,1,0,0:0:0:0:
359,247,261786,2,0,P|325:191|249:140,1,112,0|2,0:0|0:0,0:0:0:0:
425,223,262029,1,2,0:0:0:0:
425,223,262110,6,0,P|406:160|346:91,1,112,2|0,0:0|0:0,0:0:0:0:
83,40,262434,2,0,P|116:95|192:146,1,112
319,245,262759,1,0,0:0:0:0:
255,192,262921,1,0,0:0:0:0:
267,359,263083,1,4,0:0:0:0:
267,359,263164,1,0,0:0:0:0:
267,359,263245,1,0,0:0:0:0:
267,359,263326,1,0,0:0:0:0:
267,359,263407,1,12,0:0:0:0:
379,137,264380,1,0,0:0:0:0:
371,158,264461,1,0,0:0:0:0:
310,166,264542,5,2,0:0:0:0:
300,186,264623,1,2,0:0:0:0:
288,207,264704,2,0,P|225:248|236:289,1,112,2|0,0:0|0:0,0:0:0:0:
159,214,264948,2,0,P|200:277|241:266,1,112,2|0,0:0|0:0,0:0:0:0:
250,350,265191,1,2,0:0:0:0:
29,38,265353,6,0,L|161:146,1,120.400001837158,2|0,0:0|0:0,0:0:0:0:
493,138,265677,2,0,P|424:225|401:146,1,194.249999258995,2|0,0:0|0:0,0:0:0:0:
329,146,266002,6,0,P|363:78|333:48,1,112,2|0,0:0|0:0,0:0:0:0:
163,27,266245,2,0,P|230:61|260:31,1,112,2|0,0:0|0:0,0:0:0:0:
492,21,266488,1,2,0:0:0:0:
152,293,266650,2,0,P|223:269|223:227,1,112,2|0,0:0|0:0,0:0:0:0:
39,43,266975,1,8,0:0:0:0:
68,273,267137,5,2,0:0:0:0:
68,273,267218,1,2,0:0:0:0:
68,273,267299,1,2,0:0:0:0:
119,188,267461,1,4,0:0:0:0:
284,348,267623,1,4,0:0:0:0:
454,164,267786,5,2,0:0:0:0:
454,164,267867,1,2,0:0:0:0:
454,164,267948,1,2,0:0:0:0:
323,214,268110,1,4,0:0:0:0:
366,19,268272,1,4,0:0:0:0:
130,70,268434,5,2,0:0:0:0:
130,70,268515,1,2,0:0:0:0:
130,70,268596,1,2,0:0:0:0:
118,122,268677,1,0,0:0:0:0:
133,138,268759,1,0,0:0:0:0:
148,154,268840,1,0,0:0:0:0:
215,139,268921,2,0,L|268:97,3,56,0|0|2|2,0:0|0:0|0:0|0:0,0:0:0:0:
199,207,269245,5,2,0:0:0:0:
158,245,269326,1,0,0:0:0:0:
170,299,269407,1,0,0:0:0:0:
222,315,269488,1,0,0:0:0:0:
262,278,269569,2,0,L|315:236,3,56,0|0|2|2,0:0|0:0|0:0|0:0,0:0:0:0:
358,357,269894,6,0,B|410:328|410:328|362:263|403:226|403:226|446:187|403:137,1,272.999987503052,2|0,0:0|0:0,0:0:0:0:
482,39,270542,1,0,0:0:0:0:
243,208,270867,1,2,0:0:0:0:
268,73,271110,1,0,0:0:0:0:
268,73,271191,5,12,0:0:0:0:
76,196,271515,1,2,0:0:0:0:
451,342,271840,1,10,0:0:0:0:
349,227,272164,1,0,0:0:0:0:
57,243,272488,6,0,B|154:178|139:428|299:324,1,272.999987503052,6|0,0:0|0:0,0:0:0:0:
373,264,273137,2,8,L|288:197,1,60.6666638895672
298,50,273353,2,8,L|383:117,2,60.6666638895672
148,92,273704,5,0,0:0:0:0:
148,92,273786,5,10,0:0:0:0:
42,9,274110,1,2,0:0:0:0:
133,348,274434,1,2,0:0:0:0:
315,348,274759,1,2,0:0:0:0:
194,35,275083,6,0,B|291:-30|276:220|436:116,1,272.999987503052,6|0,0:0|0:0,0:0:0:0:
492,22,275732,1,0,0:0:0:0:
460,204,276056,1,2,0:0:0:0:
270,164,276299,1,0,0:0:0:0:
270,164,276380,5,10,0:0:0:0:
75,119,276704,1,2,0:0:0:0:
90,229,277029,1,2,0:0:0:0:
105,339,277353,1,2,0:0:0:0:
91,24,277677,6,0,L|136:122,1,101.500003097534,8|0,0:0|0:0,0:0:0:0:
199,70,278002,2,0,L|244:168,1,101.500003097534
465,344,278326,2,0,B|451:308|451:308|405:280|413:224,1,112,8|0,0:0|0:0,0:0:0:0:
302,279,278650,2,0,B|288:243|288:243|242:215|249:158,1,112,8|0,0:0|0:0,0:0:0:0:
67,36,278975,2,0,P|120:93|138:179,1,125.999996154785,8|0,0:0|0:0,0:0:0:0:
316,179,279299,2,0,P|369:235|386:321,1,125.999996154785,8|0,0:0|0:0,0:0:0:0:
265,375,279623,1,2,0:0:0:0:
221,349,279704,1,2,0:0:0:0:
191,307,279786,1,2,0:0:0:0:
181,255,279867,1,0,0:0:0:0:
194,204,279948,5,0,0:0:0:0:
220,248,280029,1,0,0:0:0:0:
262,278,280110,1,0,0:0:0:0:
313,287,280191,1,0,0:0:0:0:
365,275,280272,5,4,0:0:0:0:
363,215,280353,1,0,0:0:0:0:
339,161,280434,1,8,0:0:0:0:
293,123,280515,1,0,0:0:0:0:
235,106,280596,1,4,0:0:0:0:
175,108,280677,1,0,0:0:0:0:
121,132,280759,1,8,0:0:0:0:
83,178,280840,1,0,0:0:0:0:
66,236,280921,2,0,P|61:287|77:328,3,70,4|0|8|0,0:0|0:0|0:0|0:0,0:0:0:0:
196,177,281245,6,0,L|262:133,1,70,8|0,0:0|0:0,0:0:0:0:
316,235,281407,2,0,L|393:250,1,70,4|0,0:0|0:0,0:0:0:0:
230,353,281569,1,2,0:0:0:0:
221,297,281650,1,0,0:0:0:0:
226,240,281732,2,0,L|253:171,1,70,8|0,0:0|0:0,0:0:0:0:
337,56,281894,1,2,0:0:0:0:
346,112,281975,1,0,0:0:0:0:
341,169,282056,2,0,L|314:238,1,70,8|0,0:0|0:0,0:0:0:0:
28,21,282218,1,2,0:0:0:0:
48,73,282299,1,0,0:0:0:0:
81,120,282380,2,0,L|138:166,1,70
346,308,282542,2,0,P|299:286|271:252,3,70,2|0|8|0,0:0|0:0|0:0|0:0,0:0:0:0:
441,279,282867,5,4,0:0:0:0:
463,227,282948,1,0,0:0:0:0:
460,170,283029,1,8,0:0:0:0:
433,119,283110,1,0,0:0:0:0:
386,84,283191,1,4,0:0:0:0:
330,76,283272,1,0,0:0:0:0:
275,93,283353,1,8,0:0:0:0:
233,133,283434,1,0,0:0:0:0:
211,187,283515,2,0,P|201:237|212:280,3,70,4|0|8|0,0:0|0:0|0:0|0:0,0:0:0:0:
133,320,283840,6,0,L|89:254,1,70,4|0,0:0|0:0,0:0:0:0:
130,142,284002,2,0,L|145:65,1,70,8|0,0:0|0:0,0:0:0:0:
297,178,284164,1,2,0:0:0:0:
342,211,284245,1,0,0:0:0:0:
379,255,284326,2,0,L|408:322,1,70,8|0,0:0|0:0,0:0:0:0:
212,219,284488,1,2,0:0:0:0:
167,186,284569,1,0,0:0:0:0:
130,142,284650,2,0,L|100:74,1,70,8|0,0:0|0:0,0:0:0:0:
362,104,284813,1,2,0:0:0:0:
418,111,284894,1,0,0:0:0:0:
472,130,284975,2,0,L|531:174,1,70,8|0,0:0|0:0,0:0:0:0:
155,306,285137,2,0,P|116:339|73:351,3,70,2|0|8|0,0:0|0:0|0:0|0:0,0:0:0:0:
73,247,285461,5,4,0:0:0:0:
51,195,285542,1,0,0:0:0:0:
54,138,285623,1,8,0:0:0:0:
81,87,285704,1,0,0:0:0:0:
128,52,285786,1,4,0:0:0:0:
184,44,285867,1,0,0:0:0:0:
239,61,285948,1,8,0:0:0:0:
281,101,286029,1,0,0:0:0:0:
297,155,286110,2,0,P|302:205|287:247,3,70,4|0|8|0,0:0|0:0|0:0|0:0,0:0:0:0:
391,141,286434,5,4,0:0:0:0:
445,136,286515,1,0,0:0:0:0:
485,175,286596,1,8,0:0:0:0:
478,229,286677,1,0,0:0:0:0:
432,260,286759,5,4,0:0:0:0:
379,244,286840,1,0,0:0:0:0:
323,242,286921,1,8,0:0:0:0:
268,254,287002,1,0,0:0:0:0:
217,279,287083,1,4,0:0:0:0:
163,295,287164,1,0,0:0:0:0:
107,297,287245,1,8,0:0:0:0:
52,285,287326,1,0,0:0:0:0:
1,260,287407,2,0,P|0:218|47:166,3,70,4|0|8|0,0:0|0:0|0:0|0:0,0:0:0:0:
142,49,287732,2,0,P|98:81|75:131,3,70,4|0|8|0,0:0|0:0|0:0|0:0,0:0:0:0:
342,22,288056,5,4,0:0:0:0:
375,47,288137,1,0,0:0:0:0:
400,79,288218,1,8,0:0:0:0:
415,116,288299,1,0,0:0:0:0:
419,155,288380,5,4,0:0:0:0:
359,172,288461,1,0,0:0:0:0:
308,205,288542,1,8,0:0:0:0:
267,249,288623,1,0,0:0:0:0:
241,302,288704,2,0,B|177:287|180:202|284:112,1,210,4|0,0:0|0:0,0:0:0:0:
99,94,289029,5,4,0:0:0:0:
66,119,289110,1,0,0:0:0:0:
41,151,289191,1,8,0:0:0:0:
26,188,289272,1,0,0:0:0:0:
22,227,289353,2,0,P|78:262|112:207,1,140,4|8,0:0|0:0,0:0:0:0:
72,19,289677,1,4,0:0:0:0:
99,25,289759,1,0,0:0:0:0:
126,31,289840,1,8,0:0:0:0:
153,37,289921,1,0,0:0:0:0:
180,44,290002,5,12,0:0:0:0:
165,112,290083,1,8,0:0:0:0:
201,171,290164,1,8,0:0:0:0:
270,186,290245,1,8,0:0:0:0:
328,148,290326,1,8,0:0:0:0:
396,133,290407,1,8,0:0:0:0:
455,170,290488,1,8,0:0:0:0:
470,238,290569,1,8,0:0:0:0:
432,296,290650,5,4,0:0:0:0:
385,265,290732,1,0,0:0:0:0:
330,251,290813,1,8,0:0:0:0:
273,257,290894,1,0,0:0:0:0:
221,282,290975,1,4,0:0:0:0:
174,313,291056,1,0,0:0:0:0:
119,327,291137,1,8,0:0:0:0:
62,321,291218,1,0,0:0:0:0:
10,296,291299,1,4,0:0:0:0:
41,249,291380,1,0,0:0:0:0:
55,194,291461,1,8,0:0:0:0:
49,137,291542,1,0,0:0:0:0:
24,85,291623,6,0,L|2:19,1,70,4|0,0:0|0:0,0:0:0:0:
151,91,291786,2,0,L|173:157,1,70,8|0,0:0|0:0,0:0:0:0:
418,33,291948,2,0,L|347:70,3,70,2|0|8|0,0:0|0:0|0:0|0:0,0:0:0:0:
217,262,292272,2,0,L|288:225,3,70,2|0|8|0,0:0|0:0|0:0|0:0,0:0:0:0:
445,205,292596,1,2,0:0:0:0:
445,205,292677,1,0,0:0:0:0:
445,205,292759,2,0,L|480:265,1,70,8|0,0:0|0:0,0:0:0:0:
282,134,292921,1,2,0:0:0:0:
282,134,293002,1,0,0:0:0:0:
282,134,293083,2,0,L|247:74,1,70
11,97,293245,5,4,0:0:0:0:
68,73,293326,1,0,0:0:0:0:
129,82,293407,1,8,0:0:0:0:
178,120,293488,1,0,0:0:0:0:
199,177,293569,1,4,0:0:0:0:
206,238,293650,1,0,0:0:0:0:
245,286,293732,1,8,0:0:0:0:
302,310,293813,1,0,0:0:0:0:
362,299,293894,1,4,0:0:0:0:
411,262,293975,1,0,0:0:0:0:
433,204,294056,1,8,0:0:0:0:
425,143,294137,1,0,0:0:0:0:
386,96,294218,6,0,L|329:49,1,70,4|0,0:0|0:0,0:0:0:0:
168,96,294380,2,0,L|231:156,1,70,8|0,0:0|0:0,0:0:0:0:
57,216,294542,2,0,L|-6:146,3,70,2|0|8|0,0:0|0:0|0:0|0:0,0:0:0:0:
245,286,294867,2,0,L|308:356,3,70,2|0|8|0,0:0|0:0|0:0|0:0,0:0:0:0:
288,116,295191,1,2,0:0:0:0:
288,116,295272,1,0,0:0:0:0:
288,116,295353,2,0,L|348:81,1,70,8|0,0:0|0:0,0:0:0:0:
167,262,295515,1,2,0:0:0:0:
167,262,295596,1,0,0:0:0:0:
167,262,295677,2,0,L|107:297,1,70,8|0,0:0|0:0,0:0:0:0:
54,69,295840,5,4,0:0:0:0:
101,100,295921,1,0,0:0:0:0:
156,114,296002,1,8,0:0:0:0:
213,108,296083,1,0,0:0:0:0:
265,83,296164,1,4,0:0:0:0:
312,52,296245,1,0,0:0:0:0:
367,38,296326,1,8,0:0:0:0:
424,44,296407,1,0,0:0:0:0:
476,69,296488,1,4,0:0:0:0:
445,116,296569,1,0,0:0:0:0:
431,171,296650,1,8,0:0:0:0:
437,228,296732,1,0,0:0:0:0:
462,280,296813,6,0,L|484:346,1,70,4|0,0:0|0:0,0:0:0:0:
334,188,296975,2,0,L|312:122,1,70,8|0,0:0|0:0,0:0:0:0:
89,338,297137,2,0,L|23:360,3,70,6|0|8|0,0:0|0:0|0:0|0:0,0:0:0:0:
173,189,297461,2,0,L|239:167,3,70,2|0|8|0,0:0|0:0|0:0|0:0,0:0:0:0:
11,34,297786,1,2,0:0:0:0:
35,91,297867,1,0,0:0:0:0:
60,148,297948,2,0,L|103:232,1,70,8|0,0:0|0:0,0:0:0:0:
348,205,298110,1,2,0:0:0:0:
310,255,298191,1,0,0:0:0:0:
273,305,298272,2,0,L|221:385,1,70,8|0,0:0|0:0,0:0:0:0:
57,289,298434,5,4,0:0:0:0:
98,241,298515,1,0,0:0:0:0:
146,200,298596,1,8,0:0:0:0:
200,167,298677,1,0,0:0:0:0:
258,143,298759,1,4,0:0:0:0:
320,132,298840,1,0,0:0:0:0:
383,132,298921,1,8,0:0:0:0:
445,141,299002,1,0,0:0:0:0:
505,160,299083,5,4,0:0:0:0:
486,220,299164,1,0,0:0:0:0:
439,262,299245,1,8,0:0:0:0:
377,274,299326,1,0,0:0:0:0:
317,253,299407,1,4,0:0:0:0:
274,206,299488,1,0,0:0:0:0:
261,144,299569,1,8,0:0:0:0:
282,85,299650,1,0,0:0:0:0:
330,43,299732,2,0,L|408:12,3,70,4|0|8|0,0:0|0:0|0:0|0:0,0:0:0:0:
194,135,300056,2,0,L|116:166,3,70,4|0|8|0,0:0|0:0|0:0|0:0,0:0:0:0:
51,355,300380,5,0,0:0:0:0:
83,328,300461,1,0,0:0:0:0:
97,287,300542,1,0,0:0:0:0:
88,244,300623,1,0,0:0:0:0:
58,211,300704,1,0,0:0:0:0:
26,184,300786,1,0,0:0:0:0:
12,143,300867,1,0,0:0:0:0:
21,100,300948,1,0,0:0:0:0:
51,67,301029,5,6,0:0:0:0:
97,109,301110,1,0,0:0:0:0:
129,161,301191,1,0,0:0:0:0:
161,213,301272,1,0,0:0:0:0:
205,254,301353,1,4,0:0:0:0:
258,282,301434,1,0,0:0:0:0:
316,295,301515,1,0,0:0:0:0:
375,292,301596,1,0,0:0:0:0:
431,273,301677,5,4,0:0:0:0:
385,231,301759,1,0,0:0:0:0:
353,179,301840,1,0,0:0:0:0:
321,127,301921,1,0,0:0:0:0:
277,86,302002,1,4,0:0:0:0:
224,58,302083,1,0,0:0:0:0:
166,45,302164,1,2,0:0:0:0:
107,48,302245,1,2,0:0:0:0:
51,67,302326,2,0,L|-9:120,3,70,4|0|0|0,0:0|0:0|0:0|0:0,0:0:0:0:
138,157,302650,2,0,L|198:104,3,70,4|0|0|0,0:0|0:0|0:0|0:0,0:0:0:0:
222,254,302975,2,0,L|162:307,3,70,4|0|0|0,0:0|0:0|0:0|0:0,0:0:0:0:
309,344,303299,2,0,L|369:291,3,70,4|0|0|0,0:0|0:0|0:0|0:0,0:0:0:0:
418,47,303623,5,4,0:0:0:0:
459,94,303704,1,0,0:0:0:0:
471,155,303786,1,0,0:0:0:0:
450,213,303867,1,0,0:0:0:0:
402,252,303948,1,4,0:0:0:0:
340,264,304029,1,0,0:0:0:0:
281,243,304110,1,0,0:0:0:0:
242,196,304191,1,0,0:0:0:0:
232,135,304272,5,4,0:0:0:0:
181,98,304353,1,0,0:0:0:0:
118,107,304434,1,0,0:0:0:0:
79,157,304515,1,0,0:0:0:0:
87,219,304596,1,4,0:0:0:0:
135,257,304677,1,0,0:0:0:0:
195,249,304759,1,2,0:0:0:0:
243,285,304840,1,2,0:0:0:0:
251,344,304921,2,0,L|321:378,3,70,6|0|0|0,0:0|0:0|0:0|0:0,0:0:0:0:
361,196,305245,2,0,L|291:162,3,70,4|0|0|0,0:0|0:0|0:0|0:0,0:0:0:0:
425,83,305569,5,8,0:0:0:0:
425,83,305650,1,8,0:0:0:0:
425,83,305732,1,8,0:0:0:0:
425,83,305813,1,8,0:0:0:0:
425,83,305894,1,8,0:0:0:0:
118,96,306218,6,0,L|59:30,3,70,4|0|8|0,0:0|0:0|0:0|0:0,0:0:0:0:
133,240,306542,2,0,L|206:314,1,70,4|0,0:0|0:0,0:0:0:0:
281,67,306704,1,8,0:0:0:0:
315,120,306786,1,0,0:0:0:0:
286,175,306867,2,0,P|251:206|207:196,3,70,4|0|0|0,0:0|0:0|0:0|0:0,0:0:0:0:
422,35,307191,2,0,P|494:109|493:241,1,210,4|0,0:0|0:0,0:0:0:0:
394,357,307515,5,4,0:0:0:0:
381,324,307596,1,0,0:0:0:0:
368,291,307677,1,8,0:0:0:0:
355,258,307759,1,0,0:0:0:0:
342,225,307840,2,0,P|340:178|376:150,3,70,4|0|8|0,0:0|0:0|0:0|0:0,0:0:0:0:
43,227,308164,5,4,0:0:0:0:
77,279,308245,1,0,0:0:0:0:
132,307,308326,1,8,0:0:0:0:
193,303,308407,1,0,0:0:0:0:
243,269,308488,1,4,0:0:0:0:
298,240,308569,1,0,0:0:0:0:
360,244,308650,1,8,0:0:0:0:
410,278,308732,1,0,0:0:0:0:
437,332,308813,6,8,P|297:343|233:311,1,210,12|8,0:0|0:0,0:0:0:0:
126,39,309299,1,8,0:0:0:0:
126,39,309380,1,0,0:0:0:0:
126,39,309461,2,8,P|266:28|330:60,1,210,4|8,0:0|0:0,0:0:0:0:
18,295,309948,1,8,0:0:0:0:
18,295,310029,1,0,0:0:0:0:
18,295,310110,6,8,P|30:229|92:220,1,112,4|8,0:0|0:0,0:0:0:0:
156,134,310353,1,0,0:0:0:0:
239,348,310596,1,8,0:0:0:0:
432,43,310759,2,0,L|342:82,1,56,4|0,0:0|0:0,0:0:0:0:
489,213,310921,2,0,L|443:174,3,56,8|0|4|0,0:0|0:0|0:0|0:0,0:0:0:0:
418,255,311245,1,8,0:0:0:0:
418,255,311326,1,0,0:0:0:0:
418,255,311407,6,8,B|347:226|282:266|282:266|233:260|253:233|184:233,1,231.000007049561,12|8,0:0|0:0,0:0:0:0:
38,30,311894,1,8,0:0:0:0:
38,30,311975,1,0,0:0:0:0:
38,30,312056,2,8,B|9:101|49:166|49:166|43:215|16:195|16:264,1,231.000007049561,4|8,0:0|0:0,0:0:0:0:
401,33,312542,1,8,0:0:0:0:
401,33,312623,1,0,0:0:0:0:
401,33,312704,6,0,B|356:43|366:115|309:93|309:93|260:178,1,167.999994873047,4|0,0:0|0:0,0:0:0:0:
146,230,312948,1,4,0:0:0:0:
462,170,313191,2,0,L|387:225,1,83.9999974365235,8|0,0:0|0:0,0:0:0:0:
261,313,313353,2,0,P|316:196|136:134,1,335.999989746094,4|4,0:0|0:0,0:0:0:0:
163,116,313840,1,8,0:0:0:0:
382,354,314002,5,4,0:0:0:0:
433,339,314083,1,0,0:0:0:0:
471,300,314164,1,8,0:0:0:0:
484,247,314245,1,0,0:0:0:0:
469,194,314326,1,4,0:0:0:0:
431,156,314407,1,0,0:0:0:0:
379,143,314488,1,8,0:0:0:0:
326,158,314569,1,0,0:0:0:0:
287,197,314650,5,4,0:0:0:0:
248,233,314732,1,0,0:0:0:0:
195,247,314813,1,8,0:0:0:0:
143,231,314894,1,0,0:0:0:0:
104,192,314975,2,0,B|85:154|85:154|100:89,3,77.0000023498536,4|0|8|0,0:0|0:0|0:0|0:0,0:0:0:0:
350,10,315299,5,10,0:0:0:0:
389,66,315380,1,0,0:0:0:0:
400,133,315461,1,8,0:0:0:0:
381,198,315542,1,0,0:0:0:0:
336,248,315623,1,8,0:0:0:0:
274,276,315704,1,0,0:0:0:0:
206,275,315786,1,8,0:0:0:0:
145,245,315867,1,0,0:0:0:0:
104,192,315948,2,0,L|39:87,3,87.5,4|0|8|0,0:0|0:0|0:0|0:0,0:0:0:0:
289,173,316272,2,0,L|354:278,3,87.5,4|0|8|0,0:0|0:0|0:0|0:0,0:0:0:0:
134,0,316596,5,4,0:0:0:0:
120,54,316677,1,0,0:0:0:0:
143,104,316759,1,8,0:0:0:0:
192,127,316840,1,0,0:0:0:0:
244,113,316921,1,4,0:0:0:0:
298,99,317002,1,0,0:0:0:0:
348,122,317083,1,8,0:0:0:0:
371,171,317164,1,0,0:0:0:0:
357,223,317245,5,4,0:0:0:0:
306,201,317326,1,0,0:0:0:0:
253,215,317407,1,8,0:0:0:0:
221,259,317488,1,0,0:0:0:0:
227,313,317569,1,4,0:0:0:0:
264,352,317650,1,0,0:0:0:0:
318,355,317732,1,8,0:0:0:0:
361,322,317813,1,0,0:0:0:0:
372,269,317894,2,0,P|432:308|450:187,1,210,4|0,0:0|0:0,0:0:0:0:
136,22,318380,2,0,P|97:82|187:201,1,210
260,37,318704,1,8,0:0:0:0:
288,57,318786,1,0,0:0:0:0:
316,77,318867,5,4,0:0:0:0:
274,102,318948,1,0,0:0:0:0:
274,150,319029,1,8,0:0:0:0:
315,174,319110,1,0,0:0:0:0:
356,150,319191,5,4,0:0:0:0:
342,204,319272,1,0,0:0:0:0:
302,243,319353,1,8,0:0:0:0:
248,257,319434,1,0,0:0:0:0:
194,242,319515,1,4,0:0:0:0:
154,202,319596,1,0,0:0:0:0:
139,148,319677,1,8,0:0:0:0:
155,94,319759,1,0,0:0:0:0:
195,55,319840,5,4,0:0:0:0:
141,40,319921,1,0,0:0:0:0:
87,55,320002,1,8,0:0:0:0:
48,95,320083,1,0,0:0:0:0:
34,149,320164,1,4,0:0:0:0:
48,203,320245,1,0,0:0:0:0:
88,243,320326,1,8,0:0:0:0:
88,243,320407,1,0,0:0:0:0:
88,243,320488,2,0,L|25:292,3,70,6|0|8|0,0:0|0:0|0:0|0:0,0:0:0:0:
273,160,320813,2,0,L|336:111,3,70,4|0|8|0,0:0|0:0|0:0|0:0,0:0:0:0:
197,289,321137,5,4,0:0:0:0:
227,351,321218,1,0,0:0:0:0:
288,384,321299,1,8,0:0:0:0:
357,377,321380,1,0,0:0:0:0:
409,330,321461,1,4,0:0:0:0:
426,261,321542,1,0,0:0:0:0:
400,198,321623,1,8,0:0:0:0:
342,158,321704,1,0,0:0:0:0:
273,160,321786,6,0,B|261:144|261:144|286:129|286:129|256:122|256:122|241:56,2,108.266669970703,8|0|0,0:0|0:0|0:0,0:0:0:0:
180,310,322110,2,0,B|172:328|172:328|146:314|146:314|155:343|155:343|105:389,2,108.266669970703,8|0|0,0:0|0:0|0:0,0:0:0:0:
11,142,322434,2,0,B|28:174|28:174|24:198|65:157|59:187|59:187|85:213,2,108.266669970703
142,47,322759,1,0,0:0:0:0:
142,47,322867,1,0,0:0:0:0:
142,47,322975,1,0,0:0:0:0:
142,47,323083,1,0,0:0:0:0:
256,192,323164,12,0,327948,0:0:0:0:
