osu file format v14

[General]
AudioFilename: audio.mp3
AudioLeadIn: 0
PreviewTime: 53723
Countdown: 0
SampleSet: Normal
StackLeniency: 0.7
Mode: 0
LetterboxInBreaks: 0
WidescreenStoryboard: 1

[Editor]
DistanceSpacing: 1
BeatDivisor: 4
GridSize: 8
TimelineZoom: 1.9

[Metadata]
Title:For UltraPlayers
TitleUnicode:For UltraPlayers
Artist:cosMo@BousouP
ArtistUnicode:cosMo@暴走P
Creator:toybot
Version:RLC's INFINITE
Source:SOUND VOLTEX II -infinite infection-
Tags:sdvx 2 rlc xlni anxient vikala owc osu world cup 2019 bemani konami arcade championship kac2013 instrumental electronic video game
BeatmapID:4248800
BeatmapSetID:1062625

[Difficulty]
HPDrainRate:6
CircleSize:4
OverallDifficulty:8
ApproachRate:9
SliderMultiplier:1.6
SliderTickRate:1

[Events]
//Background and Video events
0,0,"sky.jpg",0,0
//Break Periods
2,73028,81781
//Storyboard Layer 0 (Background)
//Storyboard Layer 1 (Fail)
//Storyboard Layer 2 (Pass)
//Storyboard Layer 3 (Foreground)
//Storyboard Layer 4 (Overlay)
//Storyboard Sound Samples

[TimingPoints]
1187,298.507462686567,4,1,1,55,1,0
6037,-100,4,3,1,55,0,0
8351,-100,4,1,1,55,0,0
12079,-100,4,2,1,55,0,0
12676,-100,4,1,1,55,0,0
13127,-200,4,1,1,55,0,0
16709,-100,4,1,1,55,0,0
22679,-100,4,1,1,60,0,0
26261,-66.6666666666667,4,1,1,60,0,0
27157,-100,4,1,1,60,0,0
28945,-100,4,1,1,65,0,0
32228,-100,4,1,1,55,0,0
40589,-66.6666666666667,4,1,1,55,0,0
41485,-100,4,1,1,55,0,0
46709,-100,4,3,1,55,0,0
48948,-149.253731343284,4,1,1,55,0,0
49545,-133.333333333333,4,1,1,55,0,0
50142,-117.647058823529,4,1,1,55,0,0
50739,-100,4,1,1,55,0,0
52530,-133.333333333333,4,1,1,55,0,0
53127,-76.9230769230769,4,1,1,55,0,0
53724,-66.6666666666667,4,1,1,65,0,1
54172,-100,4,1,1,65,0,1
55366,-76.9230769230769,4,1,1,65,0,1
55739,-100,4,1,1,65,0,1
56112,-66.6666666666667,4,1,1,65,0,1
56560,-76.9230769230769,4,1,1,65,0,1
57306,-100,4,1,1,65,0,1
58201,-80,4,1,1,65,0,1
58500,-66.6666666666667,4,1,1,65,0,1
58948,-100,4,1,1,65,0,1
62082,-66.6666666666667,4,1,1,65,0,1
62679,-100,4,1,1,65,0,1
62900,-100,4,1,1,70,0,1
62903,-80,4,1,1,70,0,1
63127,-80,4,1,1,75,0,1
63276,-66.6666666666667,4,2,1,65,0,1
63575,-80,4,1,1,65,0,1
64470,-100,4,1,1,65,0,1
64843,-76.9230769230769,4,1,1,65,0,1
65664,-66.6666666666667,4,1,1,65,0,1
66112,-100,4,1,1,65,0,1
68649,-100,4,1,1,55,0,1
68948,-100,4,1,1,45,0,1
69246,-100,4,1,1,65,0,1
69843,-100,4,1,1,55,0,1
70142,-100,4,1,1,45,0,1
70440,-100,4,1,1,65,0,1
72828,-100,4,1,1,65,0,0
77303,-100,4,1,1,40,0,0
82381,-100,4,3,1,60,0,0
86560,-100,4,1,1,60,0,0
89545,-100,4,1,1,40,0,0
89843,-100,4,1,1,50,0,0
90142,-100,4,1,1,60,0,0
90440,-100,4,1,1,70,0,0
90736,-100,4,1,1,40,0,0
91333,-100,4,1,1,70,0,0
91930,-100,4,1,1,40,0,0
91933,-200,4,1,1,40,0,0
92530,-100,4,1,1,40,0,0
92828,-100,4,1,1,60,0,0
93127,-66.6666666666667,4,1,1,70,0,1
93575,-100,4,1,1,70,0,1
94545,-83.3333333333333,4,1,1,70,0,1
94769,-71.4285714285714,4,1,1,70,0,1
95515,-100,4,1,1,70,0,1
97903,-76.9230769230769,4,1,1,70,0,1
98351,-100,4,1,1,70,0,1
100888,-76.9230769230769,4,1,1,70,0,1
104694,-100,4,1,1,70,0,1
112231,-100,4,1,1,60,0,0
112530,-100,4,2,1,50,0,0
114616,-100,4,1,1,60,0,0
114918,-100,4,2,1,50,0,0
117157,-133.333333333333,4,1,1,40,0,0
117455,-133.333333333333,4,1,1,20,0,0
117754,-133.333333333333,4,2,1,5,0,0
117903,-133.333333333333,4,2,1,5,0,0

[Colours]
Combo1 : 34,238,192
Combo2 : 60,162,217
Combo3 : 238,136,185
Combo4 : 242,68,99

[HitObjects]
340,36,1187,6,0,L|428:24,1,80,0|4,0:0|0:2,0:0:0:0:
256,70,1485,2,0,L|208:57,2,40
329,131,1784,6,0,L|417:119,1,80,0|4,0:0|0:2,0:0:0:0:
245,165,2082,2,0,L|197:152,2,40
354,223,2381,6,0,L|442:211,1,80,0|4,0:0|0:2,0:0:0:0:
270,257,2679,2,0,L|222:244,2,40
343,318,2978,6,0,L|431:306,1,80,0|4,0:0|0:2,0:0:0:0:
259,352,3276,2,0,L|211:339,2,40
115,337,3575,5,0,0:0:0:0:
115,337,3724,1,4,0:2:0:0:
70,198,3873,2,0,L|54:147,2,40,8|8|8,3:1|3:1|3:1,0:0:0:0:
36,283,4172,5,0,0:0:0:0:
36,283,4321,1,4,0:2:0:0:
171,168,4470,2,0,L|187:117,2,40,8|8|8,3:0|3:0|3:0,0:0:0:0:
144,250,4769,5,0,0:0:0:0:
144,250,4918,1,4,0:2:0:0:
104,112,5067,2,0,L|88:61,2,40,4|4|4,3:0|3:0|3:0,0:0:0:0:
70,197,5366,5,2,0:0:0:0:
70,197,5515,1,4,0:2:0:0:
171,168,5664,1,2,0:2:0:0:
190,165,5739,1,2,0:2:0:0:
209,162,5813,1,2,0:2:0:0:
229,160,5888,1,2,0:2:0:0:
248,158,5963,1,4,1:0:0:0:
371,138,6112,6,0,L|382:94,2,40,0|0|8,0:0|0:0|0:1,0:0:0:0:
365,173,6336,1,2,0:0:0:0:
376,206,6410,1,2,0:0:0:0:
407,224,6485,1,2,0:0:0:0:
443,224,6560,1,4,0:0:0:0:
406,338,6709,6,0,P|366:311|312:306,1,80,0|8,0:0|0:1,0:0:0:0:
299,303,6933,1,2,0:0:0:0:
264,312,7007,1,2,0:0:0:0:
235,334,7082,1,2,0:0:0:0:
214,363,7157,1,4,0:0:0:0:
94,209,7306,1,0,0:0:0:0:
139,124,7455,5,8,0:1:0:0:
169,146,7530,1,2,0:0:0:0:
188,178,7605,1,2,0:0:0:0:
193,214,7679,1,2,0:0:0:0:
179,248,7754,1,4,0:0:0:0:
291,195,7903,2,0,L|301:103,1,80,0|2,0:0|1:2,0:0:0:0:
290,80,8127,1,2,1:2:0:0:
323,91,8201,1,2,1:2:0:0:
359,90,8276,1,2,1:2:0:0:
392,75,8351,5,6,0:0:0:0:
467,132,8500,2,0,L|507:121,2,40,8|0|0,0:0|0:0|0:0,0:0:0:0:
399,197,8798,1,8,0:0:0:0:
395,212,8873,1,0,0:0:0:0:
391,228,8948,1,0,0:0:0:0:
433,330,9097,2,0,L|478:321,2,40,8|0|0,0:0|0:0|0:0,0:0:0:0:
332,355,9395,5,8,0:0:0:0:
316,351,9470,1,0,0:0:0:0:
301,347,9545,2,0,L|293:303,1,40,6|0,0:0|0:0,0:0:0:0:
242,244,9694,1,8,0:0:0:0:
226,248,9769,1,0,0:0:0:0:
211,252,9843,2,0,L|200:295,1,40
126,315,9992,2,0,L|115:358,1,40,8|0,0:0|0:0,0:0:0:0:
69,251,10142,1,2,0:0:0:0:
131,113,10291,5,8,0:0:0:0:
173,136,10366,1,0,0:0:0:0:
220,133,10440,1,0,0:0:0:0:
256,102,10515,1,0,0:0:0:0:
295,76,10589,1,8,0:0:0:0:
342,82,10664,1,0,0:0:0:0:
382,109,10739,1,4,0:2:0:0:
382,109,11933,5,0,2:0:0:0:
422,186,12082,2,0,P|465:179|510:165,1,80,2|2,0:0|0:0,0:0:0:0:
422,186,12381,1,2,0:0:0:0:
382,263,12530,2,0,P|339:256|294:242,1,80,4|0,0:0|0:0,0:0:0:0:
286,236,12754,1,0,0:0:0:0:
266,231,12828,1,0,0:0:0:0:
246,236,12903,1,0,0:0:0:0:
229,248,12978,1,0,0:0:0:0:
217,263,13052,1,0,0:0:0:0:
210,281,13127,5,4,0:0:0:0:
131,324,13276,1,0,2:0:0:0:
134,237,13425,1,0,0:0:0:0:
211,368,13575,1,0,2:0:0:0:
297,361,13724,2,0,P|331:351|394:349,1,80,2|2,0:2|0:2,0:0:0:0:
491,163,14321,5,0,0:0:0:0:
420,216,14470,1,0,2:0:0:0:
372,140,14619,1,0,0:0:0:0:
443,88,14769,1,0,2:0:0:0:
420,216,14918,2,0,P|412:258|405:308,1,80,2|2,0:2|0:2,0:0:0:0:
406,294,15515,5,0,0:0:0:0:
330,243,15664,1,0,2:0:0:0:
330,243,15739,1,0,2:0:0:0:
330,243,15813,1,0,0:0:0:0:
247,283,15963,1,0,2:0:0:0:
96,175,16112,5,2,0:2:0:0:
201,191,16261,1,0,2:0:0:0:
201,191,16336,1,0,2:0:0:0:
201,191,16410,2,0,L|209:141,2,26.6666666666667,0|0|0,0:0|2:0|2:0,0:0:0:0:
313,125,16709,6,0,L|382:111,2,53.3333333333333,0|0|2,0:0|2:0|0:2,0:0:0:0:
228,74,17007,2,0,L|159:60,2,53.3333333333333,0|0|2,0:0|2:0|2:0,0:0:0:0:
313,125,17306,6,0,P|317:162|316:188,1,53.3333333333333,0|2,0:0|2:0,0:0:0:0:
201,190,17505,2,0,P|197:227|198:253,1,53.3333333333333,2|4,2:0|0:2,0:0:0:0:
339,277,17704,2,0,P|343:314|342:340,1,53.3333333333333,0|0,2:0|2:0,0:0:0:0:
246,350,17903,1,4,0:0:0:0:
488,231,18052,5,0,2:0:0:0:
460,317,18201,1,0,0:0:0:0:
399,245,18351,1,0,2:0:0:0:
436,160,18500,2,0,P|447:119|451:75,1,80,0|0,0:0|2:0,0:0:0:0:
343,109,18798,2,0,P|339:63|323:13,1,80
227,78,19097,5,0,0:0:0:0:
227,78,19395,2,0,P|178:86|49:93,1,160,4|0,0:2|0:0,0:0:0:0:
327,38,19843,1,2,2:0:0:0:
327,38,19918,1,2,2:0:0:0:
327,38,19992,1,0,0:0:0:0:
212,180,20142,1,0,2:0:0:0:
384,205,20291,6,0,P|434:193|472:191,1,80,0|0,0:0|2:0,0:0:0:0:
246,275,20589,2,0,P|193:272|156:265,1,80,2|0,0:2|2:0,0:0:0:0:
309,139,20888,1,0,0:0:0:0:
309,139,21037,1,0,2:0:0:0:
384,205,21186,1,2,0:2:0:0:
384,205,21335,1,0,2:0:0:0:
334,291,21485,5,12,0:0:0:0:
327,305,21560,1,0,0:0:0:0:
321,319,21634,1,8,0:0:0:0:
315,333,21709,1,0,0:0:0:0:
309,348,21784,5,8,0:0:0:0:
299,317,21858,1,0,0:0:0:0:
289,286,21933,1,8,0:0:0:0:
280,255,22007,1,0,0:0:0:0:
271,224,22082,6,0,L|245:287,2,53.3333333333333,8|8|8,0:0|0:0|0:3,0:0:0:0:
199,382,22381,2,0,L|173:319,2,53.3333333333333,8|4|4,0:3|0:3|0:3,0:0:0:0:
153,243,22679,5,4,0:0:0:0:
384,205,22828,1,2,0:0:0:0:
431,289,22978,1,8,0:0:0:0:
384,205,23127,1,2,0:0:0:0:
453,132,23276,2,0,L|461:45,1,80,2|2,0:0|0:0,0:0:0:0:
460,52,23500,1,0,0:0:0:0:
460,52,23575,1,8,0:0:0:0:
286,209,23724,5,2,0:0:0:0:
286,209,23798,1,0,0:0:0:0:
286,209,23873,2,0,L|296:302,1,80,2|0,0:0|0:0,0:0:0:0:
210,336,24172,1,8,0:0:0:0:
121,301,24321,1,2,0:0:0:0:
36,345,24470,1,0,0:0:0:0:
175,204,24619,5,2,0:0:0:0:
199,183,24694,1,0,0:0:0:0:
202,151,24769,1,8,0:0:0:0:
187,123,24843,1,0,0:0:0:0:
157,110,24918,1,2,0:0:0:0:
125,115,24992,1,0,0:0:0:0:
106,141,25067,5,4,0:2:0:0:
298,49,25216,1,0,0:0:0:0:
298,49,25291,1,0,0:0:0:0:
298,49,25366,2,0,L|291:138,1,80,8|2,0:0|0:0,0:0:0:0:
267,303,25664,1,2,0:0:0:0:
460,140,25813,1,0,0:0:0:0:
460,140,25888,1,0,0:0:0:0:
460,140,25963,2,0,L|456:81,2,53.3333333333333,8|0|0,0:0|2:0|0:0,0:0:0:0:
383,245,26261,6,0,B|387:279|387:279|378:345,2,80.0000030517579,2|2|4,0:2|0:2|0:2,0:0:0:0:
350,142,26560,2,0,B|346:108|346:108|355:42,2,80.0000030517579,2|2|4,0:2|0:2|0:2,0:0:0:0:
282,218,26858,5,2,0:2:0:0:
282,218,26958,1,2,0:2:0:0:
282,218,27057,1,4,0:2:0:0:
282,218,27157,6,0,L|229:211,1,53.3333333333333,8|8,0:3|0:3,0:0:0:0:
168,166,27356,2,0,L|114:171,1,53.3333333333333,4|4,0:3|0:0,0:0:0:0:
257,55,27604,6,0,L|267:140,1,80,0|8,0:0|0:0,0:0:0:0:
291,306,27903,1,2,0:0:0:0:
455,338,28052,2,0,P|464:290|453:251,1,80,2|0,0:0|0:0,0:0:0:0:
447,242,28276,1,0,0:0:0:0:
434,226,28351,1,8,0:0:0:0:
132,374,28500,1,2,0:0:0:0:
132,374,28575,1,0,0:0:0:0:
132,374,28649,2,0,L|143:280,1,80,2|0,0:0|0:0,0:0:0:0:
157,135,28948,6,0,L|141:294,1,160,2|0,0:0|0:0,0:0:0:0:
112,65,29395,1,2,0:0:0:0:
112,65,29470,1,0,0:0:0:0:
112,65,29545,1,8,0:0:0:0:
197,207,29694,1,2,0:0:0:0:
292,78,29843,6,0,L|386:63,1,80,4|2,0:0|0:0,0:0:0:0:
397,38,30067,1,0,0:0:0:0:
397,38,30142,2,0,B|416:58|416:58|406:123,1,80,4|2,0:2|0:0,0:0:0:0:
288,188,30440,5,4,0:0:0:0:
484,258,30589,1,2,0:0:0:0:
431,153,30739,5,4,0:2:0:0:
285,302,30888,1,2,0:0:0:0:
130,96,31037,5,4,0:0:0:0:
146,96,31112,1,0,0:0:0:0:
161,96,31186,1,0,0:0:0:0:
177,96,31261,1,0,0:0:0:0:
193,96,31336,1,4,0:2:0:0:
208,96,31410,1,0,0:0:0:0:
224,96,31485,1,0,0:0:0:0:
240,96,31560,1,0,0:0:0:0:
255,96,31634,5,4,0:0:0:0:
271,96,31709,1,2,0:2:0:0:
287,96,31784,1,2,0:2:0:0:
302,96,31858,1,2,0:2:0:0:
318,96,31933,1,4,0:2:0:0:
333,96,32007,1,2,0:2:0:0:
349,96,32082,1,2,0:2:0:0:
365,96,32157,1,2,0:2:0:0:
380,96,32231,5,2,0:0:0:0:
451,227,32381,2,0,L|467:317,2,80,2|8|0,0:0|0:0|0:0,0:0:0:0:
475,75,32828,5,2,0:0:0:0:
364,286,32978,2,0,P|315:291|259:274,1,80,2|8,0:0|0:0,0:0:0:0:
201,242,33276,1,0,0:0:0:0:
308,384,33425,5,6,0:0:0:0:
201,242,33575,2,0,L|211:146,2,80,2|8|0,0:0|0:0|0:0,0:0:0:0:
105,189,34022,5,2,0:0:0:0:
312,191,34172,2,0,P|316:141|297:103,1,80,2|8,0:0|0:0,0:0:0:0:
118,76,34470,1,0,0:0:0:0:
118,76,34545,1,0,0:0:0:0:
118,76,34619,1,6,0:0:0:0:
201,242,34769,6,0,L|179:330,1,80,2|8,0:0|0:0,0:0:0:0:
308,248,35067,2,0,L|330:331,1,80,0|2,0:0|0:0,0:0:0:0:
393,183,35366,2,0,L|463:237,1,80,2|8,0:0|0:0,0:0:0:0:
411,83,35664,1,0,0:0:0:0:
411,83,35739,1,0,0:0:0:0:
411,83,35813,1,6,0:0:0:0:
417,331,35963,6,0,P|368:331|320:313,1,80,2|8,0:0|0:0,0:0:0:0:
156,198,36261,1,0,0:0:0:0:
232,330,36410,6,0,B|239:285|239:285|256:261|256:261|263:210,1,120,4|4,0:2|0:2,0:0:0:0:
255,180,36709,2,0,L|259:139,3,40
246,105,37007,6,0,L|343:87,1,80,6|2,0:0|0:0,0:0:0:0:
448,64,37306,1,10,0:2:0:0:
448,64,37381,1,0,0:0:0:0:
448,64,37455,1,0,0:0:0:0:
364,266,37604,1,2,0:0:0:0:
364,266,37679,2,0,B|373:224|373:224|362:185,1,80
429,148,37903,1,10,0:2:0:0:
445,149,37978,1,0,0:0:0:0:
460,150,38052,5,4,0:2:0:0:
284,232,38201,1,6,0:0:0:0:
480,241,38351,1,2,0:0:0:0:
297,319,38500,5,8,0:0:0:0:
267,306,38575,1,2,0:2:0:0:
235,304,38649,1,2,0:2:0:0:
206,319,38724,1,2,0:2:0:0:
186,344,38798,2,0,L|178:287,3,40,2|0|2|0,0:0|0:0|0:0|0:0,0:0:0:0:
201,229,39097,5,10,0:2:0:0:
254,384,39246,1,0,0:0:0:0:
364,266,39395,2,0,L|373:166,1,80,6|2,0:0|0:0,0:0:0:0:
390,161,39619,5,0,0:0:0:0:
390,161,39694,2,0,L|438:152,1,40,8|2,0:0|0:2,0:0:0:0:
324,74,39843,2,0,L|372:83,1,40,2|2,0:2|0:2,0:0:0:0:
259,168,39992,2,0,L|307:159,1,40,2|0,0:0|0:0,0:0:0:0:
193,81,40141,2,0,L|241:90,1,40,2|0,0:0|0:0,0:0:0:0:
117,138,40291,5,8,0:0:0:0:
117,138,40366,1,2,0:2:0:0:
117,138,40440,1,2,0:2:0:0:
117,138,40515,1,2,0:2:0:0:
117,138,40589,2,0,B|109:181|135:210|135:210|128:238|128:238|153:268|147:311,2,180.000006866455,4|4|2,0:2|0:2|0:2,0:0:0:0:
44,314,41186,1,4,0:2:0:0:
44,314,41485,5,2,0:0:0:0:
75,308,41560,1,0,0:0:0:0:
106,302,41634,1,0,0:0:0:0:
137,297,41709,1,0,0:0:0:0:
168,292,41784,6,0,L|164:382,1,80,6|0,0:0|2:0,0:0:0:0:
341,245,42082,2,0,L|345:335,1,80,8|0,0:0|2:0,0:0:0:0:
171,212,42381,6,0,L|168:292,1,80,2|0,0:0|2:0,0:0:0:0:
337,165,42679,2,0,L|341:245,1,80,8|0,0:0|2:0,0:0:0:0:
175,132,42978,6,0,L|171:222,1,80,2|0,0:0|2:0,0:0:0:0:
334,85,43276,2,0,L|338:175,1,80,8|0,0:0|2:0,0:0:0:0:
178,52,43575,6,0,L|175:132,1,80,2|0,0:0|2:0,0:0:0:0:
330,6,43873,1,8,0:0:0:0:
315,251,44022,5,0,2:0:0:0:
315,251,44097,1,0,0:0:0:0:
315,251,44172,2,0,P|355:246|401:234,1,80,2|0,0:0|0:0,0:0:0:0:
495,192,44470,1,8,0:0:0:0:
363,346,44619,1,0,0:0:0:0:
200,232,44769,2,0,P|203:272|212:312,1,80,2|0,0:0|2:0,0:0:0:0:
322,160,45067,2,0,P|319:120|310:80,1,80,8|0,0:0|0:0,0:0:0:0:
141,354,45366,6,0,P|182:326|298:356,1,160,2|8,0:0|0:0,0:0:0:0:
363,346,45764,2,0,L|372:287,2,53.3333333333333,0|0|2,0:0|0:0|0:0,0:0:0:0:
54,136,46261,2,0,L|45:77,2,53.3333333333333,2|2|2,0:3|0:3|0:3,0:0:0:0:
67,215,46560,5,0,0:0:0:0:
67,215,46858,1,8,0:1:0:0:
136,224,46958,1,2,0:0:0:0:
204,235,47057,1,2,0:0:0:0:
273,244,47157,1,0,1:0:0:0:
256,125,47356,5,0,0:0:0:0:
256,125,47455,2,0,L|187:116,2,53.3333333333333,8|0|0,0:1|0:0|0:0,0:0:0:0:
340,135,47754,2,0,L|351:16,1,106.666666666667,0|0,1:0|0:0,0:0:0:0:
433,104,48052,6,0,L|426:167,1,53.3333333333333,8|0,0:1|0:0,0:0:0:0:
477,235,48251,1,0,0:0:0:0:
492,225,48351,2,0,L|477:341,1,106.666666666667,8|0,1:0|1:0,0:0:0:0:
340,135,48649,6,0,L|331:219,1,80,8|0,1:0|1:0,0:0:0:0:
384,273,48873,1,0,0:0:0:0:
399,263,48948,2,0,L|384:377,1,107.199994929199,4|0,0:0|0:0,0:0:0:0:
241,310,49395,5,0,0:0:0:0:
241,310,49470,1,0,0:0:0:0:
241,310,49545,2,0,P|236:250|231:174,1,120.000004577637,10|2,0:0|0:0,0:0:0:0:
81,82,49992,5,0,0:0:0:0:
81,82,50142,2,0,P|77:153|71:235,1,136.000002593994,4|0,0:0|0:0,0:0:0:0:
277,350,50589,5,0,0:0:0:0:
277,350,50664,1,0,0:0:0:0:
277,350,50739,2,0,P|271:283|266:183,1,160,10|2,0:0|0:0,0:0:0:0:
419,80,51186,5,0,0:0:0:0:
419,80,51261,1,0,2:0:0:0:
419,80,51336,2,0,L|410:136,3,40,4|0|0|0,0:2|0:0|0:0|0:0,0:0:0:0:
464,181,51634,2,0,L|455:237,3,40,4|0|0|0,0:2|0:0|0:0|0:0,0:0:0:0:
382,248,51933,2,0,L|373:192,3,40,4|0|0|0,0:2|0:0|0:0|0:0,0:0:0:0:
342,140,52231,5,4,0:2:0:0:
316,103,52306,1,0,0:0:0:0:
275,85,52381,1,0,0:0:0:0:
231,87,52455,1,0,0:0:0:0:
195,113,52530,2,0,B|185:150|185:150|199:188|199:188|186:229,1,120.000004577637
107,255,52978,5,0,0:0:0:0:
107,255,53052,1,0,0:0:0:0:
107,255,53127,2,0,L|48:249,1,51.999997619629,6|0,0:2|0:0,0:0:0:0:
102,340,53276,2,0,L|43:334,1,51.999997619629,2|0,0:2|0:0,0:0:0:0:
224,285,53425,6,0,L|283:279,1,51.999997619629,2|0,0:2|0:0,0:0:0:0:
229,370,53574,2,0,L|288:364,1,51.999997619629,2|0,0:2|0:0,0:0:0:0:
412,291,53724,6,0,L|428:100,1,180.000006866455,4|0,0:0|0:0,0:0:0:0:
432,52,54022,1,0,0:0:0:0:
320,188,54172,2,0,B|240:168|246:229|161:206,1,160,8|8,0:0|0:0,0:0:0:0:
61,201,54619,5,0,0:0:0:0:
61,201,54694,1,2,0:2:0:0:
61,201,54769,1,10,0:2:0:0:
61,201,54843,1,2,0:2:0:0:
61,201,54918,2,0,P|66:157|67:112,1,80,0|8,0:0|0:0,0:0:0:0:
57,83,55142,1,0,0:0:0:0:
43,297,55291,1,0,0:0:0:0:
39,329,55366,2,0,P|92:361|212:289,1,207.999990478516,8|10,0:0|0:2,0:0:0:0:
231,265,55739,1,0,2:0:0:0:
231,265,55813,2,0,L|244:358,1,80,0|10,0:0|0:2,0:0:0:0:
505,185,56112,6,0,B|444:175|444:175|398:209|398:209|316:197,1,180.000006866455,4|0,0:0|0:0,0:0:0:0:
275,157,56410,1,0,0:0:0:0:
378,103,56560,5,8,0:0:0:0:
392,96,56634,1,0,0:0:0:0:
406,89,56709,2,0,L|416:198,1,103.999995239258,4|8,0:0|0:0,0:0:0:0:
460,328,56933,2,0,L|450:224,1,103.999995239258
422,82,57157,1,8,0:0:0:0:
275,157,57306,6,0,P|191:103|278:54,1,240,4|8,0:2|0:0,0:0:0:0:
396,296,57903,6,0,P|400:247|407:206,1,80,4|8,0:2|0:0,0:0:0:0:
276,157,58201,2,0,P|283:211|287:264,1,100,2|8,0:0|0:0,0:0:0:0:
212,335,58500,6,0,B|118:344|143:269|45:279,1,180.000006866455,4|0,0:0|0:0,0:0:0:0:
19,353,58798,1,0,0:0:0:0:
210,167,58948,2,0,P|209:215|195:251,1,80,8|0,0:0|0:0,0:0:0:0:
62,175,59246,1,8,0:0:0:0:
62,175,59321,1,0,0:0:0:0:
62,175,59395,2,0,P|63:127|77:91,1,80,0|8,0:0|0:0,0:0:0:0:
163,40,59694,5,2,0:0:0:0:
296,270,59843,1,8,0:0:0:0:
296,270,59918,1,0,0:0:0:0:
296,270,59992,2,0,L|423:259,1,120,0|0,0:0|2:0,0:0:0:0:
441,238,60291,5,0,0:0:0:0:
423,332,60440,1,10,0:2:0:0:
292,177,60589,1,0,0:0:0:0:
296,270,60739,1,10,0:2:0:0:
156,226,60888,6,0,P|145:294|139:360,2,120,6|0|8,0:0|0:0|0:0,0:0:0:0:
69,59,61485,2,0,P|75:100|79:150,1,80,6|8,0:2|0:0,0:0:0:0:
85,166,61709,2,0,L|27:161,1,40,0|12,0:0|0:2,0:0:0:0:
301,110,61933,2,0,L|344:104,1,40,8|0,0:0|2:0,0:0:0:0:
402,142,62082,6,0,P|338:118|242:189,1,180.000006866455,6|0,0:0|0:0,0:0:0:0:
222,249,62381,1,4,0:2:0:0:
362,353,62530,5,8,0:0:0:0:
362,353,62604,1,0,0:0:0:0:
362,353,62679,2,0,L|454:360,1,80,4|0,0:2|0:0,0:0:0:0:
358,273,62903,2,0,L|462:282,1,100,4|0,0:2|0:0,0:0:0:0:
354,195,63127,1,4,1:2:0:0:
378,197,63201,1,0,2:0:0:0:
403,199,63276,6,0,L|416:154,6,30.0000011444092
512,96,63575,6,0,B|441:88|441:88|417:70|417:70|391:82|391:82|302:74,1,200,12|0,0:0|0:0,0:0:0:0:
111,102,64022,1,8,0:0:0:0:
71,224,64172,1,0,0:0:0:0:
71,224,64246,1,0,0:0:0:0:
71,224,64321,1,8,0:0:0:0:
71,224,64395,1,0,0:0:0:0:
71,224,64470,2,0,L|164:210,1,80,2|8,0:0|0:0,0:0:0:0:
173,186,64694,1,0,0:0:0:0:
433,324,64843,5,0,2:0:0:0:
433,324,64918,2,0,P|381:270|236:311,1,207.999990478516,12|8,0:2|0:0,0:0:0:0:
236,315,65291,1,0,0:0:0:0:
236,315,65366,1,0,0:0:0:0:
473,234,65515,1,8,0:0:0:0:
343,359,65664,6,0,B|330:294|330:294|349:255|349:255|333:172,1,180.000006866455,6|0,0:0|0:0,0:0:0:0:
286,123,65963,1,0,0:0:0:0:
418,89,66112,5,8,0:0:0:0:
421,69,66186,1,0,0:0:0:0:
424,49,66261,1,4,0:2:0:0:
250,232,66410,1,8,0:0:0:0:
253,212,66485,1,0,0:0:0:0:
119,52,66634,1,0,0:0:0:0:
116,72,66709,1,8,0:0:0:0:
20,212,66858,6,0,P|70:205|104:197,1,80,6|8,0:0|0:0,0:0:0:0:
117,192,67082,1,0,0:0:0:0:
136,185,67157,1,0,0:0:0:0:
268,338,67306,1,8,0:0:0:0:
268,338,67381,1,0,0:0:0:0:
268,338,67455,2,0,P|219:294|124:321,1,160,6|2,0:0|0:0,0:0:0:0:
46,365,67903,1,8,0:0:0:0:
46,365,67978,1,0,0:0:0:0:
46,365,68052,1,6,0:0:0:0:
259,69,68276,5,2,0:2:0:0:
243,88,68351,2,0,L|252:188,1,80,10|0,0:0|0:0,0:0:0:0:
326,256,68649,1,8,0:0:0:0:
363,269,68724,1,0,0:0:0:0:
402,263,68798,1,0,0:0:0:0:
434,239,68873,1,0,0:0:0:0:
450,202,68948,1,8,0:0:0:0:
452,360,69097,5,0,0:0:0:0:
452,360,69172,1,0,0:0:0:0:
452,360,69246,2,0,L|348:351,1,80,12|2,0:2|0:2,0:0:0:0:
294,358,69470,2,0,P|249:366|171:334,1,120,2|0,0:2|0:0,0:0:0:0:
91,208,69843,1,8,0:0:0:0:
87,239,69918,1,0,0:0:0:0:
83,270,69992,1,0,0:0:0:0:
80,302,70067,1,0,0:0:0:0:
77,334,70142,1,8,0:0:0:0:
181,192,70291,5,0,0:0:0:0:
181,192,70366,1,0,0:0:0:0:
181,192,70440,2,0,L|173:130,1,40,12|0,0:0|0:0,0:0:0:0:
222,85,70589,2,0,L|214:23,1,40
260,205,70739,6,0,L|252:143,1,40,12|0,0:2|0:0,0:0:0:0:
301,98,70888,2,0,L|293:36,1,40
335,217,71037,6,0,L|327:155,1,40,12|0,0:0|0:0,0:0:0:0:
376,110,71186,2,0,L|368:48,1,40
414,230,71336,6,0,L|406:168,1,40,12|0,0:2|0:0,0:0:0:0:
455,123,71485,2,0,L|447:61,1,40
500,236,71634,6,0,L|490:290,3,40,10|0|0|2,0:2|0:2|0:0|0:2,0:0:0:0:
424,356,71933,2,0,L|414:302,3,40,10|0|0|2,0:2|0:2|0:0|0:2,0:0:0:0:
336,313,72231,5,10,0:0:0:0:
296,333,72306,1,0,0:0:0:0:
251,333,72381,1,0,0:0:0:0:
217,304,72455,1,0,0:0:0:0:
206,261,72530,1,10,0:0:0:0:
218,219,72604,1,10,0:2:0:0:
253,192,72679,1,10,0:2:0:0:
297,192,72754,1,10,0:2:0:0:
332,216,72828,5,4,0:0:0:0:
127,89,82381,6,0,L|67:103,2,53.3333333333333,4|0|0,1:0|0:0|0:0,0:0:0:0:
208,73,82679,2,0,L|191:196,1,106.666666666667,8|0,0:1|0:0,0:0:0:0:
112,194,82978,6,0,L|52:208,2,53.3333333333333,4|0|0,1:3|0:0|0:0,0:0:0:0:
194,179,83276,2,0,L|177:302,1,106.666666666667,8|0,0:1|0:0,0:0:0:0:
35,352,83575,5,4,1:3:0:0:
143,346,83774,1,0,0:0:0:0:
150,365,83873,1,8,0:1:0:0:
256,359,84072,1,0,0:0:0:0:
263,340,84171,1,4,1:3:0:0:
370,338,84371,1,4,0:2:0:0:
377,357,84470,1,8,0:1:0:0:
485,354,84669,1,4,0:2:0:0:
492,335,84769,6,0,L|485:277,2,53.3333333333333,4|0|0,1:0|0:0|0:0,0:0:0:0:
414,248,85067,2,0,L|398:123,1,106.666666666667,8|0,0:1|0:0,0:0:0:0:
385,52,85366,1,4,1:2:0:0:
128,157,85565,1,0,0:0:0:0:
118,131,85664,2,0,L|102:256,1,106.666666666667,8|0,0:1|0:0,0:0:0:0:
90,319,85963,1,4,1:0:0:0:
193,312,86162,1,0,0:0:0:0:
197,332,86261,1,8,0:1:0:0:
295,333,86460,1,0,0:0:0:0:
299,314,86560,6,0,L|391:305,1,80,10|10,0:0|0:0,0:0:0:0:
177,210,86858,2,0,L|98:203,1,80,10|10,0:0|0:0,0:0:0:0:
326,49,87157,1,6,0:0:0:0:
326,49,87455,5,0,0:0:0:0:
346,47,87530,1,0,0:0:0:0:
365,45,87604,1,0,0:0:0:0:
385,43,87679,1,0,0:0:0:0:
405,42,87754,1,4,0:2:0:0:
469,121,87903,1,0,0:0:0:0:
402,197,88052,5,0,0:0:0:0:
382,195,88127,1,0,0:0:0:0:
363,193,88201,1,0,0:0:0:0:
343,191,88276,1,0,0:0:0:0:
323,190,88351,1,4,0:0:0:0:
261,272,88500,1,0,0:0:0:0:
328,348,88649,5,0,0:0:0:0:
348,346,88724,1,0,0:0:0:0:
367,344,88798,1,0,0:0:0:0:
387,342,88873,1,0,0:0:0:0:
407,341,88948,1,4,0:2:0:0:
476,269,89097,1,0,0:0:0:0:
402,197,89246,5,0,0:0:0:0:
382,195,89321,1,0,2:0:0:0:
363,193,89395,1,0,0:0:0:0:
343,191,89470,1,0,2:0:0:0:
323,190,89545,6,0,L|313:129,3,40,4|0|0|0,0:2|0:0|0:0|0:0,0:0:0:0:
242,176,89843,2,0,L|232:115,3,40,4|0|0|0,0:2|0:0|0:0|0:0,0:0:0:0:
169,212,90142,2,0,L|159:151,3,40,4|0|0|0,0:2|0:0|0:0|0:0,0:0:0:0:
88,198,90440,2,0,L|78:137,3,40,4|0|0|0,0:2|0:0|0:0|0:0,0:0:0:0:
122,81,90739,6,0,P|169:80|297:52,1,160,6|0,0:0|0:0,0:0:0:0:
42,43,91186,1,0,0:0:0:0:
42,43,91261,1,0,0:0:0:0:
42,43,91336,1,6,0:2:0:0:
169,213,91485,1,2,0:2:0:0:
10,208,91634,1,2,0:2:0:0:
122,81,91784,1,2,0:2:0:0:
94,246,91933,6,0,P|81:289|65:367,1,120,10|0,0:0|0:0,0:0:0:0:
106,162,92530,5,0,0:0:0:0:
103,138,92604,1,0,0:0:0:0:
97,114,92679,1,0,0:0:0:0:
87,91,92754,1,0,0:0:0:0:
75,70,92828,5,8,0:0:0:0:
114,78,92903,1,8,0:0:0:0:
154,80,92978,1,8,0:0:0:0:
193,74,93052,1,8,0:0:0:0:
231,62,93127,6,0,L|426:45,1,180.000006866455,6|0,0:0|0:0,0:0:0:0:
485,38,93425,1,0,0:0:0:0:
486,242,93575,2,0,P|435:194|333:212,1,160,10|8,0:0|0:0,0:0:0:0:
205,363,94022,5,0,0:0:0:0:
205,363,94097,1,0,0:0:0:0:
205,363,94172,1,8,0:0:0:0:
205,363,94246,1,0,0:0:0:0:
205,363,94321,2,0,P|168:381|117:374,1,80,6|8,0:0|0:0,0:0:0:0:
177,210,94545,2,0,P|223:243|240:296,1,95.9999970703126
58,322,94769,6,0,B|42:255|94:214|94:214|70:106,1,223.999993164063,10|8,0:0|0:0,0:0:0:0:
72,114,95142,1,0,2:0:0:0:
72,114,95216,1,0,0:0:0:0:
148,295,95366,1,8,0:0:0:0:
216,64,95515,5,6,0:0:0:0:
328,325,95664,1,8,0:0:0:0:
331,301,95739,1,0,0:0:0:0:
458,70,95888,1,0,0:0:0:0:
455,94,95963,1,8,0:0:0:0:
485,286,96112,5,6,0:0:0:0:
324,63,96261,1,8,0:0:0:0:
328,87,96336,1,0,0:0:0:0:
190,329,96485,1,0,0:0:0:0:
186,305,96560,1,8,0:0:0:0:
62,184,96709,5,2,0:0:0:0:
175,209,96858,1,8,0:0:0:0:
175,209,96933,1,0,0:0:0:0:
291,168,97157,1,8,0:0:0:0:
407,205,97306,5,6,0:0:0:0:
213,132,97455,1,8,0:0:0:0:
213,132,97530,1,0,0:0:0:0:
342,285,97754,5,8,0:0:0:0:
342,285,97828,1,8,0:0:0:0:
342,285,97903,2,0,P|368:234|368:136,1,155.999992858887,6|0,0:0|0:0,0:0:0:0:
354,62,98201,1,0,0:0:0:0:
109,166,98351,6,0,B|186:153|172:221|259:203,1,160,10|8,0:0|0:0,0:0:0:0:
258,203,98724,1,0,0:0:0:0:
258,203,98798,1,0,0:0:0:0:
155,70,98948,1,8,0:0:0:0:
123,258,99097,5,4,0:0:0:0:
33,215,99246,1,8,0:0:0:0:
33,215,99321,1,0,0:0:0:0:
33,215,99395,2,0,P|26:168|33:124,1,80,2|8,0:0|0:0,0:0:0:0:
64,52,99694,5,0,0:0:0:0:
288,85,99843,1,10,0:2:0:0:
106,167,99992,1,0,0:0:0:0:
216,316,100142,1,10,0:2:0:0:
208,293,100216,1,0,0:0:0:0:
200,270,100291,6,0,L|217:119,1,120,6|0,0:0|0:0,0:0:0:0:
224,74,100589,1,12,0:2:0:0:
302,204,100739,1,8,0:0:0:0:
116,280,100888,6,0,L|134:117,1,155.999992858887,6|0,0:0|0:0,0:0:0:0:
143,50,101186,1,4,0:2:0:0:
302,204,101336,1,8,0:0:0:0:
44,184,101485,5,6,0:0:0:0:
231,153,101634,1,8,0:0:0:0:
231,153,101709,1,0,0:0:0:0:
231,153,101784,1,4,0:2:0:0:
116,280,101933,1,8,0:0:0:0:
143,189,102082,2,0,B|135:133|135:133|142:103|142:103|132:32,2,155.999992858887,10|10|8,0:0|0:0|0:0,0:0:0:0:
143,189,102604,1,8,0:0:0:0:
143,189,102679,1,12,0:0:0:0:
200,334,102828,5,0,0:0:0:0:
200,334,102903,2,0,L|309:315,1,103.999995239258
367,363,103127,2,0,P|424:380|469:363,1,103.999995239258,2|8,0:0|0:0,0:0:0:0:
477,216,103425,2,0,P|420:199|375:216,1,103.999995239258,0|8,0:0|0:0,0:0:0:0:
390,230,103649,1,0,0:0:0:0:
401,247,103724,1,0,0:0:0:0:
411,264,103798,1,0,0:0:0:0:
422,281,103873,6,0,L|317:293,1,103.999995239258,10|0,0:0|0:0,0:0:0:0:
288,294,104097,1,0,0:0:0:0:
371,90,104246,1,0,0:0:0:0:
353,69,104321,2,0,P|293:50|180:140,1,207.999990478516,2|0,0:0|0:0,0:0:0:0:
201,172,104694,1,0,0:0:0:0:
201,172,104769,2,0,L|102:160,1,80,8|0,0:0|0:0,0:0:0:0:
32,141,105067,5,10,0:0:0:0:
176,351,105216,1,0,0:0:0:0:
171,332,105291,1,4,0:2:0:0:
312,54,105440,1,0,0:0:0:0:
317,73,105515,1,0,0:0:0:0:
460,146,105664,5,10,0:0:0:0:
317,351,105813,1,0,0:0:0:0:
322,332,105888,1,4,0:2:0:0:
181,54,106037,1,0,0:0:0:0:
176,73,106112,1,0,0:0:0:0:
101,221,106261,6,0,P|146:190|244:218,2,160,10|8|8,0:0|0:0|0:0,0:0:0:0:
93,239,106933,1,8,0:0:0:0:
85,257,107007,1,8,0:0:0:0:
78,275,107082,1,8,0:0:0:0:
71,294,107157,1,0,0:0:0:0:
71,294,107455,6,0,L|50:194,1,80,6|8,0:0|0:0,0:0:0:0:
200,136,107754,2,0,L|179:36,1,80,0|8,0:0|0:0,0:0:0:0:
340,311,108052,1,2,0:2:0:0:
340,311,108127,1,2,0:2:0:0:
340,311,108201,1,10,0:2:0:0:
340,311,108276,1,2,0:2:0:0:
340,311,108351,2,0,L|319:211,1,80,0|8,0:0|0:0,0:0:0:0:
88,216,108649,6,0,L|67:316,1,80,6|8,0:0|0:0,0:0:0:0:
247,295,108948,2,0,L|226:395,1,80,0|8,0:0|0:0,0:0:0:0:
434,65,109246,1,2,0:2:0:0:
434,65,109321,1,2,0:2:0:0:
434,65,109395,1,10,0:2:0:0:
434,65,109470,1,2,0:2:0:0:
434,65,109545,2,0,L|413:165,1,80,0|8,0:0|0:0,0:0:0:0:
422,180,109769,5,0,0:0:0:0:
422,180,109843,2,0,L|482:173,1,40,6|0,0:0|0:0,0:0:0:0:
430,252,109992,2,0,L|490:245,1,40
343,230,110142,6,0,L|283:223,1,40,10|2,0:2|0:2,0:0:0:0:
335,302,110291,2,0,L|275:295,1,40,2|2,0:2|0:2,0:0:0:0:
173,179,110440,6,0,L|233:172,1,40,2|0,0:0|0:0,0:0:0:0:
181,251,110589,2,0,L|241:244,1,40
94,229,110739,6,0,L|34:222,1,40,10|2,0:2|0:2,0:0:0:0:
86,301,110888,2,0,L|26:294,1,40,10|2,0:2|0:2,0:0:0:0:
178,382,111037,6,0,L|189:320,2,53.3333333333333,0|2|2,0:0|0:2|0:2,0:0:0:0:
334,382,111336,2,0,L|323:320,2,53.3333333333333,4|2|2,0:2|0:2|0:2,0:0:0:0:
148,204,111634,2,0,L|211:220,2,53.3333333333333,0|8|8,0:0|0:0|0:0,0:0:0:0:
364,204,111933,2,0,L|301:220,2,53.3333333333333,4|8|8,0:2|0:0|0:0,0:0:0:0:
256,276,112231,5,6,0:0:0:0:
256,192,112381,12,2,114619,0:2:0:0:
256,192,114769,12,4,117007,1:0:0:0:
442,152,117157,6,0,P|438:216|434:240,1,60.0000022888184,2|0,0:1|0:0,0:0:0:0:
325,288,117455,2,0,B|324:242|332:143|332:143|360:177,1,180.000006866455
