osu file format v14

[General]
AudioFilename: audio.mp3
AudioLeadIn: 0
PreviewTime: 53723
Countdown: 0
SampleSet: Normal
StackLeniency: 0.7
Mode: 0
LetterboxInBreaks: 0
WidescreenStoryboard: 1

[Editor]
Bookmarks: 70739,82381
DistanceSpacing: 1
BeatDivisor: 4
GridSize: 32
TimelineZoom: 1.9

[Metadata]
Title:For UltraPlayers
TitleUnicode:For UltraPlayers
Artist:cosMo@BousouP
ArtistUnicode:cosMo@暴走P
Creator:toybot
Version:NOVICE
Source:SOUND VOLTEX II -infinite infection-
Tags:sdvx 2 rlc xlni anxient vikala owc osu world cup 2019 bemani konami arcade championship kac2013 instrumental electronic video game
BeatmapID:4249638
BeatmapSetID:1062625

[Difficulty]
HPDrainRate:3
CircleSize:3
OverallDifficulty:5
ApproachRate:6
SliderMultiplier:1.1
SliderTickRate:1

[Events]
//Background and Video events
0,0,"sky.jpg",0,0
//Break Periods
2,34819,35957
2,73028,81331
//Storyboard Layer 0 (Background)
//Storyboard Layer 1 (Fail)
//Storyboard Layer 2 (Pass)
//Storyboard Layer 3 (Foreground)
//Storyboard Layer 4 (Overlay)
//Storyboard Sound Samples

[TimingPoints]
1187,298.507462686567,4,1,1,55,1,0
6037,-100,4,3,1,55,0,0
8351,-100,4,1,1,55,0,0
12079,-100,4,2,1,55,0,0
12676,-100,4,1,1,55,0,0
22679,-100,4,1,1,60,0,0
28945,-100,4,1,1,65,0,0
28948,-100,4,1,1,65,0,0
32228,-100,4,1,1,55,0,0
32231,-100,4,1,1,55,0,0
46709,-100,4,3,1,55,0,0
48948,-100,4,1,1,55,0,0
53724,-100,4,1,1,65,0,1
62902,-100,4,1,1,70,0,1
63126,-100,4,1,1,75,0,1
63276,-100,4,2,1,65,0,1
63575,-100,4,1,1,65,0,1
68649,-100,4,1,1,55,0,1
68948,-100,4,1,1,45,0,1
69246,-100,4,1,1,65,0,1
69843,-100,4,1,1,55,0,1
70142,-100,4,1,1,45,0,1
70440,-100,4,1,1,65,0,1
72828,-100,4,1,1,65,0,0
77303,-100,4,1,1,40,0,0
82381,-100,4,3,1,60,0,0
86560,-100,4,1,1,60,0,0
89545,-100,4,1,1,40,0,0
89843,-100,4,1,1,50,0,0
90142,-100,4,1,1,60,0,0
90440,-100,4,1,1,70,0,0
90738,-100,4,1,1,40,0,0
91333,-100,4,1,1,70,0,0
91336,-100,4,1,1,70,0,0
91930,-100,4,1,1,40,0,0
91933,-100,4,1,1,40,0,0
92828,-100,4,1,1,60,0,0
93127,-100,4,1,1,70,0,1
112231,-100,4,1,1,60,0,0
112530,-100,4,2,1,50,0,0
114616,-100,4,1,1,60,0,0
114918,-100,4,2,1,50,0,0
117157,-100,4,1,1,40,0,0
117455,-100,4,1,1,20,0,0
117754,-100,4,2,1,5,0,0

[Colours]
Combo1 : 34,238,192
Combo2 : 60,162,217
Combo3 : 238,136,185
Combo4 : 242,68,99

[HitObjects]
56,356,1187,6,0,L|119:352,1,55,0|4,0:0|0:2,0:0:0:0:
203,215,1784,2,0,L|145:211,1,55,0|4,0:0|0:2,0:0:0:0:
19,107,2381,6,0,L|13:52,1,55,0|4,0:0|0:2,0:0:0:0:
173,14,2978,2,0,L|169:81,1,55,0|4,0:0|0:2,0:0:0:0:
333,44,3575,6,0,L|391:36,1,55,0|4,0:0|0:2,0:0:0:0:
455,187,4172,2,0,L|513:179,1,55,0|4,0:0|0:2,0:0:0:0:
360,325,4769,6,0,L|295:319,1,55,0|4,0:0|0:2,0:0:0:0:
144,355,5366,2,0,L|79:349,1,55,2|4,0:0|0:2,0:0:0:0:
47,324,5664,1,2,0:2:0:0:
47,324,5813,1,2,0:2:0:0:
47,324,5963,6,0,P|25:279|33:214,1,110,4|8,1:0|0:1,0:0:0:0:
118,153,6560,2,0,L|227:145,1,110,4|8,0:0|0:1,0:0:0:0:
278,167,7007,1,2,0:0:0:0:
278,167,7157,2,0,L|289:41,1,110,4|8,0:0|0:1,0:0:0:0:
389,15,7754,2,0,P|441:24|475:66,1,110,4|2,0:0|1:2,0:0:0:0:
451,116,8201,1,2,1:2:0:0:
425,165,8351,6,0,B|410:204|410:204|428:292,1,110,6|0,0:0|0:0,0:0:0:0:
321,312,8948,2,0,B|336:273|336:273|318:185,1,110
219,165,9545,1,6,0:0:0:0:
132,232,9843,1,0,0:0:0:0:
28,194,10142,2,0,L|13:121,1,55,2|8,0:0|0:0,0:0:0:0:
58,104,10440,2,0,L|70:40,1,55,0|8,0:0|0:0,0:0:0:0:
25,14,10739,5,4,0:2:0:0:
25,14,11933,1,0,2:0:0:0:
130,45,12231,1,2,0:0:0:0:
236,71,12530,1,4,0:0:0:0:
343,95,12828,1,0,0:0:0:0:
449,119,13127,6,0,P|484:160|480:214,1,110,4|0,0:0|0:0,0:0:0:0:
409,298,13724,2,0,L|333:286,1,55,2|0,0:2|2:0,0:0:0:0:
314,326,14022,2,0,L|238:314,1,55,2|0,0:2|2:0,0:0:0:0:
220,278,14321,2,0,L|204:152,1,110
115,106,14918,1,2,0:2:0:0:
102,215,15216,1,2,0:2:0:0:
90,324,15515,6,0,P|58:360|-17:362,2,110,0|0|2,0:0|0:0|0:2,0:0:0:0:
102,215,16410,2,0,L|90:146,1,55
53,122,16709,2,0,P|62:78|138:49,1,110
217,85,17306,2,0,L|209:168,2,73.3333333333333,0|2|0,0:0|2:0|2:0,0:0:0:0:
278,45,17903,5,4,0:0:0:0:
371,102,18201,1,0,0:0:0:0:
298,184,18500,2,0,L|304:238,1,55,0|0,0:0|2:0,0:0:0:0:
357,250,18798,2,0,L|363:304,1,55
342,356,19097,1,0,0:0:0:0:
451,366,19395,2,0,B|485:346|485:346|496:264,1,110,4|0,0:2|0:0,0:0:0:0:
510,167,19992,1,0,0:0:0:0:
453,72,20291,6,0,P|405:46|351:51,1,110,0|2,0:0|0:2,0:0:0:0:
336,160,20888,2,0,P|288:185|234:180,1,110,0|2,0:0|0:2,0:0:0:0:
136,130,21485,2,0,L|123:62,2,55,12|8|8,0:0|0:0|0:0,0:0:0:0:
108,179,21933,1,8,0:0:0:0:
108,179,22082,2,0,B|87:213|87:213|80:291,1,110,8|8,0:0|0:3,0:0:0:0:
167,350,22679,6,0,P|212:320|265:325,1,110,4|8,0:0|0:0,0:0:0:0:
369,363,23276,2,0,L|395:298,1,55,2|2,0:0|0:0,0:0:0:0:
360,264,23575,2,0,L|386:199,1,55,8|2,0:0|0:0,0:0:0:0:
400,161,23873,1,2,0:0:0:0:
349,62,24172,1,8,0:0:0:0:
264,132,24470,2,0,L|137:151,1,110,0|8,0:0|0:0,0:0:0:0:
104,159,24918,1,2,0:0:0:0:
104,159,25067,6,0,P|92:104|142:59,2,110,4|8|2,0:2|0:0|0:0,0:0:0:0:
154,256,25963,2,0,L|144:321,1,55,8|0,0:0|0:0,0:0:0:0:
134,364,26261,2,0,P|80:369|35:339,1,110,2|2,0:2|0:2,0:0:0:0:
14,231,26858,2,0,L|-3:109,1,110,2|8,0:2|0:3,0:0:0:0:
39,19,27455,5,4,0:0:0:0:
123,89,27754,1,8,0:0:0:0:
224,48,28052,2,0,L|283:58,1,55,2|0,0:0|0:0,0:0:0:0:
307,103,28351,2,0,L|361:112,1,55,8|2,0:0|0:0,0:0:0:0:
409,86,28649,1,2,0:0:0:0:
469,176,28948,2,0,B|483:231|483:231|451:275,1,110,2|0,0:0|0:0,0:0:0:0:
398,289,29395,1,2,0:0:0:0:
398,289,29545,2,0,L|324:276,1,55,8|2,0:0|0:0,0:0:0:0:
297,249,29843,6,0,L|315:368,1,110,4|4,0:0|0:2,0:0:0:0:
206,330,30440,2,0,L|96:344,1,110,4|4,0:0|0:2,0:0:0:0:
21,264,31037,2,0,P|23:207|80:167,1,110,4|4,0:0|0:2,0:0:0:0:
88,127,31485,1,0,0:0:0:0:
88,127,31634,2,0,L|160:147,1,55,4|2,0:0|0:2,0:0:0:0:
166,190,31933,2,0,L|238:210,1,55,4|2,0:2|0:2,0:0:0:0:
266,176,32231,6,0,B|317:165|317:165|359:176|359:176|405:164|405:164|511:174|531:258|514:334|451:364|401:344,2,440,2|6|6,0:0|0:0|0:0,0:0:0:0:
474,45,37007,6,0,L|349:64,1,110,6|10,0:0|0:2,0:0:0:0:
330,104,37455,1,0,0:0:0:0:
293,144,37604,2,0,P|238:131|208:82,1,110,2|10,0:0|0:2,0:0:0:0:
103,60,38201,2,0,L|117:187,1,110,6|8,0:0|0:0,0:0:0:0:
82,213,38649,1,2,0:2:0:0:
82,213,38798,2,0,B|131:202|131:202|201:234,1,110,2|10,0:0|0:2,0:0:0:0:
271,295,39395,6,0,L|259:364,2,55,6|2|8,0:0|0:0|0:0,0:0:0:0:
346,214,39992,2,0,L|334:145,2,55,2|2|8,0:0|0:0|0:0,0:0:0:0:
433,281,40589,2,0,P|475:284|525:246,2,82.5,4|4|2,0:2|0:2|0:2,0:0:0:0:
388,313,41186,1,4,0:2:0:0:
478,111,41784,6,0,L|495:-3,1,110,6|8,0:0|0:0,0:0:0:0:
391,41,42381,2,0,P|352:11|291:9,1,110,2|8,0:0|0:0,0:0:0:0:
241,105,42978,1,2,0:0:0:0:
134,132,43276,1,8,0:0:0:0:
55,54,43575,1,2,0:0:0:0:
162,30,43873,1,8,0:0:0:0:
241,105,44172,6,0,P|271:147|256:214,1,110,2|8,0:0|0:0,0:0:0:0:
274,256,44619,1,0,0:0:0:0:
274,256,44769,2,0,B|198:238|198:238|146:256,1,110,2|8,0:0|0:0,0:0:0:0:
70,299,45366,2,0,L|87:174,2,110,2|8|2,0:0|0:0|0:0,0:0:0:0:
163,356,46261,1,2,0:3:0:0:
261,306,46560,6,0,L|377:294,1,110,0|8,0:0|0:1,0:0:0:0:
425,199,47157,2,0,L|302:181,1,110,0|8,1:0|0:1,0:0:0:0:
226,118,47754,2,0,P|238:82|225:1,2,110,0|8|8,1:0|0:1|1:0,0:0:0:0:
151,199,48649,1,8,1:0:0:0:
44,226,48948,6,0,B|36:148|36:148|56:87|56:87|47:10,1,220,4|10,0:0|0:0,0:0:0:0:
142,65,49843,1,2,0:0:0:0:
247,32,50142,2,0,P|301:28|400:144,1,220,4|10,0:0|0:0,0:0:0:0:
362,246,51037,1,2,0:0:0:0:
256,192,51336,12,0,52530,0:0:0:0:
61,120,53724,6,0,L|50:12,2,82.5,4|0|8,0:0|0:0|0:0,0:0:0:0:
146,198,54470,1,8,0:0:0:0:
146,198,54619,2,0,L|136:261,1,55,0|10,0:0|0:2,0:0:0:0:
147,306,54918,2,0,P|93:309|56:337,2,82.5,0|0|10,0:0|0:0|0:0,0:0:0:0:
246,352,55664,2,0,L|321:363,1,55,10|0,0:2|0:0,0:0:0:0:
355,368,55963,1,10,0:2:0:0:
355,368,56112,6,0,B|384:336|384:336|391:256,1,110,4|0,0:0|0:0,0:0:0:0:
283,240,56709,2,0,L|273:105,1,110,6|0,0:0|0:0,0:0:0:0:
370,75,57306,2,2,P|409:77|474:18,2,110,4|0|4,0:2|0:0|0:0,0:1:0:0:
273,23,58201,1,2,0:0:0:0:
175,73,58500,6,0,L|76:57,2,82.5,4|0|8,0:0|0:0|0:0,0:0:0:0:
115,165,59246,2,0,L|51:155,2,55,8|0|8,0:0|0:0|0:0,0:0:0:0:
154,203,59694,2,0,P|173:249|157:326,1,110,2|0,0:0|0:0,0:0:0:0:
266,354,60291,1,2,0:0:0:0:
365,307,60589,1,2,0:0:0:0:
468,343,60888,6,0,L|486:220,1,110,6|12,0:0|0:2,0:0:0:0:
453,188,61336,1,8,0:0:0:0:
420,143,61485,2,0,L|409:21,1,110,6|12,0:2|0:2,0:0:0:0:
315,90,62082,2,0,P|260:117|195:106,1,110,6|4,0:0|0:2,0:0:0:0:
166,93,62530,1,8,0:0:0:0:
166,93,62679,2,0,L|172:10,2,82.5,4|4|4,0:2|0:2|1:2,0:0:0:0:
56,217,63575,6,0,B|31:270|31:270|47:326,1,110,12|0,0:0|0:0,0:0:0:0:
153,348,64172,2,0,L|209:338,1,55,0|8,0:0|0:0,0:0:0:0:
248,302,64470,2,0,L|338:319,2,82.5,2|0|12,0:0|0:0|0:2,0:0:0:0:
171,231,65216,1,8,0:0:0:0:
171,231,65366,2,0,L|159:160,1,55,0|8,0:0|0:0,0:0:0:0:
153,122,65664,6,0,P|183:92|261:97,1,110,6|0,0:0|0:0,0:0:0:0:
348,46,66261,2,0,L|335:170,1,110,4|0,0:2|0:0,0:0:0:0:
402,243,66858,2,0,B|477:231|477:231|514:252,2,110,6|0|6,0:0|0:0|0:0,0:0:0:0:
331,327,67754,1,2,0:0:0:0:
228,282,68052,6,0,L|111:266,1,110,6|10,0:0|0:0,0:0:0:0:
34,196,68649,2,0,L|24:126,1,55,8|0,0:0|0:0,0:0:0:0:
17,87,68948,1,8,0:0:0:0:
109,27,69246,2,0,P|150:41|163:119,1,110,12|10,0:2|0:0,0:0:0:0:
255,169,69843,2,0,L|330:160,1,55,8|0,0:0|0:0,0:0:0:0:
364,156,70142,1,8,0:0:0:0:
465,113,70440,6,0,L|447:221,1,110,12|12,0:0|0:2,0:0:0:0:
341,252,71037,2,0,L|358:370,1,110,12|12,0:0|0:2,0:0:0:0:
246,359,71634,2,0,P|212:335|142:335,1,110,10|10,0:2|0:2,0:0:0:0:
38,359,72231,2,0,L|30:295,1,55,10|0,0:0|0:0,0:0:0:0:
60,257,72530,2,0,L|52:193,1,55,10|10,0:0|0:2,0:0:0:0:
16,162,72828,5,4,0:0:0:0:
48,51,82381,6,0,B|95:62|95:62|162:40,1,110,4|8,1:0|0:1,0:0:0:0:
227,124,82978,2,0,B|274:135|274:135|341:113,1,110,4|8,1:3|0:1,0:0:0:0:
433,70,83575,2,0,L|414:200,1,110,4|8,1:3|0:1,0:0:0:0:
344,261,84172,2,0,P|361:303|361:340,2,73.3333333333333,4|4|0,1:3|0:2|0:0,0:0:0:0:
281,222,84769,6,0,L|155:237,1,110,4|8,1:0|0:1,0:0:0:0:
69,274,85366,2,0,L|87:142,1,110,4|8,1:2|0:1,0:0:0:0:
62,56,85963,1,4,1:0:0:0:
169,78,86261,1,8,0:1:0:0:
273,42,86560,2,0,L|286:113,1,55,10|10,0:0|0:0,0:0:0:0:
254,144,86858,2,0,L|266:214,1,55,10|10,0:0|0:0,0:0:0:0:
315,218,87157,6,0,P|360:174|507:197,1,220,6|4,0:0|0:2,0:0:0:0:
507,303,88052,1,0,0:0:0:0:
401,333,88351,2,0,B|333:317|333:317|257:346|257:346|169:327,1,220,4|4,0:0|0:2,0:0:0:0:
104,262,89246,1,0,0:0:0:0:
256,192,89545,12,6,90739,0:0:0:0:
53,119,91933,6,0,B|72:127|72:127|143:108|143:108|165:86|165:86|237:69|237:69|256:75,1,220,10|0,0:0|0:0,0:0:0:0:
355,147,92828,1,8,0:0:0:0:
355,147,92978,1,8,0:0:0:0:
355,147,93127,6,0,P|405:139|438:98,2,82.5,6|0|10,0:0|0:0|0:0,0:0:0:0:
271,218,93873,1,8,0:0:0:0:
271,218,94022,2,0,L|192:209,1,55,0|8,0:0|0:0,0:0:0:0:
161,204,94321,2,0,L|176:303,2,82.5,6|0|10,0:0|0:0|0:0,0:0:0:0:
93,116,95067,2,0,P|96:77|117:52,1,55,8|0,0:0|0:0,0:0:0:0:
149,32,95366,1,8,0:0:0:0:
200,51,95515,6,0,P|253:56|301:29,1,110,6|0,0:0|0:0,0:0:0:0:
400,76,96112,2,0,L|413:193,1,110,6|0,0:0|0:0,0:0:0:0:
346,273,96709,2,0,P|385:294|460:285,2,110,6|0|6,0:0|0:0|0:0,0:0:0:0:
258,206,97604,1,4,0:2:0:0:
189,292,97903,6,0,L|176:387,2,82.5,6|0|10,0:0|0:0|0:0,0:0:0:0:
86,252,98649,2,0,L|74:179,1,55,8|0,0:0|0:0,0:0:0:0:
72,147,98948,1,8,0:0:0:0:
72,147,99097,2,0,P|103:103|156:95,1,110,4|2,0:0|0:0,0:0:0:0:
250,37,99694,2,0,L|312:47,1,55,0|10,0:0|0:2,0:0:0:0:
350,76,99992,2,0,L|414:67,1,55,0|10,0:0|0:2,0:0:0:0:
453,42,100291,6,0,L|436:167,1,110,6|12,0:0|0:2,0:0:0:0:
404,194,100739,1,8,0:0:0:0:
367,235,100888,2,0,L|386:353,1,110,6|4,0:0|0:2,0:0:0:0:
275,360,101485,2,0,P|217:326|161:333,1,110,6|4,0:0|0:2,0:0:0:0:
127,353,101933,1,8,0:0:0:0:
127,353,102082,1,10,0:0:0:0:
144,244,102381,2,0,L|132:175,1,55,0|8,0:0|0:0,0:0:0:0:
163,143,102679,6,0,L|147:51,2,82.5,12|0|2,0:0|0:0|0:0,0:0:0:0:
246,215,103425,2,0,P|276:224|315:214,1,55,0|8,0:0|0:0,0:0:0:0:
356,211,103724,1,0,0:0:0:0:
356,211,103873,2,0,P|335:246|333:287,2,82.5,10|0|2,0:0|0:0|0:0,0:0:0:0:
449,153,104619,1,0,0:0:0:0:
449,153,104769,2,0,L|442:87,1,55,8|0,0:0|0:0,0:0:0:0:
407,56,105067,6,0,B|372:72|372:72|298:58,1,110,10|0,0:0|0:0,0:0:0:0:
219,132,105664,2,0,P|181:100|117:98,1,110,10|0,0:0|0:0,0:0:0:0:
29,155,106261,2,0,L|50:284,1,110,10|8,0:0|0:0,0:0:0:0:
59,322,106709,1,0,0:0:0:0:
59,322,106858,1,8,0:0:0:0:
163,355,107157,1,0,0:0:0:0:
264,313,107455,6,0,P|316:318|367:265,1,110,6|0,0:0|0:0,0:0:0:0:
424,195,108052,2,0,L|414:120,1,55,2|10,0:2|0:2,0:0:0:0:
408,85,108351,1,0,0:0:0:0:
300,109,108649,2,0,L|311:-7,1,110,6|0,0:0|0:0,0:0:0:0:
208,41,109246,2,0,L|138:27,1,55,2|10,0:2|0:2,0:0:0:0:
99,19,109545,1,0,0:0:0:0:
22,97,109843,5,6,0:0:0:0:
86,186,110142,1,10,0:2:0:0:
13,268,110440,2,0,P|59:297|113:292,1,110,2|10,0:0|0:2,0:0:0:0:
202,228,111037,6,0,L|187:128,2,73.3333333333333,0|2|2,0:0|0:2|0:2,0:0:0:0:
271,252,111634,2,0,L|284:349,2,73.3333333333333,0|8|8,0:0|0:0|0:0,0:0:0:0:
330,209,112231,1,6,0:0:0:0:
256,192,112530,12,4,117007,1:0:0:0:
