osu file format v14

[General]
AudioFilename: audio.mp3
AudioLeadIn: 0
PreviewTime: 53723
Countdown: 0
SampleSet: Normal
StackLeniency: 0.7
Mode: 0
LetterboxInBreaks: 0
WidescreenStoryboard: 1

[Editor]
Bookmarks: 70739,82381
DistanceSpacing: 1.3
BeatDivisor: 4
GridSize: 32
TimelineZoom: 1.9

[Metadata]
Title:For UltraPlayers
TitleUnicode:For UltraPlayers
Artist:cosMo@BousouP
ArtistUnicode:cosMo@暴走P
Creator:toybot
Version:Anxient's ADVANCED
Source:SOUND VOLTEX II -infinite infection-
Tags:sdvx 2 rlc xlni anxient vikala owc osu world cup 2019 bemani konami arcade championship kac2013 instrumental electronic video game
BeatmapID:4249583
BeatmapSetID:1062625

[Difficulty]
HPDrainRate:4
CircleSize:3.4
OverallDifficulty:6
ApproachRate:7.5
SliderMultiplier:1.3
SliderTickRate:1

[Events]
//Background and Video events
0,0,"sky.jpg",0,0
//Break Periods
2,76610,81556
//Storyboard Layer 0 (Background)
//Storyboard Layer 1 (Fail)
//Storyboard Layer 2 (Pass)
//Storyboard Layer 3 (Foreground)
//Storyboard Layer 4 (Overlay)
//Storyboard Sound Samples

[TimingPoints]
1187,298.507462686567,4,1,1,55,1,0
12079,-100,4,2,1,55,0,0
12676,-100,4,1,1,55,0,0
22679,-100,4,1,1,60,0,0
28948,-100,4,1,1,65,0,0
32231,-100,4,1,1,55,0,0
53724,-83.3333333333333,4,1,1,65,0,1
62902,-83.3333333333333,4,1,1,70,0,1
63126,-83.3333333333333,4,1,1,75,0,1
63276,-83.3333333333333,4,1,1,65,0,1
68649,-83.3333333333333,4,1,1,55,0,1
68948,-83.3333333333333,4,1,1,45,0,1
69246,-83.3333333333333,4,1,1,65,0,1
69843,-83.3333333333333,4,1,1,55,0,1
70142,-83.3333333333333,4,1,1,45,0,1
70440,-83.3333333333333,4,1,1,65,0,1
72828,-83.3333333333333,4,1,1,65,0,0
82381,-100,4,1,1,60,0,0
89545,-100,4,1,1,40,0,0
89843,-100,4,1,1,50,0,0
90142,-100,4,1,1,60,0,0
90440,-100,4,1,1,70,0,0
90738,-100,4,1,1,40,0,0
91336,-100,4,1,1,70,0,0
91933,-100,4,1,1,40,0,0
92828,-100,4,1,1,60,0,0
93127,-83.3333333333333,4,1,1,70,0,1
112231,-83.3333333333333,4,1,1,60,0,0
112530,-83.3333333333333,4,1,1,50,0,0
114616,-83.3333333333333,4,1,1,60,0,0
114918,-83.3333333333333,4,1,1,50,0,0

[Colours]
Combo1 : 34,238,192
Combo2 : 60,162,217
Combo3 : 238,136,185
Combo4 : 242,68,99

[HitObjects]
112,369,1187,5,0,1:0:0:0:
89,287,1336,1,4,1:2:0:0:
11,254,1485,2,0,L|-2:217,2,32.5,0|0|0,1:0|1:0|1:0,1:0:0:0:
79,203,1784,2,0,L|113:67,1,130,0|0,1:0|1:0,1:0:0:0:
259,3,2381,5,0,1:0:0:0:
283,86,2530,1,4,1:2:0:0:
361,119,2679,2,0,L|374:156,2,32.5,0|0|0,1:0|1:0|1:0,1:0:0:0:
293,170,2978,2,0,L|259:306,1,130,0|0,1:0|1:0,1:0:0:0:
405,384,3575,6,0,P|449:368|457:333,1,65,0|4,1:0|1:2,1:0:0:0:
404,289,3873,2,0,P|415:262|406:244,3,32.5,8|8|8|8,3:1|3:1|3:1|3:1,1:0:0:0:
373,270,4172,2,0,P|329:284|304:365,1,130,0|8,1:0|3:0,1:0:0:0:
144,298,4769,6,0,L|122:183,1,97.5,0|0,1:0|2:0,1:0:0:0:
88,181,5067,2,0,L|54:137,3,32.5,4|4|4|4,3:0|3:0|3:0|3:0,1:0:0:0:
110,149,5366,2,0,L|117:105,3,32.5,2|0|4|0,1:0|1:0|1:2|1:0,1:0:0:0:
73,123,5664,2,0,L|10:9,1,130,2|4,1:2|1:0,1:0:0:0:
256,192,6037,12,4,7754,3:0:0:0:
495,10,8351,6,0,L|470:86,1,65,6|8,1:0|1:0,1:0:0:0:
511,147,8649,2,0,L|451:183,1,65,0|8,1:0|1:0,1:0:0:0:
374,157,8948,2,0,L|337:228,1,65,0|8,1:0|1:0,1:0:0:0:
266,242,9246,2,0,L|282:309,1,65,0|8,1:0|1:0,1:0:0:0:
221,365,9545,6,0,L|183:346,3,32.5,6|0|8|0,1:0|1:0|1:0|1:0,1:0:0:0:
157,375,9843,2,0,L|122:314,1,65,0|8,1:0|1:0,1:0:0:0:
51,275,10142,5,2,1:0:0:0:
18,197,10291,1,8,1:0:0:0:
88,150,10440,1,8,1:0:0:0:
126,74,10589,1,8,1:0:0:0:
78,3,10739,1,4,1:2:0:0:
46,32,11933,6,0,L|72:160,3,130,0|2|4|0,2:0|2:0|2:0|1:0,0:0:0:0:
62,292,13127,6,0,P|71:332|146:335,1,97.5,4|0,1:0|2:0,1:0:0:0:
154,325,13425,2,0,P|163:286|133:253,1,65,0|0,1:0|2:0,1:0:0:0:
172,182,13724,2,0,P|206:203|261:153,1,97.5,2|0,1:2|2:0,1:0:0:0:
260,140,14022,2,0,P|238:106|194:103,1,65,2|0,1:2|2:0,1:0:0:0:
162,33,14321,5,0,1:0:0:0:
242,6,14470,1,0,2:0:0:0:
311,53,14619,2,0,L|422:31,1,97.5,0|0,1:0|2:0,1:0:0:0:
435,66,14918,2,0,L|448:3,2,65,2|0|2,1:2|2:0|1:2,1:0:0:0:
511,217,15515,6,0,P|484:185|416:216,1,97.5,0|0,1:0|2:0,1:0:0:0:
414,230,15813,2,0,P|423:268|465:284,1,65,0|0,1:0|2:0,1:0:0:0:
477,359,16112,2,0,L|359:377,1,97.5,2|0,1:2|2:0,1:0:0:0:
350,343,16410,2,0,L|280:325,1,65,0|0,1:0|1:0,1:0:0:0:
208,359,16709,6,0,P|165:338|159:301,1,86.6666666666667,0|2,1:0|1:2,1:0:0:0:
111,268,17007,6,0,P|132:225|169:219,1,86.6666666666667,0|2,1:0|2:0,1:0:0:0:
205,173,17306,6,0,P|248:194|254:231,1,86.6666666666667,0|2,1:0|2:0,1:0:0:0:
231,276,17604,5,4,1:2:0:0:
130,142,17903,5,4,1:0:0:0:
62,92,18052,2,0,L|-9:124,2,65,0|0|0,2:0|1:0|2:0,1:0:0:0:
120,30,18500,1,0,1:0:0:0:
199,58,18649,1,0,2:0:0:0:
278,87,18798,2,0,P|320:57|322:34,1,65,0|0,1:0|1:0,1:0:0:0:
399,12,19097,2,0,L|431:152,1,130,0|4,1:0|1:2,1:0:0:0:
448,306,19694,6,0,L|370:284,1,65,0|2,1:0|2:0,1:0:0:0:
367,257,19918,1,2,2:0:0:0:
349,226,19992,2,0,L|265:253,1,65,0|0,1:0|2:0,1:0:0:0:
219,194,20291,5,0,1:0:0:0:
219,194,20440,1,0,2:0:0:0:
160,254,20589,1,2,1:2:0:0:
160,254,20739,1,0,2:0:0:0:
115,181,20888,2,0,P|66:177|35:213,1,97.5,0|0,1:0|2:0,1:0:0:0:
38,254,21186,2,0,P|57:285|96:290,1,65,2|0,1:2|2:0,1:0:0:0:
150,344,21485,5,12,1:0:0:0:
233,332,21634,1,8,1:0:0:0:
317,320,21784,1,8,1:0:0:0:
400,309,21933,1,8,1:0:0:0:
461,251,22082,6,0,L|505:264,2,43.3333333333333,8|8|8,1:0|1:0|1:3,1:0:0:0:
418,213,22381,6,0,L|374:226,2,43.3333333333333,8|4|4,1:3|1:3|1:3,1:0:0:0:
452,168,22679,6,0,L|471:82,1,65,4|2,1:0|1:0,1:0:0:0:
386,71,22978,2,0,L|367:-15,1,65,8|2,1:0|1:0,1:0:0:0:
289,24,23276,2,0,L|308:110,1,65,2|2,1:0|1:0,1:0:0:0:
242,147,23575,2,0,L|223:233,1,65,8|2,1:0|1:0,1:0:0:0:
199,232,23798,1,0,1:0:0:0:
170,254,23873,6,0,P|119:230|118:178,1,97.5,2|0,1:0|2:0,1:0:0:0:
89,156,24172,2,0,P|106:127|141:123,1,65,8|2,1:0|1:0,1:0:0:0:
195,62,24470,2,0,L|209:-1,2,65,0|2|8,1:0|1:0|1:0,1:0:0:0:
325,170,25067,5,4,1:2:0:0:
365,244,25216,2,0,L|400:258,2,32.5,0|0|8,1:0|1:0|1:0,1:0:0:0:
315,313,25515,2,0,L|329:347,2,32.5,2|0|2,1:0|1:0|1:0,1:0:0:0:
230,326,25813,2,0,L|216:360,2,32.5,0|0|8,1:0|1:0|1:0,1:0:0:0:
179,257,26112,1,0,1:0:0:0:
96,273,26261,2,0,P|37:302|32:382,3,130,2|2|2|8,1:2|1:2|1:2|1:3,1:0:0:0:
6,193,27455,5,4,1:0:0:0:
84,163,27604,1,0,1:0:0:0:
131,92,27754,2,0,L|214:78,1,65,8|2,1:0|1:0,1:0:0:0:
272,114,28052,2,0,L|250:254,1,130,2|8,1:0|1:0,1:0:0:0:
170,266,28500,2,0,L|146:306,2,32.5,2|0|2,1:0|1:0|1:0,1:0:0:0:
338,248,28948,6,0,P|379:234|442:305,1,130,10|0,1:0|1:0,1:0:0:0:
405,360,29395,1,2,1:0:0:0:
321,377,29545,2,0,P|294:336|297:309,1,65,8|2,1:0|1:0,1:0:0:0:
237,259,29843,6,0,L|263:111,1,130,4|4,1:0|1:2,1:0:0:0:
333,89,30291,1,2,1:0:0:0:
276,26,30440,2,0,P|235:8|184:63,1,130,4|4,1:0|1:2,1:0:0:0:
123,123,30888,1,2,1:0:0:0:
40,142,31037,6,0,L|66:258,1,97.5,4|0,1:0|1:0,1:0:0:0:
45,277,31336,2,0,L|15:314,2,32.5,4|0|0,1:2|1:0|1:0,1:0:0:0:
112,327,31634,2,0,L|212:263,1,97.5,4|2,1:0|1:2,1:0:0:0:
211,235,31933,2,0,L|215:187,2,32.5,4|2|2,1:2|1:2|1:2,1:0:0:0:
277,287,32231,1,2,1:0:0:0:
256,192,32381,12,6,35813,1:0:0:0:
231,355,37007,6,0,L|326:385,1,97.5,6|0,1:0|1:0,1:0:0:0:
345,346,37306,2,0,L|417:358,1,65,10|0,1:2|1:0,1:0:0:0:
468,295,37604,1,2,1:0:0:0:
468,295,37754,1,2,1:0:0:0:
512,222,37903,2,0,P|466:207|434:220,1,65,10|4,1:2|1:2,1:0:0:0:
373,242,38201,6,0,L|278:272,1,97.5,6|2,1:0|1:2,1:0:0:0:
259,233,38500,2,0,L|187:245,1,65,8|2,1:0|1:2,1:0:0:0:
136,182,38798,1,2,1:0:0:0:
136,182,38948,1,2,1:0:0:0:
92,109,39097,2,0,P|138:94|170:107,1,65,10|0,1:2|1:0,1:0:0:0:
232,68,39395,6,0,L|259:87,3,32.5,6|0|2|0,1:0|1:0|1:0|1:0,1:0:0:0:
272,45,39694,2,0,L|339:59,1,65,8|2,1:0|1:2,1:0:0:0:
415,32,39992,2,0,P|467:47|476:108,1,97.5,2|0,1:0|1:0,1:0:0:0:
463,123,40291,2,0,P|420:134|410:158,1,65,8|2,1:0|1:2,1:0:0:0:
431,231,40589,6,0,L|461:354,2,97.5,4|4|2,1:2|1:2|1:2,1:0:0:0:
350,203,41186,1,4,1:2:0:0:
210,298,41485,6,0,L|217:351,3,32.5,2|0|0|0,1:0|1:0|1:0|1:0,1:0:0:0:
194,367,41784,2,0,P|162:383|96:331,1,130,6|8,1:0|1:0,1:0:0:0:
107,250,42231,1,0,2:0:0:0:
177,202,42381,2,0,P|193:170|141:104,1,130,2|8,1:0|1:0,1:0:0:0:
59,115,42828,1,0,2:0:0:0:
13,43,42978,5,2,1:0:0:0:
179,12,43276,2,0,L|249:52,1,65,8|0,1:0|2:0,1:0:0:0:
277,117,43575,1,2,1:0:0:0:
443,86,43873,2,0,L|513:126,1,65,8|0,1:0|2:0,1:0:0:0:
451,188,44172,6,0,P|399:201|375:275,1,130,2|8,1:0|1:0,1:0:0:0:
423,334,44619,1,0,1:0:0:0:
343,364,44769,2,0,L|235:325,1,97.5,2|0,1:0|2:0,1:0:0:0:
214,352,45067,2,0,L|186:274,1,65,8|0,1:0|1:0,1:0:0:0:
107,293,45366,5,2,1:0:0:0:
144,217,45515,1,0,1:0:0:0:
228,211,45664,2,0,L|247:172,3,32.5,8|0|0|0,1:0|1:0|1:0|1:0,1:0:0:0:
285,178,45963,2,0,P|308:143|282:85,1,97.5,2|0,1:0|2:0,1:0:0:0:
255,71,46261,2,0,P|215:74|187:108,1,65,2|0,1:3|1:0,1:0:0:0:
121,50,46560,5,0,1:0:0:0:
27,190,46858,2,0,L|4:229,2,43.3333333333333,8|2|2,3:1|3:0|3:0,3:0:0:0:
64,232,47157,2,0,L|94:371,1,130,0|8,1:0|3:1,3:0:0:0:
229,261,47754,5,0,1:0:0:0:
263,96,48052,2,0,L|274:52,2,43.3333333333333,8|0|0,3:1|3:0|3:0,3:0:0:0:
304,108,48351,2,0,L|423:30,2,130,8|8|4,1:0|1:0|1:0,3:0:0:0:
440,206,49246,6,0,P|423:236|426:249,3,32.5,0|0|0|0,1:0|1:0|1:0|1:0,1:0:0:0:
455,236,49545,2,0,P|468:273|400:333,1,130,10|2,1:0|1:0,1:0:0:0:
337,295,49992,1,0,1:0:0:0:
281,356,50142,6,0,L|216:342,1,65,4|0,1:0|1:0,1:0:0:0:
137,369,50440,2,0,L|100:313,1,65,0|0,1:0|1:0,1:0:0:0:
102,229,50739,2,0,L|167:215,1,65,10|0,1:0|1:0,1:0:0:0:
246,242,51037,2,0,L|282:186,1,65,2|0,1:0|1:0,1:0:0:0:
347,134,51336,6,0,P|359:113|359:96,7,32.5,4|0|0|0|4|0|0|0,1:2|1:0|1:0|1:0|1:2|1:0|1:0|1:0,1:0:0:0:
317,99,51933,2,0,P|310:76|299:64,7,32.5,4|0|0|0|4|0|0|0,1:2|1:0|1:0|1:0|1:2|1:0|1:0|1:0,1:0:0:0:
274,101,52530,1,0,1:0:0:0:
15,36,53127,5,6,1:2:0:0:
97,49,53276,1,2,1:2:0:0:
180,62,53425,1,2,1:2:0:0:
262,76,53575,1,2,1:2:0:0:
274,101,53649,1,0,1:0:0:0:
286,126,53724,6,0,L|419:97,1,117,4|0,1:0|1:0,1:0:0:0:
423,74,54022,1,0,1:0:0:0:
476,141,54172,2,0,P|508:177|429:246,1,156,8|8,1:0|1:0,1:0:0:0:
398,316,54619,2,0,L|385:358,3,39,0|2|10|2,1:0|1:2|1:2|1:2,1:0:0:0:
349,377,54918,6,0,P|294:361|297:288,1,117,0|0,1:0|1:0,1:0:0:0:
312,275,55216,1,0,1:0:0:0:
232,242,55366,2,0,L|261:95,1,117,8|0,1:0|2:0,1:0:0:0:
219,102,55664,1,10,1:2:0:0:
146,148,55813,2,0,P|125:110|138:67,1,78,0|10,1:0|1:2,1:0:0:0:
199,17,56112,6,0,L|315:2,2,117,4|0|8,1:0|1:0|1:0,1:0:0:0:
124,62,56709,2,0,L|7:47,2,117,4|0|8,1:0|1:0|1:0,1:0:0:0:
195,110,57306,2,0,P|223:149|103:186,1,234,4|8,1:2|1:0,1:0:0:0:
78,173,57828,1,0,1:0:0:0:
51,156,57903,2,0,L|75:310,1,156,4|2,1:2|1:0,1:0:0:0:
205,370,58500,6,0,L|226:231,1,117,4|0,1:0|1:0,1:0:0:0:
261,235,58798,1,0,1:0:0:0:
324,292,58948,2,0,P|365:318|444:256,1,156,8|8,1:0|1:0,1:0:0:0:
494,194,59395,2,0,P|446:172|402:195,1,78,0|8,1:0|1:0,1:0:0:0:
366,113,59694,6,0,P|388:65|365:21,1,78,2|8,1:0|1:0,1:0:0:0:
355,25,59918,1,0,1:0:0:0:
328,8,59992,2,0,P|284:31|272:80,1,78,0|8,1:0|1:0,1:0:0:0:
278,141,60291,5,0,1:0:0:0:
193,128,60440,1,10,1:2:0:0:
108,114,60589,1,0,1:0:0:0:
22,102,60739,1,10,1:2:0:0:
31,131,60813,1,0,1:0:0:0:
41,160,60888,6,0,P|53:215|30:305,2,117,6|0|8,1:0|1:0|1:0,1:0:0:0:
126,150,61485,2,0,P|160:103|209:71,2,117,6|0|8,1:2|1:0|1:0,1:0:0:0:
154,231,62082,2,0,P|123:278|43:325,2,117,6|0|8,1:0|1:0|1:0,1:0:0:0:
221,284,62679,2,0,P|278:275|335:287,2,117,4|4|4,1:2|1:2|1:2,1:0:0:0:
171,354,63276,5,0,2:0:0:0:
232,193,63575,1,12,1:0:0:0:
192,117,63724,2,0,L|364:88,1,156,12|8,1:2|1:0,1:0:0:0:
409,32,64172,2,0,L|383:3,2,39,0|0|8,1:0|1:0|1:0,1:0:0:0:
482,75,64470,2,0,P|444:120|440:196,1,117,2|0,1:0|1:0,1:0:0:0:
470,201,64769,1,0,1:0:0:0:
406,258,64918,6,0,P|420:301|353:355,1,117,12|0,1:2|1:0,1:0:0:0:
343,327,65216,1,8,1:0:0:0:
266,286,65366,2,0,P|234:252|262:214,1,78,0|8,1:0|1:0,1:0:0:0:
289,155,65664,6,0,P|252:117|166:135,2,117,6|0|8,1:0|1:0|1:0,1:0:0:0:
357,102,66261,2,0,P|334:50|361:0,2,117,4|0|8,1:2|1:0|1:0,1:0:0:0:
428,151,66858,2,0,L|396:337,1,156,6|0,1:0|1:0,1:0:0:0:
321,337,67306,5,8,1:0:0:0:
299,359,67381,1,0,1:0:0:0:
277,381,67455,2,0,L|99:350,1,156,6|2,1:0|1:0,1:0:0:0:
10,224,68052,6,0,P|24:176|112:183,1,117,6|2,1:0|1:2,1:0:0:0:
110,196,68351,2,0,L|125:280,1,78,10|0,1:0|1:0,1:0:0:0:
202,240,68649,2,0,L|231:274,3,39,8|0|0|0,1:0|1:0|1:0|1:0,1:0:0:0:
245,229,68948,2,0,P|283:244|319:233,1,78,8|0,1:0|1:0,1:0:0:0:
390,187,69246,6,0,P|395:152|318:119,1,117,12|2,1:2|1:2,1:0:0:0:
295,133,69545,2,0,P|257:143|219:112,1,78,10|0,1:0|1:0,1:0:0:0:
215,38,69843,2,0,L|238:0,3,39,8|0|0|0,1:0|1:0|1:0|1:0,1:0:0:0:
259,42,70142,2,0,P|294:21|331:26,1,78,8|0,1:0|1:0,1:0:0:0:
410,53,70440,6,0,L|442:138,1,78,12|0,1:0|1:0,1:0:0:0:
497,187,70739,2,0,L|465:272,1,78,12|0,1:2|1:0,1:0:0:0:
389,290,71037,2,0,P|388:334|397:346,3,39,12|0|0|0,1:0|1:0|1:0|1:0,1:0:0:0:
354,334,71336,2,0,P|384:365|399:367,3,39,12|0|0|0,1:2|1:0|1:0|1:0,1:0:0:0:
336,371,71634,5,10,1:2:0:0:
252,347,71784,1,0,1:0:0:0:
219,267,71933,1,10,1:2:0:0:
263,193,72082,1,0,1:0:0:0:
347,178,72231,6,0,L|371:148,3,39,10|0|0|0,1:0|1:0|1:0|1:0,1:0:0:0:
339,144,72530,2,0,L|346:98,3,39,10|10|10|10,1:0|1:2|1:2|1:2,1:0:0:0:
317,120,72828,1,4,1:0:0:0:
256,192,72903,12,0,76410,1:0:0:0:
173,51,82381,6,0,L|185:1,3,43.3333333333333,4|0|0|8,1:0|3:0|3:0|3:1,3:0:0:0:
79,141,82978,6,0,L|53:96,2,43.3333333333333,4|0|0,1:3|3:0|3:0,3:0:0:0:
41,182,83276,2,0,L|-6:170,2,43.3333333333333,8|0|0,3:1|3:0|3:0,3:0:0:0:
55,236,83575,2,0,L|81:333,1,86.6666666666667,4|0,1:3|3:0,3:0:0:0:
127,345,83873,2,0,L|223:369,1,86.6666666666667,8|0,3:1|3:0,3:0:0:0:
232,313,84172,2,0,L|361:289,1,130,4|8,1:3|3:1,3:0:0:0:
471,353,84769,6,0,L|526:368,3,43.3333333333333,4|0|0|8,1:0|3:0|3:0|3:1,3:0:0:0:
431,215,85366,6,0,L|480:186,2,43.3333333333333,4|0|0,1:2|3:0|3:0,3:0:0:0:
444,160,85664,2,0,L|466:116,2,43.3333333333333,8|0|0,3:1|3:0|3:0,3:0:0:0:
387,152,85963,2,0,P|331:147|310:94,1,86.6666666666667,4|0,1:0|3:0,3:0:0:0:
316,69,86261,2,0,P|285:40|242:42,1,86.6666666666667,8|0,3:1|3:0,3:0:0:0:
217,92,86560,2,0,L|247:238,1,130,10|10,1:0|1:0,1:0:0:0:
119,340,87157,6,0,P|75:365|13:327,1,130,6|0,1:0|1:0,1:0:0:0:
31,300,87530,1,0,1:0:0:0:
49,273,87604,1,0,1:0:0:0:
8,198,87754,2,0,P|37:172|132:198,1,130,4|0,1:2|1:0,1:0:0:0:
267,269,88351,6,0,P|280:220|351:203,1,130,4|0,1:0|1:0,1:0:0:0:
357,235,88724,1,0,1:0:0:0:
364,267,88798,1,0,1:0:0:0:
449,271,88948,2,0,P|446:309|361:358,2,130,4|0|4,1:2|1:0|1:2,1:0:0:0:
482,193,89694,5,0,1:0:0:0:
431,125,89843,2,0,L|416:81,3,32.5,4|0|0|0,1:2|1:0|1:0|1:0,1:0:0:0:
463,96,90142,2,0,L|472:49,3,32.5,4|0|0|0,1:2|1:0|1:0|1:0,1:0:0:0:
426,61,90440,2,0,L|296:31,1,130,4|6,1:2|1:0,1:0:0:0:
46,16,91336,5,6,1:2:0:0:
18,95,91485,1,2,1:2:0:0:
85,145,91634,1,2,1:2:0:0:
169,139,91784,1,2,1:2:0:0:
210,212,91933,2,0,L|347:251,1,130,10|0,1:0|1:0,1:0:0:0:
208,328,92530,6,0,L|235:361,3,32.5,0|0|0|0,1:0|1:0|1:0|1:0,1:0:0:0:
186,352,92828,2,0,L|199:381,3,32.5,0|0|0|0,1:0|1:0|1:0|1:0,1:0:0:0:
162,358,93127,6,0,L|31:319,1,117,6|0,1:0|1:0,1:0:0:0:
37,283,93425,1,0,1:0:0:0:
101,226,93575,2,0,P|70:187|121:106,1,156,10|8,1:0|1:0,1:0:0:0:
182,50,94022,2,0,L|165:8,2,39,0|0|8,1:0|1:0|1:0,1:0:0:0:
252,99,94321,6,0,L|273:219,1,117,6|0,1:0|1:0,1:0:0:0:
240,243,94619,1,0,1:0:0:0:
310,292,94769,2,0,B|324:323|358:321|358:321|388:319|405:345,1,117,10|0,1:0|2:0,1:0:0:0:
438,373,95067,1,8,1:0:0:0:
502,305,95216,2,0,P|477:267|486:232,1,78,0|8,1:0|1:0,1:0:0:0:
456,156,95515,6,0,L|498:24,2,117,6|0|8,1:0|1:0|1:0,1:0:0:0:
382,110,96112,2,0,L|424:-22,2,117,6|0|8,1:0|1:0|1:0,1:0:0:0:
370,195,96709,2,0,P|333:219|303:98,1,234,2|8,1:0|1:0,1:0:0:0:
291,68,97231,1,0,1:0:0:0:
282,36,97306,2,0,P|206:44|143:1,1,156,6|4,1:0|1:2,1:0:0:0:
15,74,97903,6,0,L|37:188,1,117,6|0,1:0|1:0,1:0:0:0:
77,206,98201,1,0,1:0:0:0:
25,275,98351,2,0,P|76:294|150:252,1,117,10|0,1:0|2:0,1:0:0:0:
174,284,98649,1,8,1:0:0:0:
224,215,98798,2,0,P|256:192|294:191,1,78,0|8,1:0|1:0,1:0:0:0:
368,235,99097,6,0,L|400:335,1,78,4|8,1:0|1:0,1:0:0:0:
419,324,99321,1,0,1:0:0:0:
459,336,99395,2,0,L|491:243,1,78,2|8,1:0|1:0,1:0:0:0:
442,186,99694,5,0,1:0:0:0:
487,113,99843,1,10,1:2:0:0:
431,47,99992,1,0,1:0:0:0:
352,83,100142,1,10,1:2:0:0:
324,68,100216,1,0,1:0:0:0:
296,53,100291,6,0,L|333:192,2,117,6|0|8,1:0|1:0|1:0,1:0:0:0:
224,101,100888,2,0,L|261:240,2,117,6|0|8,1:0|1:0|1:0,1:0:0:0:
160,42,101485,2,0,L|21:5,2,117,6|0|8,1:0|1:0|1:0,1:0:0:0:
112,114,102082,2,0,L|-27:77,1,117,10|10,1:0|1:0,1:0:0:0:
38,217,102530,5,8,1:0:0:0:
38,217,102604,1,8,1:0:0:0:
38,217,102679,2,0,P|82:204|135:251,1,117,12|0,1:0|1:0,1:0:0:0:
115,285,102978,2,0,L|75:297,3,39,8|0|2|0,1:0|1:0|1:0|1:0,1:0:0:0:
112,321,103276,2,0,L|77:344,3,39,8|0|0|0,1:0|1:0|1:0|1:0,1:0:0:0:
121,355,103575,1,8,1:0:0:0:
290,279,103873,6,0,L|313:150,1,117,10|0,1:0|1:0,1:0:0:0:
349,143,104172,2,0,L|335:100,3,39,8|0|2|0,1:0|1:0|1:0|1:0,1:0:0:0:
379,111,104470,2,0,L|350:57,3,39,8|0|0|0,1:0|1:0|1:0|1:0,1:0:0:0:
404,75,104769,1,8,1:0:0:0:
482,227,105067,6,0,P|499:287|441:318,1,117,10|4,1:0|1:2,1:0:0:0:
442,356,105366,2,0,P|402:349|388:305,1,78,8|0,1:0|1:0,1:0:0:0:
328,254,105664,2,0,P|297:199|234:218,1,117,10|4,1:0|1:2,1:0:0:0:
209,191,105963,2,0,P|185:224|206:265,1,78,8|0,1:0|1:0,1:0:0:0:
247,326,106261,6,0,L|265:372,3,39,10|0|0|0,1:0|1:0|1:0|1:0,1:0:0:0:
218,354,106560,2,0,L|126:331,1,78,8|0,1:0|1:0,1:0:0:0:
59,356,106858,2,0,L|9:220,1,117,8|8,1:0|1:0,1:0:0:0:
50,216,107157,1,0,1:0:0:0:
0,76,107455,6,0,P|44:52|111:88,1,117,6|2,1:0|1:2,1:0:0:0:
122,114,107754,2,0,P|173:137|224:113,1,117,0|0,1:0|1:0,1:0:0:0:
246,75,108052,2,0,L|231:25,3,39,2|2|10|2,1:2|1:2|1:2|1:2,1:0:0:0:
269,11,108351,1,0,1:0:0:0:
353,27,108500,1,8,1:0:0:0:
437,42,108649,6,0,L|473:162,1,117,6|2,1:0|1:2,1:0:0:0:
430,171,108948,2,0,L|406:258,1,78,0|0,1:0|1:0,1:0:0:0:
451,320,109246,2,0,L|331:356,1,117,10|2,1:2|1:2,1:0:0:0:
322,313,109545,2,0,L|235:289,1,78,0|8,1:0|1:0,1:0:0:0:
174,246,109843,6,0,P|156:291|196:361,2,117,6|0|2,1:0|1:0|1:2,1:0:0:0:
245,198,110440,2,0,P|279:160|278:127,1,78,2|0,1:0|1:0,1:0:0:0:
237,59,110739,2,0,P|187:48|159:65,1,78,10|10,1:2|1:2,1:0:0:0:
80,42,111037,6,0,L|33:70,2,52,0|2|2,1:0|1:2|1:2,1:0:0:0:
76,84,111336,6,0,L|38:123,2,52,4|2|2,1:2|1:2|1:2,1:0:0:0:
83,124,111634,6,0,L|57:172,2,52,0|8|8,1:0|1:0|1:0,1:0:0:0:
101,162,111933,6,0,L|88:215,2,52,4|8|8,1:2|1:0|1:0,1:0:0:0:
131,189,112231,5,6,1:0:0:0:
256,192,112381,12,4,117007,1:0:0:0:
