osu file format v14

[General]
AudioFilename: audio.mp3
AudioLeadIn: 0
PreviewTime: 92823
Countdown: 0
SampleSet: Normal
StackLeniency: 0.7
Mode: 1
LetterboxInBreaks: 0
WidescreenStoryboard: 0

[Editor]
DistanceSpacing: 1
BeatDivisor: 4
GridSize: 8
TimelineZoom: 1.1

[Metadata]
Title:For UltraPlayers
TitleUnicode:For UltraPlayers
Artist:cosMo@BousouP
ArtistUnicode:cosMo@暴走P
Creator:404 AccNotFound
Version:Ultra Oni
Source:SOUND VOLTEX II -infinite infection-
Tags:SDVX FLOOR KONAMI Arcade Championship KAC 2013 REFLEC BEAT VOLZZA gaston_2199 DDM
BeatmapID:1242191
BeatmapSetID:586568

[Difficulty]
HPDrainRate:5
CircleSize:5
OverallDifficulty:6
ApproachRate:5
SliderMultiplier:1.4
SliderTickRate:1

[Events]
//Background and Video events
0,0,"8b7764b2-881c-468c-ae07-2e8ebc61320c.jpg",0,0
//Break Periods
//Storyboard Layer 0 (Background)
//Storyboard Layer 1 (Fail)
//Storyboard Layer 2 (Pass)
//Storyboard Layer 3 (Foreground)
//Storyboard Sound Samples

[TimingPoints]
1182,298.507462686567,4,1,0,100,1,0
53719,-100,4,1,0,100,0,1
63122,-100,4,1,0,100,0,0
63570,-100,4,1,0,100,0,1
72823,-100,4,1,0,100,0,0
91928,-66.6666666666667,4,1,0,100,0,0
92525,-100,4,1,0,100,0,0
93122,-100,4,1,0,100,0,1
112226,-100,4,1,0,100,0,0

[HitObjects]
264,192,1182,5,4,0:0:0:0:
224,112,1331,1,4,0:0:0:0:
160,144,1480,1,8,0:0:0:0:
160,144,1555,1,8,0:0:0:0:
160,144,1629,1,8,0:0:0:0:
264,192,1779,1,4,0:0:0:0:
224,112,1928,1,4,0:0:0:0:
160,144,2077,1,8,0:0:0:0:
160,144,2152,1,8,0:0:0:0:
160,144,2226,1,8,0:0:0:0:
264,192,2376,1,4,0:0:0:0:
224,112,2525,1,4,0:0:0:0:
160,144,2674,1,8,0:0:0:0:
160,144,2749,1,8,0:0:0:0:
160,144,2823,1,8,0:0:0:0:
264,192,2973,1,4,0:0:0:0:
224,112,3122,1,4,0:0:0:0:
160,144,3271,1,8,0:0:0:0:
160,144,3346,1,8,0:0:0:0:
160,144,3420,1,8,0:0:0:0:
208,192,3570,1,12,0:0:0:0:
208,192,3719,1,12,0:0:0:0:
136,128,3868,1,0,0:0:0:0:
136,128,3943,1,0,0:0:0:0:
136,128,4017,1,0,0:0:0:0:
104,88,4092,1,0,0:0:0:0:
176,88,4167,1,12,0:0:0:0:
256,120,4316,1,12,0:0:0:0:
136,128,4465,1,0,0:0:0:0:
136,128,4540,1,0,0:0:0:0:
136,128,4614,1,0,0:0:0:0:
104,88,4689,1,0,0:0:0:0:
176,88,4764,1,12,0:0:0:0:
256,120,4913,1,12,0:0:0:0:
104,184,5062,1,0,0:0:0:0:
112,192,5137,1,0,0:0:0:0:
112,192,5211,1,0,0:0:0:0:
112,192,5286,1,0,0:0:0:0:
112,176,5361,1,8,0:0:0:0:
112,176,5435,1,8,0:0:0:0:
112,176,5510,1,0,0:0:0:0:
104,160,5584,1,2,0:0:0:0:
80,144,5659,1,0,0:0:0:0:
80,144,5734,1,8,0:0:0:0:
80,144,5808,1,8,0:0:0:0:
80,144,5883,1,8,0:0:0:0:
80,144,5958,5,0,0:0:0:0:
272,80,6107,1,0,0:0:0:0:
168,136,6256,1,0,0:0:0:0:
176,136,6331,1,0,0:0:0:0:
176,136,6405,1,2,0:0:0:0:
176,136,6480,1,2,0:0:0:0:
176,136,6555,1,0,0:0:0:0:
176,136,6704,1,0,0:0:0:0:
176,136,6853,1,2,0:0:0:0:
176,136,6928,1,2,0:0:0:0:
176,136,7002,1,0,0:0:0:0:
176,136,7077,1,0,0:0:0:0:
176,136,7152,1,2,0:0:0:0:
128,56,7301,1,2,0:0:0:0:
160,136,7450,1,0,0:0:0:0:
160,136,7525,1,0,0:0:0:0:
160,136,7599,1,2,0:0:0:0:
160,136,7674,1,0,0:0:0:0:
160,136,7749,1,2,0:0:0:0:
232,48,7898,1,2,0:0:0:0:
72,136,8047,1,0,0:0:0:0:
72,136,8122,1,0,0:0:0:0:
72,136,8196,1,2,0:0:0:0:
72,136,8271,1,2,0:0:0:0:
72,136,8346,1,0,0:0:0:0:
200,120,8495,1,0,0:0:0:0:
120,128,8644,1,2,0:0:0:0:
120,128,8719,1,2,0:0:0:0:
120,128,8793,1,0,0:0:0:0:
120,128,8868,1,2,0:0:0:0:
120,128,8943,1,0,0:0:0:0:
120,128,9092,1,0,0:0:0:0:
136,104,9241,1,2,0:0:0:0:
136,104,9316,1,0,0:0:0:0:
136,104,9390,1,2,0:0:0:0:
136,104,9465,1,2,0:0:0:0:
136,104,9540,5,0,0:0:0:0:
136,104,9689,1,0,0:0:0:0:
136,104,9838,1,2,0:0:0:0:
136,104,9913,1,2,0:0:0:0:
136,104,9987,1,0,0:0:0:0:
136,104,10062,1,2,0:0:0:0:
136,104,10137,1,0,0:0:0:0:
136,104,10211,1,2,0:0:0:0:
136,104,10286,1,0,0:0:0:0:
136,104,10361,1,0,0:0:0:0:
136,104,10435,1,2,0:0:0:0:
8,104,10510,1,0,0:0:0:0:
8,104,10584,1,2,0:0:0:0:
8,104,10659,1,2,0:0:0:0:
216,160,10734,5,0,0:0:0:0:
216,160,10883,1,0,0:0:0:0:
216,160,10958,1,8,0:0:0:0:
216,160,11032,1,0,0:0:0:0:
216,160,11107,1,0,0:0:0:0:
216,160,11181,1,0,0:0:0:0:
216,160,11256,1,8,0:0:0:0:
216,160,11331,1,0,0:0:0:0:
216,160,11405,1,0,0:0:0:0:
216,160,11480,1,2,0:0:0:0:
216,160,11555,1,8,0:0:0:0:
216,160,11629,1,0,0:0:0:0:
216,160,11704,1,0,0:0:0:0:
216,160,11779,1,0,0:0:0:0:
216,160,11853,1,8,0:0:0:0:
216,160,11928,1,0,0:0:0:0:
216,160,12002,1,0,0:0:0:0:
216,160,12077,1,2,0:0:0:0:
216,160,12152,1,0,0:0:0:0:
216,160,12226,1,8,0:0:0:0:
216,160,12301,1,0,0:0:0:0:
216,160,12376,1,0,0:0:0:0:
216,160,12450,1,0,0:0:0:0:
216,160,12525,1,8,0:0:0:0:
216,160,12599,1,8,0:0:0:0:
216,160,12674,1,0,0:0:0:0:
216,160,12749,1,0,0:0:0:0:
152,64,12823,1,8,0:0:0:0:
216,160,12973,1,8,0:0:0:0:
216,160,13047,1,8,0:0:0:0:
216,160,13122,5,0,0:0:0:0:
256,112,13271,1,2,0:0:0:0:
200,72,13420,1,0,0:0:0:0:
200,72,13570,1,2,0:0:0:0:
200,72,13719,1,0,0:0:0:0:
200,72,13868,1,2,0:0:0:0:
112,120,13943,1,2,0:0:0:0:
200,72,14017,1,0,0:0:0:0:
216,64,14167,1,2,0:0:0:0:
232,120,14316,1,0,0:0:0:0:
200,128,14465,1,0,0:0:0:0:
192,152,14540,1,2,0:0:0:0:
200,200,14614,1,0,0:0:0:0:
160,80,14764,1,0,0:0:0:0:
200,128,14913,1,2,0:0:0:0:
0,104,14987,1,2,0:0:0:0:
200,200,15062,1,0,0:0:0:0:
144,144,15211,1,2,0:0:0:0:
144,144,15361,1,2,0:0:0:0:
336,136,15510,1,0,0:0:0:0:
320,136,15659,1,0,0:0:0:0:
320,136,15734,1,0,0:0:0:0:
320,136,15808,1,2,0:0:0:0:
320,136,15958,1,2,0:0:0:0:
232,224,16032,1,2,0:0:0:0:
320,136,16107,1,0,0:0:0:0:
320,136,16256,1,0,0:0:0:0:
320,136,16331,1,0,0:0:0:0:
320,136,16405,1,2,0:0:0:0:
288,72,16505,1,0,0:0:0:0:
288,72,16604,1,2,0:0:0:0:
288,80,16704,1,0,0:0:0:0:
96,112,16803,1,2,0:0:0:0:
96,112,16903,1,2,0:0:0:0:
96,112,17002,1,0,0:0:0:0:
96,112,17102,1,2,0:0:0:0:
96,112,17201,1,2,0:0:0:0:
136,112,17301,1,0,0:0:0:0:
144,112,17400,1,2,0:0:0:0:
144,112,17500,1,0,0:0:0:0:
144,112,17599,1,2,0:0:0:0:
144,112,17699,1,2,0:0:0:0:
144,112,17798,1,2,0:0:0:0:
144,112,17898,5,0,0:0:0:0:
192,128,18047,1,2,0:0:0:0:
192,128,18196,1,0,0:0:0:0:
192,128,18346,1,0,0:0:0:0:
72,144,18420,1,0,0:0:0:0:
192,120,18495,1,2,0:0:0:0:
200,120,18644,1,0,0:0:0:0:
200,120,18793,1,0,0:0:0:0:
200,120,18943,1,2,0:0:0:0:
200,120,19092,1,4,0:0:0:0:
200,120,19390,1,12,0:0:0:0:
80,72,19689,1,0,0:0:0:0:
80,72,19838,1,0,0:0:0:0:
80,72,19913,1,0,0:0:0:0:
80,72,19987,1,2,0:0:0:0:
80,72,20137,1,0,0:0:0:0:
160,80,20286,1,2,0:0:0:0:
40,160,20361,1,2,0:0:0:0:
160,80,20435,1,0,0:0:0:0:
232,72,20584,1,2,0:0:0:0:
232,72,20734,1,0,0:0:0:0:
296,152,20883,1,2,0:0:0:0:
360,120,20933,1,0,0:0:0:0:
360,120,20982,1,0,0:0:0:0:
360,120,21032,1,2,0:0:0:0:
160,80,21181,1,0,0:0:0:0:
160,80,21331,1,2,0:0:0:0:
200,144,21480,1,0,0:0:0:0:
200,144,21555,1,2,0:0:0:0:
200,144,21629,1,0,0:0:0:0:
200,144,21704,1,2,0:0:0:0:
200,144,21779,1,0,0:0:0:0:
200,144,21853,1,2,0:0:0:0:
200,144,21928,1,2,0:0:0:0:
200,144,22002,1,2,0:0:0:0:
200,144,22077,1,0,0:0:0:0:
256,216,22177,1,0,0:0:0:0:
256,216,22276,1,0,0:0:0:0:
256,216,22376,1,2,0:0:0:0:
256,216,22475,1,2,0:0:0:0:
256,216,22575,1,2,0:0:0:0:
256,216,22674,5,0,0:0:0:0:
80,120,22823,1,2,0:0:0:0:
80,120,22973,1,0,0:0:0:0:
80,120,23122,1,2,0:0:0:0:
160,104,23271,1,0,0:0:0:0:
160,104,23420,1,2,0:0:0:0:
176,96,23495,1,2,0:0:0:0:
184,96,23570,1,0,0:0:0:0:
184,96,23719,1,2,0:0:0:0:
176,216,23868,1,0,0:0:0:0:
176,216,23943,1,0,0:0:0:0:
176,216,24017,1,0,0:0:0:0:
176,216,24092,1,0,0:0:0:0:
264,80,24167,1,2,0:0:0:0:
176,216,24316,1,0,0:0:0:0:
24,112,24465,1,2,0:0:0:0:
184,96,24614,1,0,0:0:0:0:
184,96,24764,1,2,0:0:0:0:
184,96,24913,1,2,0:0:0:0:
184,96,25062,1,0,0:0:0:0:
136,128,25211,1,0,0:0:0:0:
136,136,25286,1,0,0:0:0:0:
272,96,25361,1,2,0:0:0:0:
256,96,25510,1,2,0:0:0:0:
88,80,25584,1,2,0:0:0:0:
256,96,25659,1,0,0:0:0:0:
256,96,25808,1,0,0:0:0:0:
256,96,25883,1,0,0:0:0:0:
256,96,25958,1,2,0:0:0:0:
256,192,26057,1,0,0:0:0:0:
248,184,26157,1,2,0:0:0:0:
248,184,26256,1,0,0:0:0:0:
200,104,26356,1,0,0:0:0:0:
200,104,26455,1,2,0:0:0:0:
64,120,26555,1,0,0:0:0:0:
128,120,26654,1,2,0:0:0:0:
128,120,26754,1,0,0:0:0:0:
216,168,26853,1,2,0:0:0:0:
200,168,26953,1,2,0:0:0:0:
200,168,27052,1,0,0:0:0:0:
200,144,27152,1,2,0:0:0:0:
192,136,27251,1,0,0:0:0:0:
192,136,27351,1,2,0:0:0:0:
192,136,27450,5,0,0:0:0:0:
88,128,27599,1,2,0:0:0:0:
88,128,27674,1,2,0:0:0:0:
88,128,27749,1,0,0:0:0:0:
88,128,27898,1,0,0:0:0:0:
96,128,28047,1,2,0:0:0:0:
96,128,28122,1,2,0:0:0:0:
96,128,28196,1,0,0:0:0:0:
96,128,28346,1,2,0:0:0:0:
96,128,28495,1,2,0:0:0:0:
120,128,28644,1,0,0:0:0:0:
208,192,28943,1,2,0:0:0:0:
248,240,29241,1,0,0:0:0:0:
112,112,29390,1,0,0:0:0:0:
112,112,29465,1,0,0:0:0:0:
112,112,29540,1,2,0:0:0:0:
128,80,29689,1,0,0:0:0:0:
280,128,29838,1,2,0:0:0:0:
280,128,29987,1,2,0:0:0:0:
224,224,30037,1,0,0:0:0:0:
224,224,30087,1,0,0:0:0:0:
280,128,30137,1,2,0:0:0:0:
280,128,30286,1,0,0:0:0:0:
280,128,30435,1,2,0:0:0:0:
280,128,30510,1,2,0:0:0:0:
280,128,30584,1,0,0:0:0:0:
280,128,30734,1,0,0:0:0:0:
280,128,30883,1,2,0:0:0:0:
280,128,31032,1,0,0:0:0:0:
184,80,31107,1,0,0:0:0:0:
192,80,31181,1,2,0:0:0:0:
192,80,31256,1,2,0:0:0:0:
184,80,31331,1,0,0:0:0:0:
184,80,31405,1,0,0:0:0:0:
184,80,31480,1,2,0:0:0:0:
184,80,31555,1,2,0:0:0:0:
184,80,31629,1,0,0:0:0:0:
184,80,31704,1,2,0:0:0:0:
184,80,31779,1,2,0:0:0:0:
184,80,31853,1,0,0:0:0:0:
192,80,31928,1,2,0:0:0:0:
192,80,32002,1,2,0:0:0:0:
192,80,32077,1,2,0:0:0:0:
192,80,32152,1,2,0:0:0:0:
192,80,32226,5,0,0:0:0:0:
144,160,32376,1,2,0:0:0:0:
144,160,32525,1,0,0:0:0:0:
144,160,32599,1,0,0:0:0:0:
144,160,32674,1,2,0:0:0:0:
192,80,32823,1,0,0:0:0:0:
144,160,32973,1,2,0:0:0:0:
144,160,33122,1,0,0:0:0:0:
144,160,33196,1,0,0:0:0:0:
144,160,33271,1,2,0:0:0:0:
192,80,33420,1,0,0:0:0:0:
144,160,33570,1,2,0:0:0:0:
144,160,33719,1,0,0:0:0:0:
144,160,33793,1,0,0:0:0:0:
144,160,33868,1,2,0:0:0:0:
192,80,34017,1,0,0:0:0:0:
40,104,34092,1,0,0:0:0:0:
144,160,34167,1,2,0:0:0:0:
248,56,34241,1,2,0:0:0:0:
144,160,34316,1,0,0:0:0:0:
160,112,34465,1,2,0:0:0:0:
192,80,34614,5,0,0:0:0:0:
144,160,34764,1,2,0:0:0:0:
144,160,34913,1,0,0:0:0:0:
144,160,34987,1,0,0:0:0:0:
144,160,35062,1,2,0:0:0:0:
192,80,35211,1,0,0:0:0:0:
144,160,35361,1,2,0:0:0:0:
144,160,35510,5,0,0:0:0:0:
144,160,35584,1,0,0:0:0:0:
144,160,35659,1,2,0:0:0:0:
192,80,35808,1,0,0:0:0:0:
80,104,35883,1,0,0:0:0:0:
144,160,35958,1,2,0:0:0:0:
80,96,36032,1,0,0:0:0:0:
144,160,36107,1,2,0:0:0:0:
144,160,36181,1,2,0:0:0:0:
144,160,36256,1,0,0:0:0:0:
80,96,36331,1,2,0:0:0:0:
80,96,36405,1,0,0:0:0:0:
216,144,36704,5,0,0:0:0:0:
216,144,36779,1,0,0:0:0:0:
216,144,36853,1,2,0:0:0:0:
216,144,36928,1,2,0:0:0:0:
216,144,37002,1,0,0:0:0:0:
216,144,37077,1,0,0:0:0:0:
216,144,37152,1,2,0:0:0:0:
216,144,37226,1,0,0:0:0:0:
216,144,37301,1,2,0:0:0:0:
216,144,37376,1,2,0:0:0:0:
216,144,37450,1,0,0:0:0:0:
216,144,37525,1,0,0:0:0:0:
152,64,37599,1,2,0:0:0:0:
96,128,37674,1,0,0:0:0:0:
216,144,37749,1,2,0:0:0:0:
216,144,37823,1,0,0:0:0:0:
216,144,37898,1,2,0:0:0:0:
216,144,37973,1,0,0:0:0:0:
216,144,38047,1,0,0:0:0:0:
216,144,38122,1,0,0:0:0:0:
216,144,38196,1,2,0:0:0:0:
40,56,38271,1,0,0:0:0:0:
40,56,38346,1,2,0:0:0:0:
96,144,38420,1,0,0:0:0:0:
216,144,38495,1,2,0:0:0:0:
216,144,38570,1,0,0:0:0:0:
216,144,38644,1,0,0:0:0:0:
216,144,38719,1,2,0:0:0:0:
216,144,38793,1,0,0:0:0:0:
216,144,38868,1,0,0:0:0:0:
216,144,38943,1,2,0:0:0:0:
216,144,39017,1,0,0:0:0:0:
216,144,39092,1,2,0:0:0:0:
216,144,39167,1,2,0:0:0:0:
216,144,39241,1,2,0:0:0:0:
216,144,39316,1,0,0:0:0:0:
216,144,39390,1,2,0:0:0:0:
216,144,39465,1,2,0:0:0:0:
216,144,39540,1,0,0:0:0:0:
216,144,39614,1,0,0:0:0:0:
216,144,39689,1,2,0:0:0:0:
216,144,39764,1,0,0:0:0:0:
216,144,39838,1,2,0:0:0:0:
216,144,39913,1,2,0:0:0:0:
216,144,39987,1,0,0:0:0:0:
216,144,40062,1,2,0:0:0:0:
216,144,40137,1,0,0:0:0:0:
216,144,40211,1,0,0:0:0:0:
216,144,40286,1,2,0:0:0:0:
216,144,40361,1,2,0:0:0:0:
216,144,40435,1,0,0:0:0:0:
216,144,40510,1,0,0:0:0:0:
128,160,40584,1,6,0:0:0:0:
128,160,40808,1,6,0:0:0:0:
128,160,41032,1,6,0:0:0:0:
128,160,41181,1,4,0:0:0:0:
56,104,41480,1,0,0:0:0:0:
64,104,41555,1,2,0:0:0:0:
64,104,41629,1,2,0:0:0:0:
64,104,41704,1,2,0:0:0:0:
64,104,41779,5,0,0:0:0:0:
144,136,41928,1,0,0:0:0:0:
152,136,42077,1,2,0:0:0:0:
152,136,42226,1,0,0:0:0:0:
200,128,42376,1,2,0:0:0:0:
328,208,42450,1,2,0:0:0:0:
200,128,42525,1,0,0:0:0:0:
200,128,42674,1,2,0:0:0:0:
192,120,42823,1,0,0:0:0:0:
200,128,42973,1,2,0:0:0:0:
200,128,43122,1,0,0:0:0:0:
112,184,43196,1,0,0:0:0:0:
200,128,43271,1,2,0:0:0:0:
296,112,43420,1,2,0:0:0:0:
88,104,43495,1,0,0:0:0:0:
200,128,43570,1,2,0:0:0:0:
200,128,43719,1,0,0:0:0:0:
200,128,43868,1,2,0:0:0:0:
192,120,44017,1,0,0:0:0:0:
48,128,44167,1,2,0:0:0:0:
144,80,44316,1,0,0:0:0:0:
248,80,44366,1,2,0:0:0:0:
248,80,44415,1,2,0:0:0:0:
64,136,44465,1,0,0:0:0:0:
144,80,44614,1,0,0:0:0:0:
144,80,44764,1,2,0:0:0:0:
144,168,44913,1,0,0:0:0:0:
144,168,45062,1,2,0:0:0:0:
144,168,45211,1,0,0:0:0:0:
144,168,45361,1,2,0:0:0:0:
184,96,45435,1,2,0:0:0:0:
184,96,45510,1,0,0:0:0:0:
184,96,45584,1,0,0:0:0:0:
184,96,45659,1,2,0:0:0:0:
264,120,45759,1,0,0:0:0:0:
264,120,45858,1,0,0:0:0:0:
264,120,45958,1,2,0:0:0:0:
184,176,46107,1,0,0:0:0:0:
112,144,46256,1,2,0:0:0:0:
224,160,46555,1,0,0:0:0:0:
232,160,46853,1,0,0:0:0:0:
200,96,46953,1,2,0:0:0:0:
200,96,47052,1,2,0:0:0:0:
232,160,47152,1,0,0:0:0:0:
280,112,47351,1,0,0:0:0:0:
280,112,47450,1,2,0:0:0:0:
280,112,47550,1,0,0:0:0:0:
280,112,47649,1,0,0:0:0:0:
152,144,47749,1,2,0:0:0:0:
152,144,47848,1,2,0:0:0:0:
152,144,47948,1,0,0:0:0:0:
200,96,48047,1,2,0:0:0:0:
200,96,48246,1,2,0:0:0:0:
200,96,48346,1,0,0:0:0:0:
176,144,48644,1,2,0:0:0:0:
168,136,48843,1,0,0:0:0:0:
104,112,48943,1,2,0:0:0:0:
256,80,49092,1,0,0:0:0:0:
256,80,49167,1,0,0:0:0:0:
264,80,49241,1,2,0:0:0:0:
224,128,49316,1,0,0:0:0:0:
224,112,49390,1,0,0:0:0:0:
224,128,49465,1,2,0:0:0:0:
224,128,49540,1,2,0:0:0:0:
128,112,49689,1,0,0:0:0:0:
136,112,49838,1,2,0:0:0:0:
136,112,49987,1,0,0:0:0:0:
136,112,50137,5,2,0:0:0:0:
256,160,50336,1,0,0:0:0:0:
280,160,50435,1,2,0:0:0:0:
256,128,50510,1,2,0:0:0:0:
256,128,50584,1,2,0:0:0:0:
256,128,50659,1,2,0:0:0:0:
256,128,50734,1,0,0:0:0:0:
40,96,51032,1,2,0:0:0:0:
176,200,51331,5,0,0:0:0:0:
176,200,51430,1,2,0:0:0:0:
176,200,51530,1,0,0:0:0:0:
184,128,51629,1,2,0:0:0:0:
184,128,51729,1,0,0:0:0:0:
184,128,51828,1,2,0:0:0:0:
176,200,51928,1,0,0:0:0:0:
176,200,52027,1,2,0:0:0:0:
176,200,52127,1,0,0:0:0:0:
184,128,52226,1,2,0:0:0:0:
64,184,52301,1,0,0:0:0:0:
72,184,52376,1,0,0:0:0:0:
72,184,52450,1,2,0:0:0:0:
88,80,52525,1,0,0:0:0:0:
448,144,52973,1,0,0:0:0:0:
448,152,53047,1,0,0:0:0:0:
392,152,53122,1,2,0:0:0:0:
336,128,53271,1,0,0:0:0:0:
328,120,53420,1,2,0:0:0:0:
328,120,53570,1,2,0:0:0:0:
160,120,53719,5,0,0:0:0:0:
192,136,53868,1,0,0:0:0:0:
176,200,53943,1,0,0:0:0:0:
176,208,54017,1,2,0:0:0:0:
176,208,54167,1,0,0:0:0:0:
192,192,54316,1,2,0:0:0:0:
192,192,54465,1,0,0:0:0:0:
144,104,54614,1,0,0:0:0:0:
144,104,54689,1,0,0:0:0:0:
184,192,54764,1,2,0:0:0:0:
144,104,54838,1,2,0:0:0:0:
144,104,54913,1,0,0:0:0:0:
200,128,55062,1,0,0:0:0:0:
144,120,55137,1,0,0:0:0:0:
144,120,55211,1,2,0:0:0:0:
144,120,55361,1,2,0:0:0:0:
144,120,55510,1,0,0:0:0:0:
144,120,55659,1,2,0:0:0:0:
144,120,55734,1,2,0:0:0:0:
144,120,55808,1,0,0:0:0:0:
240,80,55958,1,2,0:0:0:0:
152,144,56107,1,0,0:0:0:0:
160,200,56256,1,0,0:0:0:0:
176,40,56331,1,2,0:0:0:0:
160,200,56405,1,0,0:0:0:0:
232,96,56555,1,0,0:0:0:0:
32,152,56704,1,2,0:0:0:0:
144,104,56853,1,2,0:0:0:0:
152,120,56928,1,0,0:0:0:0:
152,120,57002,1,2,0:0:0:0:
216,192,57152,1,2,0:0:0:0:
240,176,57301,1,0,0:0:0:0:
120,128,57450,1,2,0:0:0:0:
120,128,57525,1,0,0:0:0:0:
120,128,57599,1,2,0:0:0:0:
120,128,57674,1,0,0:0:0:0:
120,128,57749,1,2,0:0:0:0:
128,88,57823,1,2,0:0:0:0:
152,72,57898,1,0,0:0:0:0:
144,72,58047,1,0,0:0:0:0:
144,72,58122,1,0,0:0:0:0:
144,72,58196,1,2,0:0:0:0:
144,72,58346,1,2,0:0:0:0:
144,72,58495,1,0,0:0:0:0:
152,168,58644,1,0,0:0:0:0:
168,168,58719,1,0,0:0:0:0:
168,168,58793,1,2,0:0:0:0:
168,168,58943,1,0,0:0:0:0:
32,120,59092,1,0,0:0:0:0:
256,120,59241,1,2,0:0:0:0:
128,128,59316,1,2,0:0:0:0:
168,80,59390,1,0,0:0:0:0:
168,80,59540,1,2,0:0:0:0:
256,120,59689,1,0,0:0:0:0:
256,176,59838,1,2,0:0:0:0:
256,176,59913,1,0,0:0:0:0:
256,176,59987,1,2,0:0:0:0:
176,128,60137,1,0,0:0:0:0:
176,112,60286,1,2,0:0:0:0:
176,112,60361,1,2,0:0:0:0:
168,112,60435,1,0,0:0:0:0:
168,112,60510,1,0,0:0:0:0:
168,112,60584,1,2,0:0:0:0:
168,112,60659,1,0,0:0:0:0:
168,112,60734,1,2,0:0:0:0:
168,192,60883,5,0,0:0:0:0:
160,192,61032,1,2,0:0:0:0:
160,192,61107,1,0,0:0:0:0:
160,192,61181,1,2,0:0:0:0:
304,144,61331,1,0,0:0:0:0:
200,96,61480,1,2,0:0:0:0:
200,96,61629,1,0,0:0:0:0:
200,88,61704,1,2,0:0:0:0:
200,96,61779,1,0,0:0:0:0:
200,96,61928,1,2,0:0:0:0:
120,128,62077,1,0,0:0:0:0:
120,128,62226,1,2,0:0:0:0:
120,128,62301,1,0,0:0:0:0:
120,128,62376,1,2,0:0:0:0:
80,144,62525,1,0,0:0:0:0:
184,128,62674,1,2,0:0:0:0:
232,80,62749,1,0,0:0:0:0:
232,80,62823,1,0,0:0:0:0:
232,80,62898,1,2,0:0:0:0:
232,80,62973,1,0,0:0:0:0:
232,80,63047,1,0,0:0:0:0:
232,80,63122,1,2,0:0:0:0:
232,80,63271,1,2,0:0:0:0:
128,112,63346,1,0,0:0:0:0:
264,160,63420,1,0,0:0:0:0:
128,112,63495,1,0,0:0:0:0:
128,112,63570,1,2,0:0:0:0:
216,144,63719,1,0,0:0:0:0:
136,64,63868,1,2,0:0:0:0:
16,120,64017,1,2,0:0:0:0:
16,120,64092,1,0,0:0:0:0:
224,144,64167,1,0,0:0:0:0:
224,144,64241,1,0,0:0:0:0:
224,144,64316,1,2,0:0:0:0:
224,136,64390,1,2,0:0:0:0:
224,136,64465,1,0,0:0:0:0:
224,104,64614,1,0,0:0:0:0:
160,184,64689,1,0,0:0:0:0:
168,184,64764,1,2,0:0:0:0:
160,184,64913,1,2,0:0:0:0:
160,176,65062,1,0,0:0:0:0:
160,176,65137,1,0,0:0:0:0:
160,176,65211,1,2,0:0:0:0:
160,176,65361,1,2,0:0:0:0:
160,176,65510,1,0,0:0:0:0:
96,104,65659,1,2,0:0:0:0:
104,112,65734,1,0,0:0:0:0:
152,104,65808,1,0,0:0:0:0:
144,96,65883,1,2,0:0:0:0:
216,64,65958,1,0,0:0:0:0:
224,112,66032,1,0,0:0:0:0:
216,128,66107,1,2,0:0:0:0:
216,128,66181,1,2,0:0:0:0:
216,128,66256,1,0,0:0:0:0:
216,128,66331,1,2,0:0:0:0:
216,128,66405,1,0,0:0:0:0:
216,128,66480,1,2,0:0:0:0:
216,128,66555,1,0,0:0:0:0:
216,128,66629,1,0,0:0:0:0:
216,128,66704,1,2,0:0:0:0:
208,160,66779,1,0,0:0:0:0:
144,136,66853,1,2,0:0:0:0:
72,104,67002,1,0,0:0:0:0:
72,104,67077,1,0,0:0:0:0:
72,96,67152,1,2,0:0:0:0:
72,96,67226,1,2,0:0:0:0:
72,96,67301,1,0,0:0:0:0:
72,96,67376,1,0,0:0:0:0:
72,96,67450,1,2,0:0:0:0:
184,192,67599,1,0,0:0:0:0:
192,184,67674,1,0,0:0:0:0:
184,192,67749,1,2,0:0:0:0:
184,192,67898,1,2,0:0:0:0:
184,112,68047,1,0,0:0:0:0:
248,104,68196,1,0,0:0:0:0:
184,112,68271,1,0,0:0:0:0:
184,112,68346,1,2,0:0:0:0:
184,112,68495,1,0,0:0:0:0:
184,104,68644,1,2,0:0:0:0:
112,112,68719,1,0,0:0:0:0:
112,56,68793,1,2,0:0:0:0:
112,56,68868,1,0,0:0:0:0:
120,56,68943,1,0,0:0:0:0:
120,56,69017,1,2,0:0:0:0:
120,56,69092,1,2,0:0:0:0:
120,56,69167,1,2,0:0:0:0:
176,152,69241,1,0,0:0:0:0:
264,96,69390,1,0,0:0:0:0:
184,152,69465,1,0,0:0:0:0:
184,152,69540,1,2,0:0:0:0:
176,152,69689,1,0,0:0:0:0:
176,152,69838,1,2,0:0:0:0:
176,152,69913,1,2,0:0:0:0:
176,152,69987,1,0,0:0:0:0:
176,152,70062,1,0,0:0:0:0:
176,152,70137,1,0,0:0:0:0:
176,152,70211,1,2,0:0:0:0:
184,152,70286,1,2,0:0:0:0:
344,88,70361,1,0,0:0:0:0:
256,64,70435,1,2,0:0:0:0:
256,64,70485,1,0,0:0:0:0:
256,64,70535,1,0,0:0:0:0:
256,64,70584,1,2,0:0:0:0:
128,96,70659,1,0,0:0:0:0:
128,96,70734,1,0,0:0:0:0:
128,96,70808,1,2,0:0:0:0:
128,96,70883,1,2,0:0:0:0:
128,96,70958,1,0,0:0:0:0:
128,96,71032,1,0,0:0:0:0:
128,96,71107,1,0,0:0:0:0:
128,96,71181,1,2,0:0:0:0:
128,96,71256,1,0,0:0:0:0:
128,96,71331,1,2,0:0:0:0:
136,96,71405,1,2,0:0:0:0:
136,96,71480,1,0,0:0:0:0:
136,96,71555,1,2,0:0:0:0:
128,96,71629,1,0,0:0:0:0:
128,96,71704,1,0,0:0:0:0:
128,96,71779,1,0,0:0:0:0:
128,96,71853,1,2,0:0:0:0:
128,96,71928,1,0,0:0:0:0:
128,96,72002,1,0,0:0:0:0:
128,96,72077,1,0,0:0:0:0:
128,96,72152,1,2,0:0:0:0:
128,96,72226,1,0,0:0:0:0:
128,96,72301,1,2,0:0:0:0:
128,96,72376,1,0,0:0:0:0:
128,96,72450,1,0,0:0:0:0:
128,96,72525,1,2,0:0:0:0:
128,96,72599,1,2,0:0:0:0:
128,96,72674,1,2,0:0:0:0:
128,96,72749,1,2,0:0:0:0:
240,176,72823,5,0,0:0:0:0:
248,192,77599,1,4,0:0:0:0:
256,184,79987,1,4,0:0:0:0:
240,176,81181,1,0,0:0:0:0:
240,176,82376,5,0,0:0:0:0:
200,120,82475,1,0,0:0:0:0:
208,120,82575,1,0,0:0:0:0:
200,120,82674,1,2,0:0:0:0:
96,128,82973,1,0,0:0:0:0:
104,136,83072,1,0,0:0:0:0:
104,136,83172,1,0,0:0:0:0:
104,136,83271,1,2,0:0:0:0:
104,136,83371,1,0,0:0:0:0:
104,136,83470,1,0,0:0:0:0:
104,136,83570,1,2,0:0:0:0:
104,136,83669,1,0,0:0:0:0:
104,136,83769,1,0,0:0:0:0:
104,136,83868,1,2,0:0:0:0:
104,136,83968,1,0,0:0:0:0:
224,128,84067,1,0,0:0:0:0:
232,168,84167,1,2,0:0:0:0:
232,168,84266,1,0,0:0:0:0:
232,168,84366,1,0,0:0:0:0:
232,168,84465,1,2,0:0:0:0:
136,160,84764,1,0,0:0:0:0:
136,168,84863,1,0,0:0:0:0:
136,168,84963,1,0,0:0:0:0:
136,168,85062,1,2,0:0:0:0:
264,112,85361,1,0,0:0:0:0:
256,112,85460,1,0,0:0:0:0:
256,112,85560,1,0,0:0:0:0:
256,112,85659,1,2,0:0:0:0:
176,136,85759,1,0,0:0:0:0:
176,144,85858,1,0,0:0:0:0:
176,144,85958,1,2,0:0:0:0:
176,144,86057,1,2,0:0:0:0:
176,144,86157,1,2,0:0:0:0:
176,144,86256,1,0,0:0:0:0:
176,144,86356,1,0,0:0:0:0:
176,144,86455,1,0,0:0:0:0:
72,176,86555,1,2,0:0:0:0:
176,184,86629,1,0,0:0:0:0:
176,184,86704,1,0,0:0:0:0:
176,184,86779,1,0,0:0:0:0:
176,184,86853,1,2,0:0:0:0:
176,184,86928,1,0,0:0:0:0:
176,184,87002,1,2,0:0:0:0:
176,184,87077,1,2,0:0:0:0:
168,184,87152,1,0,0:0:0:0:
184,136,87450,1,0,0:0:0:0:
376,112,87525,1,0,0:0:0:0:
360,120,87599,1,0,0:0:0:0:
360,120,87674,1,2,0:0:0:0:
240,120,87749,1,0,0:0:0:0:
232,128,87823,1,0,0:0:0:0:
48,120,87898,1,2,0:0:0:0:
40,120,87973,1,2,0:0:0:0:
200,56,88047,5,0,0:0:0:0:
88,176,88097,1,0,0:0:0:0:
88,176,88147,1,0,0:0:0:0:
88,176,88196,1,2,0:0:0:0:
88,176,88246,1,2,0:0:0:0:
88,176,88296,1,2,0:0:0:0:
88,176,88346,1,0,0:0:0:0:
192,240,88445,1,0,0:0:0:0:
200,240,88545,1,0,0:0:0:0:
200,240,88644,1,2,0:0:0:0:
208,152,88744,1,2,0:0:0:0:
208,152,88843,1,2,0:0:0:0:
208,152,88943,1,0,0:0:0:0:
208,152,89042,1,0,0:0:0:0:
208,152,89142,1,0,0:0:0:0:
208,152,89241,1,2,0:0:0:0:
208,152,89341,1,2,0:0:0:0:
208,152,89440,1,2,0:0:0:0:
56,144,89540,1,0,0:0:0:0:
56,144,89639,1,0,0:0:0:0:
64,144,89739,1,0,0:0:0:0:
144,112,89838,1,2,0:0:0:0:
144,112,89938,1,0,0:0:0:0:
144,112,90037,1,2,0:0:0:0:
200,176,90137,1,0,0:0:0:0:
200,176,90211,1,0,0:0:0:0:
200,176,90286,1,2,0:0:0:0:
200,176,90361,1,0,0:0:0:0:
200,176,90435,1,2,0:0:0:0:
200,176,90510,1,2,0:0:0:0:
200,176,90584,1,0,0:0:0:0:
200,176,90659,1,2,0:0:0:0:
200,176,90734,1,0,0:0:0:0:
40,128,91181,1,0,0:0:0:0:
48,128,91256,1,0,0:0:0:0:
48,128,91331,1,2,0:0:0:0:
48,128,91480,1,2,0:0:0:0:
48,128,91629,1,2,0:0:0:0:
48,128,91779,1,2,0:0:0:0:
256,192,91928,12,0,92376,0:0:0:0:
48,128,92525,5,0,0:0:0:0:
48,112,92599,1,0,0:0:0:0:
48,112,92674,1,2,0:0:0:0:
48,112,92749,1,2,0:0:0:0:
144,152,92823,5,0,0:0:0:0:
144,152,92898,1,2,0:0:0:0:
144,152,92973,1,2,0:0:0:0:
144,152,93047,1,2,0:0:0:0:
144,144,93122,5,0,0:0:0:0:
216,112,93271,1,0,0:0:0:0:
152,104,93346,1,0,0:0:0:0:
280,120,93420,1,2,0:0:0:0:
280,120,93570,1,0,0:0:0:0:
280,120,93719,1,2,0:0:0:0:
280,120,93868,1,0,0:0:0:0:
216,120,93943,1,0,0:0:0:0:
280,120,94017,1,2,0:0:0:0:
224,112,94092,1,0,0:0:0:0:
224,112,94167,1,2,0:0:0:0:
224,112,94241,1,2,0:0:0:0:
224,112,94316,1,0,0:0:0:0:
216,112,94465,1,0,0:0:0:0:
216,112,94540,1,2,0:0:0:0:
216,112,94614,1,0,0:0:0:0:
136,120,94764,1,2,0:0:0:0:
136,120,94913,1,0,0:0:0:0:
144,112,95062,1,2,0:0:0:0:
8,112,95137,1,2,0:0:0:0:
32,112,95211,1,0,0:0:0:0:
128,88,95361,1,2,0:0:0:0:
216,112,95510,1,0,0:0:0:0:
24,256,95659,1,0,0:0:0:0:
208,64,95734,1,2,0:0:0:0:
280,112,95808,1,0,0:0:0:0:
216,184,95958,1,2,0:0:0:0:
216,184,96107,1,0,0:0:0:0:
120,248,96256,1,2,0:0:0:0:
216,184,96331,1,0,0:0:0:0:
112,120,96405,1,2,0:0:0:0:
216,184,96555,1,2,0:0:0:0:
216,184,96704,1,0,0:0:0:0:
152,120,96853,1,0,0:0:0:0:
152,120,96928,1,0,0:0:0:0:
152,120,97002,1,2,0:0:0:0:
152,120,97077,1,2,0:0:0:0:
152,120,97152,1,0,0:0:0:0:
152,120,97226,1,2,0:0:0:0:
152,120,97301,1,0,0:0:0:0:
152,120,97450,1,0,0:0:0:0:
152,120,97525,1,0,0:0:0:0:
152,120,97599,1,2,0:0:0:0:
320,176,97749,1,2,0:0:0:0:
232,56,97898,1,0,0:0:0:0:
256,120,98047,1,0,0:0:0:0:
328,88,98122,1,0,0:0:0:0:
312,72,98196,1,2,0:0:0:0:
112,176,98346,1,2,0:0:0:0:
208,176,98495,1,0,0:0:0:0:
208,168,98644,1,0,0:0:0:0:
208,168,98793,1,2,0:0:0:0:
208,168,98943,1,2,0:0:0:0:
112,144,99092,1,0,0:0:0:0:
120,144,99241,1,0,0:0:0:0:
168,96,99316,1,2,0:0:0:0:
168,96,99390,1,0,0:0:0:0:
176,104,99540,1,0,0:0:0:0:
176,104,99614,1,0,0:0:0:0:
176,104,99689,1,2,0:0:0:0:
176,104,99764,1,2,0:0:0:0:
176,104,99838,1,0,0:0:0:0:
176,104,99987,1,2,0:0:0:0:
176,104,100137,1,2,0:0:0:0:
248,160,100286,1,0,0:0:0:0:
248,160,100361,1,2,0:0:0:0:
48,128,100509,1,2,0:0:0:0:
48,128,100584,1,0,0:0:0:0:
184,72,100734,1,2,0:0:0:0:
184,72,100808,1,2,0:0:0:0:
184,72,100883,1,0,0:0:0:0:
184,72,100958,1,0,0:0:0:0:
184,72,101107,1,0,0:0:0:0:
184,72,101181,1,2,0:0:0:0:
184,72,101331,1,2,0:0:0:0:
184,72,101405,1,0,0:0:0:0:
112,120,101480,1,2,0:0:0:0:
112,120,101555,1,2,0:0:0:0:
72,72,101704,1,2,0:0:0:0:
296,112,101779,1,0,0:0:0:0:
296,112,101928,1,0,0:0:0:0:
296,112,102002,1,0,0:0:0:0:
208,128,102077,1,2,0:0:0:0:
112,48,102152,1,0,0:0:0:0:
168,248,102226,1,2,0:0:0:0:
136,248,102301,1,2,0:0:0:0:
208,48,102376,1,0,0:0:0:0:
168,96,102450,1,0,0:0:0:0:
72,144,102525,1,2,0:0:0:0:
72,144,102599,1,2,0:0:0:0:
72,144,102674,1,0,0:0:0:0:
280,96,102823,1,0,0:0:0:0:
232,200,102898,1,0,0:0:0:0:
192,72,102973,1,2,0:0:0:0:
288,176,103122,1,2,0:0:0:0:
104,96,103271,1,0,0:0:0:0:
104,96,103420,1,2,0:0:0:0:
264,72,103495,1,2,0:0:0:0:
104,96,103570,1,0,0:0:0:0:
104,96,103644,1,0,0:0:0:0:
104,96,103719,1,2,0:0:0:0:
104,96,103793,1,2,0:0:0:0:
104,96,103868,1,0,0:0:0:0:
104,96,104017,1,2,0:0:0:0:
216,184,104092,1,0,0:0:0:0:
192,72,104167,1,2,0:0:0:0:
216,184,104316,1,2,0:0:0:0:
104,96,104465,1,0,0:0:0:0:
104,96,104614,1,0,0:0:0:0:
104,96,104689,1,0,0:0:0:0:
128,136,104764,1,2,0:0:0:0:
128,136,104838,1,2,0:0:0:0:
128,136,104913,1,0,0:0:0:0:
128,136,105062,1,0,0:0:0:0:
192,128,105137,1,0,0:0:0:0:
192,128,105211,1,2,0:0:0:0:
192,128,105286,1,0,0:0:0:0:
192,128,105361,1,0,0:0:0:0:
192,128,105435,1,2,0:0:0:0:
128,144,105510,1,0,0:0:0:0:
160,184,105584,1,2,0:0:0:0:
160,184,105659,1,0,0:0:0:0:
160,184,105734,1,0,0:0:0:0:
160,184,105808,1,2,0:0:0:0:
160,184,105883,1,0,0:0:0:0:
160,184,105958,1,0,0:0:0:0:
160,184,106032,1,2,0:0:0:0:
160,184,106107,1,0,0:0:0:0:
160,184,106181,1,2,0:0:0:0:
160,184,106256,1,0,0:0:0:0:
264,224,106405,1,0,0:0:0:0:
264,224,106480,1,0,0:0:0:0:
264,224,106555,1,2,0:0:0:0:
264,224,106629,1,2,0:0:0:0:
264,224,106704,1,0,0:0:0:0:
264,224,106779,1,2,0:0:0:0:
120,96,106853,1,0,0:0:0:0:
248,32,106928,1,0,0:0:0:0:
128,96,107002,1,2,0:0:0:0:
128,96,107077,1,0,0:0:0:0:
128,96,107152,1,2,0:0:0:0:
128,96,107226,1,0,0:0:0:0:
128,96,107301,1,0,0:0:0:0:
128,96,107376,1,0,0:0:0:0:
160,128,107450,1,2,0:0:0:0:
216,88,107599,1,0,0:0:0:0:
176,144,107674,1,0,0:0:0:0:
192,144,107749,1,2,0:0:0:0:
192,144,107898,1,0,0:0:0:0:
192,144,108047,1,2,0:0:0:0:
192,144,108122,1,0,0:0:0:0:
192,144,108196,1,0,0:0:0:0:
192,144,108271,1,0,0:0:0:0:
192,144,108346,1,2,0:0:0:0:
192,144,108420,1,2,0:0:0:0:
192,144,108495,1,0,0:0:0:0:
192,144,108570,1,0,0:0:0:0:
112,112,108644,1,2,0:0:0:0:
216,88,108793,1,0,0:0:0:0:
112,112,108868,1,0,0:0:0:0:
112,112,108943,1,2,0:0:0:0:
120,112,109092,1,0,0:0:0:0:
120,112,109241,1,2,0:0:0:0:
120,112,109316,1,2,0:0:0:0:
120,112,109390,1,0,0:0:0:0:
296,80,109465,1,0,0:0:0:0:
48,224,109540,1,0,0:0:0:0:
272,144,109838,1,2,0:0:0:0:
128,136,109888,1,0,0:0:0:0:
136,168,109938,1,0,0:0:0:0:
80,120,109987,1,2,0:0:0:0:
200,96,110137,1,2,0:0:0:0:
200,96,110211,1,2,0:0:0:0:
200,96,110286,1,0,0:0:0:0:
200,96,110361,1,0,0:0:0:0:
192,96,110435,1,2,0:0:0:0:
192,96,110510,1,2,0:0:0:0:
192,96,110584,1,0,0:0:0:0:
192,96,110659,1,0,0:0:0:0:
120,96,110734,1,2,0:0:0:0:
120,96,110808,1,0,0:0:0:0:
120,96,110883,1,0,0:0:0:0:
120,96,110958,1,2,0:0:0:0:
312,144,111032,1,0,0:0:0:0:
320,144,111132,1,0,0:0:0:0:
320,144,111231,1,0,0:0:0:0:
320,144,111331,1,2,0:0:0:0:
320,144,111430,1,0,0:0:0:0:
320,144,111530,1,0,0:0:0:0:
216,136,111629,1,2,0:0:0:0:
248,72,111729,1,0,0:0:0:0:
248,72,111828,1,0,0:0:0:0:
248,72,111928,1,0,0:0:0:0:
248,72,112027,1,2,0:0:0:0:
168,192,112127,1,2,0:0:0:0:
256,192,112226,12,0,114017,0:0:0:0:
256,192,114614,12,0,116405,0:0:0:0:
96,144,117002,5,4,0:0:0:0:
96,144,117152,1,4,0:0:0:0:
