osu file format v14

[General]
AudioFilename: audio.mp3
AudioLeadIn: 0
PreviewTime: 92823
Countdown: 0
SampleSet: Normal
StackLeniency: 0.7
Mode: 1
LetterboxInBreaks: 0
WidescreenStoryboard: 0

[Editor]
DistanceSpacing: 1
BeatDivisor: 4
GridSize: 8
TimelineZoom: 1.1

[Metadata]
Title:For UltraPlayers
TitleUnicode:For UltraPlayers
Artist:cosMo@BousouP
ArtistUnicode:cosMo@暴走P
Creator:404 AccNotFound
Version:Oni
Source:SOUND VOLTEX II -infinite infection-
Tags:SDVX FLOOR KONAMI Arcade Championship KAC 2013 REFLEC BEAT VOLZZA gaston_2199 DDM
BeatmapID:1253013
BeatmapSetID:586568

[Difficulty]
HPDrainRate:6
CircleSize:5
OverallDifficulty:5
ApproachRate:5
SliderMultiplier:1.4
SliderTickRate:1

[Events]
//Background and Video events
0,0,"8b7764b2-881c-468c-ae07-2e8ebc61320c.jpg",0,0
//Break Periods
//Storyboard Layer 0 (Background)
//Storyboard Layer 1 (Fail)
//Storyboard Layer 2 (Pass)
//Storyboard Layer 3 (Foreground)
//Storyboard Sound Samples

[TimingPoints]
1182,298.507462686567,4,1,0,100,1,0
53719,-100,4,1,0,100,0,1
63122,-100,4,1,0,100,0,0
63570,-100,4,1,0,100,0,1
72823,-100,4,1,0,100,0,0
93122,-100,4,1,0,100,0,1
112226,-100,4,1,0,100,0,0

[HitObjects]
248,168,1182,5,0,0:0:0:0:
248,176,1331,1,0,0:0:0:0:
248,176,1480,1,2,0:0:0:0:
160,120,1779,1,0,0:0:0:0:
160,144,1928,1,0,0:0:0:0:
160,136,2077,1,2,0:0:0:0:
184,224,2376,1,0,0:0:0:0:
184,224,2525,1,0,0:0:0:0:
184,224,2674,1,2,0:0:0:0:
184,208,2973,1,0,0:0:0:0:
184,208,3122,1,0,0:0:0:0:
184,208,3271,1,2,0:0:0:0:
128,144,3570,1,2,0:0:0:0:
128,144,3719,1,2,0:0:0:0:
128,144,3868,1,0,0:0:0:0:
128,144,4167,1,2,0:0:0:0:
128,144,4316,1,2,0:0:0:0:
128,144,4465,1,0,0:0:0:0:
112,128,4764,1,2,0:0:0:0:
112,128,4913,1,2,0:0:0:0:
112,128,5062,1,0,0:0:0:0:
112,128,5361,1,2,0:0:0:0:
112,128,5659,1,2,0:0:0:0:
216,112,5958,5,0,0:0:0:0:
216,112,6107,1,0,0:0:0:0:
216,112,6256,1,2,0:0:0:0:
216,112,6405,1,2,0:0:0:0:
216,112,6555,1,0,0:0:0:0:
216,112,6704,1,0,0:0:0:0:
216,112,6853,1,2,0:0:0:0:
216,112,7152,1,0,0:0:0:0:
168,176,7226,1,0,0:0:0:0:
216,112,7301,1,0,0:0:0:0:
216,112,7450,1,2,0:0:0:0:
216,112,7599,1,2,0:0:0:0:
216,112,7749,1,0,0:0:0:0:
216,112,7898,1,0,0:0:0:0:
216,112,8047,1,2,0:0:0:0:
168,176,8346,1,0,0:0:0:0:
216,112,8495,1,0,0:0:0:0:
216,112,8644,1,2,0:0:0:0:
216,112,8943,1,2,0:0:0:0:
216,112,9092,1,2,0:0:0:0:
216,112,9241,1,0,0:0:0:0:
216,112,9540,1,0,0:0:0:0:
96,120,9614,1,0,0:0:0:0:
216,112,9689,1,0,0:0:0:0:
216,112,9838,1,2,0:0:0:0:
120,192,9987,1,0,0:0:0:0:
216,112,10137,1,2,0:0:0:0:
96,120,10211,1,2,0:0:0:0:
216,112,10286,1,2,0:0:0:0:
216,112,10435,1,0,0:0:0:0:
168,120,10734,1,0,0:0:0:0:
264,160,11928,1,2,0:0:0:0:
264,160,12226,1,2,0:0:0:0:
264,160,12525,1,2,0:0:0:0:
224,72,12823,1,2,0:0:0:0:
192,168,13122,1,0,0:0:0:0:
80,152,13271,1,2,0:0:0:0:
160,152,13420,1,0,0:0:0:0:
160,152,13570,1,0,0:0:0:0:
160,152,13719,1,2,0:0:0:0:
240,152,13868,1,0,0:0:0:0:
272,208,13943,1,0,0:0:0:0:
160,152,14017,1,2,0:0:0:0:
200,128,14316,1,0,0:0:0:0:
208,128,14465,1,0,0:0:0:0:
208,128,14614,1,2,0:0:0:0:
208,128,14764,1,0,0:0:0:0:
208,128,14913,1,2,0:0:0:0:
208,128,15211,1,0,0:0:0:0:
208,128,15361,1,2,0:0:0:0:
208,128,15510,1,0,0:0:0:0:
272,208,15659,1,0,0:0:0:0:
272,208,15734,1,0,0:0:0:0:
208,128,15808,1,2,0:0:0:0:
272,208,15958,1,0,0:0:0:0:
208,128,16107,1,2,0:0:0:0:
272,208,16256,1,0,0:0:0:0:
208,128,16405,1,2,0:0:0:0:
72,184,16704,1,4,0:0:0:0:
128,96,17002,1,6,0:0:0:0:
72,184,17301,1,4,0:0:0:0:
128,96,17599,1,6,0:0:0:0:
192,128,17898,5,0,0:0:0:0:
192,128,18047,1,2,0:0:0:0:
192,128,18196,1,0,0:0:0:0:
192,128,18346,1,0,0:0:0:0:
192,128,18495,1,2,0:0:0:0:
192,128,18644,1,0,0:0:0:0:
192,128,18793,1,2,0:0:0:0:
112,160,18943,1,2,0:0:0:0:
192,128,19092,1,0,0:0:0:0:
192,128,19390,1,2,0:0:0:0:
280,152,19838,1,0,0:0:0:0:
288,112,19913,1,0,0:0:0:0:
160,104,19987,1,2,0:0:0:0:
216,136,20286,1,0,0:0:0:0:
288,112,20361,1,0,0:0:0:0:
216,144,20435,1,0,0:0:0:0:
216,144,20584,1,2,0:0:0:0:
216,144,20883,1,2,0:0:0:0:
288,112,20958,1,2,0:0:0:0:
288,112,21032,1,2,0:0:0:0:
216,144,21181,1,0,0:0:0:0:
216,144,21480,1,0,0:0:0:0:
152,192,21555,1,0,0:0:0:0:
144,112,21629,1,0,0:0:0:0:
216,144,21779,1,2,0:0:0:0:
216,144,21928,1,2,0:0:0:0:
216,144,22077,1,0,0:0:0:0:
176,224,22177,1,0,0:0:0:0:
192,240,22276,1,0,0:0:0:0:
216,144,22376,1,2,0:0:0:0:
88,96,22674,1,0,0:0:0:0:
88,152,22823,1,0,0:0:0:0:
104,160,22973,1,2,0:0:0:0:
112,160,23122,1,2,0:0:0:0:
112,160,23271,1,2,0:0:0:0:
112,160,23570,1,2,0:0:0:0:
112,160,23719,1,2,0:0:0:0:
104,160,23868,1,0,0:0:0:0:
104,160,24017,1,0,0:0:0:0:
104,160,24167,1,2,0:0:0:0:
232,104,24316,1,0,0:0:0:0:
232,88,24465,1,2,0:0:0:0:
104,160,24764,1,2,0:0:0:0:
104,160,24913,1,2,0:0:0:0:
200,112,25062,1,0,0:0:0:0:
200,112,25211,1,0,0:0:0:0:
280,112,25286,1,0,0:0:0:0:
200,112,25361,1,2,0:0:0:0:
192,208,25510,1,0,0:0:0:0:
216,144,25659,1,2,0:0:0:0:
216,144,25808,1,0,0:0:0:0:
280,112,25883,1,2,0:0:0:0:
216,64,25958,1,0,0:0:0:0:
256,144,26256,1,0,0:0:0:0:
64,136,26356,1,0,0:0:0:0:
64,136,26455,1,0,0:0:0:0:
72,136,26555,1,0,0:0:0:0:
256,144,26853,1,2,0:0:0:0:
136,136,26953,1,2,0:0:0:0:
136,136,27052,1,2,0:0:0:0:
136,136,27152,1,2,0:0:0:0:
232,136,27450,5,0,0:0:0:0:
232,136,27599,1,2,0:0:0:0:
232,136,27749,1,0,0:0:0:0:
152,128,27823,1,0,0:0:0:0:
232,136,27898,1,0,0:0:0:0:
232,136,28047,1,2,0:0:0:0:
232,136,28346,1,2,0:0:0:0:
232,136,28495,1,2,0:0:0:0:
232,136,28644,1,0,0:0:0:0:
192,200,28943,1,2,0:0:0:0:
120,144,29390,1,0,0:0:0:0:
304,64,29465,1,2,0:0:0:0:
144,56,29540,1,2,0:0:0:0:
144,64,29838,1,4,0:0:0:0:
144,64,30137,1,4,0:0:0:0:
144,64,30435,1,6,0:0:0:0:
144,64,30734,1,6,0:0:0:0:
136,160,31032,1,0,0:0:0:0:
296,64,31107,1,0,0:0:0:0:
136,160,31181,1,0,0:0:0:0:
136,160,31331,1,2,0:0:0:0:
144,152,31629,1,2,0:0:0:0:
256,72,31704,1,2,0:0:0:0:
144,152,31779,1,2,0:0:0:0:
144,152,31928,1,0,0:0:0:0:
144,152,32226,1,0,0:0:0:0:
224,160,32376,1,0,0:0:0:0:
136,160,32525,1,2,0:0:0:0:
112,160,32823,1,0,0:0:0:0:
208,136,32898,1,0,0:0:0:0:
112,160,32973,1,0,0:0:0:0:
112,160,33122,1,2,0:0:0:0:
120,152,33420,1,0,0:0:0:0:
232,64,33570,1,0,0:0:0:0:
120,152,33719,1,2,0:0:0:0:
232,64,33868,1,2,0:0:0:0:
232,64,33943,1,2,0:0:0:0:
120,152,34017,1,0,0:0:0:0:
120,152,34167,1,0,0:0:0:0:
120,152,34316,1,2,0:0:0:0:
120,152,34614,1,0,0:0:0:0:
120,152,34764,1,0,0:0:0:0:
120,152,34913,1,2,0:0:0:0:
120,152,35062,1,0,0:0:0:0:
176,88,35137,1,0,0:0:0:0:
120,152,35211,1,2,0:0:0:0:
120,152,35361,1,0,0:0:0:0:
120,152,35510,1,2,0:0:0:0:
160,152,35808,1,0,0:0:0:0:
168,152,35958,1,0,0:0:0:0:
168,152,36107,1,2,0:0:0:0:
168,152,36256,1,2,0:0:0:0:
248,88,36331,1,2,0:0:0:0:
168,152,36405,1,0,0:0:0:0:
224,112,36704,1,2,0:0:0:0:
160,160,37002,5,0,0:0:0:0:
160,160,37152,1,0,0:0:0:0:
144,56,37301,1,0,0:0:0:0:
144,56,37450,1,0,0:0:0:0:
160,160,37599,1,2,0:0:0:0:
144,56,37749,1,2,0:0:0:0:
144,56,37898,1,2,0:0:0:0:
160,160,38047,1,2,0:0:0:0:
160,160,38196,1,0,0:0:0:0:
160,160,38346,1,0,0:0:0:0:
144,56,38495,1,0,0:0:0:0:
160,160,38644,1,0,0:0:0:0:
160,152,38793,1,2,0:0:0:0:
144,56,38943,1,2,0:0:0:0:
160,152,39092,1,2,0:0:0:0:
160,152,39241,1,2,0:0:0:0:
168,152,39390,1,0,0:0:0:0:
168,152,39540,1,0,0:0:0:0:
168,152,39689,1,2,0:0:0:0:
168,152,39838,1,2,0:0:0:0:
168,152,39987,1,0,0:0:0:0:
168,152,40137,1,0,0:0:0:0:
168,152,40286,1,2,0:0:0:0:
168,152,40435,1,2,0:0:0:0:
168,152,40584,1,0,0:0:0:0:
16,144,40808,1,4,0:0:0:0:
16,144,41032,1,4,0:0:0:0:
184,80,41181,1,6,0:0:0:0:
144,112,41480,1,0,0:0:0:0:
144,112,41555,1,0,0:0:0:0:
144,112,41629,1,2,0:0:0:0:
144,112,41704,1,2,0:0:0:0:
216,168,41779,1,0,0:0:0:0:
216,168,42077,1,2,0:0:0:0:
216,168,42226,1,0,0:0:0:0:
216,168,42376,1,2,0:0:0:0:
216,168,42525,1,0,0:0:0:0:
216,168,42674,1,2,0:0:0:0:
192,120,42973,1,2,0:0:0:0:
192,112,43271,1,0,0:0:0:0:
192,112,43420,1,0,0:0:0:0:
192,112,43570,1,2,0:0:0:0:
192,112,43719,1,0,0:0:0:0:
192,112,43868,1,2,0:0:0:0:
232,56,44167,1,2,0:0:0:0:
232,56,44316,1,0,0:0:0:0:
232,56,44465,1,2,0:0:0:0:
304,112,44614,1,2,0:0:0:0:
120,176,44764,1,2,0:0:0:0:
120,176,44913,1,0,0:0:0:0:
224,192,44987,1,0,0:0:0:0:
120,176,45062,1,2,0:0:0:0:
136,168,45361,1,0,0:0:0:0:
136,168,45659,1,0,0:0:0:0:
144,64,45734,1,2,0:0:0:0:
136,168,45808,1,0,0:0:0:0:
136,168,45958,1,2,0:0:0:0:
136,168,46256,1,2,0:0:0:0:
136,168,46555,1,4,0:0:0:0:
336,120,46853,1,0,0:0:0:0:
136,168,47152,1,6,0:0:0:0:
64,128,47450,1,0,0:0:0:0:
160,96,47749,1,6,0:0:0:0:
64,128,48047,1,0,0:0:0:0:
64,128,48246,1,2,0:0:0:0:
176,96,48346,1,0,0:0:0:0:
216,152,48644,1,2,0:0:0:0:
160,168,48943,1,0,0:0:0:0:
168,168,49540,1,0,0:0:0:0:
168,168,49689,1,0,0:0:0:0:
168,168,49838,1,2,0:0:0:0:
176,120,50137,1,0,0:0:0:0:
176,120,50435,1,0,0:0:0:0:
360,80,50510,1,0,0:0:0:0:
176,120,50584,1,2,0:0:0:0:
368,72,50659,1,2,0:0:0:0:
176,120,50734,1,0,0:0:0:0:
176,120,51032,1,2,0:0:0:0:
176,120,51331,1,0,0:0:0:0:
240,176,51430,1,0,0:0:0:0:
240,176,51530,1,0,0:0:0:0:
240,176,51629,1,0,0:0:0:0:
248,176,51729,1,0,0:0:0:0:
248,176,51828,1,0,0:0:0:0:
248,176,51928,1,0,0:0:0:0:
248,176,52027,1,0,0:0:0:0:
248,176,52127,1,0,0:0:0:0:
248,176,52226,1,0,0:0:0:0:
248,176,52326,1,0,0:0:0:0:
248,176,52425,1,0,0:0:0:0:
176,120,52525,1,2,0:0:0:0:
168,120,53122,1,2,0:0:0:0:
288,128,53420,1,2,0:0:0:0:
168,120,53719,5,0,0:0:0:0:
40,136,53868,1,0,0:0:0:0:
320,192,53943,1,0,0:0:0:0:
200,64,54017,1,2,0:0:0:0:
360,112,54167,1,0,0:0:0:0:
104,192,54465,1,0,0:0:0:0:
184,160,54614,1,2,0:0:0:0:
336,112,54913,1,0,0:0:0:0:
240,96,55062,1,2,0:0:0:0:
248,200,55137,1,0,0:0:0:0:
64,112,55211,1,0,0:0:0:0:
208,208,55361,1,2,0:0:0:0:
160,104,55659,1,0,0:0:0:0:
160,104,55808,1,2,0:0:0:0:
248,208,55958,1,2,0:0:0:0:
224,176,56107,1,0,0:0:0:0:
200,96,56256,1,0,0:0:0:0:
200,96,56331,1,0,0:0:0:0:
200,96,56405,1,2,0:0:0:0:
200,96,56555,1,0,0:0:0:0:
200,200,56704,1,2,0:0:0:0:
200,96,56853,1,2,0:0:0:0:
200,96,56928,1,2,0:0:0:0:
200,96,57002,1,0,0:0:0:0:
120,80,57152,1,2,0:0:0:0:
120,80,57301,1,0,0:0:0:0:
48,192,57599,1,2,0:0:0:0:
160,136,57898,1,0,0:0:0:0:
160,136,58047,1,0,0:0:0:0:
160,136,58196,1,2,0:0:0:0:
232,112,58495,5,0,0:0:0:0:
80,96,58644,1,0,0:0:0:0:
288,168,58719,1,0,0:0:0:0:
80,96,58793,1,2,0:0:0:0:
104,144,58943,1,0,0:0:0:0:
272,88,59241,5,0,0:0:0:0:
272,88,59390,1,2,0:0:0:0:
272,88,59540,1,2,0:0:0:0:
160,72,59689,1,0,0:0:0:0:
160,72,59838,1,0,0:0:0:0:
336,128,59913,1,0,0:0:0:0:
160,72,59987,1,2,0:0:0:0:
160,80,60286,1,2,0:0:0:0:
160,80,60435,1,0,0:0:0:0:
160,80,60584,1,2,0:0:0:0:
232,72,60883,1,0,0:0:0:0:
232,88,61032,1,0,0:0:0:0:
232,88,61107,1,2,0:0:0:0:
232,88,61181,1,0,0:0:0:0:
144,72,61331,1,2,0:0:0:0:
136,80,61480,1,0,0:0:0:0:
232,88,61629,1,2,0:0:0:0:
136,80,61704,1,2,0:0:0:0:
232,88,61779,1,0,0:0:0:0:
136,80,61928,1,2,0:0:0:0:
136,80,62077,1,0,0:0:0:0:
232,88,62226,1,0,0:0:0:0:
232,88,62301,1,0,0:0:0:0:
232,88,62376,1,2,0:0:0:0:
184,176,62525,1,2,0:0:0:0:
104,144,62674,1,0,0:0:0:0:
48,112,62898,1,2,0:0:0:0:
232,160,63122,1,2,0:0:0:0:
200,112,63570,1,2,0:0:0:0:
72,152,63868,1,0,0:0:0:0:
80,152,64017,1,0,0:0:0:0:
80,152,64167,1,2,0:0:0:0:
240,112,64465,1,0,0:0:0:0:
136,128,64614,1,0,0:0:0:0:
240,112,64689,1,0,0:0:0:0:
168,56,64764,1,0,0:0:0:0:
184,208,64913,1,2,0:0:0:0:
240,112,65211,1,0,0:0:0:0:
240,112,65361,1,2,0:0:0:0:
240,112,65510,1,2,0:0:0:0:
224,176,65659,1,0,0:0:0:0:
200,96,65808,1,0,0:0:0:0:
200,96,65883,1,2,0:0:0:0:
200,96,65958,1,0,0:0:0:0:
200,96,66107,1,0,0:0:0:0:
200,200,66256,1,2,0:0:0:0:
200,96,66405,1,2,0:0:0:0:
200,96,66480,1,0,0:0:0:0:
200,96,66555,1,2,0:0:0:0:
120,80,66704,1,2,0:0:0:0:
120,80,66853,1,0,0:0:0:0:
216,184,67450,1,0,0:0:0:0:
240,112,67749,1,2,0:0:0:0:
200,120,68047,5,0,0:0:0:0:
192,80,68346,1,2,0:0:0:0:
208,112,68644,1,0,0:0:0:0:
304,160,68719,1,0,0:0:0:0:
208,112,68793,1,2,0:0:0:0:
304,160,68868,1,2,0:0:0:0:
208,112,68943,1,0,0:0:0:0:
208,112,69241,1,0,0:0:0:0:
208,112,69540,1,2,0:0:0:0:
208,112,69838,1,2,0:0:0:0:
304,160,69913,1,2,0:0:0:0:
208,112,69987,1,0,0:0:0:0:
304,160,70062,1,0,0:0:0:0:
208,112,70137,1,2,0:0:0:0:
216,112,70435,1,2,0:0:0:0:
224,112,70584,1,2,0:0:0:0:
224,112,70734,1,0,0:0:0:0:
224,112,70883,1,0,0:0:0:0:
128,96,71032,1,2,0:0:0:0:
216,112,71181,1,2,0:0:0:0:
216,112,71331,1,2,0:0:0:0:
224,112,71480,1,2,0:0:0:0:
216,112,71629,1,0,0:0:0:0:
216,112,71779,1,0,0:0:0:0:
216,112,71928,1,2,0:0:0:0:
216,112,72077,1,2,0:0:0:0:
216,112,72226,1,0,0:0:0:0:
216,112,72376,1,0,0:0:0:0:
216,112,72525,1,0,0:0:0:0:
216,112,72674,1,0,0:0:0:0:
216,112,72823,1,2,0:0:0:0:
224,136,77599,1,4,0:0:0:0:
192,152,79987,1,4,0:0:0:0:
192,152,81181,1,4,0:0:0:0:
232,152,82376,1,0,0:0:0:0:
232,160,82475,1,0,0:0:0:0:
200,176,82575,1,0,0:0:0:0:
184,184,82674,1,2,0:0:0:0:
232,152,82973,1,0,0:0:0:0:
232,160,83072,1,0,0:0:0:0:
200,176,83172,1,0,0:0:0:0:
184,184,83271,1,2,0:0:0:0:
232,152,83570,1,0,0:0:0:0:
232,160,83669,1,0,0:0:0:0:
200,176,83769,1,0,0:0:0:0:
184,184,83868,1,2,0:0:0:0:
232,152,84167,1,0,0:0:0:0:
72,128,84465,1,2,0:0:0:0:
232,152,84764,1,0,0:0:0:0:
232,160,84863,1,0,0:0:0:0:
200,176,84963,1,0,0:0:0:0:
184,184,85062,1,2,0:0:0:0:
232,152,85361,1,0,0:0:0:0:
232,160,85460,1,0,0:0:0:0:
200,176,85560,1,0,0:0:0:0:
184,184,85659,1,2,0:0:0:0:
96,136,85958,1,0,0:0:0:0:
96,136,86256,1,2,0:0:0:0:
96,136,86555,1,0,0:0:0:0:
96,136,86704,1,0,0:0:0:0:
96,136,86853,1,2,0:0:0:0:
96,136,87002,1,2,0:0:0:0:
96,136,87152,1,0,0:0:0:0:
232,112,87450,1,0,0:0:0:0:
160,128,87525,1,0,0:0:0:0:
232,112,87599,1,0,0:0:0:0:
160,128,87674,1,0,0:0:0:0:
232,112,87749,1,2,0:0:0:0:
232,112,88047,1,2,0:0:0:0:
176,168,88346,1,0,0:0:0:0:
176,168,88445,1,0,0:0:0:0:
184,168,88545,1,0,0:0:0:0:
184,168,88644,1,2,0:0:0:0:
184,168,88943,1,0,0:0:0:0:
184,168,89042,1,0,0:0:0:0:
184,168,89142,1,0,0:0:0:0:
184,168,89241,1,2,0:0:0:0:
176,168,89540,1,0,0:0:0:0:
176,168,89614,1,0,0:0:0:0:
184,168,89689,1,0,0:0:0:0:
184,168,89838,1,2,0:0:0:0:
184,168,89913,1,2,0:0:0:0:
184,168,89987,1,2,0:0:0:0:
184,168,90137,1,0,0:0:0:0:
184,168,90211,1,0,0:0:0:0:
184,168,90286,1,0,0:0:0:0:
184,168,90435,1,2,0:0:0:0:
184,168,90510,1,2,0:0:0:0:
184,168,90584,1,2,0:0:0:0:
232,112,90734,1,0,0:0:0:0:
232,112,91331,1,2,0:0:0:0:
192,72,91629,1,2,0:0:0:0:
256,192,91928,12,0,92823,0:0:0:0:
184,128,93122,5,0,0:0:0:0:
128,224,93271,1,0,0:0:0:0:
96,120,93346,5,0,0:0:0:0:
240,80,93420,1,2,0:0:0:0:
96,120,93570,1,0,0:0:0:0:
176,192,93868,1,0,0:0:0:0:
96,128,94017,1,2,0:0:0:0:
336,112,94167,1,2,0:0:0:0:
232,144,94316,1,0,0:0:0:0:
168,240,94465,1,2,0:0:0:0:
232,136,94540,1,0,0:0:0:0:
240,64,94614,1,2,0:0:0:0:
200,120,94764,1,2,0:0:0:0:
192,136,95062,1,0,0:0:0:0:
192,136,95211,1,2,0:0:0:0:
192,136,95361,1,2,0:0:0:0:
192,136,95510,1,0,0:0:0:0:
160,216,95659,1,0,0:0:0:0:
256,152,95734,1,0,0:0:0:0:
208,88,95808,1,2,0:0:0:0:
208,88,95958,1,0,0:0:0:0:
208,88,96107,1,2,0:0:0:0:
160,216,96256,1,2,0:0:0:0:
208,128,96331,1,2,0:0:0:0:
288,72,96405,1,0,0:0:0:0:
208,88,96555,1,2,0:0:0:0:
192,96,96704,1,0,0:0:0:0:
112,184,97002,1,0,0:0:0:0:
112,184,97152,1,0,0:0:0:0:
184,208,97301,1,2,0:0:0:0:
168,120,97599,1,2,0:0:0:0:
224,152,97898,1,2,0:0:0:0:
264,216,98047,1,0,0:0:0:0:
232,152,98122,1,2,0:0:0:0:
264,64,98196,1,2,0:0:0:0:
232,152,98346,1,0,0:0:0:0:
200,152,98644,1,0,0:0:0:0:
192,152,98793,1,2,0:0:0:0:
192,152,98943,1,2,0:0:0:0:
192,80,99092,1,0,0:0:0:0:
192,80,99241,1,0,0:0:0:0:
280,208,99316,1,0,0:0:0:0:
192,80,99390,1,2,0:0:0:0:
296,96,99689,1,2,0:0:0:0:
264,112,99838,1,0,0:0:0:0:
288,112,99987,1,2,0:0:0:0:
264,112,100137,1,2,0:0:0:0:
264,112,100286,1,0,0:0:0:0:
384,72,100435,1,0,0:0:0:0:
176,112,100510,1,0,0:0:0:0:
384,72,100584,1,2,0:0:0:0:
176,112,100734,1,2,0:0:0:0:
176,112,100883,1,0,0:0:0:0:
384,72,101032,1,2,0:0:0:0:
176,112,101107,1,2,0:0:0:0:
384,72,101181,1,0,0:0:0:0:
176,112,101331,1,2,0:0:0:0:
88,200,101480,1,0,0:0:0:0:
384,72,101629,1,0,0:0:0:0:
216,80,101704,1,2,0:0:0:0:
384,72,101779,1,0,0:0:0:0:
216,80,101928,1,0,0:0:0:0:
304,104,102077,1,2,0:0:0:0:
136,56,102376,1,0,0:0:0:0:
160,192,102450,1,0,0:0:0:0:
136,80,102525,1,2,0:0:0:0:
160,184,102599,1,2,0:0:0:0:
232,144,102674,1,0,0:0:0:0:
376,80,102823,1,2,0:0:0:0:
376,80,102898,1,0,0:0:0:0:
376,80,102973,1,2,0:0:0:0:
320,88,103122,1,0,0:0:0:0:
152,120,103570,1,0,0:0:0:0:
232,72,103644,1,0,0:0:0:0:
232,72,103719,1,2,0:0:0:0:
232,72,103793,1,2,0:0:0:0:
168,120,103868,1,0,0:0:0:0:
288,168,104017,1,2,0:0:0:0:
304,176,104092,1,0,0:0:0:0:
312,112,104167,1,0,0:0:0:0:
336,48,104316,1,2,0:0:0:0:
168,120,104614,1,0,0:0:0:0:
168,120,104764,1,0,0:0:0:0:
168,120,104913,1,2,0:0:0:0:
264,112,105062,1,0,0:0:0:0:
384,72,105211,1,0,0:0:0:0:
176,112,105286,1,0,0:0:0:0:
384,72,105360,1,2,0:0:0:0:
176,112,105510,1,2,0:0:0:0:
176,112,105659,1,0,0:0:0:0:
384,72,105808,1,2,0:0:0:0:
176,112,105883,1,2,0:0:0:0:
384,72,105957,1,0,0:0:0:0:
176,112,106107,1,2,0:0:0:0:
208,96,106256,1,0,0:0:0:0:
232,168,106555,1,2,0:0:0:0:
232,168,106704,1,2,0:0:0:0:
208,96,106853,1,0,0:0:0:0:
208,96,107152,1,2,0:0:0:0:
208,96,107450,1,0,0:0:0:0:
208,96,107749,1,2,0:0:0:0:
272,144,108047,1,0,0:0:0:0:
200,176,108122,1,0,0:0:0:0:
272,144,108196,1,0,0:0:0:0:
200,176,108271,1,0,0:0:0:0:
272,144,108346,1,2,0:0:0:0:
272,144,108644,1,0,0:0:0:0:
216,64,108943,1,2,0:0:0:0:
160,104,109241,1,2,0:0:0:0:
312,72,109316,1,2,0:0:0:0:
160,104,109390,1,2,0:0:0:0:
312,72,109465,1,2,0:0:0:0:
312,72,109540,1,0,0:0:0:0:
160,104,109838,1,2,0:0:0:0:
8,136,109913,1,2,0:0:0:0:
160,200,109987,1,2,0:0:0:0:
160,200,110137,1,0,0:0:0:0:
96,120,110211,1,0,0:0:0:0:
160,200,110286,1,0,0:0:0:0:
160,200,110435,1,2,0:0:0:0:
112,112,110510,1,2,0:0:0:0:
160,200,110584,1,2,0:0:0:0:
112,112,110659,1,2,0:0:0:0:
160,200,110734,1,2,0:0:0:0:
232,144,111032,1,0,0:0:0:0:
176,160,111132,1,0,0:0:0:0:
176,160,111231,1,0,0:0:0:0:
232,144,111331,1,0,0:0:0:0:
232,144,111629,1,2,0:0:0:0:
176,160,111729,1,2,0:0:0:0:
176,160,111828,1,2,0:0:0:0:
232,144,111928,1,2,0:0:0:0:
256,192,112226,12,0,114017,0:0:0:0:
256,192,114614,12,0,116405,0:0:0:0:
184,104,117002,5,4,0:0:0:0:
184,104,117152,5,4,0:0:0:0:
