osu file format v14

[General]
AudioFilename: audio.mp3
AudioLeadIn: 0
PreviewTime: 92749
Countdown: 0
SampleSet: Normal
StackLeniency: 0.7
Mode: 1
LetterboxInBreaks: 0
WidescreenStoryboard: 0

[Editor]
DistanceSpacing: 1
BeatDivisor: 4
GridSize: 8
TimelineZoom: 1.1

[Metadata]
Title:For UltraPlayers
TitleUnicode:For UltraPlayers
Artist:cosMo@BousouP
ArtistUnicode:cosMo@暴走P
Creator:404 AccNotFound
Version:Inner Oni
Source:SOUND VOLTEX II -infinite infection-
Tags:SDVX FLOOR KONAMI Arcade Championship KAC 2013 REFLEC BEAT VOLZZA gaston_2199 DDM
BeatmapID:1242194
BeatmapSetID:586568

[Difficulty]
HPDrainRate:5
CircleSize:5
OverallDifficulty:5
ApproachRate:5
SliderMultiplier:1.4
SliderTickRate:1

[Events]
//Background and Video events
0,0,"8b7764b2-881c-468c-ae07-2e8ebc61320c.jpg",0,0
//Break Periods
//Storyboard Layer 0 (Background)
//Storyboard Layer 1 (Fail)
//Storyboard Layer 2 (Pass)
//Storyboard Layer 3 (Foreground)
//Storyboard Sound Samples

[TimingPoints]
1182,298.507462686567,4,1,0,100,1,0
53719,-100,4,1,0,100,0,1
63122,-100,4,1,0,100,0,0
63570,-100,4,1,0,100,0,1
72823,-100,4,1,0,100,0,0
91928,-83.3333333333333,4,1,0,100,0,0
92823,-100,4,1,0,100,0,0
93122,-100,4,1,0,100,0,1
112226,-100,4,1,0,100,0,0

[HitObjects]
264,192,1182,5,4,0:0:0:0:
224,112,1331,1,4,0:0:0:0:
160,144,1480,1,8,0:0:0:0:
160,144,1555,1,8,0:0:0:0:
160,144,1629,1,8,0:0:0:0:
264,192,1779,1,4,0:0:0:0:
224,112,1928,1,4,0:0:0:0:
160,144,2077,1,8,0:0:0:0:
160,144,2152,1,8,0:0:0:0:
160,144,2226,1,8,0:0:0:0:
264,192,2376,1,4,0:0:0:0:
224,112,2525,1,4,0:0:0:0:
160,144,2674,1,8,0:0:0:0:
160,144,2749,1,8,0:0:0:0:
160,144,2823,1,8,0:0:0:0:
264,192,2973,1,4,0:0:0:0:
224,112,3122,1,4,0:0:0:0:
160,144,3271,1,8,0:0:0:0:
160,144,3346,1,8,0:0:0:0:
160,144,3420,1,8,0:0:0:0:
208,192,3570,1,12,0:0:0:0:
208,192,3719,1,12,0:0:0:0:
136,128,3868,1,0,0:0:0:0:
136,128,3943,1,0,0:0:0:0:
136,128,4017,1,0,0:0:0:0:
176,88,4167,1,12,0:0:0:0:
256,120,4316,1,12,0:0:0:0:
136,128,4465,1,0,0:0:0:0:
136,128,4540,1,0,0:0:0:0:
136,128,4614,1,0,0:0:0:0:
176,88,4764,1,12,0:0:0:0:
256,120,4913,1,12,0:0:0:0:
200,176,5062,1,0,0:0:0:0:
200,176,5137,1,0,0:0:0:0:
208,176,5211,1,0,0:0:0:0:
208,176,5361,1,2,0:0:0:0:
360,128,5659,1,0,0:0:0:0:
208,168,5734,1,0,0:0:0:0:
208,168,5808,1,2,0:0:0:0:
208,168,5958,1,0,0:0:0:0:
208,168,6107,1,2,0:0:0:0:
208,168,6256,1,0,0:0:0:0:
208,168,6331,1,0,0:0:0:0:
208,168,6405,1,0,0:0:0:0:
208,160,6555,1,2,0:0:0:0:
208,160,6704,1,2,0:0:0:0:
168,120,6853,1,0,0:0:0:0:
168,120,6928,1,0,0:0:0:0:
168,112,7002,1,0,0:0:0:0:
168,112,7152,1,2,0:0:0:0:
168,112,7301,1,2,0:0:0:0:
168,112,7450,1,0,0:0:0:0:
168,112,7525,1,0,0:0:0:0:
168,112,7599,1,0,0:0:0:0:
168,112,7749,1,2,0:0:0:0:
168,112,7898,1,2,0:0:0:0:
104,144,8047,1,0,0:0:0:0:
120,152,8122,1,0,0:0:0:0:
120,152,8196,1,2,0:0:0:0:
120,152,8271,1,2,0:0:0:0:
120,152,8346,1,0,0:0:0:0:
232,112,8495,1,2,0:0:0:0:
176,88,8570,1,2,0:0:0:0:
280,112,8644,1,0,0:0:0:0:
280,112,8719,1,0,0:0:0:0:
280,112,8793,1,2,0:0:0:0:
280,104,8943,1,0,0:0:0:0:
216,192,9092,1,0,0:0:0:0:
216,72,9167,1,2,0:0:0:0:
208,200,9241,1,0,0:0:0:0:
216,200,9316,1,0,0:0:0:0:
216,200,9390,1,2,0:0:0:0:
120,160,9540,1,2,0:0:0:0:
120,160,9689,1,2,0:0:0:0:
216,128,9764,1,2,0:0:0:0:
120,160,9838,1,0,0:0:0:0:
120,160,9913,1,0,0:0:0:0:
120,160,9987,1,2,0:0:0:0:
120,160,10137,1,0,0:0:0:0:
120,160,10286,1,0,0:0:0:0:
184,96,10361,1,0,0:0:0:0:
120,160,10435,1,2,0:0:0:0:
120,160,10510,1,0,0:0:0:0:
120,160,10584,1,2,0:0:0:0:
160,176,10734,1,0,0:0:0:0:
240,176,11928,1,2,0:0:0:0:
240,176,12226,1,2,0:0:0:0:
240,176,12525,1,2,0:0:0:0:
224,96,12674,1,2,0:0:0:0:
192,48,12749,1,2,0:0:0:0:
240,176,12823,1,0,0:0:0:0:
240,176,13122,1,2,0:0:0:0:
96,136,13271,1,2,0:0:0:0:
96,136,13420,1,0,0:0:0:0:
96,136,13570,1,0,0:0:0:0:
96,136,13719,1,2,0:0:0:0:
96,136,13868,1,0,0:0:0:0:
96,136,14017,1,2,0:0:0:0:
96,136,14167,1,2,0:0:0:0:
96,136,14316,1,0,0:0:0:0:
96,136,14465,1,0,0:0:0:0:
96,136,14614,1,2,0:0:0:0:
96,136,14764,1,0,0:0:0:0:
96,136,14913,1,2,0:0:0:0:
96,136,15062,1,0,0:0:0:0:
96,136,15211,1,0,0:0:0:0:
96,136,15361,1,2,0:0:0:0:
176,144,15510,1,0,0:0:0:0:
176,136,15659,1,0,0:0:0:0:
176,136,15734,1,2,0:0:0:0:
176,136,15808,1,0,0:0:0:0:
176,136,15958,1,0,0:0:0:0:
176,136,16107,1,2,0:0:0:0:
112,104,16256,1,0,0:0:0:0:
112,104,16331,1,0,0:0:0:0:
112,104,16405,1,2,0:0:0:0:
136,152,16704,1,0,0:0:0:0:
224,176,16803,1,2,0:0:0:0:
224,176,16903,1,2,0:0:0:0:
136,128,17002,1,0,0:0:0:0:
136,128,17102,1,2,0:0:0:0:
136,128,17201,1,0,0:0:0:0:
136,128,17301,1,2,0:0:0:0:
136,128,17400,1,0,0:0:0:0:
136,128,17500,1,0,0:0:0:0:
136,128,17599,1,2,0:0:0:0:
136,128,17699,1,2,0:0:0:0:
136,128,17798,1,2,0:0:0:0:
304,96,17898,1,0,0:0:0:0:
120,152,18047,1,2,0:0:0:0:
120,152,18196,1,0,0:0:0:0:
120,152,18346,1,0,0:0:0:0:
120,152,18495,1,2,0:0:0:0:
120,152,18644,1,0,0:0:0:0:
120,152,18793,1,2,0:0:0:0:
120,152,18943,1,2,0:0:0:0:
120,152,19092,1,4,0:0:0:0:
120,152,19390,1,6,0:0:0:0:
112,144,19837,1,0,0:0:0:0:
128,152,19912,1,0,0:0:0:0:
128,152,19987,1,2,0:0:0:0:
88,120,20137,1,2,0:0:0:0:
208,136,20286,1,0,0:0:0:0:
208,136,20435,1,0,0:0:0:0:
208,136,20584,1,2,0:0:0:0:
208,136,20734,1,0,0:0:0:0:
208,136,20883,1,2,0:0:0:0:
208,136,21032,1,0,0:0:0:0:
208,136,21181,1,0,0:0:0:0:
208,136,21331,1,2,0:0:0:0:
176,136,21480,1,0,0:0:0:0:
176,136,21555,1,0,0:0:0:0:
176,136,21629,1,2,0:0:0:0:
176,136,21704,1,2,0:0:0:0:
176,136,21779,1,0,0:0:0:0:
176,136,21853,1,0,0:0:0:0:
176,136,21928,1,2,0:0:0:0:
240,56,22002,1,2,0:0:0:0:
248,184,22077,1,0,0:0:0:0:
192,184,22177,1,0,0:0:0:0:
192,184,22276,1,0,0:0:0:0:
168,176,22376,1,2,0:0:0:0:
120,152,22475,1,2,0:0:0:0:
120,152,22575,1,2,0:0:0:0:
336,144,22674,5,0,0:0:0:0:
216,128,22823,1,2,0:0:0:0:
216,128,22973,1,0,0:0:0:0:
216,128,23122,1,0,0:0:0:0:
216,128,23271,1,2,0:0:0:0:
216,128,23420,1,0,0:0:0:0:
216,128,23570,1,0,0:0:0:0:
216,136,23719,1,2,0:0:0:0:
216,136,23868,1,0,0:0:0:0:
216,136,24017,1,2,0:0:0:0:
216,136,24167,1,2,0:0:0:0:
216,136,24316,1,2,0:0:0:0:
176,80,24465,1,0,0:0:0:0:
176,80,24614,1,0,0:0:0:0:
176,80,24689,1,0,0:0:0:0:
176,80,24764,1,2,0:0:0:0:
176,80,24913,1,2,0:0:0:0:
144,200,25062,1,0,0:0:0:0:
152,200,25211,1,0,0:0:0:0:
152,200,25286,1,0,0:0:0:0:
152,200,25361,1,2,0:0:0:0:
152,184,25510,1,0,0:0:0:0:
152,184,25659,1,2,0:0:0:0:
160,136,25808,1,0,0:0:0:0:
56,88,25883,1,0,0:0:0:0:
272,128,25958,1,2,0:0:0:0:
96,216,26107,1,2,0:0:0:0:
232,120,26256,1,0,0:0:0:0:
232,120,26356,1,0,0:0:0:0:
224,128,26455,1,2,0:0:0:0:
224,128,26555,1,0,0:0:0:0:
224,128,26654,1,0,0:0:0:0:
224,128,26754,1,2,0:0:0:0:
224,128,26853,1,0,0:0:0:0:
224,128,26953,1,0,0:0:0:0:
224,128,27052,1,0,0:0:0:0:
224,128,27152,1,2,0:0:0:0:
224,128,27251,1,0,0:0:0:0:
224,128,27351,1,2,0:0:0:0:
224,128,27450,5,0,0:0:0:0:
120,128,27599,1,2,0:0:0:0:
88,144,27749,1,0,0:0:0:0:
120,160,27898,1,0,0:0:0:0:
96,144,28047,1,2,0:0:0:0:
96,144,28196,1,0,0:0:0:0:
96,144,28346,1,2,0:0:0:0:
96,144,28495,1,2,0:0:0:0:
224,184,28644,1,0,0:0:0:0:
272,128,28943,1,6,0:0:0:0:
144,136,29241,1,0,0:0:0:0:
152,136,29391,1,0,0:0:0:0:
160,136,29465,1,0,0:0:0:0:
160,136,29540,1,2,0:0:0:0:
224,80,29689,1,2,0:0:0:0:
240,160,29838,1,0,0:0:0:0:
240,160,29987,1,0,0:0:0:0:
240,160,30062,1,2,0:0:0:0:
240,160,30137,1,0,0:0:0:0:
240,160,30286,1,0,0:0:0:0:
240,160,30435,1,2,0:0:0:0:
240,160,30584,1,0,0:0:0:0:
240,160,30734,1,0,0:0:0:0:
240,160,30883,1,2,0:0:0:0:
240,152,31032,1,0,0:0:0:0:
240,152,31107,1,2,0:0:0:0:
240,152,31181,1,0,0:0:0:0:
240,152,31256,1,2,0:0:0:0:
240,152,31331,1,0,0:0:0:0:
240,152,31405,1,2,0:0:0:0:
240,152,31480,1,0,0:0:0:0:
240,152,31555,1,2,0:0:0:0:
240,152,31629,1,0,0:0:0:0:
240,152,31704,1,0,0:0:0:0:
240,152,31779,1,2,0:0:0:0:
240,152,31853,1,2,0:0:0:0:
240,152,31928,1,0,0:0:0:0:
240,152,32002,1,0,0:0:0:0:
240,152,32077,1,2,0:0:0:0:
240,152,32152,1,2,0:0:0:0:
240,152,32226,5,0,0:0:0:0:
136,104,32376,1,2,0:0:0:0:
136,120,32525,1,0,0:0:0:0:
136,120,32599,1,0,0:0:0:0:
136,120,32674,1,2,0:0:0:0:
240,152,32823,1,0,0:0:0:0:
136,104,32973,1,2,0:0:0:0:
136,120,33122,1,0,0:0:0:0:
136,120,33196,1,0,0:0:0:0:
136,120,33271,1,2,0:0:0:0:
240,152,33420,1,0,0:0:0:0:
136,104,33570,1,2,0:0:0:0:
136,120,33719,1,0,0:0:0:0:
136,120,33793,1,0,0:0:0:0:
136,120,33868,1,2,0:0:0:0:
240,152,34017,1,0,0:0:0:0:
64,168,34092,1,0,0:0:0:0:
136,104,34167,1,2,0:0:0:0:
56,168,34241,1,2,0:0:0:0:
136,120,34316,1,0,0:0:0:0:
136,120,34390,1,0,0:0:0:0:
136,120,34465,1,2,0:0:0:0:
240,152,34614,1,0,0:0:0:0:
136,104,34764,1,2,0:0:0:0:
136,120,34913,1,0,0:0:0:0:
136,120,34987,1,0,0:0:0:0:
136,120,35062,1,2,0:0:0:0:
240,152,35211,1,0,0:0:0:0:
136,104,35361,1,2,0:0:0:0:
136,120,35510,1,0,0:0:0:0:
136,120,35584,1,0,0:0:0:0:
136,120,35659,1,2,0:0:0:0:
240,152,35808,1,0,0:0:0:0:
136,104,35958,1,2,0:0:0:0:
136,120,36107,1,0,0:0:0:0:
136,120,36181,1,0,0:0:0:0:
136,120,36256,1,2,0:0:0:0:
24,144,36331,1,2,0:0:0:0:
32,144,36405,1,0,0:0:0:0:
256,112,36704,1,2,0:0:0:0:
232,128,36779,1,2,0:0:0:0:
232,128,36853,1,2,0:0:0:0:
232,128,36928,1,2,0:0:0:0:
240,152,37002,5,0,0:0:0:0:
104,112,37077,1,0,0:0:0:0:
104,112,37152,1,2,0:0:0:0:
104,112,37226,1,2,0:0:0:0:
104,112,37301,1,0,0:0:0:0:
104,112,37376,1,0,0:0:0:0:
104,112,37450,1,2,0:0:0:0:
104,112,37525,1,2,0:0:0:0:
144,136,37599,1,0,0:0:0:0:
152,136,37674,1,0,0:0:0:0:
152,136,37749,1,0,0:0:0:0:
152,136,37823,1,0,0:0:0:0:
152,136,37898,1,2,0:0:0:0:
152,136,37973,1,2,0:0:0:0:
152,136,38047,1,2,0:0:0:0:
152,136,38122,1,2,0:0:0:0:
144,112,38196,1,0,0:0:0:0:
144,112,38271,1,0,0:0:0:0:
144,112,38346,1,2,0:0:0:0:
144,112,38420,1,2,0:0:0:0:
144,112,38495,1,0,0:0:0:0:
144,112,38570,1,0,0:0:0:0:
144,112,38644,1,2,0:0:0:0:
144,112,38719,1,2,0:0:0:0:
168,72,38793,1,0,0:0:0:0:
168,72,38868,1,0,0:0:0:0:
168,72,38943,1,0,0:0:0:0:
168,72,39017,1,0,0:0:0:0:
168,72,39092,1,2,0:0:0:0:
168,72,39167,1,2,0:0:0:0:
168,72,39241,1,2,0:0:0:0:
168,72,39316,1,2,0:0:0:0:
168,80,39390,1,0,0:0:0:0:
160,80,39465,1,0,0:0:0:0:
160,80,39540,1,0,0:0:0:0:
160,80,39614,1,0,0:0:0:0:
160,80,39689,1,2,0:0:0:0:
160,80,39764,1,0,0:0:0:0:
160,80,39838,1,0,0:0:0:0:
160,80,39913,1,0,0:0:0:0:
96,128,39987,1,2,0:0:0:0:
96,128,40062,1,2,0:0:0:0:
96,128,40137,1,0,0:0:0:0:
96,128,40211,1,0,0:0:0:0:
96,128,40286,1,2,0:0:0:0:
96,128,40361,1,2,0:0:0:0:
96,128,40435,1,2,0:0:0:0:
208,160,40584,1,4,0:0:0:0:
200,152,40808,1,4,0:0:0:0:
200,152,41032,1,4,0:0:0:0:
200,152,41181,1,6,0:0:0:0:
176,104,41480,1,2,0:0:0:0:
176,104,41555,1,2,0:0:0:0:
176,104,41629,1,2,0:0:0:0:
176,104,41704,1,2,0:0:0:0:
176,104,41779,5,0,0:0:0:0:
264,136,41928,1,2,0:0:0:0:
120,112,42077,1,0,0:0:0:0:
128,120,42226,1,2,0:0:0:0:
128,120,42376,1,0,0:0:0:0:
128,120,42525,1,2,0:0:0:0:
128,120,42674,1,0,0:0:0:0:
128,120,42823,1,2,0:0:0:0:
128,120,42973,1,2,0:0:0:0:
128,120,43122,1,0,0:0:0:0:
128,120,43196,1,0,0:0:0:0:
128,120,43271,1,2,0:0:0:0:
128,120,43420,1,0,0:0:0:0:
128,120,43495,1,0,0:0:0:0:
128,120,43570,1,2,0:0:0:0:
128,120,43719,1,0,0:0:0:0:
128,120,43868,1,2,0:0:0:0:
144,152,44017,1,0,0:0:0:0:
208,160,44167,1,2,0:0:0:0:
208,160,44316,1,0,0:0:0:0:
208,160,44465,1,2,0:0:0:0:
208,160,44614,1,2,0:0:0:0:
208,160,44764,1,2,0:0:0:0:
208,160,44913,1,0,0:0:0:0:
208,160,45062,1,2,0:0:0:0:
208,160,45211,1,2,0:0:0:0:
160,144,45361,1,0,0:0:0:0:
160,144,45510,1,0,0:0:0:0:
160,144,45659,1,2,0:0:0:0:
160,144,45734,1,2,0:0:0:0:
160,144,45808,1,0,0:0:0:0:
160,144,45883,1,0,0:0:0:0:
160,112,45958,1,2,0:0:0:0:
160,112,46256,1,2,0:0:0:0:
168,120,46555,5,0,0:0:0:0:
264,120,46853,1,0,0:0:0:0:
272,128,46953,1,0,0:0:0:0:
272,128,47052,1,0,0:0:0:0:
272,128,47152,1,2,0:0:0:0:
208,152,47450,1,0,0:0:0:0:
208,152,47749,1,2,0:0:0:0:
208,152,48047,1,0,0:0:0:0:
208,152,48246,1,2,0:0:0:0:
208,152,48346,1,0,0:0:0:0:
208,152,48644,1,2,0:0:0:0:
208,152,48843,1,2,0:0:0:0:
208,152,48943,1,0,0:0:0:0:
232,120,49241,1,0,0:0:0:0:
232,120,49316,1,0,0:0:0:0:
232,120,49390,1,2,0:0:0:0:
232,120,49465,1,2,0:0:0:0:
232,120,49540,1,0,0:0:0:0:
232,120,49689,1,0,0:0:0:0:
232,120,49838,1,2,0:0:0:0:
232,120,49987,1,0,0:0:0:0:
88,136,50137,1,2,0:0:0:0:
144,120,50435,1,0,0:0:0:0:
144,120,50510,1,0,0:0:0:0:
144,120,50584,1,0,0:0:0:0:
144,120,50659,1,0,0:0:0:0:
144,120,50734,1,2,0:0:0:0:
216,104,51032,1,0,0:0:0:0:
224,184,51331,1,0,0:0:0:0:
320,208,51430,1,2,0:0:0:0:
224,184,51530,1,0,0:0:0:0:
320,208,51629,1,2,0:0:0:0:
224,184,51729,1,0,0:0:0:0:
320,208,51828,1,2,0:0:0:0:
224,184,51928,1,0,0:0:0:0:
320,208,52027,1,2,0:0:0:0:
224,184,52127,1,0,0:0:0:0:
320,208,52226,1,2,0:0:0:0:
256,80,52301,1,0,0:0:0:0:
128,144,52376,1,0,0:0:0:0:
128,144,52450,1,0,0:0:0:0:
128,144,52525,1,2,0:0:0:0:
48,152,52973,1,0,0:0:0:0:
56,160,53047,1,0,0:0:0:0:
56,160,53122,1,2,0:0:0:0:
56,160,53271,1,2,0:0:0:0:
56,160,53420,1,2,0:0:0:0:
136,112,53570,1,2,0:0:0:0:
136,120,53719,5,0,0:0:0:0:
232,96,53943,1,2,0:0:0:0:
208,64,54017,1,0,0:0:0:0:
296,112,54167,1,2,0:0:0:0:
120,144,54316,1,0,0:0:0:0:
120,144,54465,1,2,0:0:0:0:
120,144,54614,1,0,0:0:0:0:
120,144,54689,1,0,0:0:0:0:
120,144,54764,1,2,0:0:0:0:
120,144,54913,1,0,0:0:0:0:
120,144,55137,1,2,0:0:0:0:
120,144,55211,1,0,0:0:0:0:
120,144,55361,1,2,0:0:0:0:
120,144,55510,1,0,0:0:0:0:
120,144,55659,1,2,0:0:0:0:
120,144,55808,1,0,0:0:0:0:
120,144,55958,1,2,0:0:0:0:
192,128,56107,1,2,0:0:0:0:
192,128,56331,1,2,0:0:0:0:
72,88,56405,1,0,0:0:0:0:
192,128,56555,1,2,0:0:0:0:
192,128,56704,1,0,0:0:0:0:
320,72,56928,1,0,0:0:0:0:
192,128,57002,1,2,0:0:0:0:
192,128,57152,1,2,0:0:0:0:
200,136,57301,5,0,0:0:0:0:
200,160,57450,1,2,0:0:0:0:
128,136,57599,1,0,0:0:0:0:
136,144,57674,1,0,0:0:0:0:
136,144,57749,1,2,0:0:0:0:
136,144,57898,1,0,0:0:0:0:
136,144,58047,1,0,0:0:0:0:
136,144,58196,1,2,0:0:0:0:
320,72,58495,1,0,0:0:0:0:
224,176,58644,1,0,0:0:0:0:
272,104,58719,1,0,0:0:0:0:
272,104,58793,1,2,0:0:0:0:
272,104,58943,1,0,0:0:0:0:
184,48,59241,1,0,0:0:0:0:
144,112,59390,1,2,0:0:0:0:
144,112,59540,1,2,0:0:0:0:
136,112,59689,1,0,0:0:0:0:
136,112,59838,1,2,0:0:0:0:
136,112,59913,1,0,0:0:0:0:
136,112,59987,1,2,0:0:0:0:
136,112,60137,1,0,0:0:0:0:
136,112,60286,1,2,0:0:0:0:
136,112,60435,1,2,0:0:0:0:
136,112,60584,1,2,0:0:0:0:
136,112,60734,1,2,0:0:0:0:
224,136,60883,1,0,0:0:0:0:
240,136,61107,1,2,0:0:0:0:
240,136,61181,1,0,0:0:0:0:
240,136,61331,1,2,0:0:0:0:
240,136,61480,1,2,0:0:0:0:
240,136,61704,1,0,0:0:0:0:
240,136,61779,1,0,0:0:0:0:
240,136,61928,1,2,0:0:0:0:
168,104,62077,1,2,0:0:0:0:
168,104,62301,1,0,0:0:0:0:
168,104,62376,1,2,0:0:0:0:
168,104,62525,1,0,0:0:0:0:
176,112,62674,1,0,0:0:0:0:
176,112,62898,1,2,0:0:0:0:
176,112,63122,1,2,0:0:0:0:
232,136,63570,1,6,0:0:0:0:
208,136,63868,1,0,0:0:0:0:
208,136,64017,1,0,0:0:0:0:
208,136,64167,1,2,0:0:0:0:
96,112,64241,1,2,0:0:0:0:
96,112,64316,1,2,0:0:0:0:
96,112,64465,1,0,0:0:0:0:
152,112,64689,1,0,0:0:0:0:
152,112,64764,1,2,0:0:0:0:
152,112,64913,1,2,0:0:0:0:
152,112,65062,1,0,0:0:0:0:
152,112,65211,1,0,0:0:0:0:
152,112,65286,1,0,0:0:0:0:
152,112,65361,1,2,0:0:0:0:
152,112,65510,1,2,0:0:0:0:
144,120,65659,1,0,0:0:0:0:
144,120,65883,1,2,0:0:0:0:
208,120,65958,1,0,0:0:0:0:
208,120,66107,1,0,0:0:0:0:
208,120,66256,1,2,0:0:0:0:
208,120,66480,1,0,0:0:0:0:
208,120,66555,1,2,0:0:0:0:
208,120,66704,1,2,0:0:0:0:
208,120,66853,1,0,0:0:0:0:
208,152,67002,1,0,0:0:0:0:
208,152,67077,1,0,0:0:0:0:
208,152,67152,1,2,0:0:0:0:
208,152,67301,1,2,0:0:0:0:
208,152,67376,1,2,0:0:0:0:
176,96,67450,1,0,0:0:0:0:
176,96,67749,1,2,0:0:0:0:
232,136,68047,5,0,0:0:0:0:
144,160,68346,1,2,0:0:0:0:
144,152,68644,1,0,0:0:0:0:
144,152,68719,1,0,0:0:0:0:
144,152,68793,1,2,0:0:0:0:
144,152,68868,1,2,0:0:0:0:
144,152,68943,1,0,0:0:0:0:
144,152,69017,1,0,0:0:0:0:
144,152,69092,1,2,0:0:0:0:
144,152,69167,1,2,0:0:0:0:
144,160,69241,1,0,0:0:0:0:
152,160,69540,1,2,0:0:0:0:
168,120,69838,1,2,0:0:0:0:
168,120,69913,1,0,0:0:0:0:
168,120,69987,1,0,0:0:0:0:
168,120,70062,1,0,0:0:0:0:
168,120,70137,1,2,0:0:0:0:
208,120,70435,1,0,0:0:0:0:
208,120,70510,1,0,0:0:0:0:
208,120,70584,1,0,0:0:0:0:
208,120,70734,1,2,0:0:0:0:
96,120,70808,1,0,0:0:0:0:
96,120,70883,1,0,0:0:0:0:
96,120,70958,1,0,0:0:0:0:
160,96,71032,1,2,0:0:0:0:
160,96,71107,1,2,0:0:0:0:
160,96,71181,1,2,0:0:0:0:
160,96,71256,1,2,0:0:0:0:
160,96,71331,1,0,0:0:0:0:
160,96,71405,1,0,0:0:0:0:
160,96,71480,1,2,0:0:0:0:
160,96,71555,1,2,0:0:0:0:
240,112,71629,1,0,0:0:0:0:
240,120,71704,1,0,0:0:0:0:
240,120,71779,1,0,0:0:0:0:
240,120,71853,1,0,0:0:0:0:
240,120,71928,1,2,0:0:0:0:
80,128,72077,1,0,0:0:0:0:
80,128,72152,1,0,0:0:0:0:
80,128,72226,1,2,0:0:0:0:
176,80,72301,1,2,0:0:0:0:
80,128,72376,1,0,0:0:0:0:
80,128,72450,1,0,0:0:0:0:
80,128,72525,1,2,0:0:0:0:
80,128,72599,1,0,0:0:0:0:
80,128,72674,1,0,0:0:0:0:
80,128,72749,1,0,0:0:0:0:
80,128,72823,5,2,0:0:0:0:
136,168,77599,1,4,0:0:0:0:
136,168,79987,1,4,0:0:0:0:
136,168,81181,1,4,0:0:0:0:
136,168,82376,1,0,0:0:0:0:
256,208,82475,1,0,0:0:0:0:
256,208,82575,1,0,0:0:0:0:
256,208,82674,1,2,0:0:0:0:
256,208,82973,1,0,0:0:0:0:
256,208,83072,1,0,0:0:0:0:
256,208,83172,1,0,0:0:0:0:
256,208,83271,1,2,0:0:0:0:
256,208,83570,1,0,0:0:0:0:
256,208,83669,1,0,0:0:0:0:
248,208,83769,1,0,0:0:0:0:
248,208,83868,1,2,0:0:0:0:
248,208,83968,1,0,0:0:0:0:
248,208,84067,1,0,0:0:0:0:
248,208,84167,1,2,0:0:0:0:
248,208,84266,1,2,0:0:0:0:
248,208,84366,1,2,0:0:0:0:
248,208,84465,1,2,0:0:0:0:
208,168,84764,1,0,0:0:0:0:
208,168,84863,1,0,0:0:0:0:
208,168,84963,1,0,0:0:0:0:
208,168,85062,1,2,0:0:0:0:
208,168,85361,1,0,0:0:0:0:
208,168,85460,1,0,0:0:0:0:
208,168,85560,1,0,0:0:0:0:
208,168,85659,1,2,0:0:0:0:
208,168,85958,1,0,0:0:0:0:
208,168,86057,1,0,0:0:0:0:
208,168,86157,1,0,0:0:0:0:
208,168,86256,1,2,0:0:0:0:
208,168,86356,1,0,0:0:0:0:
208,168,86455,1,0,0:0:0:0:
208,168,86555,1,2,0:0:0:0:
208,168,86654,1,2,0:0:0:0:
208,168,86754,1,2,0:0:0:0:
208,168,86853,1,0,0:0:0:0:
208,168,86953,1,0,0:0:0:0:
208,168,87052,1,2,0:0:0:0:
208,168,87152,1,0,0:0:0:0:
96,136,87450,1,0,0:0:0:0:
104,136,87525,1,0,0:0:0:0:
104,136,87599,1,2,0:0:0:0:
104,136,87674,1,2,0:0:0:0:
240,64,87749,1,0,0:0:0:0:
240,72,87823,1,0,0:0:0:0:
240,72,87898,1,0,0:0:0:0:
224,96,87973,1,0,0:0:0:0:
224,96,88047,1,2,0:0:0:0:
56,160,88196,1,2,0:0:0:0:
144,136,88346,1,0,0:0:0:0:
120,72,88445,1,0,0:0:0:0:
176,48,88545,1,0,0:0:0:0:
144,136,88644,1,2,0:0:0:0:
312,152,88744,1,2,0:0:0:0:
312,152,88843,1,2,0:0:0:0:
144,136,88943,1,0,0:0:0:0:
312,152,89042,1,0,0:0:0:0:
312,152,89142,1,0,0:0:0:0:
144,136,89241,1,2,0:0:0:0:
312,152,89341,1,2,0:0:0:0:
312,152,89440,1,2,0:0:0:0:
144,136,89540,1,0,0:0:0:0:
48,144,89639,1,2,0:0:0:0:
48,144,89739,1,0,0:0:0:0:
48,144,89838,1,2,0:0:0:0:
40,144,89938,1,0,0:0:0:0:
40,144,90037,1,2,0:0:0:0:
240,208,90137,1,0,0:0:0:0:
240,208,90211,1,0,0:0:0:0:
112,208,90286,1,0,0:0:0:0:
112,208,90361,1,0,0:0:0:0:
112,208,90435,1,2,0:0:0:0:
112,208,90510,1,2,0:0:0:0:
112,208,90584,1,2,0:0:0:0:
112,208,90659,1,2,0:0:0:0:
112,208,90734,1,0,0:0:0:0:
168,112,91181,1,0,0:0:0:0:
168,112,91256,1,0,0:0:0:0:
168,112,91331,1,2,0:0:0:0:
168,112,91480,1,2,0:0:0:0:
168,112,91629,1,2,0:0:0:0:
168,112,91779,1,2,0:0:0:0:
256,192,91928,12,2,92525,0:0:0:0:
128,168,92823,5,2,0:0:0:0:
144,168,92898,1,2,0:0:0:0:
144,168,92973,1,2,0:0:0:0:
144,168,93047,1,2,0:0:0:0:
144,168,93122,1,0,0:0:0:0:
168,96,93346,1,0,0:0:0:0:
168,96,93420,1,2,0:0:0:0:
168,96,93570,1,0,0:0:0:0:
64,152,93719,1,0,0:0:0:0:
168,96,93868,1,2,0:0:0:0:
168,96,94017,1,0,0:0:0:0:
168,96,94092,1,0,0:0:0:0:
168,96,94167,1,2,0:0:0:0:
168,96,94241,1,2,0:0:0:0:
168,96,94316,1,0,0:0:0:0:
168,96,94540,1,2,0:0:0:0:
168,96,94614,1,0,0:0:0:0:
168,96,94764,1,2,0:0:0:0:
112,144,94913,1,0,0:0:0:0:
120,152,94987,1,0,0:0:0:0:
120,152,95062,1,2,0:0:0:0:
200,144,95211,1,0,0:0:0:0:
120,144,95361,1,2,0:0:0:0:
200,136,95510,1,0,0:0:0:0:
200,136,95734,1,2,0:0:0:0:
200,136,95808,1,0,0:0:0:0:
200,136,95958,1,0,0:0:0:0:
200,136,96107,1,2,0:0:0:0:
200,136,96331,1,0,0:0:0:0:
200,136,96405,1,2,0:0:0:0:
200,136,96555,1,2,0:0:0:0:
32,128,96704,1,0,0:0:0:0:
120,128,96853,1,0,0:0:0:0:
120,128,96928,1,0,0:0:0:0:
120,128,97002,1,2,0:0:0:0:
120,128,97077,1,2,0:0:0:0:
120,128,97152,1,2,0:0:0:0:
120,128,97226,1,2,0:0:0:0:
120,128,97301,1,0,0:0:0:0:
168,264,97450,1,0,0:0:0:0:
120,128,97599,1,2,0:0:0:0:
200,128,97898,1,2,0:0:0:0:
200,208,98047,1,2,0:0:0:0:
200,120,98122,1,2,0:0:0:0:
200,120,98196,1,0,0:0:0:0:
200,120,98346,1,2,0:0:0:0:
200,120,98495,1,0,0:0:0:0:
200,120,98644,1,2,0:0:0:0:
200,120,98793,1,2,0:0:0:0:
200,120,98943,1,2,0:0:0:0:
200,120,99092,1,0,0:0:0:0:
200,120,99241,1,0,0:0:0:0:
200,120,99316,1,2,0:0:0:0:
200,120,99390,1,0,0:0:0:0:
104,112,99689,1,2,0:0:0:0:
104,112,99838,1,2,0:0:0:0:
104,112,99987,1,0,0:0:0:0:
104,112,100137,1,0,0:0:0:0:
104,128,100286,1,0,0:0:0:0:
288,136,100435,1,0,0:0:0:0:
96,128,100510,1,2,0:0:0:0:
96,128,100584,1,0,0:0:0:0:
96,128,100734,1,2,0:0:0:0:
96,128,100808,1,2,0:0:0:0:
96,128,100883,1,0,0:0:0:0:
272,104,101032,1,0,0:0:0:0:
272,104,101107,1,0,0:0:0:0:
272,104,101181,1,2,0:0:0:0:
96,128,101331,1,2,0:0:0:0:
96,128,101405,1,2,0:0:0:0:
96,128,101480,1,2,0:0:0:0:
328,104,101629,1,2,0:0:0:0:
96,128,101704,1,0,0:0:0:0:
96,128,101779,1,2,0:0:0:0:
96,128,101928,1,0,0:0:0:0:
248,136,102077,1,2,0:0:0:0:
248,136,102376,1,0,0:0:0:0:
248,136,102450,1,0,0:0:0:0:
248,136,102525,1,2,0:0:0:0:
248,136,102599,1,2,0:0:0:0:
248,136,102674,1,0,0:0:0:0:
128,112,102898,1,2,0:0:0:0:
128,112,102973,1,0,0:0:0:0:
128,112,103122,1,2,0:0:0:0:
128,112,103271,1,0,0:0:0:0:
128,112,103420,1,0,0:0:0:0:
128,112,103495,1,0,0:0:0:0:
128,112,103570,1,2,0:0:0:0:
128,112,103644,1,2,0:0:0:0:
128,112,103719,1,2,0:0:0:0:
128,112,103793,1,2,0:0:0:0:
128,112,103868,1,0,0:0:0:0:
72,160,104092,1,2,0:0:0:0:
112,168,104167,1,0,0:0:0:0:
136,152,104316,1,2,0:0:0:0:
144,152,104465,1,0,0:0:0:0:
144,152,104614,1,2,0:0:0:0:
144,152,104689,1,2,0:0:0:0:
144,152,104764,1,0,0:0:0:0:
144,152,104838,1,0,0:0:0:0:
144,152,104913,1,2,0:0:0:0:
144,152,105062,1,0,0:0:0:0:
40,128,105211,1,0,0:0:0:0:
240,104,105286,1,2,0:0:0:0:
208,144,105361,1,0,0:0:0:0:
240,104,105510,1,0,0:0:0:0:
136,112,105659,1,2,0:0:0:0:
328,120,105808,1,2,0:0:0:0:
136,112,105883,1,0,0:0:0:0:
208,136,105958,1,2,0:0:0:0:
184,88,106107,1,2,0:0:0:0:
184,88,106256,1,0,0:0:0:0:
184,88,106405,1,0,0:0:0:0:
184,88,106480,1,0,0:0:0:0:
184,88,106555,1,2,0:0:0:0:
184,80,106704,1,2,0:0:0:0:
184,80,106853,1,0,0:0:0:0:
272,168,107002,1,0,0:0:0:0:
184,80,107152,1,2,0:0:0:0:
320,144,107301,1,2,0:0:0:0:
88,152,107450,5,0,0:0:0:0:
344,144,107599,1,0,0:0:0:0:
88,160,107749,1,2,0:0:0:0:
152,176,107898,1,0,0:0:0:0:
208,80,108047,1,2,0:0:0:0:
208,80,108122,1,0,0:0:0:0:
208,80,108196,1,0,0:0:0:0:
208,80,108271,1,0,0:0:0:0:
208,80,108346,1,0,0:0:0:0:
320,192,108495,1,2,0:0:0:0:
96,120,108644,1,0,0:0:0:0:
152,176,108793,1,0,0:0:0:0:
96,120,108943,1,2,0:0:0:0:
152,176,109092,1,0,0:0:0:0:
128,96,109241,1,2,0:0:0:0:
128,96,109316,1,0,0:0:0:0:
128,96,109390,1,0,0:0:0:0:
128,96,109465,1,0,0:0:0:0:
128,96,109540,1,2,0:0:0:0:
368,80,109689,1,0,0:0:0:0:
128,104,109838,1,2,0:0:0:0:
176,104,109913,1,2,0:0:0:0:
128,104,109987,1,0,0:0:0:0:
128,104,110062,1,0,0:0:0:0:
176,104,110137,1,2,0:0:0:0:
176,104,110211,1,2,0:0:0:0:
176,104,110286,1,0,0:0:0:0:
176,104,110361,1,0,0:0:0:0:
128,104,110435,1,2,0:0:0:0:
176,104,110510,1,2,0:0:0:0:
128,104,110584,1,2,0:0:0:0:
128,104,110659,1,2,0:0:0:0:
176,104,110734,1,0,0:0:0:0:
176,104,110808,1,0,0:0:0:0:
176,104,110883,1,2,0:0:0:0:
176,104,110958,1,2,0:0:0:0:
192,184,111032,1,0,0:0:0:0:
192,184,111132,1,0,0:0:0:0:
192,184,111231,1,0,0:0:0:0:
192,184,111331,1,2,0:0:0:0:
192,184,111430,1,2,0:0:0:0:
192,184,111530,1,2,0:0:0:0:
192,184,111629,1,0,0:0:0:0:
192,184,111729,1,0,0:0:0:0:
192,184,111828,1,0,0:0:0:0:
192,184,111928,1,2,0:0:0:0:
192,184,112027,1,2,0:0:0:0:
192,184,112127,1,2,0:0:0:0:
200,88,112226,5,0,0:0:0:0:
96,144,114614,1,0,0:0:0:0:
96,144,117002,1,4,0:0:0:0:
96,144,117152,1,4,0:0:0:0:
