osu file format v14

[General]
AudioFilename: audio.mp3
AudioLeadIn: 0
PreviewTime: 92823
Countdown: 0
SampleSet: Normal
StackLeniency: 0.7
Mode: 1
LetterboxInBreaks: 0
WidescreenStoryboard: 0

[Editor]
DistanceSpacing: 1
BeatDivisor: 2
GridSize: 8
TimelineZoom: 1.1

[Metadata]
Title:For UltraPlayers
TitleUnicode:For UltraPlayers
Artist:cosMo@BousouP
ArtistUnicode:cosMo@暴走P
Creator:404 AccNotFound
Version:Futsuu
Source:SOUND VOLTEX II -infinite infection-
Tags:SDVX FLOOR KONAMI Arcade Championship KAC 2013 REFLEC BEAT VOLZZA gaston_2199 DDM
BeatmapID:1242190
BeatmapSetID:586568

[Difficulty]
HPDrainRate:6
CircleSize:5
OverallDifficulty:4
ApproachRate:5
SliderMultiplier:1.4
SliderTickRate:1

[Events]
//Background and Video events
0,0,"8b7764b2-881c-468c-ae07-2e8ebc61320c.jpg",0,0
//Break Periods
//Storyboard Layer 0 (Background)
//Storyboard Layer 1 (Fail)
//Storyboard Layer 2 (Pass)
//Storyboard Layer 3 (Foreground)
//Storyboard Sound Samples

[TimingPoints]
1182,298.507462686567,4,1,0,100,1,0
53719,-100,4,1,0,100,0,1
63122,-100,4,1,0,100,0,0
63570,-100,4,1,0,100,0,1
72823,-100,4,1,0,100,0,0
93122,-100,4,1,0,100,0,1
112226,-100,4,1,0,100,0,0

[HitObjects]
192,192,1182,5,4,0:0:0:0:
192,144,1779,1,6,0:0:0:0:
192,152,2376,1,4,0:0:0:0:
192,152,2973,1,6,0:0:0:0:
152,104,3570,1,6,0:0:0:0:
152,128,4167,1,4,0:0:0:0:
152,104,4764,1,6,0:0:0:0:
152,128,5361,1,4,0:0:0:0:
144,160,5958,5,0,0:0:0:0:
160,96,6256,1,0,0:0:0:0:
216,144,6555,1,0,0:0:0:0:
216,144,7152,1,2,0:0:0:0:
176,96,7450,1,2,0:0:0:0:
216,144,7749,1,2,0:0:0:0:
184,96,8346,1,0,0:0:0:0:
176,96,8644,1,0,0:0:0:0:
208,128,8943,1,2,0:0:0:0:
208,128,9540,1,2,0:0:0:0:
176,96,9838,1,2,0:0:0:0:
208,128,10137,1,0,0:0:0:0:
208,128,10734,1,0,0:0:0:0:
128,168,11928,1,2,0:0:0:0:
128,168,12226,1,2,0:0:0:0:
128,168,12525,1,2,0:0:0:0:
200,128,13122,1,0,0:0:0:0:
200,128,13719,1,2,0:0:0:0:
200,128,14316,1,0,0:0:0:0:
296,128,14614,1,0,0:0:0:0:
296,128,14913,1,2,0:0:0:0:
296,128,15510,1,2,0:0:0:0:
296,128,16107,1,2,0:0:0:0:
296,128,16704,1,2,0:0:0:0:
296,128,17002,1,0,0:0:0:0:
296,128,17301,1,2,0:0:0:0:
208,64,17898,1,0,0:0:0:0:
208,64,18495,1,0,0:0:0:0:
216,64,19092,1,2,0:0:0:0:
216,64,19390,1,2,0:0:0:0:
216,184,19689,1,0,0:0:0:0:
144,112,20286,1,0,0:0:0:0:
240,176,20584,1,0,0:0:0:0:
168,96,20883,1,2,0:0:0:0:
240,176,21181,1,2,0:0:0:0:
112,128,21480,1,0,0:0:0:0:
112,128,22077,1,2,0:0:0:0:
112,128,22674,1,0,0:0:0:0:
120,120,23271,1,2,0:0:0:0:
120,120,23868,1,0,0:0:0:0:
120,120,24167,1,0,0:0:0:0:
120,120,24465,1,2,0:0:0:0:
120,120,25062,1,2,0:0:0:0:
120,120,25659,1,2,0:0:0:0:
120,120,26256,1,0,0:0:0:0:
120,120,26555,1,2,0:0:0:0:
120,120,26853,1,0,0:0:0:0:
152,176,27450,1,0,0:0:0:0:
168,176,28047,1,2,0:0:0:0:
176,168,28644,1,0,0:0:0:0:
208,72,28943,1,0,0:0:0:0:
176,168,29241,1,2,0:0:0:0:
176,168,29838,1,2,0:0:0:0:
232,120,30435,1,0,0:0:0:0:
232,120,31032,1,2,0:0:0:0:
160,128,31331,1,2,0:0:0:0:
232,120,31629,1,2,0:0:0:0:
232,120,32226,1,0,0:0:0:0:
232,120,32823,1,2,0:0:0:0:
232,120,33420,1,0,0:0:0:0:
88,152,33719,1,0,0:0:0:0:
232,120,34017,1,2,0:0:0:0:
144,128,34614,1,0,0:0:0:0:
144,128,35211,1,2,0:0:0:0:
144,128,35808,1,2,0:0:0:0:
88,152,36107,1,0,0:0:0:0:
144,128,36405,1,2,0:0:0:0:
152,128,37002,1,0,0:0:0:0:
72,184,37599,1,2,0:0:0:0:
80,184,38196,1,0,0:0:0:0:
80,184,38495,1,0,0:0:0:0:
80,184,38793,1,2,0:0:0:0:
224,88,39390,1,2,0:0:0:0:
224,88,39987,1,2,0:0:0:0:
224,88,40584,1,4,0:0:0:0:
288,128,41181,1,6,0:0:0:0:
248,128,41779,5,0,0:0:0:0:
224,128,42077,1,0,0:0:0:0:
224,128,42376,1,2,0:0:0:0:
152,208,42674,1,2,0:0:0:0:
192,160,42973,1,0,0:0:0:0:
192,160,43271,1,0,0:0:0:0:
192,160,43570,1,2,0:0:0:0:
192,160,44167,1,0,0:0:0:0:
184,152,44764,1,2,0:0:0:0:
184,152,45361,1,0,0:0:0:0:
184,152,45659,1,0,0:0:0:0:
184,152,45958,1,2,0:0:0:0:
184,152,46256,1,2,0:0:0:0:
176,112,46555,1,0,0:0:0:0:
176,112,47152,1,2,0:0:0:0:
176,112,47749,1,2,0:0:0:0:
176,112,48047,1,2,0:0:0:0:
176,112,48346,1,2,0:0:0:0:
216,120,48943,1,0,0:0:0:0:
208,112,49540,1,2,0:0:0:0:
208,112,50137,1,0,0:0:0:0:
208,112,50734,1,2,0:0:0:0:
208,112,51331,1,0,0:0:0:0:
208,112,51629,1,0,0:0:0:0:
208,112,51928,1,0,0:0:0:0:
208,112,52226,1,0,0:0:0:0:
208,112,52525,1,2,0:0:0:0:
184,136,53122,1,2,0:0:0:0:
184,136,53719,1,0,0:0:0:0:
184,136,54316,1,2,0:0:0:0:
176,136,54913,1,0,0:0:0:0:
176,136,55510,1,2,0:0:0:0:
192,96,56107,1,0,0:0:0:0:
120,232,56405,1,0,0:0:0:0:
192,96,56704,1,2,0:0:0:0:
224,192,57002,1,2,0:0:0:0:
192,96,57301,1,0,0:0:0:0:
192,96,57898,1,2,0:0:0:0:
88,112,58196,1,2,0:0:0:0:
192,96,58495,1,0,0:0:0:0:
192,96,59092,1,0,0:0:0:0:
192,96,59390,1,2,0:0:0:0:
192,96,59689,1,0,0:0:0:0:
192,96,60286,1,2,0:0:0:0:
72,168,60883,1,0,0:0:0:0:
64,104,61181,1,0,0:0:0:0:
96,152,61480,1,2,0:0:0:0:
96,152,62077,1,0,0:0:0:0:
72,104,62376,1,0,0:0:0:0:
112,136,62674,1,2,0:0:0:0:
168,120,63570,1,6,0:0:0:0:
128,112,64465,1,0,0:0:0:0:
128,112,65062,1,2,0:0:0:0:
128,112,65659,1,0,0:0:0:0:
208,176,65958,1,0,0:0:0:0:
128,112,66256,1,2,0:0:0:0:
208,192,66555,1,2,0:0:0:0:
128,112,66853,1,0,0:0:0:0:
128,112,67450,1,2,0:0:0:0:
128,112,68047,1,0,0:0:0:0:
176,160,68346,1,0,0:0:0:0:
176,160,68644,1,2,0:0:0:0:
160,152,69241,1,0,0:0:0:0:
160,152,69540,1,0,0:0:0:0:
160,152,69838,1,2,0:0:0:0:
160,152,70435,1,2,0:0:0:0:
160,152,70734,1,0,0:0:0:0:
160,152,71032,1,0,0:0:0:0:
160,144,71629,1,2,0:0:0:0:
160,144,71928,1,2,0:0:0:0:
160,144,72226,1,2,0:0:0:0:
160,144,72525,1,2,0:0:0:0:
216,48,72823,1,0,0:0:0:0:
232,184,77599,5,4,0:0:0:0:
240,192,79987,1,4,0:0:0:0:
240,192,81181,1,4,0:0:0:0:
240,192,82376,1,0,0:0:0:0:
168,152,82973,1,0,0:0:0:0:
168,152,83570,1,0,0:0:0:0:
168,152,84167,1,0,0:0:0:0:
168,160,84764,1,2,0:0:0:0:
168,160,85361,1,2,0:0:0:0:
168,160,85958,1,2,0:0:0:0:
168,160,86555,1,2,0:0:0:0:
168,160,87152,1,0,0:0:0:0:
112,160,87450,1,0,0:0:0:0:
168,160,87749,1,2,0:0:0:0:
168,160,88346,1,0,0:0:0:0:
96,160,88644,1,0,0:0:0:0:
168,160,88943,1,2,0:0:0:0:
120,104,89540,1,0,0:0:0:0:
120,104,89838,1,0,0:0:0:0:
120,104,90137,1,0,0:0:0:0:
120,104,90435,1,0,0:0:0:0:
120,104,90734,1,2,0:0:0:0:
120,104,91331,1,2,0:0:0:0:
256,192,91928,12,2,92823,0:0:0:0:
48,120,93122,5,0,0:0:0:0:
88,144,93719,1,2,0:0:0:0:
88,144,94316,1,0,0:0:0:0:
88,144,94913,1,2,0:0:0:0:
88,144,95510,1,0,0:0:0:0:
336,136,95808,1,0,0:0:0:0:
88,144,96107,1,2,0:0:0:0:
320,136,96405,1,2,0:0:0:0:
88,144,96704,1,0,0:0:0:0:
88,144,97301,1,2,0:0:0:0:
88,144,97599,1,2,0:0:0:0:
88,144,97898,1,0,0:0:0:0:
88,144,98495,1,0,0:0:0:0:
240,136,98793,1,2,0:0:0:0:
88,144,99092,1,0,0:0:0:0:
88,144,99689,1,2,0:0:0:0:
88,144,99987,1,2,0:0:0:0:
88,144,100286,1,0,0:0:0:0:
88,144,100883,1,2,0:0:0:0:
88,144,101480,1,0,0:0:0:0:
240,120,101779,1,0,0:0:0:0:
88,144,102077,1,2,0:0:0:0:
88,144,102674,1,0,0:0:0:0:
88,144,103271,1,2,0:0:0:0:
256,152,103570,1,0,0:0:0:0:
88,144,103868,1,0,0:0:0:0:
88,144,104465,1,2,0:0:0:0:
256,152,104764,1,0,0:0:0:0:
256,152,105062,1,2,0:0:0:0:
224,96,105659,1,0,0:0:0:0:
224,128,106256,1,2,0:0:0:0:
184,144,106853,1,2,0:0:0:0:
184,144,107450,1,0,0:0:0:0:
72,160,107749,1,0,0:0:0:0:
184,144,108047,1,2,0:0:0:0:
192,120,108644,1,0,0:0:0:0:
136,128,108943,1,2,0:0:0:0:
192,128,109241,1,0,0:0:0:0:
192,120,109838,1,2,0:0:0:0:
192,128,110137,1,2,0:0:0:0:
192,120,110435,1,0,0:0:0:0:
192,120,110734,1,2,0:0:0:0:
192,128,111032,1,0,0:0:0:0:
192,120,111629,1,2,0:0:0:0:
256,192,112226,12,0,114017,0:0:0:0:
256,192,114614,12,0,116405,0:0:0:0:
168,160,117002,5,4,0:0:0:0:
