osu file format v14

[General]
AudioFilename: audio.mp3
AudioLeadIn: 0
PreviewTime: 52620
Countdown: 0
SampleSet: Soft
StackLeniency: 0.7
Mode: 0
LetterboxInBreaks: 0
WidescreenStoryboard: 0

[Editor]
DistanceSpacing: 1.8
BeatDivisor: 4
GridSize: 4
TimelineZoom: 3

[Metadata]
Title:End Mark ni Kibou to Namida o soete
TitleUnicode:エンドマークに希望と涙を添えて
Artist:cosMo@BousouP
ArtistUnicode:cosMo@暴走P
Creator:Dark Fang
Version:MASTER
Source:CHUNITHM
Tags:
BeatmapID:1858770
BeatmapSetID:889300

[Difficulty]
HPDrainRate:7
CircleSize:4.4
OverallDifficulty:8
ApproachRate:9.7
SliderMultiplier:1.8
SliderTickRate:1

[Events]
//Background and Video events
0,0,"real.jpg",0,0
//Break Periods
//Storyboard Layer 0 (Background)
//Storyboard Layer 1 (Fail)
//Storyboard Layer 2 (Pass)
//Storyboard Layer 3 (Foreground)
//Storyboard Sound Samples

[TimingPoints]
6920,233.463035019455,4,2,0,50,1,0
6920,-133.333333333333,4,2,0,50,0,0
10655,-100,4,2,1,60,0,0
14390,-100,4,2,1,75,0,0
20811,-133.333333333333,4,2,1,75,0,0
21161,-133.333333333333,4,2,3,25,0,0
21861,-125,4,2,2,60,0,0
23379,-125,4,2,2,40,0,0
23495,-125,4,2,2,60,0,0
23612,-125,4,2,2,40,0,0
23729,-125,4,2,2,60,0,0
24546,-125,4,2,2,40,0,0
24663,-125,4,2,2,60,0,0
25013,-125,4,2,2,40,0,0
25130,-125,4,2,2,60,0,0
26180,-125,4,2,2,40,0,0
26297,-125,4,2,2,60,0,0
26414,-125,4,2,2,40,0,0
26530,-125,4,2,2,60,0,0
27114,-125,4,2,2,40,0,0
27231,-125,4,2,2,60,0,0
29332,-100,4,2,1,65,0,0
36803,-166.666666666667,4,2,1,65,0,0
42406,-125,4,2,1,65,0,0
51744,-200,4,2,0,20,0,0
51919,-200,4,2,0,5,0,0
51978,-133.333333333333,4,2,0,35,0,0
52153,-133.333333333333,4,2,0,5,0,0
52211,-100,4,2,0,45,0,0
52386,-100,4,2,0,5,0,0
52445,-80,4,2,0,60,0,0
52620,-80,4,2,0,5,0,0
52678,-100,4,2,1,75,0,0

[Colours]
Combo1 : 99,156,119
Combo2 : 192,192,192
Combo3 : 128,128,128
Combo4 : 109,146,142

[HitObjects]
160,137,6920,5,0,0:0:0:0:
160,137,7503,6,0,L|233:177,1,67.5000025749208
293,204,7737,1,0,0:0:0:0:
365,171,7853,2,0,P|366:237|317:281,1,135.000005149842
83,282,8204,2,0,B|72:216|72:216|92:150,1,135.000005149842
250,60,8554,1,0,0:0:0:0:
250,60,8787,6,0,L|239:142,1,67.5000025749208
290,191,9021,2,0,L|301:273,1,67.5000025749208
126,318,9254,5,0,0:0:0:0:
134,285,9371,1,0,0:0:0:0:
118,254,9488,1,0,0:0:0:0:
126,221,9604,1,0,0:0:0:0:
110,190,9721,6,0,P|113:157|108:116,1,67.5000025749208
228,14,9955,2,0,P|225:47|229:87,1,67.5000025749208
430,351,10188,2,0,P|433:318|428:277,1,67.5000025749208
280,188,10421,2,0,P|277:221|281:261,1,67.5000025749208
441,114,10655,5,2,0:0:0:0:
441,114,10888,1,2,0:0:0:0:
207,61,11122,5,2,0:0:0:0:
207,61,11355,1,2,0:0:0:0:
400,270,11589,6,0,L|310:257,1,90,2|0,0:0|0:0,0:0:0:0:
217,313,11822,2,0,L|127:325,1,90,10|0,0:0|0:0,0:0:0:0:
110,318,11997,1,0,0:0:0:0:
94,305,12056,2,0,P|81:263|89:219,1,90,2|8,0:0|0:0,0:0:0:0:
146,126,12289,2,0,P|159:84|151:40,1,90,2|0,0:0|0:0,0:0:0:0:
20,197,12523,5,10,0:0:0:0:
121,161,12639,1,0,0:0:0:0:
214,216,12756,1,2,0:0:0:0:
319,184,12873,2,0,P|400:153|433:72,1,180,12|0,0:0|0:0,0:0:0:0:
132,55,13223,2,0,L|112:233,1,180,12|2,0:0|0:0,0:0:0:0:
239,382,13573,6,0,L|229:293,1,90,12|0,0:0|0:0,0:0:0:0:
194,189,13807,1,0,0:0:0:0:
297,216,13923,2,0,P|341:221|381:203,1,90,10|0,0:0|0:0,0:0:0:0:
125,57,14157,2,0,P|81:52|41:70,1,90,10|0,0:0|0:0,0:0:0:0:
148,272,14390,6,0,L|322:227,1,180,6|8,0:0|0:0,0:0:0:0:
426,193,14741,1,2,0:0:0:0:
395,88,14857,2,0,P|356:68|312:70,1,90,0|2,0:0|0:0,0:0:0:0:
127,121,15091,2,0,L|217:127,1,90,8|0,0:0|0:0,0:0:0:0:
444,266,15324,6,0,L|354:271,1,90,2|0,0:0|0:0,0:0:0:0:
254,227,15558,1,8,0:0:0:0:
149,253,15674,1,2,0:0:0:0:
89,162,15791,1,0,0:0:0:0:
161,81,15908,1,2,0:0:0:0:
261,121,16025,2,0,L|350:126,1,90,8|0,0:0|0:0,0:0:0:0:
470,320,16258,6,0,L|290:330,1,180,2|8,0:0|0:0,0:0:0:0:
191,284,16608,1,2,0:0:0:0:
83,300,16725,2,0,P|50:272|39:229,1,90,0|2,0:0|0:0,0:0:0:0:
282,226,16958,2,0,L|371:219,1,90,8|0,0:0|0:0,0:0:0:0:
458,43,17192,5,10,0:0:0:0:
356,169,17309,1,2,0:0:0:0:
298,18,17425,1,0,0:0:0:0:
459,150,17542,5,10,0:0:0:0:
253,188,17659,1,2,0:0:0:0:
116,26,17776,1,0,0:0:0:0:
356,169,17892,6,0,L|356:259,1,90,8|0,0:0|0:0,0:0:0:0:
187,344,18126,6,0,L|187:254,1,90,8|2,0:0|0:0,0:0:0:0:
396,26,18359,2,0,L|396:116,1,90,10|0,0:0|0:0,0:0:0:0:
323,262,18593,1,8,0:0:0:0:
267,110,18709,1,2,0:0:0:0:
491,157,18826,2,0,P|490:201|470:241,1,90,10|0,0:0|0:0,0:0:0:0:
84,295,19060,6,0,P|74:252|86:209,1,90,10|0,0:0|0:0,0:0:0:0:
256,44,19293,1,8,0:0:0:0:
427,89,19410,2,0,B|443:175|443:175|430:266,1,180,10|2,0:0|0:0,0:0:0:0:
302,320,19760,2,0,L|314:232,1,90,8|0,0:0|0:0,0:0:0:0:
340,72,19993,5,10,0:0:0:0:
136,246,20110,2,0,L|68:305,1,90,10|0,0:0|0:0,0:0:0:0:
172,72,20344,5,10,0:0:0:0:
376,246,20461,2,0,L|444:305,1,90,10|0,0:0|0:0,0:0:0:0:
256,44,20694,5,10,0:0:0:0:
256,340,20811,1,10,0:0:0:0:
256,340,21161,6,0,B|212:340|212:340|172:328|172:328|120:328,2,135.000005149842,0|0|2,3:0|3:0|0:0,0:0:0:0:
324,340,21744,1,0,0:0:0:0:
324,340,21861,6,0,L|308:254,1,72,6|0,0:0|0:0,0:0:0:0:
346,189,22095,2,0,L|359:118,1,72,8|0,0:0|0:0,0:0:0:0:
178,104,22328,2,0,L|164:33,1,72,8|0,0:0|0:0,0:0:0:0:
69,309,22562,2,0,L|82:238,1,72,10|0,0:0|0:0,0:0:0:0:
25,171,22795,6,0,P|91:150|151:186,1,144,8|8,0:0|0:0,0:0:0:0:
162,272,23145,1,0,0:0:0:0:
162,272,23262,2,0,L|243:289,1,72,8|2,0:0|0:3,0:0:0:0:
389,207,23495,2,0,L|319:222,1,72,10|2,0:0|0:3,0:0:0:0:
75,68,23729,6,0,L|156:85,1,72,8|0,0:0|0:0,0:0:0:0:
223,120,23962,1,8,0:0:0:0:
217,33,24079,1,0,0:0:0:0:
294,71,24196,2,0,P|307:104|305:140,1,72,8|0,0:0|0:0,0:0:0:0:
257,271,24429,2,0,P|244:237|246:202,1,72,10|2,0:0|0:3,0:0:0:0:
330,223,24663,5,8,0:0:0:0:
406,262,24779,1,0,0:0:0:0:
483,223,24896,2,0,L|494:128,1,72,10|2,0:0|0:3,0:0:0:0:
379,33,25130,1,8,0:0:0:0:
379,33,25363,6,0,L|299:67,1,72,8|0,0:0|0:0,0:0:0:0:
275,140,25597,2,0,P|213:170|150:141,1,144,12|8,0:0|0:0,0:0:0:0:
173,58,25947,1,0,0:0:0:0:
127,224,26063,2,0,L|95:317,1,72,8|2,0:0|0:3,0:0:0:0:
326,370,26297,2,0,P|335:335|329:300,1,72,10|2,0:0|0:3,0:0:0:0:
267,239,26530,5,8,0:0:0:0:
349,211,26647,1,0,0:0:0:0:
284,153,26764,1,8,0:0:0:0:
366,125,26881,1,0,0:0:0:0:
300,67,26997,2,0,P|265:71|231:61,1,72,8|2,0:0|0:3,0:0:0:0:
137,161,27231,2,0,P|115:132|106:97,1,72,10|0,0:0|0:0,0:0:0:0:
49,356,27464,6,0,P|77:290|128:240,1,144,8|8,0:0|0:0,0:0:0:0:
207,275,27814,1,0,0:0:0:0:
293,272,27931,2,0,L|314:181,1,72,8|0,0:0|0:0,0:0:0:0:
217,85,28165,2,0,L|234:156,1,72,10|0,0:0|0:0,0:0:0:0:
382,115,28398,6,0,L|311:116,1,72,10|0,0:0|0:0,0:0:0:0:
151,265,28632,1,8,0:0:0:0:
353,194,28748,1,0,0:0:0:0:
143,137,28865,1,10,0:0:0:0:
278,305,28982,1,0,0:0:0:0:
263,90,29098,2,0,L|212:25,1,72,8|8,0:0|0:0,0:0:0:0:
24,258,29332,6,0,P|92:314|179:302,1,180,4|8,0:0|0:0,0:0:0:0:
288,182,29682,1,2,0:0:0:0:
179,196,29799,2,0,P|136:204|92:194,1,90,0|2,0:0|0:0,0:0:0:0:
396,167,30032,2,0,P|439:159|483:168,1,90,8|0,0:0|0:0,0:0:0:0:
350,358,30266,6,0,L|356:267,1,90,2|0,0:0|0:0,0:0:0:0:
288,182,30499,1,8,0:0:0:0:
221,96,30616,1,2,0:0:0:0:
182,196,30733,2,0,P|171:240|184:282,1,90,0|2,0:0|0:0,0:0:0:0:
371,126,30966,2,0,P|338:95|295:85,1,90,8|2,0:0|0:0,0:0:0:0:
337,325,31200,6,0,P|379:312|410:280,1,90,2|0,0:0|0:0,0:0:0:0:
341,41,31433,2,0,L|296:216,1,180,8|0,0:0|0:0,0:0:0:0:
232,304,31783,1,2,0:0:0:0:
214,116,31900,2,0,L|192:204,1,90,8|2,0:0|0:0,0:0:0:0:
402,337,32134,6,0,P|427:299|427:255,1,90,2|0,0:0|0:0,0:0:0:0:
389,154,32367,1,8,0:0:0:0:
495,172,32484,1,2,0:0:0:0:
320,236,32600,2,0,L|230:248,1,90,0|2,0:0|0:0,0:0:0:0:
12,132,32834,2,0,L|102:144,1,90,8|2,0:0|0:0,0:0:0:0:
434,60,33067,6,0,L|256:84,1,180,4|8,0:0|0:0,0:0:0:0:
153,212,33418,1,2,0:0:0:0:
237,348,33534,2,0,B|252:308|252:308|248:260,1,90,0|2,0:0|0:0,0:0:0:0:
141,22,33768,2,0,P|129:64|146:104,1,90,8|2,0:0|0:0,0:0:0:0:
427,245,34001,6,0,L|248:260,1,180,2|8,0:0|0:0,0:0:0:0:
153,212,34351,1,2,0:0:0:0:
244,152,34468,1,0,0:0:0:0:
352,145,34585,1,2,0:0:0:0:
146,104,34702,5,8,0:0:0:0:
292,56,34818,1,2,0:0:0:0:
440,84,34935,6,0,P|457:169|405:239,1,180,6|8,0:0|0:0,0:0:0:0:
247,260,35285,1,2,0:0:0:0:
111,180,35402,2,0,L|97:88,1,90,4|2,0:0|0:0,0:0:0:0:
265,243,35635,2,0,L|251:331,1,90,8|0,0:0|0:0,0:0:0:0:
64,176,35869,5,2,0:0:0:0:
203,102,35986,1,0,0:0:0:0:
277,241,36102,1,8,0:0:0:0:
138,315,36219,1,2,0:0:0:0:
213,113,36336,5,0,0:0:0:0:
365,167,36453,1,2,0:0:0:0:
208,206,36569,1,8,0:0:0:0:
310,80,36686,1,8,0:0:0:0:
299,240,36803,6,0,P|304:292|339:332,1,107.999996704102,4|8,0:0|0:0,0:0:0:0:
365,167,37153,1,0,0:0:0:0:
371,69,37270,2,0,L|404:47,2,26.9999991760254,2|0|0,0:0|0:0|0:0,0:0:0:0:
284,114,37503,1,0,0:0:0:0:
189,138,37620,6,0,L|60:124,1,107.999996704102,8|0,0:0|0:0,0:0:0:0:
220,231,37970,6,0,L|123:220,1,80.9999975280763,8|0,0:0|0:0,0:0:0:0:
251,324,38204,2,0,L|197:317,1,53.9999983520508,8|0,0:0|0:0,0:0:0:0:
467,192,38437,2,0,L|413:185,1,53.9999983520508,8|0,0:0|0:0,0:0:0:0:
355,107,38670,6,0,L|301:100,1,53.9999983520508,4|0,0:0|0:0,0:0:0:0:
281,110,38846,1,0,0:0:0:0:
260,119,38904,2,0,L|206:112,1,53.9999983520508,8|0,0:0|0:0,0:0:0:0:
60,82,39138,5,2,0:0:0:0:
57,104,39196,1,0,0:0:0:0:
54,127,39255,1,8,0:0:0:0:
51,150,39313,1,0,0:0:0:0:
49,172,39371,2,0,L|61:224,1,53.9999983520508,2|8,0:0|0:0,0:0:0:0:
247,351,39604,6,0,L|223:246,1,107.999996704102,0|8,0:0|0:0,0:0:0:0:
228,147,39955,1,0,0:0:0:0:
310,197,40071,2,0,L|322:249,1,53.9999983520508,0|2,0:0|0:0,0:0:0:0:
146,97,40305,2,0,L|140:70,2,26.9999991760254,8|0|2,0:0|0:0|0:0,0:0:0:0:
79,233,40538,6,0,P|127:255|180:249,1,107.999996704102,4|8,0:0|0:0,0:0:0:0:
224,162,40888,1,0,0:0:0:0:
146,97,41005,2,0,L|140:70,2,26.9999991760254,2|0|0,0:0|0:0|0:0,0:0:0:0:
239,66,41239,1,0,0:0:0:0:
309,129,41355,6,0,P|362:123|397:83,1,107.999996704102,8|0,0:0|0:0,0:0:0:0:
302,224,41705,6,0,P|338:240|376:229,1,80.9999975280763,8|0,0:0|0:0,0:0:0:0:
248,301,41939,2,0,L|288:336,1,53.9999983520508,8|0,0:0|0:0,0:0:0:0:
98,310,42172,2,0,L|150:293,1,53.9999983520508,8|0,0:0|0:0,0:0:0:0:
219,141,42406,6,0,L|204:211,1,72,4|0,0:0|0:0,0:0:0:0:
195,341,42639,1,8,0:0:0:0:
398,303,42756,2,0,P|448:256|442:187,1,144,2|2,0:0|0:0,0:0:0:0:
365,55,43106,2,0,L|378:126,1,72,8|0,0:0|0:0,0:0:0:0:
342,357,43340,6,0,P|323:327|321:292,1,72,2|0,0:0|0:0,0:0:0:0:
207,72,43573,2,0,L|219:142,1,72,8|2,0:0|0:0,0:0:0:0:
195,341,43807,5,8,0:0:0:0:
298,109,43923,1,10,0:0:0:0:
123,240,44040,1,8,0:0:0:0:
370,210,44157,1,10,0:0:0:0:
173,125,44274,6,0,L|93:122,1,72,6|0,0:0|0:0,0:0:0:0:
319,324,44507,2,0,L|399:327,1,72,10|0,0:0|0:0,0:0:0:0:
257,20,44741,2,0,P|242:52|247:87,1,72,10|0,0:0|0:0,0:0:0:0:
460,282,44974,2,0,P|474:249|469:214,1,72,10|0,0:0|0:0,0:0:0:0:
121,53,45207,6,0,L|101:122,1,72,10|0,0:0|0:0,0:0:0:0:
319,324,45441,2,0,L|298:254,1,72,10|0,0:0|0:0,0:0:0:0:
185,121,45674,1,10,0:0:0:0:
117,309,45791,1,2,0:0:0:0:
117,309,45849,1,2,0:0:0:0:
117,309,45908,2,0,P|151:318|186:314,1,72,10|2,0:0|0:0,0:0:0:0:
443,130,46141,6,0,P|409:121|374:125,1,72,10|0,0:0|0:0,0:0:0:0:
372,258,46375,2,0,P|408:263|443:254,1,72,10|0,0:0|0:0,0:0:0:0:
302,73,46608,2,0,L|219:63,1,72,10|2,0:0|0:0,0:0:0:0:
230,319,46842,2,0,L|302:311,1,72,8|2,0:0|0:0,0:0:0:0:
151,23,47075,6,0,P|97:68|95:137,1,144,4|10,0:0|0:0,0:0:0:0:
136,349,47425,2,0,L|145:277,1,72,2|0,0:0|0:0,0:0:0:0:
172,104,47659,1,2,0:0:0:0:
217,225,47776,1,10,0:0:0:0:
18,170,47892,1,10,0:0:0:0:
295,270,48009,6,0,B|331:282|367:270|367:270|403:258|439:270,1,144,4|10,0:0|0:0,0:0:0:0:
508,324,48359,1,2,0:0:0:0:
478,107,48476,2,0,P|443:99|408:100,1,72,0|2,0:0|0:0,0:0:0:0:
165,192,48709,2,0,P|200:193|236:185,1,72,8|2,0:0|0:0,0:0:0:0:
101,51,48943,6,0,L|89:121,1,72,2|8,0:0|0:0,0:0:0:0:
97,328,49176,1,2,0:0:0:0:
18,170,49293,1,2,0:0:0:0:
177,253,49410,2,0,P|212:257|247:248,1,72,8|2,0:0|0:0,0:0:0:0:
478,107,49643,2,0,P|443:98|407:102,1,72,8|10,0:0|0:0,0:0:0:0:
275,161,49877,5,10,0:0:0:0:
394,240,49993,1,0,0:0:0:0:
187,174,50110,2,0,P|151:167|116:174,1,72,10|0,0:0|0:0,0:0:0:0:
223,345,50344,2,0,P|246:319|258:285,1,72,10|0,0:0|0:0,0:0:0:0:
215,90,50577,1,10,0:0:0:0:
184,280,50694,1,8,0:0:0:0:
365,212,50811,6,0,L|380:179,3,36,10|0|0|0,0:0|0:0|0:0|0:0,0:0:0:0:
294,227,51044,2,0,P|260:218|224:220,1,72,10|8,0:0|0:0,0:0:0:0:
66,335,51277,5,10,0:0:0:0:
149,217,51394,1,2,0:0:0:0:
54,127,51511,1,8,0:0:0:0:
120,32,51628,1,10,0:0:0:0:
252,32,51744,6,0,L|239:98,1,67.5,2|0,2:0|0:0,0:0:0:0:
328,31,51978,6,0,L|309:131,1,101.250003862381,2|0,0:0|0:0,0:0:0:0:
404,31,52211,6,0,L|379:164,1,135,2|0,0:0|0:0,0:0:0:0:
480,32,52445,6,0,L|448:205,1,168.75,2|0,0:0|0:0,0:0:0:0:
