osu file format v14

[General]
AudioFilename: audio.mp3
AudioLeadIn: 0
PreviewTime: 64091
Countdown: 0
SampleSet: Normal
StackLeniency: 0.7
Mode: 3
LetterboxInBreaks: 0
SpecialStyle: 0
WidescreenStoryboard: 1

[Editor]
DistanceSpacing: 0.8
BeatDivisor: 4
GridSize: 32
TimelineZoom: 2.899999

[Metadata]
Title:Deux Saint-Co Odyssey!!
TitleUnicode:ドゥサンコオデッセイ!!
Artist:cosMo@BousouP
ArtistUnicode:cosMo@暴走P
Creator:lemonguy
Version:MAXIMUM
Source:SOUND VOLTEX EXCEED GEAR
Tags:gekido- osu!mania 4K World Cup 2021 finals SDVX 6 VI dusanco odyssey pilica MWC 4K 2021 MWC21 konami bemani e-amusement eamuse instrumental electronic グレイスからの挑戦状!! GRACE kara no chousenjou!! SOUND VOLTEX III GRAVITY WARS コナステ INFINITE course hybrid jack video game
BeatmapID:3143239
BeatmapSetID:1497081

[Difficulty]
HPDrainRate:8
CircleSize:4
OverallDifficulty:8
ApproachRate:5
SliderMultiplier:1.4
SliderTickRate:1

[Events]
//Background and Video events
0,0,"bg.jpg",0,0
//Break Periods
//Storyboard Layer 0 (Background)
//Storyboard Layer 1 (Fail)
//Storyboard Layer 2 (Pass)
//Storyboard Layer 3 (Foreground)
//Storyboard Layer 4 (Overlay)
//Storyboard Sound Samples

[TimingPoints]
1097,375,4,1,1,35,1,0
1847,375,3,1,1,35,1,0
4472,375,4,1,1,35,1,0

[HitObjects]
64,192,1097,128,0,1753:0:0:0:0:
192,192,1097,128,0,1472:0:0:0:0:
320,192,1472,1,0,0:0:0:0:
448,192,1503,1,0,0:0:0:0:
64,192,1847,5,0,0:0:0:0:
320,192,1847,1,0,0:0:0:0:
448,192,1847,1,0,0:0:0:0:
64,192,1940,1,0,0:0:0:0:
320,192,2034,1,0,0:0:0:0:
192,192,2128,1,0,0:0:0:0:
64,192,2128,1,0,0:0:0:0:
448,192,2128,1,0,0:0:0:0:
448,192,2222,1,0,0:0:0:0:
64,192,2315,1,0,0:0:0:0:
320,192,2409,1,0,0:0:0:0:
448,192,2409,1,0,0:0:0:0:
192,192,2409,1,0,0:0:0:0:
64,192,2503,1,0,0:0:0:0:
448,192,2597,1,0,0:0:0:0:
64,192,2690,1,0,0:0:0:0:
192,192,2690,1,0,0:0:0:0:
320,192,2690,1,0,0:0:0:0:
448,192,2784,1,0,0:0:0:0:
64,192,2878,1,0,0:0:0:0:
192,192,2972,1,0,0:0:0:0:
448,192,2972,1,0,0:0:0:0:
320,192,2972,1,0,0:0:0:0:
192,192,3065,1,0,0:0:0:0:
64,192,3065,1,0,0:0:0:0:
448,192,3159,1,0,0:0:0:0:
320,192,3253,1,0,0:0:0:0:
64,192,3253,1,0,0:0:0:0:
192,192,3253,1,0,0:0:0:0:
320,192,3347,1,0,0:0:0:0:
448,192,3347,1,0,0:0:0:0:
64,192,3440,1,0,0:0:0:0:
192,192,3534,1,0,0:0:0:0:
448,192,3534,1,0,0:0:0:0:
320,192,3628,1,0,0:0:0:0:
448,192,3722,1,0,0:0:0:0:
64,192,3815,1,0,0:0:0:0:
192,192,3815,1,0,0:0:0:0:
320,192,3909,1,0,0:0:0:0:
192,192,4003,1,0,0:0:0:0:
64,192,4097,1,0,0:0:0:0:
448,192,4097,1,0,0:0:0:0:
192,192,4190,1,0,0:0:0:0:
320,192,4284,1,0,0:0:0:0:
448,192,4284,1,0,0:0:0:0:
64,192,4378,1,0,0:0:0:0:
192,192,4378,1,0,0:0:0:0:
320,192,4472,1,0,0:0:0:0:
64,192,4472,1,0,0:0:0:0:
448,192,4472,128,0,5784:0:0:0:0:
64,192,4847,1,0,0:0:0:0:
192,192,4909,1,0,0:0:0:0:
64,192,4972,1,0,0:0:0:0:
320,192,5034,1,0,0:0:0:0:
192,192,5097,1,0,0:0:0:0:
320,192,5159,1,0,0:0:0:0:
64,192,5222,1,0,0:0:0:0:
192,192,5284,1,0,0:0:0:0:
64,192,5347,1,0,0:0:0:0:
320,192,5409,1,0,0:0:0:0:
192,192,5472,1,0,0:0:0:0:
320,192,5534,1,0,0:0:0:0:
64,192,5597,1,0,0:0:0:0:
192,192,5659,1,0,0:0:0:0:
64,192,5722,1,0,0:0:0:0:
320,192,5784,128,0,5878:0:0:0:0:
192,192,5878,128,0,5972:0:0:0:0:
448,192,5972,1,0,0:0:0:0:
64,192,5972,128,0,6722:0:0:0:0:
320,192,5972,1,0,0:0:0:0:
192,192,6534,1,0,0:0:0:0:
320,192,6597,1,0,0:0:0:0:
192,192,6659,1,0,0:0:0:0:
448,192,6722,1,0,0:0:0:0:
320,192,6784,1,0,0:0:0:0:
64,192,6847,1,0,0:0:0:0:
448,192,6909,1,0,0:0:0:0:
192,192,6972,1,0,0:0:0:0:
64,192,7034,1,0,0:0:0:0:
320,192,7097,1,0,0:0:0:0:
448,192,7097,1,0,0:0:0:0:
192,192,7159,1,0,0:0:0:0:
64,192,7222,1,0,0:0:0:0:
192,192,7284,1,0,0:0:0:0:
448,192,7347,1,0,0:0:0:0:
64,192,7409,1,0,0:0:0:0:
192,192,7472,1,0,0:0:0:0:
320,192,7472,1,0,0:0:0:0:
448,192,7472,128,0,7659:0:0:0:0:
192,192,7659,1,0,0:0:0:0:
64,192,7753,1,0,0:0:0:0:
448,192,7847,1,0,0:0:0:0:
320,192,7847,1,0,0:0:0:0:
320,192,8034,128,0,8222:0:0:0:0:
192,192,8034,1,0,0:0:0:0:
64,192,8128,1,0,0:0:0:0:
448,192,8222,1,0,0:0:0:0:
64,192,8315,1,0,0:0:0:0:
192,192,8409,128,0,8597:0:0:0:0:
320,192,8409,1,0,0:0:0:0:
64,192,8597,128,0,8784:0:0:0:0:
448,192,8597,1,0,0:0:0:0:
192,192,8784,128,0,8972:0:0:0:0:
320,192,8784,1,0,0:0:0:0:
448,192,8878,1,0,0:0:0:0:
320,192,8972,128,0,9065:0:0:0:0:
64,192,8972,1,0,0:0:0:0:
192,192,9159,1,0,0:0:0:0:
320,192,9253,128,0,9347:0:0:0:0:
448,192,9253,1,0,0:0:0:0:
192,192,9347,1,0,0:0:0:0:
64,192,9347,1,0,0:0:0:0:
448,192,9534,128,0,9722:0:0:0:0:
64,192,9534,1,0,0:0:0:0:
192,192,9628,1,0,0:0:0:0:
320,192,9722,1,0,0:0:0:0:
192,192,9815,1,0,0:0:0:0:
64,192,9909,128,0,10097:0:0:0:0:
320,192,9909,1,0,0:0:0:0:
192,192,10097,128,0,10284:0:0:0:0:
448,192,10097,1,0,0:0:0:0:
320,192,10190,1,0,0:0:0:0:
448,192,10284,128,0,10472:0:0:0:0:
64,192,10284,1,0,0:0:0:0:
192,192,10378,1,0,0:0:0:0:
320,192,10472,128,0,10659:0:0:0:0:
64,192,10472,1,0,0:0:0:0:
192,192,10659,1,0,0:0:0:0:
64,192,10753,1,0,0:0:0:0:
320,192,10847,1,0,0:0:0:0:
448,192,10847,1,0,0:0:0:0:
448,192,11034,128,0,11222:0:0:0:0:
192,192,11034,1,0,0:0:0:0:
320,192,11128,1,0,0:0:0:0:
64,192,11222,1,0,0:0:0:0:
320,192,11315,1,0,0:0:0:0:
64,192,11409,128,0,11597:0:0:0:0:
192,192,11409,1,0,0:0:0:0:
320,192,11597,128,0,11784:0:0:0:0:
448,192,11597,1,0,0:0:0:0:
64,192,11690,1,0,0:0:0:0:
192,192,11784,128,0,11972:0:0:0:0:
448,192,11784,1,0,0:0:0:0:
320,192,11878,1,0,0:0:0:0:
64,192,11972,1,0,0:0:0:0:
448,192,11972,128,0,12065:0:0:0:0:
192,192,12065,128,0,12159:0:0:0:0:
320,192,12159,128,0,12253:0:0:0:0:
448,192,12159,1,0,0:0:0:0:
64,192,12253,128,0,12347:0:0:0:0:
448,192,12347,128,0,12440:0:0:0:0:
192,192,12347,1,0,0:0:0:0:
64,192,12440,128,0,12534:0:0:0:0:
320,192,12534,128,0,12628:0:0:0:0:
448,192,12534,1,0,0:0:0:0:
192,192,12628,128,0,12722:0:0:0:0:
64,192,12722,128,0,12815:0:0:0:0:
448,192,12722,1,0,0:0:0:0:
320,192,12815,128,0,12909:0:0:0:0:
192,192,12909,128,0,13003:0:0:0:0:
64,192,12909,1,0,0:0:0:0:
448,192,13003,128,0,13097:0:0:0:0:
320,192,13003,1,0,0:0:0:0:
64,192,13097,128,0,13190:0:0:0:0:
192,192,13097,1,0,0:0:0:0:
320,192,13190,128,0,13284:0:0:0:0:
64,192,13284,1,0,0:0:0:0:
448,192,13284,128,0,13378:0:0:0:0:
192,192,13378,1,0,0:0:0:0:
320,192,13378,128,0,13472:0:0:0:0:
64,192,13472,1,0,0:0:0:0:
448,192,13472,1,0,0:0:0:0:
192,192,13472,1,0,0:0:0:0:
320,192,13565,1,0,0:0:0:0:
448,192,13659,1,0,0:0:0:0:
64,192,13753,1,0,0:0:0:0:
192,192,13847,1,0,0:0:0:0:
448,192,13847,1,0,0:0:0:0:
320,192,13940,1,0,0:0:0:0:
64,192,14034,1,0,0:0:0:0:
192,192,14128,1,0,0:0:0:0:
448,192,14222,1,0,0:0:0:0:
64,192,14222,1,0,0:0:0:0:
320,192,14315,1,0,0:0:0:0:
192,192,14409,1,0,0:0:0:0:
64,192,14503,1,0,0:0:0:0:
320,192,14597,1,0,0:0:0:0:
448,192,14597,1,0,0:0:0:0:
64,192,14690,1,0,0:0:0:0:
448,192,14690,1,0,0:0:0:0:
192,192,14690,1,0,0:0:0:0:
320,192,14784,1,0,0:0:0:0:
64,192,14878,1,0,0:0:0:0:
192,192,14972,1,0,0:0:0:0:
320,192,14972,1,0,0:0:0:0:
448,192,14972,1,0,0:0:0:0:
448,192,15065,1,0,0:0:0:0:
192,192,15159,1,0,0:0:0:0:
64,192,15253,1,0,0:0:0:0:
320,192,15253,1,0,0:0:0:0:
448,192,15253,1,0,0:0:0:0:
64,192,15347,1,0,0:0:0:0:
320,192,15440,1,0,0:0:0:0:
64,192,15534,1,0,0:0:0:0:
192,192,15534,1,0,0:0:0:0:
448,192,15534,1,0,0:0:0:0:
192,192,15628,1,0,0:0:0:0:
448,192,15722,1,0,0:0:0:0:
64,192,15815,1,0,0:0:0:0:
192,192,15815,1,0,0:0:0:0:
320,192,15815,1,0,0:0:0:0:
320,192,15909,1,0,0:0:0:0:
64,192,16003,1,0,0:0:0:0:
448,192,16097,1,0,0:0:0:0:
192,192,16097,1,0,0:0:0:0:
320,192,16190,1,0,0:0:0:0:
64,192,16284,1,0,0:0:0:0:
192,192,16284,1,0,0:0:0:0:
320,192,16378,1,0,0:0:0:0:
448,192,16378,1,0,0:0:0:0:
64,192,16472,1,0,0:0:0:0:
448,192,16472,1,0,0:0:0:0:
192,192,16472,1,0,0:0:0:0:
64,192,16847,128,0,16909:0:0:0:0:
192,192,16909,128,0,16972:0:0:0:0:
320,192,16972,128,0,17034:0:0:0:0:
64,192,17034,128,0,17097:0:0:0:0:
192,192,17097,128,0,17159:0:0:0:0:
448,192,17159,128,0,17222:0:0:0:0:
64,192,17222,128,0,17284:0:0:0:0:
320,192,17284,128,0,17347:0:0:0:0:
448,192,17347,128,0,17409:0:0:0:0:
192,192,17409,128,0,17472:0:0:0:0:
320,192,17472,128,0,17534:0:0:0:0:
448,192,17534,128,0,17597:0:0:0:0:
64,192,17597,1,0,0:0:0:0:
192,192,17659,1,0,0:0:0:0:
64,192,17722,1,0,0:0:0:0:
448,192,17784,1,0,0:0:0:0:
64,192,17847,1,0,0:0:0:0:
320,192,17909,1,0,0:0:0:0:
64,192,17972,1,0,0:0:0:0:
192,192,17972,1,0,0:0:0:0:
448,192,17972,1,0,0:0:0:0:
320,192,18065,1,0,0:0:0:0:
192,192,18159,1,0,0:0:0:0:
320,192,18253,1,0,0:0:0:0:
448,192,18253,1,0,0:0:0:0:
64,192,18253,1,0,0:0:0:0:
192,192,18347,1,0,0:0:0:0:
320,192,18440,1,0,0:0:0:0:
64,192,18534,1,0,0:0:0:0:
448,192,18534,1,0,0:0:0:0:
64,192,18628,1,0,0:0:0:0:
192,192,18628,1,0,0:0:0:0:
320,192,18628,1,0,0:0:0:0:
448,192,18722,1,0,0:0:0:0:
320,192,18815,1,0,0:0:0:0:
64,192,18815,1,0,0:0:0:0:
320,192,18909,1,0,0:0:0:0:
448,192,18909,1,0,0:0:0:0:
192,192,18909,1,0,0:0:0:0:
64,192,19003,1,0,0:0:0:0:
192,192,19097,1,0,0:0:0:0:
448,192,19097,1,0,0:0:0:0:
320,192,19190,1,0,0:0:0:0:
64,192,19284,1,0,0:0:0:0:
448,192,19284,1,0,0:0:0:0:
192,192,19378,1,0,0:0:0:0:
320,192,19378,1,0,0:0:0:0:
64,192,19472,1,0,0:0:0:0:
192,192,19472,1,0,0:0:0:0:
448,192,19472,128,0,19565:0:0:0:0:
320,192,19659,1,0,0:0:0:0:
192,192,19753,128,0,19847:0:0:0:0:
64,192,19940,1,0,0:0:0:0:
320,192,20034,128,0,20128:0:0:0:0:
192,192,20222,1,0,0:0:0:0:
64,192,20315,128,0,20409:0:0:0:0:
448,192,20503,1,0,0:0:0:0:
192,192,20597,128,0,20690:0:0:0:0:
64,192,20690,1,0,0:0:0:0:
320,192,20784,128,0,20878:0:0:0:0:
192,192,20878,1,0,0:0:0:0:
448,192,20972,128,0,21065:0:0:0:0:
64,192,21065,1,0,0:0:0:0:
320,192,21159,128,0,21253:0:0:0:0:
64,192,21253,1,0,0:0:0:0:
192,192,21347,128,0,21440:0:0:0:0:
64,192,21440,1,0,0:0:0:0:
320,192,21534,128,0,21628:0:0:0:0:
64,192,21628,1,0,0:0:0:0:
448,192,21722,1,0,0:0:0:0:
192,192,21815,128,0,21909:0:0:0:0:
320,192,21909,128,0,22003:0:0:0:0:
448,192,22003,128,0,22097:0:0:0:0:
64,192,22097,128,0,22190:0:0:0:0:
320,192,22097,1,0,0:0:0:0:
192,192,22190,128,0,22284:0:0:0:0:
320,192,22284,128,0,22378:0:0:0:0:
448,192,22284,1,0,0:0:0:0:
64,192,22378,128,0,22472:0:0:0:0:
448,192,22472,128,0,22659:0:0:0:0:
192,192,22472,1,0,0:0:0:0:
192,192,22659,1,0,0:0:0:0:
448,192,22722,1,0,0:0:0:0:
192,192,22784,1,0,0:0:0:0:
448,192,22847,1,0,0:0:0:0:
320,192,22847,1,0,0:0:0:0:
192,192,22909,1,0,0:0:0:0:
448,192,22972,1,0,0:0:0:0:
64,192,23034,128,0,23128:0:0:0:0:
64,192,23222,128,0,23409:0:0:0:0:
448,192,23222,1,0,0:0:0:0:
320,192,23409,1,0,0:0:0:0:
64,192,23472,1,0,0:0:0:0:
320,192,23534,1,0,0:0:0:0:
192,192,23597,1,0,0:0:0:0:
64,192,23597,1,0,0:0:0:0:
192,192,23784,128,0,23878:0:0:0:0:
320,192,23878,128,0,23972:0:0:0:0:
448,192,23972,128,0,24065:0:0:0:0:
64,192,24065,1,0,0:0:0:0:
320,192,24159,128,0,24253:0:0:0:0:
448,192,24159,1,0,0:0:0:0:
64,192,24253,1,0,0:0:0:0:
192,192,24347,128,0,24440:0:0:0:0:
448,192,24347,1,0,0:0:0:0:
64,192,24440,1,0,0:0:0:0:
320,192,24534,128,0,24628:0:0:0:0:
448,192,24628,1,0,0:0:0:0:
192,192,24628,1,0,0:0:0:0:
64,192,24722,1,0,0:0:0:0:
320,192,24784,1,0,0:0:0:0:
64,192,24847,1,0,0:0:0:0:
448,192,24909,1,0,0:0:0:0:
192,192,24972,1,0,0:0:0:0:
448,192,25034,1,0,0:0:0:0:
320,192,25097,1,0,0:0:0:0:
64,192,25097,128,0,25190:0:0:0:0:
192,192,25190,128,0,25284:0:0:0:0:
320,192,25284,128,0,25378:0:0:0:0:
448,192,25378,128,0,25472:0:0:0:0:
64,192,25472,1,0,0:0:0:0:
192,192,25472,1,0,0:0:0:0:
320,192,25472,1,0,0:0:0:0:
448,192,25659,1,0,0:0:0:0:
64,192,25659,1,0,0:0:0:0:
320,192,25753,1,0,0:0:0:0:
192,192,25753,1,0,0:0:0:0:
448,192,25847,1,0,0:0:0:0:
64,192,25940,1,0,0:0:0:0:
448,192,26034,1,0,0:0:0:0:
192,192,26034,1,0,0:0:0:0:
64,192,26128,1,0,0:0:0:0:
320,192,26222,1,0,0:0:0:0:
64,192,26315,1,0,0:0:0:0:
192,192,26315,1,0,0:0:0:0:
448,192,26409,1,0,0:0:0:0:
320,192,26409,1,0,0:0:0:0:
64,192,26503,1,0,0:0:0:0:
320,192,26597,1,0,0:0:0:0:
192,192,26597,1,0,0:0:0:0:
448,192,26690,1,0,0:0:0:0:
64,192,26784,1,0,0:0:0:0:
320,192,26784,1,0,0:0:0:0:
192,192,26878,1,0,0:0:0:0:
448,192,26972,1,0,0:0:0:0:
64,192,26972,1,0,0:0:0:0:
192,192,27065,1,0,0:0:0:0:
448,192,27159,1,0,0:0:0:0:
320,192,27159,1,0,0:0:0:0:
64,192,27253,1,0,0:0:0:0:
192,192,27347,1,0,0:0:0:0:
320,192,27347,1,0,0:0:0:0:
64,192,27440,1,0,0:0:0:0:
448,192,27534,1,0,0:0:0:0:
320,192,27534,1,0,0:0:0:0:
64,192,27628,1,0,0:0:0:0:
448,192,27628,1,0,0:0:0:0:
64,192,27815,1,0,0:0:0:0:
448,192,27815,1,0,0:0:0:0:
192,192,27909,1,0,0:0:0:0:
320,192,28003,1,0,0:0:0:0:
448,192,28003,1,0,0:0:0:0:
64,192,28097,1,0,0:0:0:0:
192,192,28097,1,0,0:0:0:0:
320,192,28190,1,0,0:0:0:0:
64,192,28284,1,0,0:0:0:0:
320,192,28378,1,0,0:0:0:0:
448,192,28378,1,0,0:0:0:0:
192,192,28472,1,0,0:0:0:0:
448,192,28472,1,0,0:0:0:0:
64,192,28472,128,0,28659:0:0:0:0:
320,192,28659,1,0,0:0:0:0:
448,192,28659,1,0,0:0:0:0:
64,192,28722,1,0,0:0:0:0:
320,192,28784,1,0,0:0:0:0:
64,192,28847,1,0,0:0:0:0:
192,192,28847,1,0,0:0:0:0:
320,192,28909,1,0,0:0:0:0:
64,192,28972,1,0,0:0:0:0:
448,192,29034,128,0,29128:0:0:0:0:
320,192,29034,1,0,0:0:0:0:
448,192,29222,128,0,29409:0:0:0:0:
64,192,29222,1,0,0:0:0:0:
192,192,29222,1,0,0:0:0:0:
64,192,29409,1,0,0:0:0:0:
192,192,29409,1,0,0:0:0:0:
448,192,29472,1,0,0:0:0:0:
192,192,29534,1,0,0:0:0:0:
448,192,29597,1,0,0:0:0:0:
320,192,29597,1,0,0:0:0:0:
192,192,29659,1,0,0:0:0:0:
448,192,29722,1,0,0:0:0:0:
64,192,29784,128,0,29878:0:0:0:0:
320,192,29878,128,0,29972:0:0:0:0:
64,192,29972,1,0,0:0:0:0:
448,192,29972,1,0,0:0:0:0:
192,192,29972,1,0,0:0:0:0:
320,192,30065,1,0,0:0:0:0:
192,192,30159,1,0,0:0:0:0:
320,192,30253,1,0,0:0:0:0:
448,192,30253,1,0,0:0:0:0:
64,192,30347,1,0,0:0:0:0:
448,192,30347,1,0,0:0:0:0:
192,192,30347,1,0,0:0:0:0:
320,192,30440,1,0,0:0:0:0:
64,192,30534,1,0,0:0:0:0:
320,192,30628,1,0,0:0:0:0:
448,192,30628,1,0,0:0:0:0:
64,192,30722,1,0,0:0:0:0:
192,192,30722,1,0,0:0:0:0:
320,192,30784,1,0,0:0:0:0:
64,192,30847,1,0,0:0:0:0:
448,192,30909,1,0,0:0:0:0:
192,192,30972,1,0,0:0:0:0:
448,192,31034,1,0,0:0:0:0:
64,192,31097,1,0,0:0:0:0:
192,192,31097,1,0,0:0:0:0:
320,192,31159,1,0,0:0:0:0:
64,192,31222,1,0,0:0:0:0:
448,192,31284,1,0,0:0:0:0:
192,192,31347,1,0,0:0:0:0:
320,192,31409,1,0,0:0:0:0:
192,192,31472,1,0,0:0:0:0:
448,192,31472,1,0,0:0:0:0:
64,192,31472,128,0,31565:0:0:0:0:
320,192,31565,128,0,31659:0:0:0:0:
192,192,31753,128,0,32034:0:0:0:0:
64,192,31847,1,0,0:0:0:0:
448,192,31847,1,0,0:0:0:0:
320,192,32034,128,0,32222:0:0:0:0:
448,192,32128,1,0,0:0:0:0:
64,192,32222,128,0,32315:0:0:0:0:
192,192,32222,1,0,0:0:0:0:
320,192,32315,128,0,32409:0:0:0:0:
448,192,32315,1,0,0:0:0:0:
192,192,32409,128,0,32503:0:0:0:0:
320,192,32503,128,0,32597:0:0:0:0:
448,192,32597,128,0,32690:0:0:0:0:
64,192,32597,1,0,0:0:0:0:
192,192,32690,128,0,32784:0:0:0:0:
320,192,32784,128,0,32878:0:0:0:0:
64,192,32878,128,0,32972:0:0:0:0:
192,192,32878,1,0,0:0:0:0:
320,192,32972,1,0,0:0:0:0:
448,192,32972,128,0,33065:0:0:0:0:
64,192,33065,128,0,33159:0:0:0:0:
192,192,33159,128,0,33347:0:0:0:0:
320,192,33159,128,0,33253:0:0:0:0:
64,192,33347,128,0,33440:0:0:0:0:
320,192,33347,128,0,33440:0:0:0:0:
192,192,33440,128,0,33534:0:0:0:0:
448,192,33440,128,0,33534:0:0:0:0:
320,192,33628,128,0,33722:0:0:0:0:
448,192,33628,128,0,33722:0:0:0:0:
192,192,33722,1,0,0:0:0:0:
448,192,33815,1,0,0:0:0:0:
64,192,33815,128,0,33909:0:0:0:0:
320,192,34003,128,0,34097:0:0:0:0:
448,192,34097,128,0,34190:0:0:0:0:
64,192,34097,1,0,0:0:0:0:
192,192,34190,128,0,34284:0:0:0:0:
320,192,34284,128,0,34378:0:0:0:0:
64,192,34378,128,0,34472:0:0:0:0:
192,192,34378,1,0,0:0:0:0:
448,192,34472,1,0,0:0:0:0:
320,192,34472,1,0,0:0:0:0:
192,192,34534,1,0,0:0:0:0:
320,192,34597,1,0,0:0:0:0:
64,192,34659,128,0,34753:0:0:0:0:
448,192,34753,1,0,0:0:0:0:
64,192,34847,1,0,0:0:0:0:
192,192,34847,1,0,0:0:0:0:
320,192,34909,1,0,0:0:0:0:
192,192,34972,1,0,0:0:0:0:
448,192,35034,128,0,35128:0:0:0:0:
64,192,35128,1,0,0:0:0:0:
320,192,35222,1,0,0:0:0:0:
448,192,35222,1,0,0:0:0:0:
192,192,35284,1,0,0:0:0:0:
320,192,35347,1,0,0:0:0:0:
64,192,35409,1,0,0:0:0:0:
192,192,35472,1,0,0:0:0:0:
448,192,35534,1,0,0:0:0:0:
64,192,35597,1,0,0:0:0:0:
320,192,35597,1,0,0:0:0:0:
320,192,35690,1,0,0:0:0:0:
320,192,35784,1,0,0:0:0:0:
192,192,35878,1,0,0:0:0:0:
64,192,35878,1,0,0:0:0:0:
320,192,35972,1,0,0:0:0:0:
64,192,35972,128,0,36065:0:0:0:0:
448,192,35972,128,0,36065:0:0:0:0:
320,192,36159,128,0,36253:0:0:0:0:
192,192,36347,128,0,36440:0:0:0:0:
64,192,36347,1,0,0:0:0:0:
320,192,36440,128,0,36534:0:0:0:0:
192,192,36628,128,0,36815:0:0:0:0:
448,192,36628,1,0,0:0:0:0:
320,192,36722,1,0,0:0:0:0:
64,192,36815,128,0,36909:0:0:0:0:
448,192,36815,1,0,0:0:0:0:
320,192,36909,1,0,0:0:0:0:
192,192,36972,1,0,0:0:0:0:
448,192,37034,1,0,0:0:0:0:
320,192,37097,1,0,0:0:0:0:
64,192,37159,1,0,0:0:0:0:
320,192,37222,1,0,0:0:0:0:
192,192,37284,1,0,0:0:0:0:
448,192,37347,1,0,0:0:0:0:
192,192,37409,1,0,0:0:0:0:
64,192,37472,1,0,0:0:0:0:
320,192,37472,1,0,0:0:0:0:
448,192,37472,1,0,0:0:0:0:
192,192,37565,128,0,37659:0:0:0:0:
64,192,37659,128,0,37753:0:0:0:0:
320,192,37659,1,0,0:0:0:0:
192,192,37753,128,0,37847:0:0:0:0:
320,192,37847,128,0,37940:0:0:0:0:
448,192,37847,1,0,0:0:0:0:
64,192,37940,128,0,38034:0:0:0:0:
192,192,37940,1,0,0:0:0:0:
448,192,38034,128,0,38128:0:0:0:0:
320,192,38034,1,0,0:0:0:0:
192,192,38128,128,0,38222:0:0:0:0:
64,192,38222,128,0,38315:0:0:0:0:
448,192,38222,1,0,0:0:0:0:
320,192,38315,128,0,38409:0:0:0:0:
64,192,38409,1,0,0:0:0:0:
192,192,38409,1,0,0:0:0:0:
448,192,38503,128,0,38597:0:0:0:0:
320,192,38503,1,0,0:0:0:0:
192,192,38597,1,0,0:0:0:0:
320,192,38690,1,0,0:0:0:0:
192,192,38784,128,0,38878:0:0:0:0:
64,192,38784,1,0,0:0:0:0:
64,192,38972,128,0,39159:0:0:0:0:
448,192,38972,128,0,39159:0:0:0:0:
192,192,39159,128,0,39253:0:0:0:0:
320,192,39253,1,0,0:0:0:0:
320,192,39347,128,0,39440:0:0:0:0:
448,192,39347,128,0,39440:0:0:0:0:
64,192,39440,1,0,0:0:0:0:
192,192,39534,128,0,39628:0:0:0:0:
448,192,39534,1,0,0:0:0:0:
64,192,39722,128,0,39815:0:0:0:0:
192,192,39722,1,0,0:0:0:0:
320,192,39815,128,0,39909:0:0:0:0:
448,192,39909,128,0,40003:0:0:0:0:
192,192,39909,1,0,0:0:0:0:
320,192,40003,128,0,40097:0:0:0:0:
64,192,40003,1,0,0:0:0:0:
192,192,40097,128,0,40190:0:0:0:0:
320,192,40190,128,0,40284:0:0:0:0:
64,192,40190,1,0,0:0:0:0:
448,192,40284,128,0,40378:0:0:0:0:
192,192,40284,1,0,0:0:0:0:
64,192,40472,5,0,0:0:0:0:
192,192,40472,1,0,0:0:0:0:
448,192,40472,1,0,0:0:0:0:
320,192,40534,1,0,0:0:0:0:
64,192,40597,1,0,0:0:0:0:
320,192,40659,1,0,0:0:0:0:
448,192,40659,1,0,0:0:0:0:
64,192,40722,1,0,0:0:0:0:
320,192,40784,1,0,0:0:0:0:
192,192,40847,1,0,0:0:0:0:
448,192,40909,1,0,0:0:0:0:
192,192,40972,1,0,0:0:0:0:
448,192,41034,1,0,0:0:0:0:
320,192,41034,1,0,0:0:0:0:
192,192,41097,1,0,0:0:0:0:
448,192,41159,1,0,0:0:0:0:
64,192,41222,1,0,0:0:0:0:
320,192,41284,1,0,0:0:0:0:
448,192,41347,1,0,0:0:0:0:
64,192,41409,1,0,0:0:0:0:
192,192,41409,1,0,0:0:0:0:
320,192,41472,1,0,0:0:0:0:
448,192,41534,1,0,0:0:0:0:
64,192,41597,1,0,0:0:0:0:
320,192,41659,1,0,0:0:0:0:
192,192,41722,1,0,0:0:0:0:
448,192,41784,1,0,0:0:0:0:
320,192,41784,1,0,0:0:0:0:
192,192,41847,1,0,0:0:0:0:
320,192,41909,1,0,0:0:0:0:
448,192,41972,1,0,0:0:0:0:
64,192,41972,1,0,0:0:0:0:
320,192,42065,1,0,0:0:0:0:
192,192,42159,1,0,0:0:0:0:
448,192,42253,1,0,0:0:0:0:
320,192,42253,1,0,0:0:0:0:
192,192,42347,1,0,0:0:0:0:
320,192,42347,1,0,0:0:0:0:
64,192,42440,1,0,0:0:0:0:
192,192,42534,1,0,0:0:0:0:
320,192,42628,1,0,0:0:0:0:
448,192,42628,1,0,0:0:0:0:
64,192,42722,1,0,0:0:0:0:
448,192,42722,1,0,0:0:0:0:
192,192,42815,1,0,0:0:0:0:
320,192,42909,1,0,0:0:0:0:
192,192,43003,1,0,0:0:0:0:
448,192,43097,128,0,43190:0:0:0:0:
64,192,43097,1,0,0:0:0:0:
192,192,43190,128,0,43284:0:0:0:0:
320,192,43284,128,0,43378:0:0:0:0:
64,192,43378,128,0,43472:0:0:0:0:
320,192,43472,1,0,0:0:0:0:
448,192,43472,1,0,0:0:0:0:
192,192,43518,1,0,0:0:0:0:
448,192,43565,128,0,43940:0:0:0:0:
320,192,43659,1,0,0:0:0:0:
64,192,43753,1,0,0:0:0:0:
64,192,43940,1,0,0:0:0:0:
320,192,44034,128,0,44128:0:0:0:0:
448,192,44034,1,0,0:0:0:0:
192,192,44128,128,0,44222:0:0:0:0:
320,192,44222,128,0,44597:0:0:0:0:
192,192,44315,1,0,0:0:0:0:
64,192,44409,1,0,0:0:0:0:
192,192,44597,128,0,44972:0:0:0:0:
448,192,44597,1,0,0:0:0:0:
320,192,44784,1,0,0:0:0:0:
64,192,44972,128,0,45159:0:0:0:0:
320,192,44972,1,0,0:0:0:0:
448,192,45065,1,0,0:0:0:0:
192,192,45253,128,0,45347:0:0:0:0:
64,192,45253,1,0,0:0:0:0:
320,192,45347,1,0,0:0:0:0:
64,192,45440,1,0,0:0:0:0:
320,192,45534,1,0,0:0:0:0:
448,192,45534,1,0,0:0:0:0:
192,192,45581,1,0,0:0:0:0:
320,192,45628,128,0,45909:0:0:0:0:
448,192,45815,1,0,0:0:0:0:
192,192,45909,128,0,46097:0:0:0:0:
64,192,45909,1,0,0:0:0:0:
64,192,46097,128,0,46284:0:0:0:0:
448,192,46097,1,0,0:0:0:0:
448,192,46190,1,0,0:0:0:0:
320,192,46190,1,0,0:0:0:0:
192,192,46284,128,0,46472:0:0:0:0:
448,192,46472,128,0,46659:0:0:0:0:
320,192,46472,128,0,46659:0:0:0:0:
64,192,46659,1,0,0:0:0:0:
192,192,46753,128,0,46940:0:0:0:0:
320,192,46753,1,0,0:0:0:0:
64,192,46940,1,0,0:0:0:0:
448,192,47034,1,0,0:0:0:0:
320,192,47034,128,0,47222:0:0:0:0:
64,192,47222,128,0,47409:0:0:0:0:
320,192,47315,1,0,0:0:0:0:
192,192,47409,1,0,0:0:0:0:
448,192,47409,128,0,47597:0:0:0:0:
192,192,47597,128,0,47784:0:0:0:0:
64,192,47597,1,0,0:0:0:0:
320,192,47784,128,0,47972:0:0:0:0:
448,192,47784,1,0,0:0:0:0:
448,192,47972,1,0,0:0:0:0:
64,192,47972,1,0,0:0:0:0:
64,192,48065,1,0,0:0:0:0:
192,192,48065,1,0,0:0:0:0:
320,192,48159,1,0,0:0:0:0:
448,192,48159,1,0,0:0:0:0:
64,192,48253,1,0,0:0:0:0:
448,192,48253,1,0,0:0:0:0:
192,192,48347,1,0,0:0:0:0:
64,192,48347,1,0,0:0:0:0:
320,192,48440,1,0,0:0:0:0:
448,192,48440,1,0,0:0:0:0:
64,192,48628,1,0,0:0:0:0:
448,192,48628,1,0,0:0:0:0:
192,192,48722,1,0,0:0:0:0:
320,192,48815,1,0,0:0:0:0:
192,192,48909,1,0,0:0:0:0:
448,192,48909,1,0,0:0:0:0:
64,192,49003,1,0,0:0:0:0:
320,192,49097,1,0,0:0:0:0:
448,192,49097,1,0,0:0:0:0:
192,192,49190,1,0,0:0:0:0:
192,192,49284,1,0,0:0:0:0:
64,192,49284,1,0,0:0:0:0:
320,192,49378,1,0,0:0:0:0:
448,192,49378,1,0,0:0:0:0:
448,192,49472,1,0,0:0:0:0:
64,192,49472,128,0,49565:0:0:0:0:
192,192,49472,128,0,49565:0:0:0:0:
192,192,49753,128,0,49847:0:0:0:0:
320,192,49753,128,0,49847:0:0:0:0:
64,192,49847,1,0,0:0:0:0:
448,192,49847,1,0,0:0:0:0:
320,192,50034,128,0,50128:0:0:0:0:
448,192,50034,128,0,50128:0:0:0:0:
192,192,50128,1,0,0:0:0:0:
64,192,50222,1,0,0:0:0:0:
192,192,50315,1,0,0:0:0:0:
448,192,50315,128,0,50409:0:0:0:0:
320,192,50409,128,0,50503:0:0:0:0:
64,192,50503,128,0,50597:0:0:0:0:
448,192,50597,128,0,50690:0:0:0:0:
320,192,50597,1,0,0:0:0:0:
192,192,50690,128,0,50784:0:0:0:0:
64,192,50784,128,0,50878:0:0:0:0:
320,192,50878,128,0,50972:0:0:0:0:
64,192,50972,128,0,51159:0:0:0:0:
192,192,50972,128,0,51159:0:0:0:0:
320,192,51159,128,0,51253:0:0:0:0:
192,192,51347,128,0,51534:0:0:0:0:
448,192,51347,1,0,0:0:0:0:
448,192,51534,128,0,51722:0:0:0:0:
192,192,51628,1,0,0:0:0:0:
64,192,51722,1,0,0:0:0:0:
192,192,51815,128,0,51909:0:0:0:0:
448,192,51815,1,0,0:0:0:0:
320,192,51909,128,0,52003:0:0:0:0:
448,192,52003,128,0,52097:0:0:0:0:
64,192,52097,1,0,0:0:0:0:
320,192,52097,128,0,52190:0:0:0:0:
192,192,52190,1,0,0:0:0:0:
64,192,52190,128,0,52284:0:0:0:0:
320,192,52378,1,0,0:0:0:0:
448,192,52378,1,0,0:0:0:0:
192,192,52472,5,0,0:0:0:0:
64,192,52472,1,0,0:0:0:0:
320,192,52534,1,0,0:0:0:0:
448,192,52597,1,0,0:0:0:0:
64,192,52659,1,0,0:0:0:0:
320,192,52722,1,0,0:0:0:0:
448,192,52784,1,0,0:0:0:0:
64,192,52847,1,0,0:0:0:0:
320,192,52847,1,0,0:0:0:0:
192,192,52909,1,0,0:0:0:0:
448,192,52972,1,0,0:0:0:0:
64,192,53034,1,0,0:0:0:0:
192,192,53097,1,0,0:0:0:0:
320,192,53159,1,0,0:0:0:0:
64,192,53222,1,0,0:0:0:0:
192,192,53222,1,0,0:0:0:0:
448,192,53284,1,0,0:0:0:0:
64,192,53347,1,0,0:0:0:0:
448,192,53409,1,0,0:0:0:0:
64,192,53472,1,0,0:0:0:0:
448,192,53534,1,0,0:0:0:0:
192,192,53597,1,0,0:0:0:0:
320,192,53597,1,0,0:0:0:0:
192,192,53690,1,0,0:0:0:0:
192,192,53784,1,0,0:0:0:0:
320,192,53878,1,0,0:0:0:0:
448,192,53878,1,0,0:0:0:0:
448,192,53972,1,0,0:0:0:0:
64,192,53972,1,0,0:0:0:0:
192,192,53972,1,0,0:0:0:0:
64,192,54065,1,0,0:0:0:0:
320,192,54159,1,0,0:0:0:0:
448,192,54159,1,0,0:0:0:0:
64,192,54253,1,0,0:0:0:0:
192,192,54347,1,0,0:0:0:0:
448,192,54347,1,0,0:0:0:0:
320,192,54440,1,0,0:0:0:0:
448,192,54440,1,0,0:0:0:0:
320,192,54628,1,0,0:0:0:0:
448,192,54659,1,0,0:0:0:0:
64,192,54722,1,0,0:0:0:0:
192,192,54815,1,0,0:0:0:0:
64,192,54909,1,0,0:0:0:0:
320,192,54909,1,0,0:0:0:0:
192,192,55003,1,0,0:0:0:0:
320,192,55097,1,0,0:0:0:0:
448,192,55097,1,0,0:0:0:0:
192,192,55190,1,0,0:0:0:0:
192,192,55284,1,0,0:0:0:0:
64,192,55284,1,0,0:0:0:0:
320,192,55378,1,0,0:0:0:0:
448,192,55378,1,0,0:0:0:0:
64,192,55472,1,0,0:0:0:0:
192,192,55472,1,0,0:0:0:0:
448,192,55472,128,0,55753:0:0:0:0:
64,192,55753,128,0,55940:0:0:0:0:
192,192,55753,1,0,0:0:0:0:
320,192,55847,1,0,0:0:0:0:
448,192,55847,1,0,0:0:0:0:
320,192,56034,128,0,56222:0:0:0:0:
192,192,56034,1,0,0:0:0:0:
448,192,56128,1,0,0:0:0:0:
192,192,56222,128,0,56409:0:0:0:0:
64,192,56222,1,0,0:0:0:0:
448,192,56315,1,0,0:0:0:0:
320,192,56409,128,0,56597:0:0:0:0:
64,192,56409,1,0,0:0:0:0:
448,192,56597,128,0,56784:0:0:0:0:
192,192,56597,1,0,0:0:0:0:
320,192,56784,1,0,0:0:0:0:
64,192,56784,128,0,56878:0:0:0:0:
192,192,56878,1,0,0:0:0:0:
448,192,56972,128,0,57253:0:0:0:0:
320,192,56972,1,0,0:0:0:0:
64,192,56972,1,0,0:0:0:0:
192,192,57253,128,0,57440:0:0:0:0:
64,192,57253,1,0,0:0:0:0:
320,192,57347,1,0,0:0:0:0:
448,192,57347,1,0,0:0:0:0:
320,192,57534,128,0,57722:0:0:0:0:
192,192,57534,1,0,0:0:0:0:
64,192,57628,1,0,0:0:0:0:
192,192,57722,128,0,57909:0:0:0:0:
448,192,57722,1,0,0:0:0:0:
64,192,57815,1,0,0:0:0:0:
320,192,57909,128,0,58097:0:0:0:0:
448,192,57909,1,0,0:0:0:0:
448,192,58097,128,0,58284:0:0:0:0:
192,192,58097,1,0,0:0:0:0:
64,192,58284,128,0,58472:0:0:0:0:
192,192,58284,1,0,0:0:0:0:
448,192,58378,1,0,0:0:0:0:
320,192,58472,128,0,58565:0:0:0:0:
192,192,58472,1,0,0:0:0:0:
448,192,58472,1,0,0:0:0:0:
64,192,58565,128,0,58659:0:0:0:0:
320,192,58659,128,0,58753:0:0:0:0:
192,192,58659,1,0,0:0:0:0:
64,192,58753,128,0,58847:0:0:0:0:
320,192,58847,128,0,58940:0:0:0:0:
448,192,58847,1,0,0:0:0:0:
192,192,58940,128,0,59034:0:0:0:0:
64,192,58940,1,0,0:0:0:0:
320,192,59034,128,0,59128:0:0:0:0:
448,192,59034,1,0,0:0:0:0:
192,192,59128,128,0,59222:0:0:0:0:
448,192,59222,128,0,59315:0:0:0:0:
64,192,59222,1,0,0:0:0:0:
192,192,59315,128,0,59409:0:0:0:0:
448,192,59409,128,0,59503:0:0:0:0:
320,192,59409,1,0,0:0:0:0:
192,192,59503,128,0,59597:0:0:0:0:
448,192,59597,128,0,59690:0:0:0:0:
64,192,59597,1,0,0:0:0:0:
320,192,59690,128,0,59784:0:0:0:0:
192,192,59690,1,0,0:0:0:0:
448,192,59784,128,0,59878:0:0:0:0:
64,192,59784,1,0,0:0:0:0:
320,192,59878,128,0,59972:0:0:0:0:
64,192,59972,1,0,0:0:0:0:
192,192,59972,1,0,0:0:0:0:
448,192,60034,1,0,0:0:0:0:
192,192,60097,1,0,0:0:0:0:
64,192,60159,1,0,0:0:0:0:
320,192,60159,1,0,0:0:0:0:
448,192,60222,1,0,0:0:0:0:
320,192,60284,1,0,0:0:0:0:
64,192,60347,1,0,0:0:0:0:
192,192,60347,1,0,0:0:0:0:
448,192,60409,1,0,0:0:0:0:
192,192,60472,1,0,0:0:0:0:
64,192,60534,1,0,0:0:0:0:
320,192,60534,1,0,0:0:0:0:
448,192,60597,1,0,0:0:0:0:
192,192,60659,1,0,0:0:0:0:
320,192,60722,1,0,0:0:0:0:
448,192,60722,1,0,0:0:0:0:
64,192,60784,1,0,0:0:0:0:
320,192,60847,1,0,0:0:0:0:
192,192,60909,1,0,0:0:0:0:
448,192,60972,1,0,0:0:0:0:
192,192,61034,1,0,0:0:0:0:
320,192,61097,1,0,0:0:0:0:
448,192,61097,1,0,0:0:0:0:
64,192,61159,1,0,0:0:0:0:
320,192,61222,1,0,0:0:0:0:
192,192,61284,1,0,0:0:0:0:
448,192,61347,1,0,0:0:0:0:
64,192,61409,1,0,0:0:0:0:
320,192,61472,1,0,0:0:0:0:
448,192,61518,1,0,0:0:0:0:
64,192,61565,1,0,0:0:0:0:
192,192,61612,1,0,0:0:0:0:
320,192,61659,1,0,0:0:0:0:
448,192,61706,1,0,0:0:0:0:
192,192,61753,1,0,0:0:0:0:
64,192,61800,1,0,0:0:0:0:
448,192,61847,1,0,0:0:0:0:
320,192,61893,1,0,0:0:0:0:
192,192,61940,1,0,0:0:0:0:
64,192,61987,1,0,0:0:0:0:
448,192,62034,1,0,0:0:0:0:
320,192,62081,1,0,0:0:0:0:
64,192,62128,1,0,0:0:0:0:
192,192,62175,1,0,0:0:0:0:
448,192,62222,1,0,0:0:0:0:
320,192,62268,1,0,0:0:0:0:
64,192,62315,1,0,0:0:0:0:
192,192,62362,1,0,0:0:0:0:
448,192,62409,1,0,0:0:0:0:
320,192,62456,1,0,0:0:0:0:
64,192,62503,1,0,0:0:0:0:
192,192,62550,1,0,0:0:0:0:
448,192,62597,1,0,0:0:0:0:
320,192,62643,1,0,0:0:0:0:
64,192,62690,1,0,0:0:0:0:
192,192,62737,1,0,0:0:0:0:
448,192,62784,1,0,0:0:0:0:
320,192,62831,1,0,0:0:0:0:
64,192,62878,1,0,0:0:0:0:
192,192,62925,1,0,0:0:0:0:
320,192,62972,1,0,0:0:0:0:
448,192,62972,128,0,63065:0:0:0:0:
192,192,63159,128,0,63253:0:0:0:0:
448,192,63347,1,0,0:0:0:0:
320,192,63440,1,0,0:0:0:0:
64,192,63534,1,0,0:0:0:0:
448,192,63628,1,0,0:0:0:0:
192,192,63675,1,0,0:0:0:0:
64,192,63722,1,0,0:0:0:0:
320,192,63815,1,0,0:0:0:0:
448,192,63815,1,0,0:0:0:0:
192,192,63909,1,0,0:0:0:0:
64,192,64097,128,0,64190:0:0:0:0:
448,192,64097,1,0,0:0:0:0:
192,192,64190,128,0,64284:0:0:0:0:
320,192,64284,128,0,64378:0:0:0:0:
64,192,64378,128,0,64472:0:0:0:0:
320,192,64472,128,0,64612:0:0:0:0:
192,192,64472,1,0,0:0:0:0:
448,192,64472,1,0,0:0:0:0:
448,192,64612,1,0,0:0:0:0:
64,192,64659,1,0,0:0:0:0:
320,192,64659,1,0,0:0:0:0:
192,192,64753,128,0,64940:0:0:0:0:
64,192,64847,1,0,0:0:0:0:
320,192,64940,128,0,65034:0:0:0:0:
448,192,64940,1,0,0:0:0:0:
64,192,65034,128,0,65128:0:0:0:0:
192,192,65034,1,0,0:0:0:0:
320,192,65128,128,0,65222:0:0:0:0:
192,192,65222,128,0,65362:0:0:0:0:
448,192,65222,1,0,0:0:0:0:
320,192,65362,1,0,0:0:0:0:
64,192,65409,1,0,0:0:0:0:
192,192,65409,1,0,0:0:0:0:
64,192,65503,128,0,65690:0:0:0:0:
448,192,65503,1,0,0:0:0:0:
192,192,65690,128,0,65784:0:0:0:0:
320,192,65690,1,0,0:0:0:0:
448,192,65784,128,0,65878:0:0:0:0:
64,192,65784,1,0,0:0:0:0:
192,192,65878,128,0,65972:0:0:0:0:
320,192,65972,128,0,66159:0:0:0:0:
64,192,65972,1,0,0:0:0:0:
448,192,65972,1,0,0:0:0:0:
192,192,66159,128,0,66253:0:0:0:0:
448,192,66159,1,0,0:0:0:0:
64,192,66347,1,0,0:0:0:0:
192,192,66347,1,0,0:0:0:0:
448,192,66347,128,0,66440:0:0:0:0:
320,192,66440,128,0,66534:0:0:0:0:
64,192,66440,1,0,0:0:0:0:
192,192,66534,128,0,66628:0:0:0:0:
448,192,66534,1,0,0:0:0:0:
64,192,66628,128,0,67097:0:0:0:0:
192,192,66722,1,0,0:0:0:0:
320,192,66722,1,0,0:0:0:0:
192,192,66909,1,0,0:0:0:0:
320,192,66909,1,0,0:0:0:0:
448,192,67003,1,0,0:0:0:0:
320,192,67003,1,0,0:0:0:0:
192,192,67097,1,0,0:0:0:0:
320,192,67190,1,0,0:0:0:0:
448,192,67190,1,0,0:0:0:0:
64,192,67284,1,0,0:0:0:0:
448,192,67284,1,0,0:0:0:0:
320,192,67378,1,0,0:0:0:0:
448,192,67472,1,0,0:0:0:0:
64,192,67472,1,0,0:0:0:0:
192,192,67472,1,0,0:0:0:0:
320,192,67534,1,0,0:0:0:0:
192,192,67597,1,0,0:0:0:0:
448,192,67659,1,0,0:0:0:0:
64,192,67659,1,0,0:0:0:0:
320,192,67722,1,0,0:0:0:0:
64,192,67784,1,0,0:0:0:0:
448,192,67847,1,0,0:0:0:0:
192,192,67909,1,0,0:0:0:0:
64,192,67972,1,0,0:0:0:0:
320,192,68034,1,0,0:0:0:0:
448,192,68034,1,0,0:0:0:0:
192,192,68097,1,0,0:0:0:0:
448,192,68159,1,0,0:0:0:0:
320,192,68222,1,0,0:0:0:0:
64,192,68284,1,0,0:0:0:0:
192,192,68347,1,0,0:0:0:0:
320,192,68409,1,0,0:0:0:0:
448,192,68409,1,0,0:0:0:0:
64,192,68472,1,0,0:0:0:0:
192,192,68534,1,0,0:0:0:0:
448,192,68597,1,0,0:0:0:0:
64,192,68659,1,0,0:0:0:0:
320,192,68722,1,0,0:0:0:0:
448,192,68784,1,0,0:0:0:0:
64,192,68784,1,0,0:0:0:0:
192,192,68847,1,0,0:0:0:0:
320,192,68909,1,0,0:0:0:0:
64,192,68972,1,0,0:0:0:0:
192,192,68972,1,0,0:0:0:0:
448,192,68972,1,0,0:0:0:0:
192,192,69065,1,0,0:0:0:0:
64,192,69159,1,0,0:0:0:0:
448,192,69159,1,0,0:0:0:0:
320,192,69159,1,0,0:0:0:0:
320,192,69253,1,0,0:0:0:0:
64,192,69347,1,0,0:0:0:0:
448,192,69347,1,0,0:0:0:0:
192,192,69347,1,0,0:0:0:0:
192,192,69440,1,0,0:0:0:0:
64,192,69534,1,0,0:0:0:0:
448,192,69534,1,0,0:0:0:0:
320,192,69534,1,0,0:0:0:0:
320,192,69628,1,0,0:0:0:0:
64,192,69722,1,0,0:0:0:0:
192,192,69722,1,0,0:0:0:0:
448,192,69784,1,0,0:0:0:0:
192,192,69847,1,0,0:0:0:0:
320,192,69909,1,0,0:0:0:0:
448,192,69909,1,0,0:0:0:0:
64,192,69972,1,0,0:0:0:0:
320,192,70034,1,0,0:0:0:0:
192,192,70097,1,0,0:0:0:0:
448,192,70159,1,0,0:0:0:0:
64,192,70222,1,0,0:0:0:0:
448,192,70284,128,0,70378:0:0:0:0:
192,192,70284,1,0,0:0:0:0:
320,192,70378,128,0,70472:0:0:0:0:
64,192,70472,1,0,0:0:0:0:
448,192,70472,1,0,0:0:0:0:
192,192,70472,128,0,70612:0:0:0:0:
320,192,70612,1,0,0:0:0:0:
448,192,70659,1,0,0:0:0:0:
192,192,70659,1,0,0:0:0:0:
64,192,70753,128,0,70940:0:0:0:0:
192,192,70847,1,0,0:0:0:0:
320,192,70940,128,0,71034:0:0:0:0:
448,192,70940,1,0,0:0:0:0:
192,192,71034,128,0,71128:0:0:0:0:
64,192,71034,1,0,0:0:0:0:
320,192,71128,128,0,71222:0:0:0:0:
448,192,71222,1,0,0:0:0:0:
64,192,71222,128,0,71362:0:0:0:0:
192,192,71362,1,0,0:0:0:0:
320,192,71409,1,0,0:0:0:0:
448,192,71409,1,0,0:0:0:0:
64,192,71503,1,0,0:0:0:0:
448,192,71503,128,0,71690:0:0:0:0:
320,192,71690,128,0,71784:0:0:0:0:
64,192,71690,1,0,0:0:0:0:
192,192,71784,128,0,71878:0:0:0:0:
448,192,71784,1,0,0:0:0:0:
320,192,71878,128,0,71972:0:0:0:0:
64,192,71972,128,0,72159:0:0:0:0:
192,192,71972,1,0,0:0:0:0:
448,192,71972,1,0,0:0:0:0:
192,192,72159,128,0,72253:0:0:0:0:
320,192,72159,1,0,0:0:0:0:
64,192,72347,1,0,0:0:0:0:
192,192,72347,1,0,0:0:0:0:
448,192,72347,1,0,0:0:0:0:
64,192,72440,1,0,0:0:0:0:
320,192,72440,1,0,0:0:0:0:
448,192,72534,1,0,0:0:0:0:
192,192,72534,1,0,0:0:0:0:
64,192,72628,1,0,0:0:0:0:
320,192,72628,128,0,72909:0:0:0:0:
448,192,72628,1,0,0:0:0:0:
448,192,72815,1,0,0:0:0:0:
192,192,72909,128,0,73097:0:0:0:0:
64,192,72909,1,0,0:0:0:0:
448,192,73003,1,0,0:0:0:0:
320,192,73097,128,0,73284:0:0:0:0:
64,192,73097,1,0,0:0:0:0:
192,192,73190,1,0,0:0:0:0:
448,192,73284,128,0,73378:0:0:0:0:
64,192,73284,1,0,0:0:0:0:
320,192,73378,1,0,0:0:0:0:
64,192,73472,1,0,0:0:0:0:
192,192,73472,1,0,0:0:0:0:
448,192,73472,128,0,73565:0:0:0:0:
320,192,73565,128,0,73659:0:0:0:0:
64,192,73565,1,0,0:0:0:0:
192,192,73659,128,0,73753:0:0:0:0:
448,192,73659,1,0,0:0:0:0:
320,192,73753,128,0,73847:0:0:0:0:
64,192,73847,128,0,74128:0:0:0:0:
448,192,73847,1,0,0:0:0:0:
192,192,73940,1,0,0:0:0:0:
320,192,74034,1,0,0:0:0:0:
448,192,74034,1,0,0:0:0:0:
64,192,74222,128,0,74315:0:0:0:0:
320,192,74222,1,0,0:0:0:0:
448,192,74222,1,0,0:0:0:0:
192,192,74315,128,0,74409:0:0:0:0:
448,192,74315,1,0,0:0:0:0:
320,192,74409,128,0,74503:0:0:0:0:
64,192,74409,1,0,0:0:0:0:
192,192,74503,128,0,74597:0:0:0:0:
448,192,74597,128,0,74878:0:0:0:0:
64,192,74597,1,0,0:0:0:0:
320,192,74690,1,0,0:0:0:0:
64,192,74784,1,0,0:0:0:0:
192,192,74784,1,0,0:0:0:0:
448,192,74972,1,0,0:0:0:0:
320,192,74972,1,0,0:0:0:0:
192,192,75034,1,0,0:0:0:0:
448,192,75097,1,0,0:0:0:0:
64,192,75159,128,0,75253:0:0:0:0:
320,192,75253,128,0,75347:0:0:0:0:
448,192,75253,1,0,0:0:0:0:
64,192,75347,1,0,0:0:0:0:
192,192,75347,1,0,0:0:0:0:
320,192,75409,1,0,0:0:0:0:
64,192,75472,1,0,0:0:0:0:
448,192,75534,128,0,75628:0:0:0:0:
192,192,75628,128,0,75722:0:0:0:0:
64,192,75628,1,0,0:0:0:0:
320,192,75722,128,0,75815:0:0:0:0:
448,192,75722,1,0,0:0:0:0:
192,192,75815,128,0,75909:0:0:0:0:
320,192,75909,128,0,76003:0:0:0:0:
192,192,76003,128,0,76097:0:0:0:0:
448,192,76003,1,0,0:0:0:0:
320,192,76097,128,0,76190:0:0:0:0:
64,192,76097,1,0,0:0:0:0:
448,192,76190,128,0,76472:0:0:0:0:
64,192,76190,1,0,0:0:0:0:
192,192,76190,1,0,0:0:0:0:
192,192,76472,128,0,76612:0:0:0:0:
448,192,76612,1,0,0:0:0:0:
320,192,76753,128,0,76940:0:0:0:0:
448,192,76940,128,0,77034:0:0:0:0:
192,192,77034,128,0,77128:0:0:0:0:
448,192,77128,128,0,77222:0:0:0:0:
64,192,77222,128,0,77362:0:0:0:0:
320,192,77362,1,0,0:0:0:0:
64,192,77472,1,0,0:0:0:0:
192,192,77503,128,0,77690:0:0:0:0:
64,192,77690,128,0,77784:0:0:0:0:
448,192,77784,128,0,77878:0:0:0:0:
192,192,77878,128,0,77972:0:0:0:0:
320,192,77972,128,0,78159:0:0:0:0:
192,192,78159,128,0,78253:0:0:0:0:
448,192,78347,128,0,78440:0:0:0:0:
320,192,78440,128,0,78534:0:0:0:0:
192,192,78534,128,0,78628:0:0:0:0:
64,192,78628,128,0,78722:0:0:0:0:
448,192,78722,1,0,0:0:0:0:
64,192,78784,1,0,0:0:0:0:
448,192,78847,1,0,0:0:0:0:
64,192,78909,1,0,0:0:0:0:
448,192,78972,1,0,0:0:0:0:
64,192,79034,1,0,0:0:0:0:
448,192,79097,1,0,0:0:0:0:
64,192,79190,128,0,79284:0:0:0:0:
192,192,79284,128,0,79378:0:0:0:0:
320,192,79378,128,0,79472:0:0:0:0:
448,192,79472,5,0,0:0:0:0:
192,192,79534,1,0,0:0:0:0:
448,192,79597,1,0,0:0:0:0:
320,192,79659,1,0,0:0:0:0:
64,192,79722,1,0,0:0:0:0:
320,192,79784,1,0,0:0:0:0:
192,192,79847,1,0,0:0:0:0:
448,192,79909,1,0,0:0:0:0:
192,192,79972,1,0,0:0:0:0:
64,192,80034,1,0,0:0:0:0:
320,192,80097,1,0,0:0:0:0:
64,192,80159,1,0,0:0:0:0:
192,192,80222,128,0,80315:0:0:0:0:
320,192,80315,128,0,80409:0:0:0:0:
448,192,80503,128,0,80690:0:0:0:0:
192,192,80690,128,0,80784:0:0:0:0:
320,192,80784,128,0,80878:0:0:0:0:
64,192,80878,128,0,80972:0:0:0:0:
192,192,80972,128,0,81065:0:0:0:0:
448,192,81065,128,0,81159:0:0:0:0:
320,192,81253,128,0,81440:0:0:0:0:
448,192,81440,128,0,81534:0:0:0:0:
192,192,81534,128,0,81628:0:0:0:0:
64,192,81534,1,0,0:0:0:0:
320,192,81534,1,0,0:0:0:0:
448,192,81628,128,0,81722:0:0:0:0:
64,192,81722,1,0,0:0:0:0:
192,192,81722,1,0,0:0:0:0:
320,192,81815,1,0,0:0:0:0:
192,192,81909,1,0,0:0:0:0:
64,192,82003,1,0,0:0:0:0:
448,192,82003,1,0,0:0:0:0:
320,192,82097,1,0,0:0:0:0:
448,192,82097,1,0,0:0:0:0:
192,192,82190,1,0,0:0:0:0:
192,192,82284,1,0,0:0:0:0:
64,192,82284,1,0,0:0:0:0:
320,192,82378,1,0,0:0:0:0:
448,192,82378,1,0,0:0:0:0:
64,192,82472,1,0,0:0:0:0:
64,192,82565,1,0,0:0:0:0:
64,192,82659,1,0,0:0:0:0:
192,192,82659,1,0,0:0:0:0:
320,192,82659,1,0,0:0:0:0:
448,192,82753,128,0,82940:0:0:0:0:
192,192,82847,1,0,0:0:0:0:
320,192,82940,128,0,83034:0:0:0:0:
64,192,82940,1,0,0:0:0:0:
192,192,83034,128,0,83128:0:0:0:0:
448,192,83034,1,0,0:0:0:0:
320,192,83128,128,0,83222:0:0:0:0:
64,192,83222,128,0,83362:0:0:0:0:
448,192,83222,1,0,0:0:0:0:
320,192,83315,1,0,0:0:0:0:
192,192,83362,1,0,0:0:0:0:
448,192,83409,1,0,0:0:0:0:
320,192,83503,128,0,83690:0:0:0:0:
64,192,83503,1,0,0:0:0:0:
192,192,83690,128,0,83784:0:0:0:0:
448,192,83690,1,0,0:0:0:0:
64,192,83784,128,0,83878:0:0:0:0:
320,192,83784,1,0,0:0:0:0:
448,192,83878,128,0,83972:0:0:0:0:
64,192,83972,1,0,0:0:0:0:
192,192,83972,1,0,0:0:0:0:
320,192,83972,1,0,0:0:0:0:
64,192,84097,1,0,0:0:0:0:
448,192,84097,1,0,0:0:0:0:
192,192,84222,1,0,0:0:0:0:
320,192,84222,1,0,0:0:0:0:
64,192,84347,1,0,0:0:0:0:
448,192,84347,1,0,0:0:0:0:
320,192,84347,1,0,0:0:0:0:
64,192,84472,1,0,0:0:0:0:
192,192,84472,1,0,0:0:0:0:
320,192,84597,1,0,0:0:0:0:
448,192,84597,1,0,0:0:0:0:
64,192,84722,1,0,0:0:0:0:
192,192,84722,1,0,0:0:0:0:
448,192,84722,1,0,0:0:0:0:
320,192,84847,1,0,0:0:0:0:
192,192,84847,1,0,0:0:0:0:
64,192,84972,1,0,0:0:0:0:
448,192,84972,1,0,0:0:0:0:
192,192,85097,1,0,0:0:0:0:
320,192,85097,1,0,0:0:0:0:
448,192,85097,1,0,0:0:0:0:
64,192,85222,1,0,0:0:0:0:
320,192,85222,1,0,0:0:0:0:
192,192,85347,1,0,0:0:0:0:
448,192,85347,1,0,0:0:0:0:
64,192,85472,1,0,0:0:0:0:
192,192,85472,1,0,0:0:0:0:
320,192,85472,128,0,85565:0:0:0:0:
448,192,85565,128,0,85659:0:0:0:0:
192,192,85659,128,0,85753:0:0:0:0:
448,192,85753,128,0,85847:0:0:0:0:
320,192,85753,1,0,0:0:0:0:
64,192,85847,128,0,85940:0:0:0:0:
192,192,85847,1,0,0:0:0:0:
320,192,85940,128,0,86034:0:0:0:0:
448,192,86034,1,0,0:0:0:0:
64,192,86034,128,0,86128:0:0:0:0:
320,192,86128,1,0,0:0:0:0:
192,192,86128,128,0,86222:0:0:0:0:
64,192,86222,128,0,86315:0:0:0:0:
320,192,86315,128,0,86409:0:0:0:0:
448,192,86315,1,0,0:0:0:0:
192,192,86409,128,0,86503:0:0:0:0:
64,192,86409,1,0,0:0:0:0:
320,192,86503,128,0,86597:0:0:0:0:
448,192,86597,128,0,86690:0:0:0:0:
192,192,86597,1,0,0:0:0:0:
64,192,86690,128,0,86784:0:0:0:0:
320,192,86784,128,0,86878:0:0:0:0:
192,192,86784,1,0,0:0:0:0:
448,192,86878,128,0,86972:0:0:0:0:
64,192,86878,1,0,0:0:0:0:
192,192,86972,128,0,87065:0:0:0:0:
320,192,86972,1,0,0:0:0:0:
448,192,87065,128,0,87159:0:0:0:0:
64,192,87159,128,0,87253:0:0:0:0:
192,192,87253,128,0,87347:0:0:0:0:
320,192,87253,1,0,0:0:0:0:
64,192,87347,1,0,0:0:0:0:
448,192,87347,128,0,87440:0:0:0:0:
320,192,87440,128,0,87534:0:0:0:0:
64,192,87534,128,0,87628:0:0:0:0:
192,192,87534,1,0,0:0:0:0:
448,192,87628,1,0,0:0:0:0:
320,192,87628,128,0,87722:0:0:0:0:
192,192,87722,128,0,87815:0:0:0:0:
320,192,87815,128,0,87909:0:0:0:0:
64,192,87815,1,0,0:0:0:0:
448,192,87909,128,0,88003:0:0:0:0:
192,192,87909,1,0,0:0:0:0:
320,192,88003,128,0,88097:0:0:0:0:
64,192,88097,128,0,88190:0:0:0:0:
192,192,88097,1,0,0:0:0:0:
448,192,88190,128,0,88284:0:0:0:0:
64,192,88284,1,0,0:0:0:0:
320,192,88284,128,0,88378:0:0:0:0:
448,192,88378,1,0,0:0:0:0:
192,192,88378,128,0,88472:0:0:0:0:
64,192,88472,1,0,0:0:0:0:
320,192,88472,1,0,0:0:0:0:
448,192,88472,1,0,0:0:0:0:
192,192,88534,1,0,0:0:0:0:
448,192,88597,1,0,0:0:0:0:
64,192,88659,1,0,0:0:0:0:
192,192,88659,1,0,0:0:0:0:
320,192,88722,1,0,0:0:0:0:
64,192,88784,1,0,0:0:0:0:
448,192,88847,1,0,0:0:0:0:
320,192,88909,1,0,0:0:0:0:
192,192,88972,1,0,0:0:0:0:
448,192,89034,1,0,0:0:0:0:
320,192,89034,1,0,0:0:0:0:
192,192,89097,1,0,0:0:0:0:
64,192,89159,1,0,0:0:0:0:
192,192,89222,1,0,0:0:0:0:
320,192,89284,1,0,0:0:0:0:
64,192,89347,1,0,0:0:0:0:
320,192,89409,1,0,0:0:0:0:
448,192,89409,1,0,0:0:0:0:
192,192,89472,1,0,0:0:0:0:
448,192,89534,1,0,0:0:0:0:
64,192,89597,1,0,0:0:0:0:
192,192,89659,1,0,0:0:0:0:
320,192,89722,1,0,0:0:0:0:
64,192,89784,1,0,0:0:0:0:
192,192,89784,1,0,0:0:0:0:
320,192,89847,1,0,0:0:0:0:
448,192,89909,1,0,0:0:0:0:
64,192,89972,1,0,0:0:0:0:
192,192,90018,1,0,0:0:0:0:
448,192,90065,1,0,0:0:0:0:
320,192,90112,1,0,0:0:0:0:
192,192,90159,1,0,0:0:0:0:
64,192,90206,1,0,0:0:0:0:
320,192,90253,1,0,0:0:0:0:
448,192,90300,1,0,0:0:0:0:
192,192,90347,1,0,0:0:0:0:
64,192,90393,1,0,0:0:0:0:
448,192,90440,1,0,0:0:0:0:
320,192,90487,1,0,0:0:0:0:
64,192,90534,1,0,0:0:0:0:
192,192,90581,1,0,0:0:0:0:
320,192,90628,1,0,0:0:0:0:
448,192,90675,1,0,0:0:0:0:
64,192,90722,1,0,0:0:0:0:
192,192,90768,1,0,0:0:0:0:
320,192,90815,1,0,0:0:0:0:
64,192,90862,1,0,0:0:0:0:
448,192,90909,1,0,0:0:0:0:
320,192,90956,1,0,0:0:0:0:
192,192,91003,1,0,0:0:0:0:
64,192,91050,1,0,0:0:0:0:
448,192,91097,1,0,0:0:0:0:
320,192,91143,1,0,0:0:0:0:
192,192,91190,1,0,0:0:0:0:
448,192,91237,1,0,0:0:0:0:
64,192,91284,1,0,0:0:0:0:
192,192,91331,1,0,0:0:0:0:
320,192,91378,1,0,0:0:0:0:
448,192,91425,1,0,0:0:0:0:
64,192,91472,128,0,91565:0:0:0:0:
64,192,91659,128,0,91753:0:0:0:0:
64,192,91847,128,0,91940:0:0:0:0:
192,192,91940,128,0,92034:0:0:0:0:
448,192,92034,128,0,92128:0:0:0:0:
64,192,92128,128,0,92222:0:0:0:0:
320,192,92222,128,0,92315:0:0:0:0:
64,192,92409,128,0,92503:0:0:0:0:
448,192,92597,128,0,92690:0:0:0:0:
192,192,92784,128,0,92878:0:0:0:0:
320,192,92972,1,0,0:0:0:0:
448,192,92972,1,0,0:0:0:0:
192,192,93034,1,0,0:0:0:0:
64,192,93097,1,0,0:0:0:0:
192,192,93159,1,0,0:0:0:0:
448,192,93159,1,0,0:0:0:0:
320,192,93222,1,0,0:0:0:0:
64,192,93284,1,0,0:0:0:0:
192,192,93347,1,0,0:0:0:0:
320,192,93347,1,0,0:0:0:0:
448,192,93409,1,0,0:0:0:0:
192,192,93472,1,0,0:0:0:0:
64,192,93534,1,0,0:0:0:0:
320,192,93534,1,0,0:0:0:0:
448,192,93597,1,0,0:0:0:0:
320,192,93659,1,0,0:0:0:0:
64,192,93722,1,0,0:0:0:0:
192,192,93722,1,0,0:0:0:0:
448,192,93784,1,0,0:0:0:0:
64,192,93847,1,0,0:0:0:0:
448,192,93909,1,0,0:0:0:0:
64,192,93972,1,0,0:0:0:0:
448,192,94034,1,0,0:0:0:0:
64,192,94097,1,0,0:0:0:0:
192,192,94097,1,0,0:0:0:0:
320,192,94159,1,0,0:0:0:0:
192,192,94222,1,0,0:0:0:0:
320,192,94284,1,0,0:0:0:0:
192,192,94347,1,0,0:0:0:0:
320,192,94409,1,0,0:0:0:0:
64,192,94472,1,0,0:0:0:0:
192,192,94472,1,0,0:0:0:0:
448,192,94472,128,0,94659:0:0:0:0:
64,192,94659,128,0,94753:0:0:0:0:
320,192,94659,1,0,0:0:0:0:
192,192,94847,128,0,94940:0:0:0:0:
64,192,94847,1,0,0:0:0:0:
448,192,94940,1,0,0:0:0:0:
64,192,95034,1,0,0:0:0:0:
320,192,95034,1,0,0:0:0:0:
192,192,95081,1,0,0:0:0:0:
320,192,95128,128,0,95315:0:0:0:0:
64,192,95222,1,0,0:0:0:0:
448,192,95315,128,0,95597:0:0:0:0:
192,192,95409,1,0,0:0:0:0:
64,192,95409,1,0,0:0:0:0:
320,192,95503,1,0,0:0:0:0:
64,192,95503,1,0,0:0:0:0:
192,192,95597,128,0,95784:0:0:0:0:
448,192,95690,1,0,0:0:0:0:
320,192,95784,128,0,95972:0:0:0:0:
64,192,95784,1,0,0:0:0:0:
64,192,95972,128,0,96159:0:0:0:0:
192,192,95972,1,0,0:0:0:0:
192,192,96159,128,0,96347:0:0:0:0:
448,192,96159,1,0,0:0:0:0:
320,192,96347,128,0,96440:0:0:0:0:
64,192,96347,1,0,0:0:0:0:
448,192,96440,1,0,0:0:0:0:
192,192,96534,128,0,96722:0:0:0:0:
64,192,96534,1,0,0:0:0:0:
448,192,96722,128,0,96815:0:0:0:0:
320,192,96722,1,0,0:0:0:0:
64,192,96815,128,0,96909:0:0:0:0:
320,192,96909,128,0,97003:0:0:0:0:
192,192,96909,1,0,0:0:0:0:
448,192,97003,1,0,0:0:0:0:
192,192,97097,128,0,97284:0:0:0:0:
64,192,97097,1,0,0:0:0:0:
448,192,97190,1,0,0:0:0:0:
320,192,97284,128,0,97472:0:0:0:0:
64,192,97284,1,0,0:0:0:0:
448,192,97472,1,0,0:0:0:0:
64,192,97472,1,0,0:0:0:0:
320,192,97518,1,0,0:0:0:0:
64,192,97565,128,0,97753:0:0:0:0:
448,192,97659,1,0,0:0:0:0:
320,192,97659,1,0,0:0:0:0:
192,192,97753,128,0,97940:0:0:0:0:
64,192,97847,1,0,0:0:0:0:
320,192,97940,1,0,0:0:0:0:
64,192,98034,1,0,0:0:0:0:
448,192,98034,1,0,0:0:0:0:
192,192,98081,1,0,0:0:0:0:
448,192,98128,128,0,98409:0:0:0:0:
64,192,98222,1,0,0:0:0:0:
64,192,98409,1,0,0:0:0:0:
320,192,98409,128,0,98503:0:0:0:0:
448,192,98503,1,0,0:0:0:0:
64,192,98503,128,0,98597:0:0:0:0:
192,192,98503,1,0,0:0:0:0:
320,192,98597,128,0,98784:0:0:0:0:
64,192,98784,128,0,98878:0:0:0:0:
448,192,98784,1,0,0:0:0:0:
192,192,98878,128,0,98972:0:0:0:0:
64,192,98972,128,0,99065:0:0:0:0:
320,192,98972,128,0,99065:0:0:0:0:
448,192,98972,128,0,99065:0:0:0:0:
192,192,99159,1,0,0:0:0:0:
64,192,99253,128,0,99347:0:0:0:0:
320,192,99253,128,0,99347:0:0:0:0:
448,192,99253,128,0,99347:0:0:0:0:
64,192,99440,1,0,0:0:0:0:
192,192,99534,128,0,99628:0:0:0:0:
320,192,99534,128,0,99628:0:0:0:0:
448,192,99534,128,0,99628:0:0:0:0:
320,192,99722,1,0,0:0:0:0:
448,192,99722,1,0,0:0:0:0:
64,192,99768,1,0,0:0:0:0:
320,192,99815,128,0,100097:0:0:0:0:
192,192,99909,1,0,0:0:0:0:
448,192,99909,1,0,0:0:0:0:
64,192,100003,1,0,0:0:0:0:
448,192,100097,1,0,0:0:0:0:
192,192,100159,1,0,0:0:0:0:
320,192,100222,1,0,0:0:0:0:
448,192,100284,1,0,0:0:0:0:
64,192,100284,1,0,0:0:0:0:
192,192,100347,1,0,0:0:0:0:
320,192,100409,1,0,0:0:0:0:
64,192,100472,1,0,0:0:0:0:
192,192,100472,1,0,0:0:0:0:
448,192,100472,128,0,100565:0:0:0:0:
320,192,100565,128,0,100659:0:0:0:0:
192,192,100659,128,0,100753:0:0:0:0:
64,192,100659,1,0,0:0:0:0:
448,192,100753,128,0,100847:0:0:0:0:
64,192,100847,128,0,100940:0:0:0:0:
320,192,100847,1,0,0:0:0:0:
192,192,100940,128,0,101034:0:0:0:0:
64,192,101034,128,0,101128:0:0:0:0:
448,192,101034,1,0,0:0:0:0:
448,192,101128,128,0,101315:0:0:0:0:
320,192,101128,1,0,0:0:0:0:
192,192,101315,128,0,101409:0:0:0:0:
320,192,101315,1,0,0:0:0:0:
64,192,101409,128,0,101503:0:0:0:0:
448,192,101409,1,0,0:0:0:0:
320,192,101503,128,0,101597:0:0:0:0:
192,192,101597,128,0,101690:0:0:0:0:
64,192,101597,1,0,0:0:0:0:
448,192,101690,128,0,101784:0:0:0:0:
64,192,101784,128,0,101878:0:0:0:0:
320,192,101784,1,0,0:0:0:0:
192,192,101878,128,0,101972:0:0:0:0:
64,192,101972,1,0,0:0:0:0:
320,192,102034,1,0,0:0:0:0:
448,192,102097,1,0,0:0:0:0:
64,192,102159,1,0,0:0:0:0:
320,192,102159,1,0,0:0:0:0:
192,192,102222,1,0,0:0:0:0:
320,192,102284,1,0,0:0:0:0:
64,192,102347,1,0,0:0:0:0:
192,192,102409,1,0,0:0:0:0:
448,192,102472,1,0,0:0:0:0:
64,192,102534,1,0,0:0:0:0:
192,192,102534,1,0,0:0:0:0:
320,192,102597,1,0,0:0:0:0:
448,192,102659,1,0,0:0:0:0:
320,192,102722,1,0,0:0:0:0:
192,192,102784,1,0,0:0:0:0:
64,192,102847,1,0,0:0:0:0:
192,192,102909,1,0,0:0:0:0:
448,192,102909,1,0,0:0:0:0:
320,192,102972,1,0,0:0:0:0:
192,192,103034,1,0,0:0:0:0:
448,192,103097,1,0,0:0:0:0:
320,192,103159,1,0,0:0:0:0:
64,192,103222,1,0,0:0:0:0:
320,192,103284,1,0,0:0:0:0:
448,192,103284,1,0,0:0:0:0:
192,192,103347,1,0,0:0:0:0:
64,192,103409,1,0,0:0:0:0:
192,192,103472,1,0,0:0:0:0:
320,192,103472,1,0,0:0:0:0:
448,192,103472,128,0,103659:0:0:0:0:
320,192,103659,128,0,103753:0:0:0:0:
64,192,103659,1,0,0:0:0:0:
64,192,103847,128,0,103940:0:0:0:0:
320,192,103847,1,0,0:0:0:0:
192,192,103940,128,0,104034:0:0:0:0:
448,192,103940,1,0,0:0:0:0:
320,192,104034,128,0,104409:0:0:0:0:
64,192,104034,1,0,0:0:0:0:
192,192,104222,1,0,0:0:0:0:
64,192,104409,128,0,104503:0:0:0:0:
448,192,104409,1,0,0:0:0:0:
320,192,104503,1,0,0:0:0:0:
192,192,104503,1,0,0:0:0:0:
448,192,104597,128,0,104690:0:0:0:0:
320,192,104690,1,0,0:0:0:0:
192,192,104690,1,0,0:0:0:0:
448,192,104784,1,0,0:0:0:0:
64,192,104784,128,0,104878:0:0:0:0:
192,192,104878,1,0,0:0:0:0:
320,192,104878,128,0,105065:0:0:0:0:
448,192,105065,1,0,0:0:0:0:
192,192,105159,128,0,105253:0:0:0:0:
64,192,105159,1,0,0:0:0:0:
64,192,105347,128,0,105440:0:0:0:0:
448,192,105347,1,0,0:0:0:0:
192,192,105440,128,0,105534:0:0:0:0:
320,192,105440,1,0,0:0:0:0:
448,192,105534,1,0,0:0:0:0:
64,192,105628,128,0,105815:0:0:0:0:
192,192,105628,1,0,0:0:0:0:
320,192,105722,1,0,0:0:0:0:
192,192,105815,1,0,0:0:0:0:
320,192,105909,128,0,106003:0:0:0:0:
448,192,105909,1,0,0:0:0:0:
64,192,106003,1,0,0:0:0:0:
192,192,106097,128,0,106190:0:0:0:0:
448,192,106097,1,0,0:0:0:0:
64,192,106190,1,0,0:0:0:0:
320,192,106284,128,0,106378:0:0:0:0:
448,192,106284,1,0,0:0:0:0:
192,192,106378,1,0,0:0:0:0:
64,192,106472,128,0,106565:0:0:0:0:
448,192,106472,1,0,0:0:0:0:
320,192,106472,1,0,0:0:0:0:
64,192,106659,128,0,106753:0:0:0:0:
64,192,106847,128,0,106940:0:0:0:0:
448,192,106847,1,0,0:0:0:0:
192,192,106940,128,0,107034:0:0:0:0:
320,192,107034,128,0,107128:0:0:0:0:
448,192,107128,128,0,107222:0:0:0:0:
320,192,107222,128,0,107315:0:0:0:0:
64,192,107222,1,0,0:0:0:0:
192,192,107409,128,0,107503:0:0:0:0:
64,192,107597,128,0,107690:0:0:0:0:
320,192,107597,1,0,0:0:0:0:
192,192,107784,128,0,107878:0:0:0:0:
448,192,107972,128,0,108065:0:0:0:0:
320,192,107972,1,0,0:0:0:0:
64,192,108159,128,0,108253:0:0:0:0:
448,192,108253,128,0,108347:0:0:0:0:
320,192,108347,128,0,108440:0:0:0:0:
64,192,108347,1,0,0:0:0:0:
192,192,108440,128,0,108534:0:0:0:0:
448,192,108534,128,0,108628:0:0:0:0:
64,192,108628,128,0,108722:0:0:0:0:
192,192,108722,128,0,108815:0:0:0:0:
320,192,108722,1,0,0:0:0:0:
448,192,108815,128,0,108909:0:0:0:0:
64,192,108909,128,0,109003:0:0:0:0:
320,192,109003,128,0,109097:0:0:0:0:
64,192,109097,128,0,109378:0:0:0:0:
448,192,109190,128,0,109378:0:0:0:0:
320,192,109284,128,0,109378:0:0:0:0:
192,192,109378,128,0,109472:0:0:0:0:
64,192,109472,1,0,0:0:0:0:
448,192,109472,1,0,0:0:0:0:
320,192,109472,1,0,0:0:0:0:
192,192,109565,1,0,0:0:0:0:
448,192,109659,1,0,0:0:0:0:
64,192,109659,1,0,0:0:0:0:
320,192,109753,1,0,0:0:0:0:
192,192,109847,1,0,0:0:0:0:
448,192,109847,1,0,0:0:0:0:
64,192,109940,1,0,0:0:0:0:
192,192,109940,1,0,0:0:0:0:
320,192,110034,1,0,0:0:0:0:
448,192,110034,1,0,0:0:0:0:
192,192,110128,1,0,0:0:0:0:
320,192,110128,1,0,0:0:0:0:
64,192,110222,1,0,0:0:0:0:
448,192,110222,1,0,0:0:0:0:
192,192,110222,1,0,0:0:0:0:
320,192,110315,1,0,0:0:0:0:
64,192,110409,1,0,0:0:0:0:
448,192,110409,1,0,0:0:0:0:
192,192,110503,1,0,0:0:0:0:
64,192,110597,1,0,0:0:0:0:
320,192,110597,1,0,0:0:0:0:
320,192,110690,1,0,0:0:0:0:
448,192,110690,1,0,0:0:0:0:
64,192,110784,1,0,0:0:0:0:
192,192,110784,1,0,0:0:0:0:
192,192,110878,1,0,0:0:0:0:
320,192,110878,1,0,0:0:0:0:
64,192,110972,1,0,0:0:0:0:
448,192,110972,1,0,0:0:0:0:
320,192,110972,1,0,0:0:0:0:
192,192,111034,1,0,0:0:0:0:
448,192,111097,1,0,0:0:0:0:
64,192,111159,1,0,0:0:0:0:
320,192,111222,1,0,0:0:0:0:
64,192,111284,5,0,0:0:0:0:
320,192,111347,1,0,0:0:0:0:
448,192,111347,1,0,0:0:0:0:
192,192,111409,1,0,0:0:0:0:
448,192,111472,1,0,0:0:0:0:
64,192,111534,1,0,0:0:0:0:
320,192,111597,1,0,0:0:0:0:
192,192,111659,1,0,0:0:0:0:
448,192,111722,1,0,0:0:0:0:
320,192,111768,1,0,0:0:0:0:
64,192,111815,1,0,0:0:0:0:
192,192,111862,1,0,0:0:0:0:
448,192,111909,1,0,0:0:0:0:
320,192,111956,1,0,0:0:0:0:
192,192,112003,1,0,0:0:0:0:
64,192,112050,1,0,0:0:0:0:
320,192,112097,1,0,0:0:0:0:
448,192,112143,1,0,0:0:0:0:
192,192,112190,1,0,0:0:0:0:
64,192,112237,1,0,0:0:0:0:
320,192,112284,1,0,0:0:0:0:
448,192,112331,1,0,0:0:0:0:
64,192,112378,1,0,0:0:0:0:
192,192,112425,1,0,0:0:0:0:
448,192,112472,1,0,0:0:0:0:
320,192,112472,1,0,0:0:0:0:
192,192,112659,1,0,0:0:0:0:
320,192,112722,1,0,0:0:0:0:
192,192,112784,1,0,0:0:0:0:
320,192,112847,1,0,0:0:0:0:
64,192,112847,1,0,0:0:0:0:
448,192,113034,1,0,0:0:0:0:
192,192,113097,1,0,0:0:0:0:
448,192,113159,1,0,0:0:0:0:
192,192,113222,1,0,0:0:0:0:
320,192,113222,1,0,0:0:0:0:
320,192,113409,1,0,0:0:0:0:
192,192,113472,1,0,0:0:0:0:
320,192,113534,1,0,0:0:0:0:
192,192,113597,1,0,0:0:0:0:
448,192,113597,1,0,0:0:0:0:
64,192,113784,1,0,0:0:0:0:
320,192,113847,1,0,0:0:0:0:
64,192,113909,1,0,0:0:0:0:
320,192,113972,1,0,0:0:0:0:
448,192,113972,1,0,0:0:0:0:
192,192,113972,1,0,0:0:0:0:
192,192,114159,1,0,0:0:0:0:
64,192,114222,1,0,0:0:0:0:
192,192,114284,1,0,0:0:0:0:
320,192,114347,1,0,0:0:0:0:
64,192,114347,1,0,0:0:0:0:
64,192,114534,1,0,0:0:0:0:
192,192,114597,1,0,0:0:0:0:
64,192,114659,1,0,0:0:0:0:
320,192,114722,1,0,0:0:0:0:
192,192,114722,1,0,0:0:0:0:
320,192,114909,1,0,0:0:0:0:
448,192,114972,1,0,0:0:0:0:
320,192,115034,1,0,0:0:0:0:
192,192,115097,1,0,0:0:0:0:
448,192,115097,1,0,0:0:0:0:
448,192,115284,1,0,0:0:0:0:
320,192,115347,1,0,0:0:0:0:
448,192,115409,1,0,0:0:0:0:
64,192,115472,1,0,0:0:0:0:
192,192,115472,1,0,0:0:0:0:
320,192,115472,1,0,0:0:0:0:
64,192,115597,1,0,0:0:0:0:
448,192,115597,1,0,0:0:0:0:
64,192,115722,1,0,0:0:0:0:
448,192,115722,1,0,0:0:0:0:
448,192,115847,1,0,0:0:0:0:
320,192,115847,1,0,0:0:0:0:
192,192,115847,1,0,0:0:0:0:
64,192,115972,1,0,0:0:0:0:
320,192,115972,1,0,0:0:0:0:
64,192,116097,1,0,0:0:0:0:
320,192,116097,1,0,0:0:0:0:
448,192,116222,1,0,0:0:0:0:
192,192,116222,1,0,0:0:0:0:
64,192,116222,1,0,0:0:0:0:
192,192,116347,1,0,0:0:0:0:
320,192,116347,1,0,0:0:0:0:
192,192,116472,1,0,0:0:0:0:
320,192,116472,1,0,0:0:0:0:
320,192,116597,1,0,0:0:0:0:
448,192,116597,1,0,0:0:0:0:
64,192,116597,1,0,0:0:0:0:
192,192,116722,1,0,0:0:0:0:
448,192,116722,1,0,0:0:0:0:
448,192,116847,1,0,0:0:0:0:
192,192,116847,1,0,0:0:0:0:
64,192,116972,1,0,0:0:0:0:
192,192,116972,1,0,0:0:0:0:
320,192,117003,1,0,0:0:0:0:
448,192,117347,1,0,0:0:0:0:
320,192,117347,1,0,0:0:0:0:
320,192,117440,1,0,0:0:0:0:
448,192,117440,1,0,0:0:0:0:
448,192,117534,1,0,0:0:0:0:
320,192,117534,1,0,0:0:0:0:
320,192,117628,1,0,0:0:0:0:
448,192,117628,1,0,0:0:0:0:
64,192,117722,128,0,117909:0:0:0:0:
192,192,117722,128,0,117909:0:0:0:0:
