osu file format v14

[General]
AudioFilename: audio.mp3
AudioLeadIn: 0
PreviewTime: 64091
Countdown: 0
SampleSet: Normal
StackLeniency: 0.7
Mode: 3
LetterboxInBreaks: 0
SpecialStyle: 0
WidescreenStoryboard: 1

[Editor]
DistanceSpacing: 0.8
BeatDivisor: 4
GridSize: 32
TimelineZoom: 2.399999

[Metadata]
Title:Deux Saint-Co Odyssey!!
TitleUnicode:ドゥサンコオデッセイ!!
Artist:cosMo@BousouP
ArtistUnicode:cosMo@暴走P
Creator:lemonguy
Version:ADVANCED
Source:SOUND VOLTEX EXCEED GEAR
Tags:gekido- osu!mania 4K World Cup 2021 finals SDVX 6 VI dusanco odyssey pilica MWC 4K 2021 MWC21 konami bemani e-amusement eamuse instrumental electronic グレイスからの挑戦状!! GRACE kara no chousenjou!! SOUND VOLTEX III GRAVITY WARS コナステ INFINITE course hybrid jack video game
BeatmapID:3330765
BeatmapSetID:1497081

[Difficulty]
HPDrainRate:7.5
CircleSize:4
OverallDifficulty:7.5
ApproachRate:5
SliderMultiplier:1.4
SliderTickRate:1

[Events]
//Background and Video events
0,0,"bg.jpg",0,0
//Break Periods
//Storyboard Layer 0 (Background)
//Storyboard Layer 1 (Fail)
//Storyboard Layer 2 (Pass)
//Storyboard Layer 3 (Foreground)
//Storyboard Layer 4 (Overlay)
//Storyboard Sound Samples

[TimingPoints]
1097,375,4,1,1,35,1,0
1847,375,3,1,1,35,1,0
4472,375,4,1,1,35,1,0

[HitObjects]
64,192,1097,128,0,1472:0:0:0:0:
448,192,1472,1,0,0:0:0:0:
192,192,1847,1,0,0:0:0:0:
64,192,1847,1,0,0:0:0:0:
320,192,1940,1,0,0:0:0:0:
448,192,2034,1,0,0:0:0:0:
320,192,2128,1,0,0:0:0:0:
192,192,2222,1,0,0:0:0:0:
64,192,2315,1,0,0:0:0:0:
320,192,2409,1,0,0:0:0:0:
448,192,2409,1,0,0:0:0:0:
192,192,2503,1,0,0:0:0:0:
64,192,2597,1,0,0:0:0:0:
192,192,2690,1,0,0:0:0:0:
320,192,2784,1,0,0:0:0:0:
448,192,2878,1,0,0:0:0:0:
192,192,2972,1,0,0:0:0:0:
64,192,2972,1,0,0:0:0:0:
320,192,3065,1,0,0:0:0:0:
448,192,3159,1,0,0:0:0:0:
192,192,3253,1,0,0:0:0:0:
320,192,3347,1,0,0:0:0:0:
64,192,3440,1,0,0:0:0:0:
320,192,3534,1,0,0:0:0:0:
448,192,3534,1,0,0:0:0:0:
192,192,3628,1,0,0:0:0:0:
64,192,3722,1,0,0:0:0:0:
320,192,3815,1,0,0:0:0:0:
192,192,3909,1,0,0:0:0:0:
448,192,4003,1,0,0:0:0:0:
64,192,4097,1,0,0:0:0:0:
192,192,4097,1,0,0:0:0:0:
320,192,4190,1,0,0:0:0:0:
448,192,4284,1,0,0:0:0:0:
64,192,4378,1,0,0:0:0:0:
448,192,4472,128,0,5784:0:0:0:0:
320,192,4472,1,0,0:0:0:0:
64,192,4847,128,0,5784:0:0:0:0:
320,192,5784,1,0,0:0:0:0:
192,192,5878,1,0,0:0:0:0:
448,192,5972,1,0,0:0:0:0:
64,192,5972,128,0,6722:0:0:0:0:
448,192,6722,1,0,0:0:0:0:
192,192,6815,1,0,0:0:0:0:
320,192,6909,1,0,0:0:0:0:
64,192,7003,1,0,0:0:0:0:
192,192,7097,1,0,0:0:0:0:
448,192,7097,1,0,0:0:0:0:
64,192,7190,1,0,0:0:0:0:
320,192,7284,1,0,0:0:0:0:
192,192,7378,1,0,0:0:0:0:
448,192,7472,128,0,7659:0:0:0:0:
64,192,7472,1,0,0:0:0:0:
64,192,7753,1,0,0:0:0:0:
320,192,7847,1,0,0:0:0:0:
192,192,8034,128,0,8222:0:0:0:0:
448,192,8128,1,0,0:0:0:0:
64,192,8315,1,0,0:0:0:0:
320,192,8409,128,0,8597:0:0:0:0:
64,192,8597,128,0,8784:0:0:0:0:
448,192,8597,1,0,0:0:0:0:
320,192,8784,128,0,8972:0:0:0:0:
192,192,8878,1,0,0:0:0:0:
64,192,8972,1,0,0:0:0:0:
64,192,9253,1,0,0:0:0:0:
320,192,9347,1,0,0:0:0:0:
448,192,9534,128,0,9722:0:0:0:0:
192,192,9628,1,0,0:0:0:0:
320,192,9815,1,0,0:0:0:0:
64,192,9909,1,0,0:0:0:0:
448,192,10097,1,0,0:0:0:0:
320,192,10097,1,0,0:0:0:0:
64,192,10190,1,0,0:0:0:0:
192,192,10284,1,0,0:0:0:0:
448,192,10378,1,0,0:0:0:0:
64,192,10472,1,0,0:0:0:0:
192,192,10472,128,0,10659:0:0:0:0:
64,192,10753,1,0,0:0:0:0:
448,192,10847,1,0,0:0:0:0:
320,192,11034,128,0,11222:0:0:0:0:
64,192,11128,1,0,0:0:0:0:
448,192,11315,1,0,0:0:0:0:
192,192,11409,128,0,11597:0:0:0:0:
320,192,11597,128,0,11784:0:0:0:0:
448,192,11597,1,0,0:0:0:0:
64,192,11784,128,0,11972:0:0:0:0:
320,192,11878,1,0,0:0:0:0:
448,192,11972,1,0,0:0:0:0:
192,192,11972,1,0,0:0:0:0:
320,192,12065,1,0,0:0:0:0:
64,192,12159,1,0,0:0:0:0:
448,192,12253,1,0,0:0:0:0:
192,192,12347,1,0,0:0:0:0:
64,192,12440,1,0,0:0:0:0:
448,192,12534,1,0,0:0:0:0:
320,192,12534,1,0,0:0:0:0:
192,192,12628,1,0,0:0:0:0:
64,192,12722,1,0,0:0:0:0:
320,192,12815,1,0,0:0:0:0:
192,192,12909,1,0,0:0:0:0:
448,192,13003,1,0,0:0:0:0:
64,192,13097,1,0,0:0:0:0:
320,192,13097,1,0,0:0:0:0:
192,192,13190,1,0,0:0:0:0:
320,192,13284,1,0,0:0:0:0:
448,192,13378,1,0,0:0:0:0:
64,192,13472,1,0,0:0:0:0:
192,192,13472,1,0,0:0:0:0:
320,192,13659,1,0,0:0:0:0:
448,192,13753,1,0,0:0:0:0:
192,192,13940,1,0,0:0:0:0:
320,192,14034,1,0,0:0:0:0:
192,192,14128,1,0,0:0:0:0:
448,192,14222,1,0,0:0:0:0:
320,192,14315,1,0,0:0:0:0:
64,192,14409,1,0,0:0:0:0:
320,192,14597,1,0,0:0:0:0:
448,192,14597,1,0,0:0:0:0:
64,192,14690,1,0,0:0:0:0:
192,192,14690,1,0,0:0:0:0:
448,192,14972,1,0,0:0:0:0:
320,192,14972,1,0,0:0:0:0:
192,192,15065,1,0,0:0:0:0:
448,192,15159,1,0,0:0:0:0:
64,192,15253,1,0,0:0:0:0:
320,192,15347,1,0,0:0:0:0:
448,192,15440,1,0,0:0:0:0:
64,192,15534,1,0,0:0:0:0:
192,192,15534,1,0,0:0:0:0:
320,192,15628,1,0,0:0:0:0:
64,192,15722,1,0,0:0:0:0:
448,192,15815,1,0,0:0:0:0:
192,192,15909,1,0,0:0:0:0:
64,192,16003,1,0,0:0:0:0:
448,192,16097,1,0,0:0:0:0:
320,192,16097,1,0,0:0:0:0:
192,192,16190,1,0,0:0:0:0:
320,192,16284,1,0,0:0:0:0:
448,192,16378,1,0,0:0:0:0:
192,192,16472,1,0,0:0:0:0:
64,192,16472,1,0,0:0:0:0:
64,192,16847,128,0,17222:0:0:0:0:
320,192,17034,128,0,17222:0:0:0:0:
192,192,17222,128,0,17597:0:0:0:0:
448,192,17409,128,0,17597:0:0:0:0:
320,192,17597,1,0,0:0:0:0:
448,192,17690,1,0,0:0:0:0:
64,192,17784,1,0,0:0:0:0:
192,192,17878,1,0,0:0:0:0:
448,192,17972,1,0,0:0:0:0:
64,192,17972,1,0,0:0:0:0:
320,192,18065,1,0,0:0:0:0:
192,192,18159,1,0,0:0:0:0:
448,192,18253,1,0,0:0:0:0:
192,192,18347,1,0,0:0:0:0:
320,192,18440,1,0,0:0:0:0:
448,192,18534,1,0,0:0:0:0:
64,192,18534,1,0,0:0:0:0:
192,192,18628,1,0,0:0:0:0:
320,192,18722,1,0,0:0:0:0:
64,192,18815,1,0,0:0:0:0:
320,192,18909,1,0,0:0:0:0:
192,192,19003,1,0,0:0:0:0:
448,192,19097,1,0,0:0:0:0:
64,192,19097,1,0,0:0:0:0:
320,192,19190,1,0,0:0:0:0:
64,192,19284,1,0,0:0:0:0:
192,192,19378,1,0,0:0:0:0:
448,192,19472,1,0,0:0:0:0:
320,192,19472,1,0,0:0:0:0:
320,192,19659,1,0,0:0:0:0:
192,192,19753,1,0,0:0:0:0:
64,192,19940,1,0,0:0:0:0:
320,192,20034,1,0,0:0:0:0:
192,192,20222,1,0,0:0:0:0:
64,192,20315,1,0,0:0:0:0:
448,192,20503,1,0,0:0:0:0:
192,192,20597,1,0,0:0:0:0:
64,192,20690,1,0,0:0:0:0:
320,192,20784,1,0,0:0:0:0:
192,192,20878,1,0,0:0:0:0:
448,192,20972,128,0,21065:0:0:0:0:
320,192,21159,128,0,21253:0:0:0:0:
192,192,21347,128,0,21440:0:0:0:0:
320,192,21534,128,0,21628:0:0:0:0:
64,192,21815,1,0,0:0:0:0:
192,192,21909,1,0,0:0:0:0:
320,192,22003,1,0,0:0:0:0:
448,192,22097,1,0,0:0:0:0:
192,192,22190,1,0,0:0:0:0:
320,192,22284,1,0,0:0:0:0:
64,192,22378,1,0,0:0:0:0:
192,192,22472,1,0,0:0:0:0:
448,192,22472,128,0,23034:0:0:0:0:
320,192,22659,1,0,0:0:0:0:
320,192,22847,1,0,0:0:0:0:
192,192,22847,1,0,0:0:0:0:
64,192,23034,1,0,0:0:0:0:
320,192,23222,1,0,0:0:0:0:
64,192,23222,128,0,23597:0:0:0:0:
192,192,23409,1,0,0:0:0:0:
192,192,23597,1,0,0:0:0:0:
320,192,23597,1,0,0:0:0:0:
64,192,23784,1,0,0:0:0:0:
320,192,23878,1,0,0:0:0:0:
448,192,23972,1,0,0:0:0:0:
320,192,24159,1,0,0:0:0:0:
64,192,24159,1,0,0:0:0:0:
64,192,24347,1,0,0:0:0:0:
192,192,24347,1,0,0:0:0:0:
320,192,24534,1,0,0:0:0:0:
64,192,24628,1,0,0:0:0:0:
448,192,24722,1,0,0:0:0:0:
320,192,24722,1,0,0:0:0:0:
192,192,24815,1,0,0:0:0:0:
320,192,24909,1,0,0:0:0:0:
448,192,25003,1,0,0:0:0:0:
192,192,25097,1,0,0:0:0:0:
64,192,25097,1,0,0:0:0:0:
320,192,25190,1,0,0:0:0:0:
64,192,25284,1,0,0:0:0:0:
192,192,25378,1,0,0:0:0:0:
320,192,25472,1,0,0:0:0:0:
448,192,25472,1,0,0:0:0:0:
448,192,25659,1,0,0:0:0:0:
64,192,25753,1,0,0:0:0:0:
320,192,25753,1,0,0:0:0:0:
64,192,25940,1,0,0:0:0:0:
192,192,26034,1,0,0:0:0:0:
448,192,26034,1,0,0:0:0:0:
320,192,26222,1,0,0:0:0:0:
192,192,26315,1,0,0:0:0:0:
64,192,26315,1,0,0:0:0:0:
192,192,26503,1,0,0:0:0:0:
320,192,26597,1,0,0:0:0:0:
64,192,26597,1,0,0:0:0:0:
192,192,26784,1,0,0:0:0:0:
448,192,26784,1,0,0:0:0:0:
448,192,26972,1,0,0:0:0:0:
64,192,26972,1,0,0:0:0:0:
192,192,27159,1,0,0:0:0:0:
320,192,27159,1,0,0:0:0:0:
192,192,27347,1,0,0:0:0:0:
64,192,27347,1,0,0:0:0:0:
320,192,27534,1,0,0:0:0:0:
192,192,27534,1,0,0:0:0:0:
448,192,27628,1,0,0:0:0:0:
448,192,27815,1,0,0:0:0:0:
64,192,27815,1,0,0:0:0:0:
192,192,27909,1,0,0:0:0:0:
320,192,28003,1,0,0:0:0:0:
64,192,28097,1,0,0:0:0:0:
448,192,28190,1,0,0:0:0:0:
192,192,28284,1,0,0:0:0:0:
320,192,28378,1,0,0:0:0:0:
448,192,28472,1,0,0:0:0:0:
64,192,28472,128,0,29034:0:0:0:0:
192,192,28659,1,0,0:0:0:0:
320,192,28659,1,0,0:0:0:0:
192,192,28847,1,0,0:0:0:0:
320,192,29034,1,0,0:0:0:0:
448,192,29034,1,0,0:0:0:0:
64,192,29222,1,0,0:0:0:0:
448,192,29222,128,0,29597:0:0:0:0:
320,192,29409,1,0,0:0:0:0:
192,192,29409,1,0,0:0:0:0:
320,192,29597,1,0,0:0:0:0:
192,192,29784,1,0,0:0:0:0:
320,192,29878,1,0,0:0:0:0:
448,192,29972,1,0,0:0:0:0:
64,192,29972,1,0,0:0:0:0:
192,192,30065,1,0,0:0:0:0:
448,192,30159,1,0,0:0:0:0:
320,192,30253,1,0,0:0:0:0:
64,192,30347,1,0,0:0:0:0:
192,192,30347,1,0,0:0:0:0:
448,192,30440,1,0,0:0:0:0:
64,192,30534,1,0,0:0:0:0:
448,192,30628,1,0,0:0:0:0:
192,192,30722,1,0,0:0:0:0:
320,192,30722,1,0,0:0:0:0:
64,192,30815,1,0,0:0:0:0:
448,192,30909,1,0,0:0:0:0:
192,192,31003,1,0,0:0:0:0:
320,192,31097,1,0,0:0:0:0:
448,192,31097,1,0,0:0:0:0:
64,192,31190,1,0,0:0:0:0:
192,192,31284,1,0,0:0:0:0:
320,192,31378,1,0,0:0:0:0:
448,192,31472,1,0,0:0:0:0:
64,192,31472,1,0,0:0:0:0:
320,192,31565,1,0,0:0:0:0:
192,192,31753,128,0,32034:0:0:0:0:
448,192,31847,1,0,0:0:0:0:
320,192,32034,128,0,32222:0:0:0:0:
64,192,32222,1,0,0:0:0:0:
192,192,32315,1,0,0:0:0:0:
448,192,32409,1,0,0:0:0:0:
64,192,32503,1,0,0:0:0:0:
448,192,32597,1,0,0:0:0:0:
192,192,32690,1,0,0:0:0:0:
320,192,32784,1,0,0:0:0:0:
64,192,32878,1,0,0:0:0:0:
320,192,32972,1,0,0:0:0:0:
192,192,33065,1,0,0:0:0:0:
448,192,33159,128,0,33347:0:0:0:0:
320,192,33347,1,0,0:0:0:0:
64,192,33440,1,0,0:0:0:0:
192,192,33440,1,0,0:0:0:0:
192,192,33628,1,0,0:0:0:0:
320,192,33628,1,0,0:0:0:0:
448,192,33815,1,0,0:0:0:0:
64,192,33909,1,0,0:0:0:0:
192,192,34003,1,0,0:0:0:0:
320,192,34097,1,0,0:0:0:0:
448,192,34097,1,0,0:0:0:0:
64,192,34190,1,0,0:0:0:0:
320,192,34284,1,0,0:0:0:0:
192,192,34378,1,0,0:0:0:0:
64,192,34472,1,0,0:0:0:0:
448,192,34472,1,0,0:0:0:0:
320,192,34565,1,0,0:0:0:0:
192,192,34659,1,0,0:0:0:0:
448,192,34847,1,0,0:0:0:0:
64,192,34847,1,0,0:0:0:0:
192,192,34940,1,0,0:0:0:0:
320,192,35034,1,0,0:0:0:0:
64,192,35222,1,0,0:0:0:0:
448,192,35222,1,0,0:0:0:0:
320,192,35315,1,0,0:0:0:0:
192,192,35409,1,0,0:0:0:0:
448,192,35503,1,0,0:0:0:0:
64,192,35597,1,0,0:0:0:0:
192,192,35597,1,0,0:0:0:0:
320,192,35690,1,0,0:0:0:0:
64,192,35784,1,0,0:0:0:0:
320,192,35878,1,0,0:0:0:0:
192,192,35972,1,0,0:0:0:0:
448,192,35972,1,0,0:0:0:0:
320,192,36159,1,0,0:0:0:0:
64,192,36347,1,0,0:0:0:0:
192,192,36347,1,0,0:0:0:0:
320,192,36440,1,0,0:0:0:0:
192,192,36628,128,0,36815:0:0:0:0:
448,192,36628,1,0,0:0:0:0:
64,192,36815,1,0,0:0:0:0:
448,192,36909,1,0,0:0:0:0:
320,192,37003,1,0,0:0:0:0:
64,192,37097,1,0,0:0:0:0:
448,192,37190,1,0,0:0:0:0:
192,192,37284,1,0,0:0:0:0:
64,192,37378,1,0,0:0:0:0:
320,192,37472,1,0,0:0:0:0:
448,192,37472,1,0,0:0:0:0:
448,192,37659,1,0,0:0:0:0:
64,192,37659,1,0,0:0:0:0:
192,192,37753,1,0,0:0:0:0:
320,192,37847,1,0,0:0:0:0:
448,192,37940,1,0,0:0:0:0:
64,192,38034,1,0,0:0:0:0:
192,192,38034,1,0,0:0:0:0:
320,192,38128,1,0,0:0:0:0:
64,192,38222,1,0,0:0:0:0:
192,192,38315,1,0,0:0:0:0:
448,192,38409,1,0,0:0:0:0:
64,192,38503,1,0,0:0:0:0:
320,192,38503,1,0,0:0:0:0:
64,192,38690,1,0,0:0:0:0:
448,192,38784,1,0,0:0:0:0:
320,192,38784,1,0,0:0:0:0:
320,192,38972,128,0,39159:0:0:0:0:
192,192,38972,1,0,0:0:0:0:
448,192,39159,1,0,0:0:0:0:
64,192,39159,1,0,0:0:0:0:
192,192,39347,1,0,0:0:0:0:
448,192,39440,1,0,0:0:0:0:
64,192,39534,1,0,0:0:0:0:
320,192,39534,1,0,0:0:0:0:
192,192,39722,1,0,0:0:0:0:
320,192,39815,1,0,0:0:0:0:
448,192,39909,1,0,0:0:0:0:
64,192,39909,1,0,0:0:0:0:
320,192,40003,1,0,0:0:0:0:
192,192,40097,1,0,0:0:0:0:
320,192,40190,1,0,0:0:0:0:
448,192,40284,1,0,0:0:0:0:
64,192,40284,1,0,0:0:0:0:
64,192,40472,1,0,0:0:0:0:
192,192,40472,1,0,0:0:0:0:
320,192,40565,1,0,0:0:0:0:
64,192,40659,1,0,0:0:0:0:
320,192,40753,1,0,0:0:0:0:
192,192,40847,1,0,0:0:0:0:
448,192,40940,1,0,0:0:0:0:
192,192,41034,1,0,0:0:0:0:
448,192,41128,1,0,0:0:0:0:
64,192,41222,1,0,0:0:0:0:
192,192,41315,1,0,0:0:0:0:
448,192,41409,1,0,0:0:0:0:
64,192,41503,1,0,0:0:0:0:
320,192,41597,1,0,0:0:0:0:
448,192,41690,1,0,0:0:0:0:
64,192,41784,1,0,0:0:0:0:
192,192,41878,1,0,0:0:0:0:
448,192,41972,1,0,0:0:0:0:
320,192,41972,1,0,0:0:0:0:
192,192,42065,1,0,0:0:0:0:
64,192,42159,1,0,0:0:0:0:
448,192,42253,1,0,0:0:0:0:
320,192,42347,1,0,0:0:0:0:
192,192,42347,1,0,0:0:0:0:
64,192,42440,1,0,0:0:0:0:
192,192,42534,1,0,0:0:0:0:
320,192,42628,1,0,0:0:0:0:
64,192,42722,1,0,0:0:0:0:
448,192,42722,1,0,0:0:0:0:
320,192,43097,1,0,0:0:0:0:
192,192,43097,1,0,0:0:0:0:
448,192,43190,1,0,0:0:0:0:
64,192,43284,1,0,0:0:0:0:
192,192,43378,1,0,0:0:0:0:
448,192,43472,128,0,43940:0:0:0:0:
320,192,43472,1,0,0:0:0:0:
64,192,43753,1,0,0:0:0:0:
448,192,44034,1,0,0:0:0:0:
320,192,44034,1,0,0:0:0:0:
192,192,44128,1,0,0:0:0:0:
320,192,44222,128,0,44597:0:0:0:0:
64,192,44409,1,0,0:0:0:0:
192,192,44597,128,0,44972:0:0:0:0:
448,192,44597,1,0,0:0:0:0:
320,192,44784,1,0,0:0:0:0:
64,192,44972,128,0,45159:0:0:0:0:
448,192,44972,1,0,0:0:0:0:
448,192,45253,128,0,45440:0:0:0:0:
192,192,45347,1,0,0:0:0:0:
64,192,45440,1,0,0:0:0:0:
448,192,45534,1,0,0:0:0:0:
320,192,45534,128,0,45909:0:0:0:0:
192,192,45909,128,0,46097:0:0:0:0:
64,192,45909,1,0,0:0:0:0:
64,192,46097,128,0,46284:0:0:0:0:
448,192,46097,1,0,0:0:0:0:
320,192,46190,1,0,0:0:0:0:
448,192,46284,128,0,46472:0:0:0:0:
320,192,46472,128,0,46659:0:0:0:0:
64,192,46472,1,0,0:0:0:0:
192,192,46753,128,0,46940:0:0:0:0:
64,192,46753,1,0,0:0:0:0:
448,192,47034,128,0,47222:0:0:0:0:
320,192,47034,1,0,0:0:0:0:
64,192,47222,128,0,47409:0:0:0:0:
192,192,47409,128,0,47597:0:0:0:0:
448,192,47409,1,0,0:0:0:0:
320,192,47597,128,0,47784:0:0:0:0:
64,192,47597,1,0,0:0:0:0:
448,192,47784,128,0,47972:0:0:0:0:
320,192,47972,1,0,0:0:0:0:
192,192,48065,1,0,0:0:0:0:
320,192,48159,1,0,0:0:0:0:
448,192,48159,1,0,0:0:0:0:
192,192,48253,1,0,0:0:0:0:
320,192,48347,1,0,0:0:0:0:
448,192,48440,1,0,0:0:0:0:
64,192,48440,1,0,0:0:0:0:
64,192,48628,1,0,0:0:0:0:
192,192,48628,1,0,0:0:0:0:
448,192,48815,1,0,0:0:0:0:
192,192,48909,1,0,0:0:0:0:
64,192,49003,1,0,0:0:0:0:
320,192,49097,1,0,0:0:0:0:
448,192,49097,1,0,0:0:0:0:
192,192,49190,1,0,0:0:0:0:
320,192,49284,1,0,0:0:0:0:
448,192,49378,1,0,0:0:0:0:
192,192,49472,1,0,0:0:0:0:
64,192,49472,1,0,0:0:0:0:
320,192,49753,1,0,0:0:0:0:
192,192,49753,1,0,0:0:0:0:
64,192,49847,1,0,0:0:0:0:
320,192,50034,1,0,0:0:0:0:
448,192,50034,1,0,0:0:0:0:
448,192,50315,1,0,0:0:0:0:
320,192,50409,1,0,0:0:0:0:
192,192,50503,1,0,0:0:0:0:
448,192,50597,1,0,0:0:0:0:
64,192,50597,1,0,0:0:0:0:
320,192,50690,1,0,0:0:0:0:
192,192,50784,1,0,0:0:0:0:
448,192,50878,1,0,0:0:0:0:
64,192,50972,128,0,51159:0:0:0:0:
192,192,50972,1,0,0:0:0:0:
448,192,51159,1,0,0:0:0:0:
320,192,51347,1,0,0:0:0:0:
192,192,51347,128,0,51534:0:0:0:0:
448,192,51534,128,0,51722:0:0:0:0:
192,192,51815,1,0,0:0:0:0:
320,192,51909,1,0,0:0:0:0:
64,192,52003,1,0,0:0:0:0:
320,192,52097,1,0,0:0:0:0:
448,192,52097,1,0,0:0:0:0:
64,192,52190,1,0,0:0:0:0:
192,192,52190,1,0,0:0:0:0:
448,192,52378,1,0,0:0:0:0:
64,192,52472,1,0,0:0:0:0:
320,192,52472,1,0,0:0:0:0:
448,192,52565,1,0,0:0:0:0:
192,192,52659,1,0,0:0:0:0:
320,192,52753,1,0,0:0:0:0:
64,192,52847,1,0,0:0:0:0:
448,192,52847,1,0,0:0:0:0:
192,192,52940,1,0,0:0:0:0:
320,192,53034,1,0,0:0:0:0:
64,192,53128,1,0,0:0:0:0:
448,192,53222,1,0,0:0:0:0:
320,192,53315,1,0,0:0:0:0:
448,192,53409,1,0,0:0:0:0:
320,192,53503,1,0,0:0:0:0:
64,192,53597,1,0,0:0:0:0:
448,192,53690,1,0,0:0:0:0:
64,192,53784,1,0,0:0:0:0:
448,192,53878,1,0,0:0:0:0:
320,192,53972,1,0,0:0:0:0:
192,192,53972,1,0,0:0:0:0:
64,192,54065,1,0,0:0:0:0:
320,192,54159,1,0,0:0:0:0:
64,192,54253,1,0,0:0:0:0:
320,192,54347,1,0,0:0:0:0:
448,192,54440,1,0,0:0:0:0:
192,192,54440,1,0,0:0:0:0:
320,192,54628,1,0,0:0:0:0:
448,192,54628,1,0,0:0:0:0:
192,192,54909,1,0,0:0:0:0:
320,192,54909,1,0,0:0:0:0:
64,192,55097,1,0,0:0:0:0:
192,192,55097,1,0,0:0:0:0:
320,192,55190,1,0,0:0:0:0:
448,192,55284,1,0,0:0:0:0:
192,192,55378,1,0,0:0:0:0:
448,192,55472,128,0,55753:0:0:0:0:
64,192,55472,1,0,0:0:0:0:
64,192,55753,128,0,55940:0:0:0:0:
320,192,55847,1,0,0:0:0:0:
192,192,56034,128,0,56222:0:0:0:0:
448,192,56034,1,0,0:0:0:0:
320,192,56222,128,0,56409:0:0:0:0:
64,192,56222,1,0,0:0:0:0:
64,192,56409,128,0,56597:0:0:0:0:
192,192,56409,1,0,0:0:0:0:
448,192,56597,128,0,56784:0:0:0:0:
320,192,56597,1,0,0:0:0:0:
192,192,56784,128,0,56972:0:0:0:0:
320,192,56784,1,0,0:0:0:0:
448,192,56972,128,0,57253:0:0:0:0:
64,192,56972,1,0,0:0:0:0:
192,192,57253,128,0,57440:0:0:0:0:
448,192,57347,1,0,0:0:0:0:
320,192,57534,128,0,57722:0:0:0:0:
64,192,57534,1,0,0:0:0:0:
192,192,57722,128,0,57909:0:0:0:0:
448,192,57722,1,0,0:0:0:0:
448,192,57909,128,0,58097:0:0:0:0:
320,192,57909,1,0,0:0:0:0:
64,192,58097,128,0,58284:0:0:0:0:
192,192,58097,1,0,0:0:0:0:
320,192,58284,128,0,58472:0:0:0:0:
192,192,58284,1,0,0:0:0:0:
448,192,58472,1,0,0:0:0:0:
64,192,58472,1,0,0:0:0:0:
320,192,58565,1,0,0:0:0:0:
64,192,58659,1,0,0:0:0:0:
320,192,58753,1,0,0:0:0:0:
192,192,58847,1,0,0:0:0:0:
448,192,58940,1,0,0:0:0:0:
192,192,59034,1,0,0:0:0:0:
448,192,59128,1,0,0:0:0:0:
320,192,59222,1,0,0:0:0:0:
64,192,59315,1,0,0:0:0:0:
320,192,59409,1,0,0:0:0:0:
64,192,59503,1,0,0:0:0:0:
448,192,59597,1,0,0:0:0:0:
192,192,59690,1,0,0:0:0:0:
448,192,59784,1,0,0:0:0:0:
192,192,59878,1,0,0:0:0:0:
448,192,59972,1,0,0:0:0:0:
320,192,59972,1,0,0:0:0:0:
64,192,60065,1,0,0:0:0:0:
192,192,60159,1,0,0:0:0:0:
64,192,60253,1,0,0:0:0:0:
320,192,60347,1,0,0:0:0:0:
448,192,60347,1,0,0:0:0:0:
192,192,60440,1,0,0:0:0:0:
448,192,60534,1,0,0:0:0:0:
320,192,60628,1,0,0:0:0:0:
64,192,60722,1,0,0:0:0:0:
192,192,60722,1,0,0:0:0:0:
448,192,60815,1,0,0:0:0:0:
320,192,60909,1,0,0:0:0:0:
448,192,61003,1,0,0:0:0:0:
64,192,61097,1,0,0:0:0:0:
192,192,61097,1,0,0:0:0:0:
320,192,61190,1,0,0:0:0:0:
64,192,61284,1,0,0:0:0:0:
192,192,61378,1,0,0:0:0:0:
448,192,61472,1,0,0:0:0:0:
320,192,61472,1,0,0:0:0:0:
64,192,61565,1,0,0:0:0:0:
320,192,61659,1,0,0:0:0:0:
192,192,61753,1,0,0:0:0:0:
448,192,61847,1,0,0:0:0:0:
64,192,61940,1,0,0:0:0:0:
448,192,62034,1,0,0:0:0:0:
64,192,62128,1,0,0:0:0:0:
448,192,62222,1,0,0:0:0:0:
64,192,62315,1,0,0:0:0:0:
448,192,62409,1,0,0:0:0:0:
64,192,62503,1,0,0:0:0:0:
448,192,62597,1,0,0:0:0:0:
64,192,62690,1,0,0:0:0:0:
448,192,62784,1,0,0:0:0:0:
64,192,62878,1,0,0:0:0:0:
320,192,62972,1,0,0:0:0:0:
448,192,62972,1,0,0:0:0:0:
192,192,63159,1,0,0:0:0:0:
448,192,63347,1,0,0:0:0:0:
320,192,63440,1,0,0:0:0:0:
192,192,63534,1,0,0:0:0:0:
448,192,63628,1,0,0:0:0:0:
64,192,63722,1,0,0:0:0:0:
320,192,63815,1,0,0:0:0:0:
64,192,63909,1,0,0:0:0:0:
192,192,64097,1,0,0:0:0:0:
320,192,64097,1,0,0:0:0:0:
448,192,64190,1,0,0:0:0:0:
64,192,64284,1,0,0:0:0:0:
320,192,64378,1,0,0:0:0:0:
192,192,64472,128,0,64612:0:0:0:0:
64,192,64472,1,0,0:0:0:0:
448,192,64612,1,0,0:0:0:0:
320,192,64753,128,0,64940:0:0:0:0:
64,192,64753,1,0,0:0:0:0:
192,192,64940,1,0,0:0:0:0:
320,192,65034,1,0,0:0:0:0:
448,192,65034,1,0,0:0:0:0:
64,192,65128,1,0,0:0:0:0:
320,192,65222,128,0,65362:0:0:0:0:
192,192,65222,1,0,0:0:0:0:
448,192,65362,1,0,0:0:0:0:
64,192,65503,128,0,65690:0:0:0:0:
320,192,65503,1,0,0:0:0:0:
320,192,65690,1,0,0:0:0:0:
64,192,65784,1,0,0:0:0:0:
448,192,65784,1,0,0:0:0:0:
192,192,65878,1,0,0:0:0:0:
320,192,65972,128,0,66159:0:0:0:0:
448,192,65972,1,0,0:0:0:0:
192,192,66159,1,0,0:0:0:0:
64,192,66159,1,0,0:0:0:0:
64,192,66347,1,0,0:0:0:0:
448,192,66347,1,0,0:0:0:0:
320,192,66440,1,0,0:0:0:0:
192,192,66534,1,0,0:0:0:0:
64,192,66628,128,0,67097:0:0:0:0:
320,192,66722,1,0,0:0:0:0:
192,192,66909,1,0,0:0:0:0:
320,192,66909,1,0,0:0:0:0:
448,192,67003,1,0,0:0:0:0:
192,192,67097,1,0,0:0:0:0:
320,192,67190,1,0,0:0:0:0:
64,192,67284,1,0,0:0:0:0:
192,192,67378,1,0,0:0:0:0:
448,192,67472,1,0,0:0:0:0:
320,192,67472,1,0,0:0:0:0:
64,192,67565,1,0,0:0:0:0:
448,192,67659,1,0,0:0:0:0:
192,192,67753,1,0,0:0:0:0:
320,192,67847,1,0,0:0:0:0:
192,192,67940,1,0,0:0:0:0:
448,192,68034,1,0,0:0:0:0:
320,192,68128,1,0,0:0:0:0:
64,192,68222,1,0,0:0:0:0:
192,192,68222,1,0,0:0:0:0:
448,192,68315,1,0,0:0:0:0:
64,192,68409,1,0,0:0:0:0:
320,192,68503,1,0,0:0:0:0:
192,192,68597,1,0,0:0:0:0:
320,192,68690,1,0,0:0:0:0:
64,192,68784,1,0,0:0:0:0:
192,192,68878,1,0,0:0:0:0:
448,192,68972,1,0,0:0:0:0:
64,192,68972,1,0,0:0:0:0:
448,192,69159,1,0,0:0:0:0:
320,192,69159,1,0,0:0:0:0:
64,192,69347,1,0,0:0:0:0:
448,192,69347,1,0,0:0:0:0:
64,192,69534,1,0,0:0:0:0:
192,192,69534,1,0,0:0:0:0:
64,192,69722,1,0,0:0:0:0:
448,192,69722,1,0,0:0:0:0:
320,192,69815,1,0,0:0:0:0:
192,192,69909,1,0,0:0:0:0:
320,192,70003,1,0,0:0:0:0:
64,192,70097,1,0,0:0:0:0:
192,192,70190,1,0,0:0:0:0:
448,192,70284,1,0,0:0:0:0:
320,192,70378,1,0,0:0:0:0:
64,192,70472,1,0,0:0:0:0:
192,192,70472,128,0,70612:0:0:0:0:
448,192,70612,1,0,0:0:0:0:
64,192,70753,128,0,70940:0:0:0:0:
320,192,70753,1,0,0:0:0:0:
448,192,70940,1,0,0:0:0:0:
64,192,71034,1,0,0:0:0:0:
192,192,71034,1,0,0:0:0:0:
320,192,71128,1,0,0:0:0:0:
448,192,71222,1,0,0:0:0:0:
64,192,71222,128,0,71362:0:0:0:0:
320,192,71362,1,0,0:0:0:0:
448,192,71503,128,0,71690:0:0:0:0:
192,192,71503,1,0,0:0:0:0:
64,192,71690,1,0,0:0:0:0:
320,192,71784,1,0,0:0:0:0:
448,192,71784,1,0,0:0:0:0:
192,192,71878,1,0,0:0:0:0:
64,192,71972,128,0,72159:0:0:0:0:
448,192,71972,1,0,0:0:0:0:
320,192,72159,1,0,0:0:0:0:
64,192,72347,1,0,0:0:0:0:
448,192,72347,1,0,0:0:0:0:
320,192,72440,1,0,0:0:0:0:
192,192,72534,1,0,0:0:0:0:
320,192,72628,128,0,72909:0:0:0:0:
448,192,72628,1,0,0:0:0:0:
64,192,72909,128,0,73097:0:0:0:0:
192,192,73003,1,0,0:0:0:0:
448,192,73097,128,0,73284:0:0:0:0:
320,192,73190,1,0,0:0:0:0:
192,192,73284,1,0,0:0:0:0:
64,192,73284,1,0,0:0:0:0:
448,192,73472,1,0,0:0:0:0:
320,192,73472,1,0,0:0:0:0:
192,192,73565,1,0,0:0:0:0:
64,192,73659,1,0,0:0:0:0:
320,192,73753,1,0,0:0:0:0:
64,192,73847,128,0,74128:0:0:0:0:
192,192,73847,128,0,74128:0:0:0:0:
448,192,74034,1,0,0:0:0:0:
64,192,74222,1,0,0:0:0:0:
192,192,74222,1,0,0:0:0:0:
320,192,74315,1,0,0:0:0:0:
448,192,74409,1,0,0:0:0:0:
192,192,74503,1,0,0:0:0:0:
448,192,74597,128,0,74878:0:0:0:0:
320,192,74597,128,0,74878:0:0:0:0:
64,192,74784,1,0,0:0:0:0:
448,192,74972,1,0,0:0:0:0:
192,192,74972,1,0,0:0:0:0:
320,192,75065,1,0,0:0:0:0:
64,192,75159,1,0,0:0:0:0:
448,192,75253,1,0,0:0:0:0:
64,192,75347,1,0,0:0:0:0:
320,192,75347,1,0,0:0:0:0:
192,192,75440,1,0,0:0:0:0:
448,192,75534,1,0,0:0:0:0:
64,192,75628,1,0,0:0:0:0:
448,192,75722,1,0,0:0:0:0:
320,192,75722,1,0,0:0:0:0:
192,192,75815,1,0,0:0:0:0:
320,192,75909,1,0,0:0:0:0:
192,192,76003,1,0,0:0:0:0:
320,192,76097,1,0,0:0:0:0:
448,192,76190,128,0,76472:0:0:0:0:
64,192,76190,1,0,0:0:0:0:
192,192,76472,128,0,76612:0:0:0:0:
64,192,76612,1,0,0:0:0:0:
320,192,76753,128,0,76940:0:0:0:0:
448,192,76940,1,0,0:0:0:0:
192,192,77034,1,0,0:0:0:0:
448,192,77128,1,0,0:0:0:0:
64,192,77222,128,0,77362:0:0:0:0:
320,192,77362,1,0,0:0:0:0:
192,192,77503,128,0,77690:0:0:0:0:
64,192,77690,1,0,0:0:0:0:
448,192,77784,1,0,0:0:0:0:
192,192,77878,1,0,0:0:0:0:
320,192,77972,128,0,78159:0:0:0:0:
192,192,78159,1,0,0:0:0:0:
448,192,78347,1,0,0:0:0:0:
320,192,78440,1,0,0:0:0:0:
192,192,78534,1,0,0:0:0:0:
64,192,78628,128,0,79097:0:0:0:0:
64,192,79190,1,0,0:0:0:0:
192,192,79284,1,0,0:0:0:0:
320,192,79378,1,0,0:0:0:0:
448,192,79472,128,0,79659:0:0:0:0:
192,192,79659,128,0,79847:0:0:0:0:
320,192,79847,128,0,80034:0:0:0:0:
64,192,80034,128,0,80222:0:0:0:0:
192,192,80222,1,0,0:0:0:0:
320,192,80315,1,0,0:0:0:0:
448,192,80503,128,0,80690:0:0:0:0:
192,192,80690,1,0,0:0:0:0:
320,192,80784,1,0,0:0:0:0:
64,192,80878,1,0,0:0:0:0:
192,192,80972,1,0,0:0:0:0:
448,192,81065,1,0,0:0:0:0:
320,192,81253,128,0,81440:0:0:0:0:
448,192,81440,1,0,0:0:0:0:
64,192,81534,1,0,0:0:0:0:
192,192,81534,1,0,0:0:0:0:
448,192,81722,1,0,0:0:0:0:
192,192,81722,1,0,0:0:0:0:
320,192,81815,1,0,0:0:0:0:
64,192,81909,1,0,0:0:0:0:
192,192,82003,1,0,0:0:0:0:
448,192,82097,1,0,0:0:0:0:
64,192,82190,1,0,0:0:0:0:
320,192,82284,1,0,0:0:0:0:
448,192,82378,1,0,0:0:0:0:
192,192,82472,1,0,0:0:0:0:
64,192,82565,1,0,0:0:0:0:
320,192,82659,1,0,0:0:0:0:
448,192,82659,1,0,0:0:0:0:
192,192,82753,128,0,82940:0:0:0:0:
448,192,82940,1,0,0:0:0:0:
64,192,83034,1,0,0:0:0:0:
192,192,83034,1,0,0:0:0:0:
320,192,83128,1,0,0:0:0:0:
64,192,83222,128,0,83362:0:0:0:0:
448,192,83222,1,0,0:0:0:0:
192,192,83362,1,0,0:0:0:0:
320,192,83503,128,0,83690:0:0:0:0:
64,192,83503,1,0,0:0:0:0:
448,192,83690,1,0,0:0:0:0:
192,192,83784,1,0,0:0:0:0:
64,192,83784,1,0,0:0:0:0:
320,192,83878,1,0,0:0:0:0:
64,192,83972,1,0,0:0:0:0:
448,192,83972,1,0,0:0:0:0:
192,192,84097,1,0,0:0:0:0:
448,192,84222,1,0,0:0:0:0:
64,192,84347,1,0,0:0:0:0:
192,192,84347,1,0,0:0:0:0:
320,192,84472,1,0,0:0:0:0:
192,192,84597,1,0,0:0:0:0:
448,192,84722,1,0,0:0:0:0:
64,192,84722,1,0,0:0:0:0:
320,192,84847,1,0,0:0:0:0:
64,192,84972,1,0,0:0:0:0:
448,192,85097,1,0,0:0:0:0:
320,192,85097,1,0,0:0:0:0:
192,192,85222,1,0,0:0:0:0:
320,192,85347,1,0,0:0:0:0:
64,192,85472,1,0,0:0:0:0:
448,192,85472,1,0,0:0:0:0:
192,192,85565,1,0,0:0:0:0:
320,192,85659,1,0,0:0:0:0:
192,192,85753,1,0,0:0:0:0:
448,192,85847,1,0,0:0:0:0:
320,192,85847,1,0,0:0:0:0:
64,192,85940,1,0,0:0:0:0:
448,192,86034,1,0,0:0:0:0:
192,192,86128,1,0,0:0:0:0:
448,192,86222,1,0,0:0:0:0:
320,192,86315,1,0,0:0:0:0:
64,192,86409,1,0,0:0:0:0:
192,192,86503,1,0,0:0:0:0:
448,192,86597,1,0,0:0:0:0:
320,192,86597,1,0,0:0:0:0:
64,192,86690,1,0,0:0:0:0:
320,192,86784,1,0,0:0:0:0:
192,192,86878,1,0,0:0:0:0:
64,192,86972,1,0,0:0:0:0:
448,192,86972,1,0,0:0:0:0:
320,192,87065,1,0,0:0:0:0:
192,192,87159,1,0,0:0:0:0:
320,192,87253,1,0,0:0:0:0:
64,192,87347,1,0,0:0:0:0:
192,192,87347,1,0,0:0:0:0:
448,192,87440,1,0,0:0:0:0:
64,192,87534,1,0,0:0:0:0:
320,192,87628,1,0,0:0:0:0:
64,192,87722,1,0,0:0:0:0:
192,192,87815,1,0,0:0:0:0:
448,192,87909,1,0,0:0:0:0:
320,192,88003,1,0,0:0:0:0:
64,192,88097,1,0,0:0:0:0:
192,192,88097,1,0,0:0:0:0:
448,192,88190,1,0,0:0:0:0:
192,192,88284,1,0,0:0:0:0:
320,192,88378,1,0,0:0:0:0:
448,192,88472,1,0,0:0:0:0:
64,192,88472,1,0,0:0:0:0:
320,192,88565,1,0,0:0:0:0:
64,192,88659,1,0,0:0:0:0:
448,192,88847,1,0,0:0:0:0:
320,192,88847,1,0,0:0:0:0:
192,192,88940,1,0,0:0:0:0:
448,192,89034,1,0,0:0:0:0:
320,192,89222,1,0,0:0:0:0:
192,192,89222,1,0,0:0:0:0:
64,192,89315,1,0,0:0:0:0:
320,192,89409,1,0,0:0:0:0:
64,192,89597,1,0,0:0:0:0:
192,192,89597,1,0,0:0:0:0:
448,192,89690,1,0,0:0:0:0:
192,192,89784,1,0,0:0:0:0:
64,192,89972,1,0,0:0:0:0:
448,192,89972,1,0,0:0:0:0:
320,192,90065,1,0,0:0:0:0:
64,192,90159,1,0,0:0:0:0:
448,192,90253,1,0,0:0:0:0:
192,192,90347,1,0,0:0:0:0:
320,192,90347,1,0,0:0:0:0:
64,192,90440,1,0,0:0:0:0:
448,192,90534,1,0,0:0:0:0:
192,192,90628,1,0,0:0:0:0:
448,192,90722,1,0,0:0:0:0:
64,192,90722,1,0,0:0:0:0:
320,192,90815,1,0,0:0:0:0:
64,192,90909,1,0,0:0:0:0:
192,192,91003,1,0,0:0:0:0:
320,192,91097,1,0,0:0:0:0:
448,192,91097,1,0,0:0:0:0:
64,192,91190,1,0,0:0:0:0:
448,192,91284,1,0,0:0:0:0:
192,192,91378,1,0,0:0:0:0:
64,192,91472,1,0,0:0:0:0:
64,192,91659,1,0,0:0:0:0:
64,192,91847,1,0,0:0:0:0:
192,192,91940,1,0,0:0:0:0:
448,192,92034,1,0,0:0:0:0:
192,192,92128,1,0,0:0:0:0:
320,192,92222,1,0,0:0:0:0:
64,192,92409,1,0,0:0:0:0:
448,192,92597,1,0,0:0:0:0:
192,192,92784,1,0,0:0:0:0:
320,192,92972,1,0,0:0:0:0:
448,192,92972,1,0,0:0:0:0:
192,192,93159,1,0,0:0:0:0:
448,192,93159,1,0,0:0:0:0:
192,192,93347,1,0,0:0:0:0:
320,192,93347,1,0,0:0:0:0:
64,192,93534,1,0,0:0:0:0:
320,192,93534,1,0,0:0:0:0:
64,192,93722,1,0,0:0:0:0:
192,192,93722,1,0,0:0:0:0:
320,192,93815,1,0,0:0:0:0:
192,192,93909,1,0,0:0:0:0:
320,192,94003,1,0,0:0:0:0:
448,192,94097,1,0,0:0:0:0:
192,192,94097,1,0,0:0:0:0:
64,192,94190,1,0,0:0:0:0:
448,192,94284,1,0,0:0:0:0:
64,192,94378,1,0,0:0:0:0:
320,192,94472,1,0,0:0:0:0:
448,192,94472,128,0,94659:0:0:0:0:
192,192,94659,1,0,0:0:0:0:
64,192,94659,1,0,0:0:0:0:
320,192,94847,1,0,0:0:0:0:
192,192,94940,1,0,0:0:0:0:
64,192,95034,128,0,95222:0:0:0:0:
448,192,95034,1,0,0:0:0:0:
192,192,95222,1,0,0:0:0:0:
448,192,95315,128,0,95597:0:0:0:0:
320,192,95409,1,0,0:0:0:0:
64,192,95503,1,0,0:0:0:0:
192,192,95597,128,0,95784:0:0:0:0:
320,192,95784,128,0,95972:0:0:0:0:
448,192,95784,1,0,0:0:0:0:
64,192,95972,128,0,96159:0:0:0:0:
192,192,96159,128,0,96347:0:0:0:0:
448,192,96159,1,0,0:0:0:0:
320,192,96347,1,0,0:0:0:0:
448,192,96440,1,0,0:0:0:0:
192,192,96534,128,0,96722:0:0:0:0:
64,192,96534,1,0,0:0:0:0:
448,192,96722,1,0,0:0:0:0:
64,192,96815,1,0,0:0:0:0:
448,192,96909,1,0,0:0:0:0:
192,192,96909,1,0,0:0:0:0:
320,192,97097,128,0,97284:0:0:0:0:
64,192,97097,1,0,0:0:0:0:
448,192,97284,128,0,97472:0:0:0:0:
192,192,97284,1,0,0:0:0:0:
64,192,97472,128,0,97753:0:0:0:0:
448,192,97659,1,0,0:0:0:0:
192,192,97753,128,0,97940:0:0:0:0:
320,192,97847,1,0,0:0:0:0:
448,192,98034,128,0,98409:0:0:0:0:
64,192,98034,1,0,0:0:0:0:
320,192,98222,1,0,0:0:0:0:
64,192,98409,1,0,0:0:0:0:
192,192,98409,1,0,0:0:0:0:
448,192,98503,1,0,0:0:0:0:
320,192,98597,128,0,98784:0:0:0:0:
64,192,98784,1,0,0:0:0:0:
192,192,98878,1,0,0:0:0:0:
448,192,98972,1,0,0:0:0:0:
64,192,98972,1,0,0:0:0:0:
320,192,99159,1,0,0:0:0:0:
64,192,99253,1,0,0:0:0:0:
448,192,99253,1,0,0:0:0:0:
192,192,99440,1,0,0:0:0:0:
320,192,99534,1,0,0:0:0:0:
448,192,99534,1,0,0:0:0:0:
64,192,99722,1,0,0:0:0:0:
448,192,99722,128,0,100097:0:0:0:0:
320,192,99909,1,0,0:0:0:0:
64,192,100097,1,0,0:0:0:0:
192,192,100190,1,0,0:0:0:0:
448,192,100284,1,0,0:0:0:0:
64,192,100378,1,0,0:0:0:0:
320,192,100472,1,0,0:0:0:0:
448,192,100472,1,0,0:0:0:0:
192,192,100565,1,0,0:0:0:0:
64,192,100659,1,0,0:0:0:0:
320,192,100753,1,0,0:0:0:0:
192,192,100847,1,0,0:0:0:0:
448,192,100940,1,0,0:0:0:0:
64,192,101034,1,0,0:0:0:0:
320,192,101128,128,0,101315:0:0:0:0:
192,192,101128,1,0,0:0:0:0:
64,192,101315,1,0,0:0:0:0:
448,192,101409,1,0,0:0:0:0:
320,192,101503,1,0,0:0:0:0:
192,192,101597,1,0,0:0:0:0:
448,192,101690,1,0,0:0:0:0:
64,192,101784,1,0,0:0:0:0:
320,192,101878,1,0,0:0:0:0:
64,192,101972,1,0,0:0:0:0:
448,192,101972,1,0,0:0:0:0:
192,192,102065,1,0,0:0:0:0:
448,192,102159,1,0,0:0:0:0:
320,192,102253,1,0,0:0:0:0:
64,192,102347,1,0,0:0:0:0:
192,192,102347,1,0,0:0:0:0:
320,192,102440,1,0,0:0:0:0:
64,192,102534,1,0,0:0:0:0:
448,192,102628,1,0,0:0:0:0:
192,192,102722,1,0,0:0:0:0:
320,192,102722,1,0,0:0:0:0:
64,192,102815,1,0,0:0:0:0:
448,192,102909,1,0,0:0:0:0:
192,192,103003,1,0,0:0:0:0:
448,192,103097,1,0,0:0:0:0:
320,192,103097,1,0,0:0:0:0:
192,192,103190,1,0,0:0:0:0:
64,192,103284,1,0,0:0:0:0:
320,192,103378,1,0,0:0:0:0:
448,192,103472,128,0,103659:0:0:0:0:
64,192,103472,1,0,0:0:0:0:
192,192,103659,1,0,0:0:0:0:
320,192,103659,1,0,0:0:0:0:
64,192,103847,1,0,0:0:0:0:
192,192,103940,1,0,0:0:0:0:
320,192,104034,128,0,104409:0:0:0:0:
448,192,104034,1,0,0:0:0:0:
64,192,104222,1,0,0:0:0:0:
448,192,104409,1,0,0:0:0:0:
192,192,104409,1,0,0:0:0:0:
64,192,104503,1,0,0:0:0:0:
320,192,104597,1,0,0:0:0:0:
192,192,104690,1,0,0:0:0:0:
448,192,104784,1,0,0:0:0:0:
192,192,104878,128,0,105065:0:0:0:0:
320,192,104878,1,0,0:0:0:0:
64,192,105065,1,0,0:0:0:0:
320,192,105159,1,0,0:0:0:0:
448,192,105159,1,0,0:0:0:0:
192,192,105253,1,0,0:0:0:0:
320,192,105347,1,0,0:0:0:0:
448,192,105440,1,0,0:0:0:0:
64,192,105440,1,0,0:0:0:0:
64,192,105628,128,0,105815:0:0:0:0:
192,192,105628,1,0,0:0:0:0:
320,192,105815,1,0,0:0:0:0:
448,192,105909,1,0,0:0:0:0:
192,192,106003,1,0,0:0:0:0:
320,192,106097,1,0,0:0:0:0:
64,192,106190,1,0,0:0:0:0:
448,192,106284,1,0,0:0:0:0:
192,192,106378,1,0,0:0:0:0:
448,192,106472,1,0,0:0:0:0:
64,192,106472,1,0,0:0:0:0:
64,192,106659,1,0,0:0:0:0:
64,192,106847,1,0,0:0:0:0:
192,192,106940,1,0,0:0:0:0:
320,192,107034,1,0,0:0:0:0:
448,192,107128,1,0,0:0:0:0:
320,192,107222,1,0,0:0:0:0:
192,192,107409,1,0,0:0:0:0:
64,192,107597,1,0,0:0:0:0:
192,192,107784,1,0,0:0:0:0:
448,192,107972,1,0,0:0:0:0:
64,192,108159,1,0,0:0:0:0:
448,192,108253,1,0,0:0:0:0:
320,192,108347,1,0,0:0:0:0:
192,192,108440,1,0,0:0:0:0:
448,192,108534,1,0,0:0:0:0:
64,192,108628,1,0,0:0:0:0:
192,192,108722,1,0,0:0:0:0:
448,192,108815,1,0,0:0:0:0:
64,192,108909,1,0,0:0:0:0:
320,192,109003,1,0,0:0:0:0:
64,192,109097,1,0,0:0:0:0:
192,192,109190,1,0,0:0:0:0:
320,192,109284,1,0,0:0:0:0:
448,192,109378,1,0,0:0:0:0:
64,192,109472,1,0,0:0:0:0:
192,192,109472,1,0,0:0:0:0:
64,192,109659,1,0,0:0:0:0:
448,192,109659,1,0,0:0:0:0:
192,192,109847,1,0,0:0:0:0:
320,192,109847,1,0,0:0:0:0:
448,192,109940,1,0,0:0:0:0:
320,192,110034,1,0,0:0:0:0:
64,192,110034,1,0,0:0:0:0:
192,192,110128,1,0,0:0:0:0:
448,192,110222,1,0,0:0:0:0:
320,192,110222,1,0,0:0:0:0:
64,192,110409,1,0,0:0:0:0:
448,192,110409,1,0,0:0:0:0:
320,192,110597,1,0,0:0:0:0:
192,192,110597,1,0,0:0:0:0:
64,192,110690,1,0,0:0:0:0:
192,192,110784,1,0,0:0:0:0:
448,192,110784,1,0,0:0:0:0:
320,192,110878,1,0,0:0:0:0:
64,192,110972,1,0,0:0:0:0:
192,192,110972,1,0,0:0:0:0:
448,192,111065,1,0,0:0:0:0:
64,192,111159,1,0,0:0:0:0:
320,192,111253,1,0,0:0:0:0:
448,192,111347,1,0,0:0:0:0:
192,192,111347,1,0,0:0:0:0:
320,192,111440,1,0,0:0:0:0:
64,192,111534,1,0,0:0:0:0:
448,192,111628,1,0,0:0:0:0:
64,192,111722,1,0,0:0:0:0:
320,192,111722,1,0,0:0:0:0:
192,192,111815,1,0,0:0:0:0:
448,192,111909,1,0,0:0:0:0:
64,192,112003,1,0,0:0:0:0:
320,192,112097,1,0,0:0:0:0:
448,192,112097,1,0,0:0:0:0:
192,192,112190,1,0,0:0:0:0:
320,192,112284,1,0,0:0:0:0:
64,192,112378,1,0,0:0:0:0:
448,192,112472,1,0,0:0:0:0:
192,192,112472,1,0,0:0:0:0:
64,192,112659,1,0,0:0:0:0:
320,192,112753,1,0,0:0:0:0:
192,192,112847,1,0,0:0:0:0:
192,192,113034,1,0,0:0:0:0:
448,192,113128,1,0,0:0:0:0:
320,192,113222,1,0,0:0:0:0:
320,192,113409,1,0,0:0:0:0:
64,192,113503,1,0,0:0:0:0:
448,192,113597,1,0,0:0:0:0:
448,192,113784,1,0,0:0:0:0:
192,192,113878,1,0,0:0:0:0:
320,192,113972,1,0,0:0:0:0:
64,192,113972,1,0,0:0:0:0:
448,192,114159,1,0,0:0:0:0:
192,192,114253,1,0,0:0:0:0:
320,192,114347,1,0,0:0:0:0:
320,192,114534,1,0,0:0:0:0:
64,192,114628,1,0,0:0:0:0:
192,192,114722,1,0,0:0:0:0:
192,192,114909,1,0,0:0:0:0:
448,192,115003,1,0,0:0:0:0:
64,192,115097,1,0,0:0:0:0:
64,192,115284,1,0,0:0:0:0:
320,192,115378,1,0,0:0:0:0:
448,192,115472,1,0,0:0:0:0:
192,192,115472,1,0,0:0:0:0:
320,192,115597,1,0,0:0:0:0:
320,192,115722,1,0,0:0:0:0:
64,192,115847,1,0,0:0:0:0:
448,192,115847,1,0,0:0:0:0:
192,192,115972,1,0,0:0:0:0:
192,192,116097,1,0,0:0:0:0:
320,192,116222,1,0,0:0:0:0:
64,192,116222,1,0,0:0:0:0:
448,192,116347,1,0,0:0:0:0:
448,192,116472,1,0,0:0:0:0:
320,192,116597,1,0,0:0:0:0:
192,192,116597,1,0,0:0:0:0:
64,192,116722,1,0,0:0:0:0:
64,192,116847,1,0,0:0:0:0:
448,192,116972,1,0,0:0:0:0:
320,192,116972,1,0,0:0:0:0:
448,192,117347,1,0,0:0:0:0:
64,192,117347,1,0,0:0:0:0:
320,192,117440,1,0,0:0:0:0:
448,192,117534,1,0,0:0:0:0:
320,192,117628,1,0,0:0:0:0:
64,192,117722,128,0,117909:0:0:0:0:
192,192,117722,128,0,117909:0:0:0:0:
