osu file format v14

[General]
AudioFilename: audio.mp3
AudioLeadIn: 0
PreviewTime: 86047
Countdown: 0
SampleSet: Soft
StackLeniency: 0.7
Mode: 0
LetterboxInBreaks: 0
WidescreenStoryboard: 1

[Editor]
Bookmarks: 442,18169,39987,53319,61805,86351,100024,108169,124532,146351,166805,189987,214532,225479
DistanceSpacing: 1
BeatDivisor: 2
GridSize: 16
TimelineZoom: 1.7

[Metadata]
Title:25-ji 76-pun Hatsu <> Iki Saishuu Ressha
TitleUnicode:25時76分発<<領域外>>行最終列車
Artist:cosMo@BousouP
ArtistUnicode:cosMo@暴走P
Creator:Sagon
Version:Normal
Source:
Tags:cosMo@Bousou-P 25:76 Departure: The last train bound for <> AD:PIANO VII -Alternative- diverse system electronic instrumental
BeatmapID:3733832
BeatmapSetID:1807738

[Difficulty]
HPDrainRate:2
CircleSize:3.5
OverallDifficulty:4
ApproachRate:4
SliderMultiplier:1.1
SliderTickRate:1

[Events]
//Background and Video events
0,0,"bg.jpg",0,0
//Break Periods
2,61842,68704
2,113860,122865
2,167042,176857
//Storyboard Layer 0 (Background)
//Storyboard Layer 1 (Fail)
//Storyboard Layer 2 (Pass)
//Storyboard Layer 3 (Foreground)
//Storyboard Layer 4 (Overlay)
//Storyboard Sound Samples

[TimingPoints]
479,340.909090909091,4,2,1,60,1,0
479,-100,4,2,1,60,0,0
4143,-100,4,2,1,70,0,0
4399,-100,4,2,1,60,0,0
5933,-100,4,2,1,70,0,0
40024,-100,4,2,1,80,0,0
70024,-100,4,2,1,70,0,0
110763,-100,4,2,1,5,0,0
110933,-100,4,2,1,70,0,0
137694,-100,4,2,1,5,0,0
137864,-100,4,2,1,70,0,0
150819,-100,4,2,1,70,0,0
212864,-100,4,2,1,60,0,0
213888,-100,4,2,1,40,0,0
214569,-100,4,2,1,70,0,0
224626,-100,4,2,1,5,0,0
224797,-100,4,2,1,70,0,0

[Colours]
Combo1 : 0,232,232
Combo2 : 0,128,255
Combo3 : 81,216,255
Combo4 : 0,155,183

[HitObjects]
64,288,479,6,0,B|136:283|136:283|215:321|215:321|324:315,1,220,2|0,0:0|0:0,0:0:0:0:
380,286,1501,2,0,L|381:196,1,55,2|2,0:0|0:0,0:0:0:0:
384,175,1842,2,0,P|335:130|301:236,1,220,2|0,0:0|0:0,0:0:0:0:
116,360,3206,6,0,L|107:184,1,165,2|0,0:0|0:0,0:0:0:0:
103,140,3888,2,0,L|13:144,2,82.5,2|0|0,0:0|0:0|0:0,0:0:0:0:
155,122,4569,2,0,B|226:108|226:108|293:137|293:137|366:124,1,220,2|2,0:0|0:0,0:0:0:0:
473,373,5933,6,0,L|465:256,1,110,0|0,1:0|1:0,0:0:0:0:
462,179,6615,1,0,1:0:0:0:
462,179,6956,1,0,1:0:0:0:
509,104,7297,6,0,P|459:89|397:113,1,110,0|0,1:0|1:0,0:0:0:0:
326,90,7979,1,0,1:0:0:0:
326,90,8319,1,0,1:0:0:0:
348,175,8660,6,0,L|336:291,1,110,0|0,1:0|1:0,0:0:0:0:
264,333,9342,1,0,1:0:0:0:
264,333,9683,1,0,1:0:0:0:
188,378,10024,6,0,P|173:328|197:266,1,110,0|0,1:0|1:0,0:0:0:0:
248,208,10706,1,0,1:0:0:0:
248,208,11046,1,8,0:0:0:0:
160,194,11388,6,0,B|106:173|106:173|30:180,1,110,6|10,1:2|1:2,0:0:0:0:
66,94,12069,1,10,1:2:0:0:
66,94,12410,1,10,1:2:0:0:
153,88,12751,2,0,L|218:82,1,55,10|10,1:2|0:0,0:0:0:0:
245,105,13092,2,0,L|310:111,1,55,8|8,1:2|0:0,0:0:0:0:
340,93,13433,2,0,L|441:86,2,82.5,2|2|2,1:2|1:0|1:0,0:0:0:0:
299,110,14115,6,0,P|277:215|378:218,1,220,0|8,1:0|1:2,0:0:0:0:
446,260,15138,2,0,L|441:329,1,55,8|8,1:2|0:0,0:0:0:0:
433,365,15479,2,0,B|324:339|324:339|262:353,1,165,12|4,1:2|1:2,0:0:0:0:
311,247,16331,1,8,0:0:0:0:
311,247,16501,2,0,B|202:273|202:273|140:259,1,165,4|4,1:2|1:2,0:0:0:0:
46,118,17524,2,0,L|41:35,2,82.5,2|2|2,0:0|0:0|0:0,0:0:0:0:
46,173,18206,6,0,L|180:167,1,110,2|10,1:2|0:0,0:0:0:0:
195,65,18888,2,0,L|199:1,2,55,0|2|10,1:0|0:0|0:0,0:0:0:0:
223,112,19399,2,0,B|245:168|245:168|207:293,1,165,2|10,1:2|0:0,0:0:0:0:
283,353,20251,6,0,L|306:277,1,55,2|2,1:2|1:0,0:0:0:0:
310,246,20592,2,0,B|367:261|367:261|428:244,1,110,10|2,0:0|1:2,0:0:0:0:
487,163,21274,1,10,0:0:0:0:
438,64,21615,2,0,L|444:-15,2,55,2|2|8,0:0|0:0|0:0,0:0:0:0:
417,115,22126,2,0,P|334:157|264:154,1,165,2|8,0:0|0:0,0:0:0:0:
193,69,22979,6,0,L|134:56,1,55,0|2,0:0|1:2,0:0:0:0:
84,47,23320,2,0,P|100:95|86:165,1,110,10|4,0:0|1:2,0:0:0:0:
12,230,24002,1,10,0:0:0:0:
99,295,24342,2,0,L|105:374,2,55,2|2|10,0:0|0:0|0:0,0:0:0:0:
111,241,24853,2,0,L|276:228,1,165,2|10,1:2|0:0,0:0:0:0:
322,128,25706,6,0,L|253:133,1,55,0|2,0:0|1:2,0:0:0:0:
212,135,26047,2,0,B|227:78|227:78|210:17,1,110,10|2,0:0|1:2,0:0:0:0:
109,66,26729,1,10,0:0:0:0:
53,160,27069,2,0,L|-1:155,2,55,0|2|10,1:0|1:2|0:2,0:0:0:0:
108,167,27581,1,0,0:0:0:0:
113,221,27751,6,0,L|119:341,1,110,6|10,1:2|0:0,0:0:0:0:
216,381,28433,2,0,L|210:271,1,110,10|10,0:0|0:0,0:0:0:0:
299,207,29115,6,0,L|305:341,1,110,2|10,1:2|0:0,0:0:0:0:
404,362,29797,2,0,L|458:359,2,55,2|2|10,1:2|1:2|0:0,0:0:0:0:
396,307,30308,2,0,B|390:182|390:182|418:129,1,165,2|10,1:2|0:0,0:0:0:0:
429,38,31160,6,0,L|351:40,1,55,2|2,1:2|1:2,0:0:0:0:
319,46,31501,2,0,B|327:103|327:103|300:153,1,110,10|2,0:0|1:2,0:0:0:0:
191,156,32183,1,10,0:0:0:0:
165,263,32524,2,0,L|219:260,2,55,2|2|10,1:2|1:2|0:0,0:0:0:0:
109,265,33035,2,0,P|60:204|66:103,1,165,2|8,1:2|0:0,0:0:0:0:
42,11,33888,6,0,P|74:20|120:13,1,55,0|2,1:0|0:0,0:0:0:0:
150,18,34229,2,0,B|196:42|196:42|253:34,1,110,10|4,0:0|1:2,0:0:0:0:
362,14,34911,1,10,0:0:0:0:
391,118,35252,2,0,L|445:115,2,55,2|2|10,1:2|1:2|0:0,0:0:0:0:
338,134,35763,2,0,B|344:250|344:250|396:304,1,165,2|10,1:2|0:0,0:0:0:0:
274,321,36615,6,0,L|196:323,1,55,0|2,1:0|1:0,0:0:0:0:
163,324,36956,2,0,B|159:189,1,110,10|2,0:0|1:2,0:0:0:0:
156,103,37638,1,10,0:0:0:0:
64,163,37979,2,0,P|33:161|10:154,2,55,0|2|10,1:0|1:2|0:2,0:0:0:0:
56,57,38660,6,0,L|185:41,1,110,2|10,1:2|0:0,0:0:0:0:
274,28,39342,2,0,L|282:97,1,55,2|2,1:2|1:2,0:0:0:0:
262,134,39683,2,0,L|254:203,1,55,2|2,1:2|1:2,0:0:0:0:
272,241,40024,6,0,P|324:258|393:243,2,110,6|10|10,0:0|1:2|1:2,0:0:0:0:
167,206,41047,2,0,L|87:214,1,55,10|10,1:2|0:0,0:0:0:0:
57,214,41388,2,0,L|51:338,2,110,10|10|10,1:2|1:2|1:2,0:0:0:0:
6,116,42410,2,0,L|86:108,1,55,10|10,1:2|0:0,0:0:0:0:
115,108,42751,6,0,L|121:-16,2,110,14|10|10,1:2|1:2|1:2,0:0:0:0:
216,63,43774,2,0,P|250:71|277:93,1,55,10|10,1:2|0:0,0:0:0:0:
312,112,44115,2,0,L|436:106,1,110,10|10,1:2|1:2,0:0:0:0:
407,196,44797,2,0,L|490:192,2,82.5,10|2|10,1:2|1:2|0:0,0:0:0:0:
325,206,45479,6,0,P|311:275|335:332,1,110,6|10,1:2|1:2,0:0:0:0:
342,356,45990,1,2,0:0:0:0:
342,356,46160,2,0,L|433:353,2,82.5,10|2|10,1:2|1:2|0:0,0:0:0:0:
297,357,46842,6,0,L|158:353,2,110,2|10|10,1:2|1:2|1:2,0:0:0:0:
222,274,47865,2,0,L|225:197,1,55,10|10,1:0|0:0,0:0:0:0:
226,163,48206,6,0,L|95:157,1,110,14|8,1:2|1:2,0:0:0:0:
60,157,48717,1,10,0:0:0:0:
60,157,48888,2,0,B|52:103|52:103|65:47,1,110,10|8,1:2|1:2,0:0:0:0:
172,69,49569,2,0,B|247:73|247:73|296:46,1,110,2|10,1:2|1:2,0:0:0:0:
345,142,50251,1,2,1:2:0:0:
292,238,50592,1,2,1:2:0:0:
342,335,50933,6,0,B|387:316|387:316|453:322,1,110,6|10,1:2|1:2,0:0:0:0:
510,230,51615,2,0,L|442:223,2,55,10|10|10,1:2|0:0|1:2,0:0:0:0:
490,121,52297,2,0,B|429:115|429:115|384:134,1,110,10|10,1:2|1:2,0:0:0:0:
306,56,52979,2,0,L|313:-12,2,55,10|10|10,1:2|0:0|1:2,0:0:0:0:
229,134,53660,6,0,L|106:130,2,110,14|10|10,1:2|1:2|1:2,0:0:0:0:
262,171,54513,1,10,0:0:0:0:
262,171,54683,1,10,1:2:0:0:
275,258,55024,2,0,B|336:264|336:264|381:245,2,110,10|10|10,1:2|1:2|1:2,0:0:0:0:
227,332,56047,2,0,L|151:340,1,55,10|10,1:2|0:0,0:0:0:0:
117,342,56388,6,0,P|95:295|93:220,1,110,10|10,1:2|1:2,0:0:0:0:
40,139,57069,2,0,P|75:126|131:135,1,82.5,10|2,1:2|1:2,0:0:0:0:
194,165,57581,1,10,0:0:0:0:
194,165,57751,2,0,L|303:158,1,110,2|10,1:2|1:2,0:0:0:0:
394,94,58433,2,0,L|398:148,1,55,10|10,1:2|0:0,0:0:0:0:
423,197,58774,2,0,L|420:254,1,55,10|10,0:0|0:0,0:0:0:0:
408,305,59115,6,0,L|274:313,1,110,14|10,1:2|1:2,0:0:0:0:
194,274,59797,2,0,B|185:319|185:319|200:377,2,82.5,10|2|10,1:2|1:2|0:0,0:0:0:0:
206,220,60479,2,0,L|201:144,1,55,10|10,0:0|0:0,0:0:0:0:
10,164,70024,6,0,L|137:153,1,110,10|10,0:0|0:0,0:0:0:0:
203,225,70706,1,10,0:0:0:0:
218,172,70876,2,0,P|221:143|212:109,2,55,10|8|8,0:0|0:0|0:0,0:0:0:0:
261,180,71388,5,10,0:0:0:0:
457,89,72751,6,0,L|458:204,1,110,2|10,1:2|0:0,0:0:0:0:
503,299,73433,2,0,B|447:305|447:305|387:284,1,110,2|10,1:2|0:0,0:0:0:0:
302,229,74115,2,0,L|305:298,1,55,2|2,1:2|1:2,0:0:0:0:
307,339,74456,1,10,0:0:0:0:
307,339,74626,2,0,L|185:333,1,110,2|2,1:2|1:1,0:0:0:0:
141,338,75138,2,0,L|138:283,1,55,10|2,0:0|1:2,0:0:0:0:
136,227,75479,6,0,B|78:210|78:210|29:220,2,110,2|10|2,1:2|0:0|1:2,0:0:0:0:
144,117,76501,1,8,0:0:0:0:
152,14,76842,2,0,L|224:18,1,55,2|2,1:2|1:2,0:0:0:0:
261,24,77183,1,10,0:0:0:0:
261,24,77354,2,0,P|306:59|366:62,1,110,2|10,1:2|0:0,0:0:0:0:
401,61,77865,1,2,1:2:0:0:
404,160,78206,6,0,L|418:277,2,110,6|10|2,1:2|0:2|1:2,0:0:0:0:
348,163,79058,2,0,L|271:168,1,55,2|10,1:2|0:0,0:0:0:0:
250,131,79399,2,0,B|196:128|196:128|142:162|142:162|78:157,1,165,2|10,1:2|0:0,0:0:0:0:
1,99,80251,2,0,L|13:208,1,110,2|10,1:2|0:0,0:0:0:0:
2,318,80933,2,0,L|68:308,1,55,10|0,0:0|1:0,0:0:0:0:
105,285,81274,1,10,0:0:0:0:
207,319,81615,2,0,L|273:309,1,55,10|2,0:0|1:2,0:0:0:0:
310,286,81956,2,0,L|376:296,1,55,8|2,0:0|1:2,0:0:0:0:
409,325,82297,6,0,P|464:240|377:209,2,220,8|10|6,0:0|0:0|1:2,0:0:0:0:
463,119,85024,6,0,B|391:114|391:114|312:152|312:152|203:146,1,220,10|8,0:0|0:0,0:0:0:0:
196,150,85876,1,10,1:2:0:0:
196,150,86047,2,0,L|193:78,1,55,6|2,1:2|0:0,0:0:0:0:
188,40,86388,6,0,L|17:33,2,165,6|2|14,1:2|0:0|0:0,0:0:0:0:
283,94,87751,2,0,L|349:95,1,55,0|0,0:0|1:0,0:0:0:0:
393,93,88092,2,0,L|383:211,1,110,8|2,0:0|1:2,0:0:0:0:
380,257,88604,1,2,1:2:0:0:
380,257,88774,2,0,L|306:254,1,55,10|2,0:0|1:2,0:0:0:0:
269,255,89115,6,0,B|210:241|210:241|156:256,1,110,2|10,1:2|0:0,0:0:0:0:
107,256,89626,1,2,1:0:0:0:
49,351,89967,1,2,1:2:0:0:
49,351,90138,2,0,L|170:349,1,110,14|0,1:2|1:0,0:0:0:0:
268,346,90819,1,10,0:0:0:0:
373,376,91160,2,0,L|372:316,1,55,10|10,0:0|0:0,0:0:0:0:
346,272,91501,2,0,L|347:191,1,55,10|10,0:0|0:0,0:0:0:0:
370,173,91842,6,0,L|481:177,2,110,2|10|0,1:2|0:0|1:0,0:0:0:0:
264,205,92865,1,8,0:0:0:0:
264,205,93035,2,0,B|244:146|244:146|260:29,1,165,2|10,1:2|0:0,1:0:0:0:
156,88,93888,2,0,L|30:83,1,110,2|14,1:2|0:0,0:0:0:0:
98,180,94569,6,0,B|116:241|116:241|111:309,1,110,2|10,1:2|0:0,0:0:0:0:
18,344,95251,2,0,L|24:243,2,82.5,2|2|2,1:2|1:2|1:2,0:0:0:0:
67,368,95933,2,0,P|100:378|167:364,1,82.5,2|2,1:2|1:2,0:0:0:0:
216,321,96444,1,2,1:0:0:0:
216,321,96615,2,0,L|295:315,1,55,2|10,1:2|0:0,0:0:0:0:
322,335,96956,2,0,L|401:329,1,55,10|10,0:0|0:0,0:0:0:0:
423,300,97297,6,0,B|442:250|442:250|434:175,1,110,6|8,1:2|0:0,0:0:0:0:
409,145,97808,1,2,1:2:0:0:
340,231,98149,1,0,1:0:0:0:
340,231,98319,2,0,L|211:220,1,110,14|0,0:0|0:0,0:0:0:0:
298,134,99001,2,0,L|290:55,1,55,10|2,0:0|0:0,0:0:0:0:
280,25,99342,2,0,B|230:45|230:45|162:39,1,110,2|10,1:2|0:0,0:0:0:0:
99,121,100024,6,0,L|208:130,1,110,2|10,1:2|0:0,0:0:0:0:
263,136,100535,2,0,B|245:200|245:200|252:264,1,110,2|2,1:2|1:2,0:0:0:0:
253,298,101047,1,12,0:0:0:0:
142,298,101388,2,0,L|67:306,2,55,2|2|10,0:0|1:2|0:0,0:0:0:0:
162,246,101899,1,2,1:2:0:0:
162,246,102069,2,0,L|153:171,1,55,10|10,0:0|0:0,0:0:0:0:
141,137,102410,2,0,L|149:62,1,55,10|10,0:0|0:0,0:0:0:0:
154,27,102751,6,0,P|219:32|274:73,1,110,2|10,1:2|0:0,0:0:0:0:
363,81,103433,2,0,L|422:78,1,55,2|2,1:2|1:2,0:0:0:0:
473,75,103774,1,10,0:0:0:0:
473,75,103944,2,0,L|467:184,1,110,2|0,1:2|1:0,0:0:0:0:
462,240,104456,2,0,L|349:247,2,110,10|2|14,0:0|1:2|0:0,0:0:0:0:
384,161,105479,6,0,L|267:167,1,110,6|10,1:2|0:0,0:0:0:0:
179,111,106160,2,0,L|174:175,1,55,2|10,1:2|0:0,0:0:0:0:
170,220,106501,1,8,0:0:0:0:
170,220,106672,1,10,0:0:0:0:
101,306,107013,1,2,0:0:0:0:
101,306,107183,2,0,B|161:321|161:321|227:311,2,110,2|2|10,0:0|0:0|0:0,0:0:0:0:
55,205,108206,1,6,0:0:0:0:
256,192,108376,12,0,110763,0:0:0:0:
256,192,110933,12,10,113660,0:0:0:0:
366,139,124229,5,2,0:0:0:0:
361,248,124569,6,0,L|251:252,1,110,6|10,1:2|0:0,0:0:0:0:
168,326,125251,2,0,L|172:390,2,55,2|2|10,1:2|1:2|0:0,0:0:0:0:
161,271,125762,2,0,P|187:181|249:157,1,165,2|10,1:2|0:0,1:0:0:0:
311,67,126614,6,0,L|239:64,1,55,2|2,1:2|1:2,0:0:0:0:
200,65,126955,2,0,B|143:80|143:80|82:63,1,110,10|2,0:0|1:2,0:0:0:0:
12,140,127637,1,10,0:0:0:0:
71,233,127979,2,0,L|65:312,2,55,2|2|10,1:2|1:2|0:0,0:0:0:0:
122,213,128489,2,0,P|203:212|275:251,1,165,2|8,1:2|0:0,0:0:0:0:
341,339,129342,6,0,L|282:352,1,55,0|2,1:0|1:2,0:0:0:0:
232,355,129683,2,0,B|174:343|174:343|114:357,1,110,10|4,0:0|1:2,0:0:0:0:
14,366,130365,1,10,0:0:0:0:
44,260,130705,2,0,L|39:205,2,55,2|2|10,1:2|1:2|0:0,0:0:0:0:
98,269,131216,2,0,L|262:234,1,165,2|10,1:2|0:0,0:0:0:0:
367,254,132069,6,0,L|421:257,1,55,0|2,1:0|1:2,0:0:0:0:
476,263,132410,2,0,B|491:206|491:206|474:145,1,110,10|2,0:0|1:2,0:0:0:0:
437,53,133092,1,10,0:0:0:0:
331,81,133432,2,0,L|277:76,2,55,0|2|10,1:0|1:2|0:0,0:0:0:0:
360,128,133944,1,0,1:0:0:0:
378,179,134114,6,0,L|258:185,1,110,6|10,1:2|0:0,0:0:0:0:
158,300,134797,2,0,L|268:295,1,110,2|2,1:2|1:2,0:0:0:0:
268,184,135479,6,0,L|275:71,1,110,2|10,1:2|0:0,0:0:0:0:
165,56,136160,2,0,L|168:2,2,55,2|2|10,0:0|1:2|0:0,0:0:0:0:
167,111,136672,2,0,B|42:117|42:117|-11:89,1,165,2|10,0:0|0:0,0:0:0:0:
55,196,137524,6,0,L|53:274,1,55,0|0,1:0|0:0,0:0:0:0:
55,306,137864,2,0,B|101:330|101:330|158:322,1,110,10|2,0:0|1:2,0:0:0:0:
176,214,138546,1,10,0:0:0:0:
260,284,138887,2,0,L|263:338,2,55,2|2|10,0:0|1:2|0:0,0:0:0:0:
289,237,139398,2,0,P|370:230|441:269,1,165,2|10,0:0|0:0,0:0:0:0:
490,368,140251,6,0,L|412:370,1,55,2|2,1:2|0:0,0:0:0:0:
379,365,140592,2,0,B|246:351,1,110,10|6,0:0|1:2,0:0:0:0:
160,339,141274,1,10,0:0:0:0:
236,259,141615,2,0,L|290:262,2,55,2|2|10,0:0|1:2|0:0,0:0:0:0:
199,217,142126,2,0,L|187:34,1,165,2|10,0:0|0:0,0:0:0:0:
298,54,142978,6,0,L|352:52,1,55,2|2,1:2|1:2,0:0:0:0:
407,56,143319,2,0,P|430:106|410:165,1,110,10|2,0:0|1:2,0:0:0:0:
496,233,144001,1,10,0:0:0:0:
386,241,144342,2,0,P|356:236|332:238,2,55,2|2|10,1:2|0:0|0:0,0:0:0:0:
351,345,145023,6,0,B|286:325|286:325|242:331,1,110,6|2,1:2|1:2,0:0:0:0:
139,364,145705,2,0,L|147:295,1,55,10|10,0:0|0:0,0:0:0:0:
167,258,146046,2,0,L|159:189,1,55,2|2,1:2|1:2,0:0:0:0:
152,148,146388,6,0,B|100:172|100:172|45:165,1,110,6|10,1:2|0:0,0:0:0:0:
86,62,147070,2,0,L|82:-2,2,55,0|2|8,1:0|1:2|0:0,0:0:0:0:
140,52,147581,2,0,B|183:46|183:46|254:76|254:76|307:69,1,165,2|10,1:2|0:0,0:0:0:0:
395,18,148433,6,0,L|392:90,1,55,2|0,1:2|0:0,0:0:0:0:
388,129,148774,2,0,B|403:186|403:186|386:247,1,110,10|2,0:0|1:2,0:0:0:0:
479,298,149456,1,8,0:0:0:0:
438,315,149627,2,0,P|371:327|319:304,1,110,2|2,0:0|0:0,0:0:0:0:
289,303,150138,2,0,L|149:316,1,110,10|8,0:0|0:0,0:0:0:0:
135,320,150649,1,2,1:2:0:0:
63,371,150990,6,0,B|52:312|52:312|72:247,1,110,2|2,0:0|1:2,0:0:0:0:
78,221,151502,2,0,B|152:216,1,55,10|2,0:0|0:0,0:0:0:0:
187,214,151842,1,6,1:2:0:0:
297,209,152184,1,10,0:0:0:0:
291,99,152524,2,0,L|346:94,2,55,0|2|10,1:2|1:2|0:0,0:0:0:0:
235,100,153035,2,0,B|134:75|134:75|75:91,1,165,2|10,1:2|0:0,0:0:0:0:
31,200,153888,6,0,L|85:203,1,55,2|2,0:0|0:0,0:0:0:0:
140,212,154229,2,0,B|153:261|153:261|138:318,1,110,10|2,0:0|1:2,0:0:0:0:
234,372,154911,1,2,1:2:0:0:
335,330,155251,2,8,L|389:325,2,55,10|10|2,0:0|0:0|1:2,0:0:0:0:
334,278,155763,1,2,1:2:0:0:
334,278,155933,6,0,L|328:158,1,110,6|8,1:2|0:0,0:0:0:0:
368,65,156615,2,0,L|313:72,1,55,10|10,0:0|0:0,0:0:0:0:
262,51,156956,2,0,L|207:44,1,55,2|10,1:2|0:0,0:0:0:0:
154,60,157297,6,0,L|157:190,2,110,6|2|2,1:2|1:2|1:2,0:0:0:0:
64,123,158319,1,2,1:2:0:0:
83,231,158660,2,0,P|127:253|192:255,1,110,2|2,1:2|1:2,0:0:0:0:
281,199,159342,2,0,P|330:175|384:173,1,110,2|2,1:2|1:2,0:0:0:0:
486,218,160024,6,0,L|483:108,2,110,2|2|2,1:2|1:2|1:2,0:0:0:0:
489,327,161046,1,2,1:2:0:0:
388,282,161387,2,0,P|333:283|284:307,1,110,2|2,1:2|1:2,0:0:0:0:
187,360,162069,2,0,P|132:358|83:334,1,110,2|2,1:2|1:2,0:0:0:0:
24,241,162751,5,6,1:2:0:0:
69,140,163092,1,2,1:2:0:0:
144,219,163433,2,0,B|198:226|198:226|253:207,1,110,10|10,1:2|1:2,0:0:0:0:
360,199,164115,1,10,1:2:0:0:
457,249,164456,1,10,1:2:0:0:
454,139,164797,2,0,L|458:27,1,110,10|10,1:2|1:2,0:0:0:0:
358,76,165479,5,2,1:2:0:0:
253,42,165819,1,10,0:0:0:0:
157,97,166160,2,0,L|159:155,1,55,10|10,0:0|0:0,0:0:0:0:
189,197,166501,2,0,L|191:255,1,55,10|10,0:0|0:0,0:0:0:0:
171,303,166842,1,10,0:0:0:0:
58,284,178177,6,0,L|54:377,2,82.5,2|2|2,1:2|1:2|1:2,0:0:0:0:
61,201,178944,1,10,0:0:0:0:
61,201,179115,6,0,B|111:220|111:220|186:212,1,110,6|10,1:2|0:0,0:0:0:0:
221,205,179626,1,2,1:2:0:0:
297,126,179967,1,0,0:0:0:0:
297,126,180138,2,0,L|168:115,1,110,10|0,0:0|0:0,0:0:0:0:
110,37,180819,2,0,L|104:91,1,55,10|2,0:0|1:2,0:0:0:0:
101,146,181160,2,0,B|121:196|121:196|115:264,1,110,2|10,1:2|0:0,0:0:0:0:
63,348,181842,6,0,L|172:339,1,110,2|10,1:2|0:2,0:0:0:0:
217,306,182353,2,0,P|271:305|323:322,1,110,2|2,1:2|1:2,0:0:0:0:
370,352,182865,1,14,0:2:0:0:
476,325,183206,2,0,L|468:400,2,55,0|2|10,0:0|1:2|0:0,0:0:0:0:
498,276,183717,1,2,1:2:0:0:
498,276,183887,2,0,L|489:201,1,55,10|10,0:0|0:0,0:0:0:0:
468,171,184228,2,0,L|476:96,1,55,10|10,0:0|0:0,0:0:0:0:
477,61,184569,6,0,P|412:66|357:107,1,110,6|10,1:2|0:0,0:0:0:0:
294,164,185251,2,0,L|239:161,1,55,2|2,1:2|0:0,0:0:0:0:
188,155,185592,1,0,1:0:0:0:
188,155,185762,2,0,L|182:264,1,110,2|0,1:2|1:0,0:0:0:0:
175,320,186274,2,0,B|235:312|235:312|288:327,2,110,10|2|14,0:2|1:2|0:0,0:0:0:0:
65,331,187297,6,0,L|71:214,1,110,2|10,1:2|0:0,0:0:0:0:
39,115,187978,2,0,P|66:110|93:110,1,55,2|10,1:2|0:0,0:0:0:0:
147,123,188319,1,8,0:0:0:0:
147,123,188490,1,6,1:2:0:0:
239,183,188831,1,2,1:2:0:0:
239,183,189001,2,0,B|256:128|256:128|244:57,2,110,10|10|10,0:0|0:0|0:0,0:0:0:0:
165,265,190024,6,0,L|0:271,2,165,2|2|14,1:2|1:2|0:0,0:0:0:0:
274,269,191387,2,0,L|274:323,1,55,0|2,1:0|1:2,0:0:0:0:
275,379,191728,2,0,B|332:360|332:360|404:372,1,110,10|2,0:0|1:2,0:0:0:0:
440,376,192240,1,2,0:0:0:0:
440,376,192410,2,0,L|443:302,1,55,10|2,0:0|1:2,0:0:0:0:
444,265,192751,6,0,B|430:206|430:206|445:152,1,110,2|10,1:2|0:0,0:0:0:0:
455,104,193262,1,2,1:2:0:0:
370,41,193603,1,2,1:2:0:0:
370,41,193774,2,0,L|339:160,1,110,14|0,0:0|1:0,0:0:0:0:
247,90,194455,1,10,0:0:0:0:
234,199,194796,2,0,L|179:198,1,55,10|10,1:2|0:0,0:0:0:0:
128,220,195137,2,0,L|47:219,1,55,10|10,0:0|0:0,0:0:0:0:
17,222,195478,6,0,L|15:331,2,110,2|10|2,1:2|0:0|1:2,0:0:0:0:
27,115,196501,1,8,0:0:0:0:
27,115,196671,2,0,B|86:95|86:95|203:111,1,165,2|10,1:2|0:0,0:0:0:0:
211,216,197524,2,0,L|79:196,1,110,2|14,1:2|0:0,0:0:0:0:
38,289,198206,6,0,B|150:307,1,110,6|0,1:2|1:0,0:0:0:0:
256,300,198887,2,0,L|262:401,2,82.5,2|2|2,1:2|1:2|1:2,0:0:0:0:
311,298,199569,2,0,L|367:293,1,55,2|10,1:2|0:0,0:0:0:0:
474,282,200081,2,0,B|492:228|492:228|481:150,1,110,2|10,1:2|1:2,0:0:0:0:
481,120,200592,2,8,L|426:124,1,55,10|10,0:0|1:2,0:0:0:0:
371,132,200933,6,0,B|314:137|314:137|265:117,1,110,2|8,1:2|0:0,0:0:0:0:
214,94,201444,1,2,1:2:0:0:
238,205,201785,1,0,0:0:0:0:
238,205,201956,2,0,B|181:199|181:199|132:219,1,110,10|10,0:0|0:0,0:0:0:0:
83,319,202638,1,10,0:0:0:0:
192,312,202979,2,0,L|254:308,1,55,10|2,0:0|1:2,0:0:0:0:
296,332,203319,2,0,L|358:336,1,55,10|2,0:0|1:2,0:0:0:0:
399,309,203660,6,0,L|394:198,1,110,14|10,0:0|0:0,0:0:0:0:
389,143,204172,1,2,1:2:0:0:
457,57,204513,1,2,1:2:0:0:
457,57,204683,2,0,B|400:39|400:39|336:47,1,110,14|10,0:0|1:2,0:0:0:0:
241,26,205365,1,10,0:0:0:0:
261,134,205706,2,0,L|256:199,1,55,0|2,1:0|1:2,0:0:0:0:
286,235,206047,2,0,L|291:300,1,55,10|10,0:0|0:0,0:0:0:0:
275,343,206388,6,0,L|149:346,1,110,6|10,1:2|0:0,0:0:0:0:
59,378,207069,2,0,P|51:342|64:302,1,55,10|2,0:0|1:2,0:0:0:0:
71,272,207410,1,8,0:0:0:0:
71,272,207581,2,0,L|66:153,1,110,2|0,1:2|1:0,0:0:0:0:
59,107,208092,2,0,B|112:126|112:126|174:120,2,110,10|10|14,0:0|0:0|0:0,0:0:0:0:
132,24,209115,6,0,L|249:16,1,110,10|10,0:0|0:0,0:0:0:0:
347,49,209797,2,0,L|344:112,1,55,10|10,0:0|0:0,0:0:0:0:
344,162,210138,1,8,0:0:0:0:
344,162,210308,1,2,1:2:0:0:
402,261,210649,1,2,1:2:0:0:
402,261,210819,2,0,L|512:255,2,110,2|2|10,1:2|1:2|0:0,0:0:0:0:
344,162,211842,6,0,B|310:249|310:249|327:345,2,165,10|10|2,0:0|0:2|0:2,0:0:0:0:
272,78,213206,1,2,0:2:0:0:
192,154,213547,1,2,0:2:0:0:
105,86,213888,2,0,P|11:81|43:169,1,220,2|6,0:0|1:2,0:0:0:0:
256,192,214740,12,0,216615,0:0:0:0:
305,250,217297,6,0,P|461:200|295:148,2,440,2|2|2,0:0|0:0|0:0,0:0:0:0:
239,39,220706,1,10,1:2:0:0:
305,250,221388,2,0,B|223:242|223:242|166:282|166:282|88:276,1,220,2|10,0:0|0:0,0:0:0:0:
60,60,222751,6,0,P|156:49|123:135,1,220,2|10,1:2|0:0,0:0:0:0:
59,342,224115,2,0,L|223:330,1,165,2|0,0:0|0:0,0:0:0:0:
278,324,224797,2,0,L|274:251,1,55,10|8,0:0|0:0,0:0:0:0:
253,219,225138,2,0,L|249:146,1,55,2|8,1:2|0:0,0:0:0:0:
