osu file format v14

[General]
AudioFilename: audio.mp3
AudioLeadIn: 0
PreviewTime: 86047
Countdown: 0
SampleSet: Soft
StackLeniency: 0.7
Mode: 0
LetterboxInBreaks: 0
WidescreenStoryboard: 0

[Editor]
Bookmarks: 442,18169,39987,61805,86351,108169,124532,146351,166805,189987,214532,225479
DistanceSpacing: 0.8
BeatDivisor: 4
GridSize: 16
TimelineZoom: 2

[Metadata]
Title:25-ji 76-pun Hatsu <> Iki Saishuu Ressha
TitleUnicode:25時76分発<<領域外>>行最終列車
Artist:cosMo@BousouP
ArtistUnicode:cosMo@暴走P
Creator:Sagon
Version:Divinity
Source:
Tags:cosMo@Bousou-P 25:76 Departure: The last train bound for <> AD:PIANO VII -Alternative- diverse system electronic instrumental
BeatmapID:3707400
BeatmapSetID:1807738

[Difficulty]
HPDrainRate:6
CircleSize:4
OverallDifficulty:9
ApproachRate:9.3
SliderMultiplier:1.92
SliderTickRate:1

[Events]
//Background and Video events
0,0,"bg.jpg",0,0
//Break Periods
2,61842,65933
2,114001,123206
2,168206,177069
//Storyboard Layer 0 (Background)
//Storyboard Layer 1 (Fail)
//Storyboard Layer 2 (Pass)
//Storyboard Layer 3 (Foreground)
//Storyboard Layer 4 (Overlay)
//Storyboard Sound Samples

[TimingPoints]
479,340.909090909091,4,2,1,60,1,0
479,-133.333333333333,4,2,1,60,0,0
5933,-133.333333333333,4,2,1,70,0,0
11388,-100,4,2,1,70,0,0
13433,-90.9090909090909,4,2,1,70,0,0
13604,-90.9090909090909,4,2,1,5,0,0
13689,-90.9090909090909,4,2,1,70,0,0
13859,-90.9090909090909,4,2,1,5,0,0
13944,-90.9090909090909,4,2,1,70,0,0
15990,-76.9230769230769,4,2,1,70,0,0
17524,-181.818181818181,4,2,1,70,0,0
18206,-100,4,2,1,70,0,0
19655,-100,4,2,1,5,0,0
19740,-100,4,2,1,70,0,0
21189,-100,4,2,1,5,0,0
21274,-100,4,2,1,70,0,0
23064,-100,4,2,1,5,0,0
23149,-100,4,2,1,70,0,0
25791,-100,4,2,1,5,0,0
25876,-100,4,2,1,70,0,0
30564,-100,4,2,1,5,0,0
30649,-100,4,2,1,70,0,0
32098,-100,4,2,1,5,0,0
32183,-100,4,2,1,70,0,0
33973,-100,4,2,1,5,0,0
34058,-100,4,2,1,70,0,0
36700,-100,4,2,1,5,0,0
36785,-100,4,2,1,70,0,0
40024,-83.3333333333333,4,2,1,80,0,0
44797,-83.3333333333333,4,2,1,80,0,0
44967,-83.3333333333333,4,2,1,5,0,0
45052,-83.3333333333333,4,2,1,80,0,0
45223,-83.3333333333333,4,2,1,5,0,0
45308,-83.3333333333333,4,2,1,80,0,0
46160,-83.3333333333333,4,2,1,80,0,0
46331,-83.3333333333333,4,2,1,5,0,0
46416,-83.3333333333333,4,2,1,80,0,0
46586,-83.3333333333333,4,2,1,5,0,0
46672,-83.3333333333333,4,2,1,80,0,0
57069,-83.3333333333333,4,2,1,80,0,0
57240,-83.3333333333333,4,2,1,5,0,0
57325,-83.3333333333333,4,2,1,80,0,0
57496,-83.3333333333333,4,2,1,5,0,0
57581,-83.3333333333333,4,2,1,80,0,0
59797,-83.3333333333333,4,2,1,80,0,0
59967,-83.3333333333333,4,2,1,5,0,0
60052,-83.3333333333333,4,2,1,80,0,0
60223,-83.3333333333333,4,2,1,5,0,0
60308,-83.3333333333333,4,2,1,80,0,0
66785,-83.3333333333333,4,2,1,60,0,0
67297,-133.333333333333,4,2,1,60,0,0
70024,-133.333333333333,4,2,1,70,0,0
72751,-100,4,2,1,70,0,0
74882,-100,4,2,1,5,0,0
74967,-100,4,2,1,70,0,0
75734,-100,4,2,1,5,0,0
75819,-100,4,2,1,70,0,0
76331,-100,4,2,1,5,0,0
76416,-100,4,2,1,70,0,0
76586,-100,4,2,1,5,0,0
76672,-100,4,2,1,70,0,0
94825,-100,4,2,1,5,0,0
94910,-100,4,2,1,70,0,0
95422,-100,4,2,1,5,0,0
95507,-100,4,2,1,70,0,0
95677,-100,4,2,1,5,0,0
95763,-100,4,2,1,70,0,0
95933,-100,4,2,1,70,0,0
96104,-100,4,2,1,5,0,0
96189,-100,4,2,1,70,0,0
96359,-100,4,2,1,5,0,0
96444,-100,4,2,1,70,0,0
97552,-100,4,2,1,5,0,0
97638,-100,4,2,1,70,0,0
100280,-100,4,2,1,5,0,0
100365,-100,4,2,1,70,0,0
103007,-100,4,2,1,5,0,0
103092,-100,4,2,1,70,0,0
126018,-100,4,2,1,5,0,0
126104,-100,4,2,1,70,0,0
127552,-100,4,2,1,5,0,0
127638,-100,4,2,1,70,0,0
129427,-100,4,2,1,5,0,0
129513,-100,4,2,1,70,0,0
132155,-100,4,2,1,5,0,0
132240,-100,4,2,1,70,0,0
146388,-90.9090909090909,4,2,1,70,0,0
147836,-90.9090909090909,4,2,1,5,0,0
147922,-90.9090909090909,4,2,1,70,0,0
149115,-90.9090909090909,4,2,1,70,0,0
149285,-90.9090909090909,4,2,1,5,0,0
149371,-90.9090909090909,4,2,1,70,0,0
149541,-90.9090909090909,4,2,1,5,0,0
149626,-90.9090909090909,4,2,1,70,0,0
149882,-90.9090909090909,4,2,1,70,0,0
150052,-90.9090909090909,4,2,1,5,0,0
150138,-90.9090909090909,4,2,1,70,0,0
150308,-90.9090909090909,4,2,1,5,0,0
150393,-90.9090909090909,4,2,1,70,0,0
150564,-90.9090909090909,4,2,1,5,0,0
150649,-90.9090909090909,4,2,1,70,0,0
150819,-90.9090909090909,4,2,1,5,0,0
150905,-90.9090909090909,4,2,1,70,0,0
178348,-90.9090909090909,4,2,1,5,0,0
178433,-90.9090909090909,4,2,1,70,0,0
178604,-90.9090909090909,4,2,1,5,0,0
178689,-90.9090909090909,4,2,1,70,0,0
179371,-90.9090909090909,4,2,1,5,0,0
179456,-90.9090909090909,4,2,1,70,0,0
182098,-90.9090909090909,4,2,1,5,0,0
182183,-90.9090909090909,4,2,1,70,0,0
184825,-90.9090909090909,4,2,1,5,0,0
184910,-90.9090909090909,4,2,1,70,0,0
188746,-90.9090909090909,4,2,1,5,0,0
188831,-90.9090909090909,4,2,1,70,0,0
198376,-90.9090909090909,4,2,1,5,0,0
198461,-90.9090909090909,4,2,1,70,0,0
198632,-90.9090909090909,4,2,1,5,0,0
198717,-90.9090909090909,4,2,1,70,0,0
199058,-90.9090909090909,4,2,1,5,0,0
199143,-90.9090909090909,4,2,1,70,0,0
200336,-90.9090909090909,4,2,1,5,0,0
200422,-90.9090909090909,4,2,1,70,0,0
201189,-90.9090909090909,4,2,1,5,0,0
201274,-90.9090909090909,4,2,1,70,0,0
205280,-90.9090909090909,4,2,1,5,0,0
205365,-90.9090909090909,4,2,1,70,0,0
205535,-90.9090909090909,4,2,1,5,0,0
205621,-90.9090909090909,4,2,1,70,0,0
205876,-90.9090909090909,4,2,1,70,0,0
212865,-90.9090909090909,4,2,1,60,0,0
213888,-90.9090909090909,4,2,1,40,0,0
214569,-200,4,2,1,70,0,0

[Colours]
Combo1 : 0,232,232
Combo2 : 0,128,255
Combo3 : 81,216,255
Combo4 : 0,155,183

[HitObjects]
328,248,479,6,0,L|323:160,1,72.0000027465821,2|0,0:0|0:0,0:0:0:0:
487,167,819,2,0,L|492:255,1,72.0000027465821
335,333,1160,1,0,0:0:0:0:
335,333,1331,1,0,0:0:0:0:
497,323,1501,1,2,0:0:0:0:
497,323,1672,1,2,0:0:0:0:
407,214,1842,6,0,L|402:142,1,72.0000027465821,2|0,0:0|0:0,0:0:0:0:
240,39,2183,2,0,P|232:71|235:110,1,72.0000027465821
137,87,2524,1,0,0:0:0:0:
137,87,2695,1,0,0:0:0:0:
241,191,2865,1,0,0:0:0:0:
149,248,3036,1,0,0:0:0:0:
149,248,3206,6,0,P|157:216|153:176,1,72.0000027465821,2|0,0:0|0:0,0:0:0:0:
328,86,3547,2,0,L|399:81,1,72.0000027465821
363,248,3888,6,0,P|355:216|358:176,1,72.0000027465821,2|0,0:0|0:0,0:0:0:0:
184,86,4229,2,0,L|112:81,1,72.0000027465821,2|0,0:0|0:0,0:0:0:0:
7,231,4569,5,2,0:0:0:0:
81,210,4740,1,0,0:0:0:0:
149,248,4910,1,0,0:0:0:0:
223,227,5081,1,0,0:0:0:0:
291,265,5251,2,0,L|375:255,1,72.0000027465821,2|0,0:0|0:0,0:0:0:0:
301,94,5592,2,0,P|311:128|309:164,1,72.0000027465821
454,244,5933,5,0,1:0:0:0:
222,140,6274,1,0,1:0:0:0:
422,118,6615,1,0,1:0:0:0:
339,339,6956,1,0,1:0:0:0:
58,140,7297,5,0,1:0:0:0:
290,244,7638,1,0,1:0:0:0:
90,266,7979,1,0,1:0:0:0:
173,45,8320,1,0,1:0:0:0:
311,322,8660,5,0,1:0:0:0:
348,178,9001,1,0,1:0:0:0:
164,178,9342,5,0,1:0:0:0:
201,322,9683,1,0,1:0:0:0:
400,240,10024,5,0,1:0:0:0:
124,107,10365,1,0,1:0:0:0:
132,384,10706,1,0,1:0:0:0:
310,229,10876,1,0,1:0:0:0:
310,229,10961,1,0,1:0:0:0:
310,229,11047,5,8,0:0:0:0:
268,208,11132,1,8,0:0:0:0:
221,209,11217,1,0,1:0:0:0:
186,240,11302,1,0,1:0:0:0:
176,286,11388,2,0,L|58:298,1,96,6|2,1:2|0:0,0:0:0:0:
33,285,11643,1,2,0:0:0:0:
13,241,11728,1,10,1:2:0:0:
33,197,11814,1,2,0:0:0:0:
14,153,11899,1,10,0:0:0:0:
48,22,12069,5,10,1:2:0:0:
93,36,12154,1,2,0:0:0:0:
126,70,12239,1,10,0:0:0:0:
139,116,12325,1,2,0:0:0:0:
128,162,12409,1,10,1:2:0:0:
176,286,12581,5,10,0:0:0:0:
221,272,12666,1,2,0:0:0:0:
254,238,12751,1,10,1:2:0:0:
267,192,12836,1,2,0:0:0:0:
256,146,12922,1,10,0:0:0:0:
457,50,13092,5,8,1:2:0:0:
411,63,13177,1,0,0:0:0:0:
377,96,13262,1,8,0:0:0:0:
362,141,13347,1,0,0:0:0:0:
372,187,13433,2,0,B|243:192,1,105.600003222656,2|0,1:2|0:0,0:0:0:0:
239,217,13689,2,0,B|110:222,1,105.600003222656,2|0,1:0|0:0,0:0:0:0:
102,241,13944,1,2,1:0:0:0:
260,304,14115,5,0,1:0:0:0:
88,162,14285,1,0,1:0:0:0:
88,162,14371,1,0,1:0:0:0:
88,162,14456,5,8,1:2:0:0:
116,121,14541,1,8,0:0:0:0:
166,116,14626,1,8,0:0:0:0:
203,140,14711,1,8,0:0:0:0:
221,188,14797,1,8,1:2:0:0:
195,238,14882,1,8,0:0:0:0:
153,258,14967,1,8,0:0:0:0:
102,241,15052,1,8,0:0:0:0:
63,260,15138,1,8,1:2:0:0:
54,299,15223,1,8,0:0:0:0:
72,331,15308,1,8,0:0:0:0:
110,340,15393,1,8,0:0:0:0:
135,324,15479,1,12,1:2:0:0:
429,251,15649,5,0,1:0:0:0:
429,251,15734,1,0,1:0:0:0:
429,251,15819,2,0,P|398:247|361:260,1,52.8000016113282,0|8,1:0|0:0,0:0:0:0:
316,326,15990,2,0,B|296:255|296:255|316:159,1,124.79999428711,4|0,1:2|0:0,0:0:0:0:
316,165,16246,1,0,1:0:0:0:
316,165,16331,2,0,L|246:156,1,62.3999971435548,8|0,0:0|1:0,0:0:0:0:
254,333,16501,2,0,L|324:324,1,62.3999971435548,4|0,1:2|0:0,0:0:0:0:
405,170,16672,6,0,L|397:108,1,62.3999971435548,0|0,1:0|1:0,0:0:0:0:
405,323,16842,2,0,L|397:384,1,62.3999971435548,0|8,1:0|0:0,0:0:0:0:
507,227,17013,6,0,B|456:229|420:208|420:208|384:224|357:252|357:252|314:237|271:244,1,249.599988574219,4|8,1:2|0:0,0:0:0:0:
405,323,17524,2,0,B|401:298|401:298|408:276|408:276|402:244,2,79.2000024169923,2|2|2,0:0|0:0|0:0,0:0:0:0:
254,157,18206,5,2,1:2:0:0:
94,250,18376,1,2,1:2:0:0:
161,310,18547,2,0,P|182:255|174:207,1,96,10|2,0:0|0:0,0:0:0:0:
169,191,18802,1,8,0:0:0:0:
169,191,18888,1,0,1:0:0:0:
5,317,19058,5,2,0:0:0:0:
67,123,19229,1,10,0:0:0:0:
94,250,19399,2,0,L|276:262,1,144,2|0,1:2|0:0,0:0:0:0:
271,262,19740,1,2,1:2:0:0:
483,173,19910,6,0,P|417:172|368:214,1,96,10|2,0:0|1:2,0:0:0:0:
222,89,20251,2,0,P|288:88|337:130,1,96,2|2,1:2|1:0,0:0:0:0:
449,251,20592,1,10,0:0:0:0:
330,315,20763,1,2,0:0:0:0:
318,321,20848,1,0,0:0:0:0:
306,327,20933,2,0,P|264:269|257:198,1,144,2|0,1:2|0:0,0:0:0:0:
258,160,21274,1,10,0:0:0:0:
21,122,21444,5,2,0:0:0:0:
21,122,21530,1,2,0:0:0:0:
21,122,21615,2,0,P|69:98|127:104,1,96,2|2,0:0|0:0,0:0:0:0:
256,198,21956,1,8,0:0:0:0:
94,270,22126,2,0,L|83:171,1,96,2|0,0:0|0:0,0:0:0:0:
178,236,22425,5,2,0:0:0:0:
178,236,22467,2,0,L|188:331,1,96,2|8,0:0|0:0,0:0:0:0:
451,295,22808,2,0,L|293:282,1,144,0|0,1:0|0:0,0:0:0:0:
265,280,23149,1,2,1:2:0:0:
94,270,23319,1,10,0:0:0:0:
298,153,23490,1,2,1:2:0:0:
178,236,23660,6,0,L|168:141,1,96,4|2,1:2|1:2,0:0:0:0:
294,60,24001,2,0,B|308:107|308:107|299:153,1,96,10|2,0:0|0:0,0:0:0:0:
389,218,24342,1,2,0:0:0:0:
167,140,24513,1,2,0:0:0:0:
390,58,24683,1,10,0:0:0:0:
279,240,24854,1,2,1:2:0:0:
423,135,25024,5,2,1:2:0:0:
225,320,25194,1,2,1:2:0:0:
389,218,25365,1,10,0:0:0:0:
227,115,25535,2,0,L|70:98,1,144,0|0,1:2|0:0,0:0:0:0:
45,94,25876,1,2,1:2:0:0:
220,216,26047,1,10,0:0:0:0:
40,305,26217,1,2,0:0:0:0:
0,197,26388,6,0,B|59:190|59:190|122:225|122:225|182:217,1,192,2|10,1:2|0:0,0:0:0:0:
376,124,26899,2,0,P|297:115|255:83,1,96,2|0,1:2|1:0,0:0:0:0:
168,52,27240,1,2,1:2:0:0:
182,217,27410,2,0,L|193:338,1,96,10|0,0:2|0:0,0:0:0:0:
421,367,27751,6,0,L|360:364,1,48,6|0,1:2|0:0,0:0:0:0:
301,298,27922,1,8,0:0:0:0:
345,273,28007,1,8,0:0:0:0:
395,279,28092,1,10,0:0:0:0:
182,217,28263,5,8,0:0:0:0:
226,192,28348,1,8,0:0:0:0:
276,198,28433,1,10,0:0:0:0:
56,144,28604,5,0,1:0:0:0:
100,120,28689,1,0,1:0:0:0:
150,129,28774,1,10,0:0:0:0:
182,167,28860,1,8,0:0:0:0:
182,217,28945,1,0,1:0:0:0:
150,256,29030,1,0,1:0:0:0:
98,263,29115,6,0,P|51:260|10:283,1,96,2|0,1:2|1:2,0:0:0:0:
150,129,29456,2,0,P|176:89|177:42,1,96,10|2,0:0|0:0,0:0:0:0:
169,8,29711,1,8,0:0:0:0:
169,8,29797,1,2,1:2:0:0:
286,67,29967,1,2,1:2:0:0:
68,178,30138,1,10,0:0:0:0:
274,296,30308,2,0,B|293:239|293:239|277:149,1,144,2|0,1:2|0:0,0:0:0:0:
278,156,30649,1,2,1:0:0:0:
274,296,30819,6,0,B|319:277|319:277|368:283,1,96,10|2,0:0|0:0,0:0:0:0:
408,293,31075,1,8,0:0:0:0:
408,293,31160,1,2,1:2:0:0:
208,234,31331,1,2,1:2:0:0:
332,366,31501,1,10,0:0:0:0:
500,190,31672,1,2,1:2:0:0:
506,202,31757,1,0,1:2:0:0:
512,213,31842,2,0,B|371:198,1,144,2|0,1:2|0:0,0:0:0:0:
368,197,32183,1,10,0:0:0:0:
297,41,32354,5,2,0:0:0:0:
291,29,32439,1,2,0:0:0:0:
285,18,32524,2,0,B|426:33,1,96,2|2,1:2|1:2,0:0:0:0:
277,173,32865,1,10,0:0:0:0:
449,122,33035,2,0,B|353:111,1,96,2|0,1:2|1:0,0:0:0:0:
393,313,33376,2,0,P|378:269|387:223,1,96,2|8,1:2|0:0,0:0:0:0:
277,173,33717,2,0,P|190:182|151:220,1,144,2|0,0:0|0:0,0:0:0:0:
138,250,34058,1,2,0:0:0:0:
109,117,34229,1,10,0:0:0:0:
246,264,34399,1,2,0:0:0:0:
138,250,34569,6,0,L|32:239,1,96,4|2,1:2|1:2,0:0:0:0:
361,111,34910,2,0,L|467:100,1,96,10|2,0:0|0:0,0:0:0:0:
489,99,35166,1,8,0:0:0:0:
489,99,35251,1,2,1:2:0:0:
373,213,35422,1,2,1:2:0:0:
401,16,35592,1,10,0:0:0:0:
373,213,35763,1,2,1:2:0:0:
281,53,35933,5,2,1:2:0:0:
486,206,36103,1,2,1:2:0:0:
246,290,36274,1,10,0:0:0:0:
283,173,36444,2,0,L|130:161,1,144,2|0,1:2|0:0,0:0:0:0:
139,161,36785,1,2,1:0:0:0:
141,54,36956,1,10,0:0:0:0:
47,217,37126,1,2,1:2:0:0:
141,54,37297,6,0,B|89:50|41:25|41:25|54:130,1,192,2|10,1:2|0:0,0:0:0:0:
138,264,37808,2,0,L|126:359,1,96,2|0,1:2|1:0,0:0:0:0:
33,301,38149,1,2,1:2:0:0:
216,205,38319,2,0,P|173:174|107:174,1,96,10|0,0:2|1:0,0:0:0:0:
35,36,38660,5,2,1:2:0:0:
13,83,38745,1,2,1:2:0:0:
19,136,38831,2,8,L|26:195,1,48,10|10,0:0|0:0,0:0:0:0:
126,300,39001,5,10,0:0:0:0:
144,260,39086,1,10,0:0:0:0:
139,217,39172,2,8,L|132:167,1,48,10|10,0:0|0:0,0:0:0:0:
251,98,39342,5,2,1:2:0:0:
267,129,39427,1,2,1:2:0:0:
262,164,39513,2,0,L|255:218,1,48,2|2,1:2|1:2,0:0:0:0:
368,308,39683,5,2,1:2:0:0:
381,282,39768,1,2,1:2:0:0:
376,254,39854,2,0,L|369:201,1,48,2|2,1:2|1:2,1:0:0:0:
353,52,40024,5,6,0:0:0:0:
440,158,40194,1,10,0:0:0:0:
440,158,40280,1,10,0:0:0:0:
440,158,40365,1,10,1:2:0:0:
390,130,40450,1,2,0:0:0:0:
334,137,40535,1,10,0:0:0:0:
294,177,40620,1,10,0:0:0:0:
256,218,40706,1,10,1:2:0:0:
200,222,40791,1,2,0:0:0:0:
157,186,40876,1,10,0:0:0:0:
151,130,40961,1,10,0:0:0:0:
185,85,41046,1,10,1:2:0:0:
269,5,41217,1,10,0:0:0:0:
248,2,41302,1,10,0:0:0:0:
228,0,41388,5,10,1:2:0:0:
45,35,41558,1,10,0:0:0:0:
45,35,41643,1,10,0:0:0:0:
45,35,41729,1,10,1:2:0:0:
48,76,41814,1,2,0:0:0:0:
52,117,41899,1,10,0:0:0:0:
56,158,41984,1,10,0:0:0:0:
60,200,42069,1,10,1:2:0:0:
63,241,42155,1,2,0:0:0:0:
67,282,42240,1,10,0:0:0:0:
71,324,42325,1,10,0:0:0:0:
75,365,42410,1,10,1:2:0:0:
216,328,42581,1,10,0:0:0:0:
213,307,42666,1,10,0:0:0:0:
211,287,42751,5,14,1:2:0:0:
52,117,42922,1,10,0:0:0:0:
12,157,43007,1,10,0:0:0:0:
8,213,43092,1,10,1:2:0:0:
43,256,43177,1,2,0:0:0:0:
98,266,43262,1,10,0:0:0:0:
146,235,43348,1,10,0:0:0:0:
194,204,43434,1,10,1:2:0:0:
249,214,43519,1,2,0:0:0:0:
283,258,43604,1,10,0:0:0:0:
280,313,43689,1,10,0:0:0:0:
237,351,43774,1,10,1:2:0:0:
345,192,43944,1,10,0:0:0:0:
345,192,44030,1,10,0:0:0:0:
345,192,44115,6,0,P|407:196|455:236,1,115.199996484375,10|8,1:2|0:0,0:0:0:0:
460,260,44371,1,10,0:0:0:0:
460,260,44456,1,10,1:2:0:0:
237,351,44626,2,0,L|327:334,1,57.5999982421876,10|10,0:0|0:0,0:0:0:0:
389,384,44797,2,0,B|369:332|369:332|375:269,1,115.199996484375,10|0,1:2|0:0,0:0:0:0:
296,261,45052,2,0,B|301:201|301:201|281:149,1,115.199996484375,2|0,1:2|0:0,0:0:0:0:
319,80,45308,1,10,0:0:0:0:
215,214,45479,6,0,L|387:193,1,172.799994726563,6|8,1:2|0:0,0:0:0:0:
439,210,45819,1,10,1:2:0:0:
466,172,45905,1,2,0:0:0:0:
473,123,45990,1,2,0:0:0:0:
447,78,46075,1,10,0:0:0:0:
402,59,46160,2,0,P|341:95|281:94,1,115.199996484375,10|0,1:2|0:0,0:0:0:0:
256,121,46416,2,0,P|195:85|135:86,1,115.199996484375,2|0,1:2|0:0,0:0:0:0:
112,107,46672,2,0,L|104:34,1,57.5999982421876,10|8,0:0|0:0,0:0:0:0:
18,31,46842,6,0,L|30:145,1,115.199996484375,2|8,1:2|0:0,0:0:0:0:
26,191,47098,1,10,0:0:0:0:
26,191,47184,1,10,1:2:0:0:
61,214,47269,1,2,0:0:0:0:
104,219,47354,1,10,0:0:0:0:
143,203,47439,1,10,0:0:0:0:
171,171,47524,1,10,1:2:0:0:
304,54,47694,1,10,0:0:0:0:
346,230,47865,5,10,1:0:0:0:
382,212,47950,1,2,0:0:0:0:
419,196,48035,1,10,0:0:0:0:
458,208,48121,1,10,0:0:0:0:
495,222,48206,6,0,L|499:75,1,115.199996484375,14|8,1:2|0:0,0:0:0:0:
488,68,48461,1,8,0:0:0:0:
488,68,48547,1,8,1:2:0:0:
296,95,48717,2,0,L|357:85,1,57.5999982421876,10|8,0:0|0:0,0:0:0:0:
405,17,48888,2,0,B|399:80|399:80|424:132,1,115.199996484375,10|0,1:2|0:0,0:0:0:0:
416,164,49143,1,8,0:0:0:0:
416,164,49229,1,8,1:2:0:0:
256,218,49399,1,2,0:0:0:0:
370,278,49569,5,2,1:2:0:0:
370,278,49654,1,2,1:2:0:0:
370,278,49740,2,0,L|429:271,1,57.5999982421876,10|10,0:0|0:0,1:0:0:0:
171,136,49910,5,10,1:2:0:0:
171,136,49996,1,10,0:0:0:0:
171,136,50081,2,8,L|164:77,1,57.5999982421876,10|10,0:0|0:0,0:0:0:0:
341,136,50251,5,2,1:2:0:0:
341,136,50336,1,2,1:2:0:0:
341,136,50422,2,0,L|347:78,1,57.5999982421876,2|2,1:2|1:2,1:0:0:0:
142,278,50592,5,2,1:2:0:0:
142,278,50677,1,2,1:2:0:0:
142,278,50763,2,0,L|83:271,1,57.5999982421876,2|2,1:2|1:2,1:0:0:0:
256,108,50933,5,6,1:2:0:0:
18,130,51104,1,10,0:0:0:0:
18,130,51189,1,10,0:0:0:0:
18,130,51274,1,10,1:2:0:0:
5,81,51359,1,2,0:0:0:0:
21,33,51444,1,10,0:0:0:0:
62,2,51529,1,10,0:0:0:0:
113,0,51615,1,10,1:2:0:0:
156,26,51700,1,2,0:0:0:0:
176,73,51785,1,10,0:0:0:0:
167,122,51870,1,10,0:0:0:0:
132,161,51955,1,10,1:2:0:0:
325,240,52126,1,10,0:0:0:0:
322,219,52211,1,10,0:0:0:0:
320,199,52296,5,10,1:2:0:0:
152,320,52467,1,10,0:0:0:0:
152,320,52553,1,10,0:0:0:0:
152,320,52637,1,10,1:2:0:0:
202,292,52723,1,2,0:0:0:0:
258,299,52808,1,10,0:0:0:0:
298,339,52893,1,10,0:0:0:0:
336,380,52978,1,10,1:2:0:0:
392,384,53064,1,2,0:0:0:0:
435,348,53149,1,10,0:0:0:0:
441,292,53234,1,10,0:0:0:0:
407,247,53318,1,10,1:2:0:0:
156,168,53490,1,10,0:0:0:0:
157,189,53575,1,10,0:0:0:0:
158,209,53659,5,14,1:2:0:0:
215,384,53831,1,10,0:0:0:0:
264,364,53916,1,10,0:0:0:0:
293,317,54000,1,10,1:2:0:0:
284,262,54086,1,2,0:0:0:0:
240,227,54171,1,10,0:0:0:0:
183,230,54257,1,10,0:0:0:0:
128,235,54342,1,10,1:2:0:0:
83,198,54428,1,2,0:0:0:0:
76,144,54513,1,10,0:0:0:0:
104,97,54598,1,10,0:0:0:0:
160,85,54683,1,10,1:2:0:0:
334,108,54854,1,10,0:0:0:0:
334,108,54939,1,10,0:0:0:0:
334,108,55024,5,10,1:2:0:0:
353,161,55109,1,2,0:0:0:0:
341,216,55194,1,10,0:0:0:0:
301,257,55279,1,10,0:0:0:0:
246,270,55365,5,10,1:2:0:0:
178,238,55450,1,2,0:0:0:0:
105,250,55535,1,10,0:0:0:0:
49,300,55620,1,10,0:0:0:0:
27,369,55706,5,10,1:2:0:0:
81,349,55791,1,2,0:0:0:0:
113,303,55876,1,10,0:0:0:0:
113,246,55961,1,10,0:0:0:0:
81,199,56046,5,10,1:2:0:0:
50,152,56132,1,2,0:0:0:0:
50,95,56217,1,10,0:0:0:0:
82,48,56302,1,10,0:0:0:0:
135,28,56388,6,0,P|205:38|242:79,1,115.199996484375,10|0,1:2|0:0,0:0:0:0:
251,106,56643,1,10,0:0:0:0:
251,106,56729,1,10,1:2:0:0:
323,225,56899,2,0,P|355:238|390:240,1,57.5999982421876,10|10,0:0|0:0,0:0:0:0:
471,230,57069,2,0,B|453:181|453:181|465:117,1,115.199996484375,10|0,1:2|0:0,0:0:0:0:
374,19,57325,2,0,B|392:68|392:68|380:132,1,115.199996484375,2|0,1:2|0:0,0:0:0:0:
371,162,57580,1,10,0:0:0:0:
464,119,57751,6,0,L|281:137,1,172.799994726563,2|8,1:2|0:0,0:0:0:0:
255,126,58092,1,10,1:2:0:0:
255,147,58177,1,2,0:0:0:0:
257,167,58263,1,10,0:0:0:0:
257,188,58347,1,10,0:0:0:0:
259,208,58433,1,10,1:2:0:0:
380,356,58604,1,10,0:0:0:0:
435,364,58689,1,10,0:0:0:0:
481,331,58774,1,10,0:0:0:0:
492,276,58859,1,2,0:0:0:0:
461,229,58944,1,10,0:0:0:0:
407,215,59030,1,10,0:0:0:0:
358,243,59115,5,14,1:2:0:0:
95,314,59285,1,10,0:0:0:0:
95,314,59371,1,10,0:0:0:0:
95,314,59456,1,10,1:2:0:0:
128,276,59541,1,2,0:0:0:0:
176,259,59626,1,10,0:0:0:0:
226,269,59711,1,10,0:0:0:0:
263,303,59797,2,0,L|256:187,1,115.199996484375,10|0,1:2|0:0,0:0:0:0:
95,314,60053,2,0,L|88:198,1,115.199996484375,2|0,1:2|0:0,0:0:0:0:
172,172,60308,2,0,L|175:229,1,57.5999982421876,10|0,0:0|0:0,0:0:0:0:
181,345,60479,5,10,0:0:0:0:
381,230,60649,1,10,0:0:0:0:
512,271,66785,5,2,0:0:0:0:
440,236,66956,1,2,0:0:0:0:
378,286,67126,1,2,0:0:0:0:
306,256,67297,6,0,P|270:259|234:253,1,72.0000027465821,6|0,0:0|0:0,0:0:0:0:
128,270,67638,2,0,P|172:273|213:263,1,72.0000027465821,2|0,0:0|0:0,0:0:0:0:
339,170,67979,1,2,0:0:0:0:
111,177,68149,1,2,0:0:0:0:
290,93,68319,1,2,0:0:0:0:
290,93,68490,2,0,P|223:70|157:93,1,144.000005493164,2|0,0:0|0:0,0:0:0:0:
111,177,69001,5,2,0:0:0:0:
241,291,69172,1,2,0:0:0:0:
241,291,69257,1,2,0:0:0:0:
241,291,69342,1,2,0:0:0:0:
223,157,69513,1,2,0:0:0:0:
338,207,69683,1,2,0:0:0:0:
329,115,69854,1,2,0:0:0:0:
241,291,70024,5,10,0:0:0:0:
447,213,70194,1,8,0:0:0:0:
207,128,70365,1,10,0:0:0:0:
413,51,70535,1,8,0:0:0:0:
241,51,70706,1,10,0:0:0:0:
447,128,70876,1,10,0:0:0:0:
207,213,71047,1,8,0:0:0:0:
413,291,71217,1,8,0:0:0:0:
326,131,71388,5,10,0:0:0:0:
326,131,72751,6,0,P|273:123|225:93,1,96,2|0,1:2|1:0,0:0:0:0:
298,263,73092,2,0,P|245:271|197:301,1,96,10|0,0:0|1:0,0:0:0:0:
181,188,73348,1,0,1:0:0:0:
181,188,73433,2,0,P|129:170|82:174,1,96,2|0,1:2|0:0,0:0:0:0:
17,268,73774,2,0,L|112:257,1,96,10|0,0:0|0:0,0:0:0:0:
112,257,74030,1,0,1:0:0:0:
112,257,74115,5,2,1:2:0:0:
8,187,74285,1,2,1:2:0:0:
75,350,74456,1,10,0:0:0:0:
181,188,74626,2,0,B|202:259|202:259|186:339,1,144,2|0,1:2|0:0,0:0:0:0:
188,327,74967,1,2,1:1:0:0:
316,384,75138,1,10,0:0:0:0:
345,193,75308,1,2,1:2:0:0:
477,249,75479,6,0,P|399:266|372:323,1,144,2|0,1:2|0:0,0:0:0:0:
372,318,75819,2,0,P|310:301|277:308,1,96,10|0,0:0|1:0,0:0:0:0:
28,155,76160,2,0,L|127:162,1,96,2|0,1:2|0:0,0:0:0:0:
150,185,76416,2,0,L|249:192,1,96,2|0,1:2|0:0,0:0:0:0:
278,218,76672,2,0,L|327:221,1,48,2|0,1:2|1:0,0:0:0:0:
512,116,76842,5,2,1:2:0:0:
320,138,77013,1,2,1:2:0:0:
449,56,77183,1,10,0:0:0:0:
408,234,77354,1,2,1:2:0:0:
449,56,77524,5,8,0:0:0:0:
414,29,77609,1,8,0:0:0:0:
372,27,77694,1,10,0:0:0:0:
336,50,77779,1,8,0:0:0:0:
319,88,77865,1,2,1:2:0:0:
301,127,77950,1,0,1:0:0:0:
265,149,78035,1,2,1:2:0:0:
222,148,78120,1,0,1:0:0:0:
189,122,78206,6,0,P|143:97|89:97,1,96,6|0,1:2|1:0,0:0:0:0:
25,56,78547,2,0,P|19:98|36:148,1,96,10|0,0:2|1:0,0:0:0:0:
220,243,78888,1,2,1:2:0:0:
0,225,79058,1,2,1:2:0:0:
118,174,79229,1,10,0:0:0:0:
51,328,79399,2,0,B|98:314|98:314|146:321,1,96,2|0,1:2|1:0,0:0:0:0:
312,340,79740,5,2,0:0:0:0:
312,340,79825,1,2,0:0:0:0:
312,340,79910,1,10,0:0:0:0:
358,350,79996,1,2,0:0:0:0:
403,335,80081,1,2,1:2:0:0:
433,299,80166,1,10,0:0:0:0:
441,252,80251,1,2,1:2:0:0:
423,208,80336,1,2,0:0:0:0:
385,180,80422,1,2,1:2:0:0:
338,175,80507,1,2,0:0:0:0:
296,197,80592,6,0,L|200:204,1,96,10|0,0:0|0:0,0:0:0:0:
114,276,80933,5,10,0:0:0:0:
200,80,81104,1,0,1:0:0:0:
102,146,81274,5,10,0:0:0:0:
391,276,81444,1,0,1:0:0:0:
201,205,81615,5,10,0:0:0:0:
400,142,81785,1,2,1:2:0:0:
256,320,81956,5,8,0:0:0:0:
312,80,82127,1,2,1:2:0:0:
256,320,82297,5,8,0:0:0:0:
306,337,82382,1,8,0:0:0:0:
358,326,82467,1,10,0:0:0:0:
396,288,82552,1,8,0:0:0:0:
409,236,82638,5,2,1:2:0:0:
378,172,82723,1,0,1:0:0:0:
390,103,82808,1,0,1:0:0:0:
437,50,82893,1,0,1:0:0:0:
502,29,82979,5,10,0:0:0:0:
483,80,83064,1,8,0:0:0:0:
440,111,83149,1,8,0:0:0:0:
386,111,83234,1,8,0:0:0:0:
341,80,83319,5,2,1:2:0:0:
297,51,83405,1,0,1:0:0:0:
242,50,83490,1,0,1:0:0:0:
199,81,83575,1,0,1:0:0:0:
181,131,83660,6,0,L|98:138,3,48,6|2|2|2,1:2|0:0|0:0|0:0,0:0:0:0:
355,213,84001,2,0,L|438:220,3,48,2|2|2|2,0:0|0:0|0:0|0:0,0:0:0:0:
272,143,84342,1,2,0:0:0:0:
271,160,84427,1,2,0:0:0:0:
270,178,84513,1,2,0:0:0:0:
269,196,84598,1,2,0:0:0:0:
268,214,84683,2,0,L|266:262,2,48,2|2|2,0:0|0:0|0:0,0:0:0:0:
387,122,85024,5,10,0:0:0:0:
160,214,85194,1,8,0:0:0:0:
407,308,85365,1,8,0:0:0:0:
137,122,85535,5,8,0:0:0:0:
353,214,85705,1,8,0:0:0:0:
123,309,85876,1,10,1:2:0:0:
123,309,85961,1,0,1:0:0:0:
123,309,86047,2,0,L|63:300,1,48,6|0,1:2|0:0,0:0:0:0:
63,129,86217,2,0,L|110:121,1,48,2|0,0:0|0:0,0:0:0:0:
0,220,86388,6,0,L|138:212,1,96,6|0,1:2|1:0,0:0:0:0:
195,241,86729,2,0,B|187:184|187:184|205:136,1,96,8|2,0:0|0:0,0:0:0:0:
217,121,86984,1,8,0:0:0:0:
217,121,87069,1,0,1:0:0:0:
427,130,87240,1,0,1:0:0:0:
272,199,87410,2,0,B|344:178|344:178|383:226|448:219,1,192,14|0,0:0|0:0,0:0:0:0:
195,241,87922,1,0,1:0:0:0:
320,91,88092,5,8,0:0:0:0:
358,339,88263,1,2,0:0:0:0:
358,339,88348,1,2,0:0:0:0:
358,339,88433,1,2,1:2:0:0:
494,124,88604,1,2,1:2:0:0:
321,191,88774,1,10,0:0:0:0:
469,262,88944,1,2,1:2:0:0:
321,191,89115,6,0,B|194:176|194:176|133:210,1,192,2|10,1:2|0:0,0:0:0:0:
196,30,89626,1,2,1:0:0:0:
137,207,89797,2,0,L|128:83,1,96,0|2,1:0|1:2,0:0:0:0:
207,286,90138,2,0,B|300:297|300:297|233:368,1,192,14|0,1:2|1:0,0:0:0:0:
245,153,90649,1,0,0:0:0:0:
63,384,90819,5,10,0:0:0:0:
59,343,90905,1,2,0:0:0:0:
55,301,90990,1,2,1:2:0:0:
51,260,91075,1,2,1:2:0:0:
48,219,91160,1,10,0:0:0:0:
310,217,91331,1,10,0:0:0:0:
164,160,91501,1,10,0:0:0:0:
150,354,91672,1,10,0:0:0:0:
310,217,91842,6,0,B|245:228|213:284|213:284|184:257|145:253,1,192,2|10,1:2|0:0,0:0:0:0:
57,359,92354,1,2,1:2:0:0:
57,359,92439,1,8,0:0:0:0:
57,359,92524,2,0,P|98:336|182:345,1,96,0|2,1:0|1:2,0:0:0:0:
300,309,92865,1,8,0:0:0:0:
198,187,93035,2,0,P|189:292|216:380,1,192,2|0,1:2|1:0,1:0:0:0:
71,252,93547,6,0,L|60:140,1,96,10|0,0:0|0:0,0:0:0:0:
99,88,93802,1,0,1:0:0:0:
99,88,93888,2,0,P|52:81|8:100,1,96,2|0,1:2|1:0,0:0:0:0:
197,186,94229,2,0,L|293:195,1,96,14|0,0:0|1:0,0:0:0:0:
502,225,94569,6,0,B|412:212|412:212|345:249,1,144,2|0,1:2|0:0,0:0:0:0:
365,238,94910,2,0,P|370:185|360:142,1,96,10|0,0:0|0:0,0:0:0:0:
194,50,95251,2,0,B|232:59|232:59|287:49,1,96,2|0,1:2|0:0,0:0:0:0:
309,75,95507,2,0,B|364:65|364:65|402:74,1,96,2|0,1:2|0:0,0:0:0:0:
434,94,95763,1,2,1:2:0:0:
293,195,95933,6,0,B|255:204|255:204|199:194,1,96,2|0,1:2|0:0,0:0:0:0:
178,220,96189,2,0,B|122:210|122:210|84:219,1,96,2|0,1:2|0:0,0:0:0:0:
53,239,96445,1,2,1:0:0:0:
236,336,96615,6,0,L|229:259,1,48,2|0,1:2|0:0,0:0:0:0:
288,147,96785,2,0,L|292:194,1,48,10|0,0:0|0:0,0:0:0:0:
388,376,96956,6,0,L|379:286,1,48,10|0,0:0|0:0,0:0:0:0:
371,167,97126,2,0,L|445:173,1,48,10|0,0:0|0:0,0:0:0:0:
463,256,97297,6,0,B|365:247|365:247|293:283,1,144,6|0,1:2|0:0,0:0:0:0:
311,288,97638,1,8,0:0:0:0:
393,81,97808,1,2,1:2:0:0:
393,81,97893,1,8,0:0:0:0:
393,81,97979,2,0,P|414:120|408:205,1,96,0|0,1:0|1:0,0:0:0:0:
157,137,98319,2,0,B|277:117|277:117|347:153,1,192,14|0,0:0|0:0,0:0:0:0:
201,47,98831,6,0,L|204:-5,1,48,0|0,1:0|1:0,0:0:0:0:
136,216,99001,1,10,0:0:0:0:
95,190,99086,1,2,0:0:0:0:
76,147,99172,1,2,0:0:0:0:
83,101,99256,1,2,0:0:0:0:
114,65,99341,1,2,1:2:0:0:
236,208,99513,1,2,1:2:0:0:
14,232,99683,1,10,0:0:0:0:
157,137,99854,1,2,1:2:0:0:
47,318,100024,6,0,L|190:301,1,144,2|0,1:2|0:0,0:0:0:0:
189,301,100365,2,0,L|190:358,1,48,10|0,0:0|0:0,0:0:0:0:
278,368,100535,2,0,L|276:272,1,96,2|0,1:2|1:0,0:0:0:0:
356,320,100876,1,2,1:2:0:0:
276,166,101047,2,0,B|363:136|363:136|353:235,1,192,12|2,0:0|0:0,0:0:0:0:
451,328,101558,6,0,L|354:319,1,96,2|10,1:2|0:0,0:0:0:0:
447,191,101899,1,2,1:2:0:0:
189,348,102069,1,10,0:0:0:0:
189,348,102155,1,8,0:0:0:0:
189,348,102240,1,10,0:0:0:0:
189,175,102410,1,10,0:0:0:0:
355,319,102581,1,10,0:0:0:0:
223,266,102751,6,0,L|67:259,1,144,2|0,1:2|0:0,0:0:0:0:
79,259,103092,2,0,B|64:312|64:312|72:354,1,96,10|0,0:0|1:0,0:0:0:0:
7,167,103348,1,8,0:0:0:0:
7,167,103433,2,0,L|102:171,1,96,2|2,1:2|1:2,0:0:0:0:
152,68,103774,1,10,0:0:0:0:
223,266,103944,2,0,B|227:133|227:133|174:184,1,192,2|0,1:2|1:0,0:0:0:0:
312,275,104456,2,0,L|407:282,1,96,10|0,0:0|1:0,0:0:0:0:
136,273,104711,1,8,0:0:0:0:
136,273,104797,2,0,L|40:280,1,96,2|0,1:2|1:0,0:0:0:0:
260,349,105138,2,0,P|231:311|222:265,1,96,14|0,0:0|1:0,0:0:0:0:
189,52,105479,6,0,P|236:46|279:65,1,96,6|0,1:2|1:0,0:0:0:0:
430,135,105819,2,0,P|382:129|339:148,1,96,10|0,0:0|1:0,0:0:0:0:
222,265,106160,1,2,1:2:0:0:
229,128,106331,1,10,0:0:0:0:
229,128,106416,1,8,0:0:0:0:
229,128,106501,1,8,0:0:0:0:
291,383,106672,1,10,0:0:0:0:
393,211,107013,5,2,0:0:0:0:
393,211,107183,1,2,0:0:0:0:
154,334,107524,1,2,0:0:0:0:
297,250,107694,1,0,1:0:0:0:
297,250,107780,1,0,1:0:0:0:
297,250,107865,1,10,0:0:0:0:
449,316,108206,6,0,L|516:311,2,64,6|2|2,0:0|0:0|0:0,0:0:0:0:
297,250,108547,1,2,0:0:0:0:
349,260,108660,1,2,0:0:0:0:
394,231,108774,1,2,0:0:0:0:
439,237,108888,2,0,L|506:232,2,64,2|2|2,0:0|0:0|0:0,0:0:0:0:
285,167,109229,1,2,0:0:0:0:
337,177,109342,1,2,0:0:0:0:
382,148,109456,1,2,0:0:0:0:
427,154,109570,6,0,L|494:149,2,64,2|2|2,0:0|0:0|0:0,0:0:0:0:
415,66,109910,1,2,0:0:0:0:
415,66,110023,1,2,0:0:0:0:
415,66,110137,1,2,0:0:0:0:
415,66,110251,2,0,L|482:61,2,64,2|2|2,0:0|0:0|0:0,0:0:0:0:
347,6,110592,1,2,1:2:0:0:
302,71,110706,1,2,0:0:0:0:
332,143,110819,1,2,0:0:0:0:
304,218,110933,6,0,L|309:285,2,64,14|2|2,0:0|0:0|0:0,0:0:0:0:
223,117,111274,1,2,0:0:0:0:
223,117,111388,1,2,0:0:0:0:
223,117,111501,1,2,0:0:0:0:
223,117,111615,2,0,L|218:50,2,64,2|2|2,0:0|0:0|0:0,0:0:0:0:
233,192,111956,1,2,0:0:0:0:
168,237,112070,1,2,0:0:0:0:
96,207,112183,1,2,0:0:0:0:
25,243,112297,6,8,L|20:306,3,48,10|8|8|8,0:0|0:0|0:0|0:0,0:0:0:0:
79,100,112638,5,10,0:0:0:0:
84,113,112723,1,8,0:0:0:0:
88,124,112808,2,8,L|91:171,1,48
155,355,112979,5,10,0:0:0:0:
158,335,113064,1,8,0:0:0:0:
162,317,113149,2,8,L|165:269,1,48
239,194,113319,5,10,0:0:0:0:
281,201,113404,1,8,0:0:0:0:
324,210,113489,2,8,L|276:213,1,48
25,243,113660,5,10,0:0:0:0:
254,157,124229,5,2,0:0:0:0:
363,295,124569,5,6,1:2:0:0:
150,229,124739,1,2,1:2:0:0:
254,157,124910,2,0,L|258:261,1,96,10|2,0:0|1:2,0:0:0:0:
262,295,125165,1,8,0:0:0:0:
262,295,125251,1,2,1:2:0:0:
354,185,125421,5,2,1:2:0:0:
152,332,125592,1,10,0:0:0:0:
254,157,125763,2,0,B|203:187|203:187|98:180,1,144,2|0,1:2|0:0,1:0:0:0:
86,178,126104,1,2,1:2:0:0:
170,17,126274,6,0,P|185:73|170:132,1,96,10|2,0:0|1:2,0:0:0:0:
318,212,126530,1,8,0:0:0:0:
318,212,126615,2,0,P|333:155|318:97,1,96,2|2,1:2|1:2,0:0:0:0:
108,76,126955,1,10,0:0:0:0:
408,63,127126,1,2,0:0:0:0:
414,75,127211,1,2,0:0:0:0:
420,87,127296,2,0,L|276:79,1,144,2|0,1:2|0:0,0:0:0:0:
252,79,127638,1,10,0:0:0:0:
398,173,127807,5,2,0:0:0:0:
398,173,127893,1,2,0:0:0:0:
398,173,127979,2,0,L|493:177,1,96,2|2,1:2|1:2,0:0:0:0:
346,0,128319,1,10,0:0:0:0:
310,261,128490,2,0,L|305:165,1,96,2|0,1:2|0:0,0:0:0:0:
210,32,128831,6,0,B|204:79|204:79|220:127,1,96,2|8,0:0|0:0,0:0:0:0:
305,165,129171,2,0,B|252:146|252:146|149:164,1,144,2|0,1:2|0:0,0:0:0:0:
136,169,129513,1,2,1:2:0:0:
297,73,129682,1,10,0:0:0:0:
248,322,129854,1,2,1:2:0:0:
244,227,130024,6,0,L|248:322,1,96,4|0,1:2|1:2,0:0:0:0:
297,73,130365,2,0,B|342:91|342:91|388:87,1,96,10|2,0:0|1:2,0:0:0:0:
441,192,130706,1,2,1:2:0:0:
215,129,130876,1,2,1:2:0:0:
358,12,131047,1,10,0:0:0:0:
263,215,131217,1,2,1:2:0:0:
389,87,131388,5,2,1:2:0:0:
167,212,131558,1,2,1:2:0:0:
361,261,131729,1,10,0:0:0:0:
324,140,131899,2,0,L|167:123,1,144,2|0,1:2|0:0,0:0:0:0:
152,122,132240,1,2,1:2:0:0:
221,299,132410,1,10,0:0:0:0:
264,40,132581,1,2,1:2:0:0:
221,299,132751,6,0,B|213:239|213:239|248:176|248:176|241:117,1,192,2|10,1:2|0:0,0:0:0:0:
126,262,133263,2,0,P|82:281|34:282,1,96,2|0,1:2|1:0,0:0:0:0:
155,161,133604,1,2,1:2:0:0:
303,258,133774,2,0,P|347:277|395:278,1,96,10|0,0:0|1:0,0:0:0:0:
465,335,134115,5,6,1:2:0:0:
487,288,134200,1,2,1:2:0:0:
481,235,134285,2,8,L|474:176,1,48,10|10,0:0|0:0,0:0:0:0:
374,71,134456,5,10,0:0:0:0:
356,111,134541,1,10,0:0:0:0:
361,154,134627,2,8,L|368:204,1,48,10|10,0:0|0:0,0:0:0:0:
249,273,134797,5,2,1:2:0:0:
233,242,134882,1,2,1:2:0:0:
238,207,134968,2,0,L|245:153,1,48,2|2,1:2|1:2,1:0:0:0:
132,63,135138,5,2,1:2:0:0:
119,89,135223,1,2,1:2:0:0:
124,117,135309,2,0,L|131:170,1,48,2|2,1:2|1:2,1:0:0:0:
27,183,135479,5,2,1:2:0:0:
199,99,135649,1,2,1:2:0:0:
199,99,135735,1,2,0:0:0:0:
244,84,135820,1,10,0:0:0:0:
289,99,135905,1,2,0:0:0:0:
316,137,135990,1,2,0:0:0:0:
317,184,136075,1,10,0:0:0:0:
345,222,136160,1,2,0:0:0:0:
390,236,136245,1,2,0:0:0:0:
435,222,136330,1,2,1:2:0:0:
460,113,136501,5,10,0:0:0:0:
221,188,136672,1,2,0:0:0:0:
180,191,136758,1,2,0:0:0:0:
139,193,136843,1,2,1:2:0:0:
97,197,136928,1,2,0:0:0:0:
57,201,137013,1,2,0:0:0:0:
13,117,137183,5,10,0:0:0:0:
87,282,137354,1,2,0:0:0:0:
85,304,137439,1,10,0:0:0:0:
178,103,137609,1,2,0:0:0:0:
252,268,137780,1,2,0:0:0:0:
250,290,137865,1,10,0:0:0:0:
317,158,138035,1,2,0:0:0:0:
382,354,138206,5,2,1:2:0:0:
418,374,138291,1,2,0:0:0:0:
459,371,138376,1,2,1:2:0:0:
493,347,138461,1,2,0:0:0:0:
508,308,138546,1,10,0:0:0:0:
500,267,138632,1,2,0:0:0:0:
471,237,138717,1,2,0:0:0:0:
431,227,138802,1,2,0:0:0:0:
391,240,138888,5,2,0:0:0:0:
360,267,138973,1,2,0:0:0:0:
323,285,139058,1,2,1:2:0:0:
284,289,139143,1,2,0:0:0:0:
243,282,139229,5,10,0:0:0:0:
219,261,139314,1,2,0:0:0:0:
191,248,139399,1,2,0:0:0:0:
162,245,139484,1,2,0:0:0:0:
131,249,139569,6,0,L|123:154,1,96,2|0,1:2|1:0,0:0:0:0:
42,133,139825,1,2,0:0:0:0:
42,133,139910,2,0,L|46:181,1,48,10|0,0:0|0:0,0:0:0:0:
196,113,140081,2,0,L|200:161,1,48,2|8,0:0|0:0,0:0:0:0:
82,375,140251,5,2,1:2:0:0:
70,373,140336,1,2,0:0:0:0:
58,373,140421,1,2,0:0:0:0:
46,372,140506,1,2,0:0:0:0:
34,372,140592,5,10,0:0:0:0:
56,341,140677,1,2,0:0:0:0:
89,322,140762,1,2,0:0:0:0:
128,318,140847,1,2,0:0:0:0:
165,330,140934,5,6,1:2:0:0:
213,340,141019,1,2,0:0:0:0:
259,320,141104,1,2,1:2:0:0:
284,276,141189,1,2,0:0:0:0:
281,227,141274,1,10,0:0:0:0:
339,80,141444,1,2,0:0:0:0:
339,80,141530,1,10,0:0:0:0:
339,80,141615,2,0,L|343:170,1,48,2|2,0:0|0:0,0:0:0:0:
354,343,141785,1,2,1:2:0:0:
201,186,141956,5,10,0:0:0:0:
229,158,142041,1,2,0:0:0:0:
266,143,142126,1,2,0:0:0:0:
306,145,142211,1,2,0:0:0:0:
342,161,142297,1,2,1:2:0:0:
194,268,142467,1,2,0:0:0:0:
155,265,142552,1,2,0:0:0:0:
116,261,142638,1,10,0:0:0:0:
77,258,142723,1,2,0:0:0:0:
281,227,142893,1,10,0:0:0:0:
281,227,142979,5,2,1:2:0:0:
283,256,143064,1,2,0:0:0:0:
286,285,143149,1,2,1:2:0:0:
288,314,143234,1,2,0:0:0:0:
289,343,143320,1,10,0:0:0:0:
328,317,143405,1,2,0:0:0:0:
375,313,143490,1,2,0:0:0:0:
419,332,143575,1,2,0:0:0:0:
449,370,143660,5,2,1:2:0:0:
512,259,143831,1,2,0:0:0:0:
448,217,143916,1,2,0:0:0:0:
376,220,144001,2,0,L|276:226,1,96,10|2,0:0|0:0,0:0:0:0:
119,111,144257,1,2,0:0:0:0:
119,111,144342,2,0,L|114:29,1,48,2|0,1:2|0:0,0:0:0:0:
273,152,144513,1,2,0:0:0:0:
210,194,144598,1,2,0:0:0:0:
137,191,144683,2,0,L|67:186,1,48,10|0,0:0|0:0,0:0:0:0:
33,127,144854,1,2,0:0:0:0:
33,127,144939,1,2,0:0:0:0:
33,127,145024,5,6,1:2:0:0:
6,166,145109,1,2,1:2:0:0:
7,213,145194,1,2,0:0:0:0:
34,252,145280,1,2,1:2:0:0:
78,269,145365,2,0,L|81:317,1,48,2|2,1:2|1:2,1:0:0:0:
2,384,145535,2,0,L|0:336,1,48,2|2,1:2|1:2,1:0:0:0:
89,187,145706,5,10,0:0:0:0:
133,124,145791,1,10,0:0:0:0:
207,111,145876,1,10,0:0:0:0:
272,150,145961,1,10,0:0:0:0:
293,224,146048,1,2,1:2:0:0:
314,300,146133,1,2,1:2:0:0:
379,339,146218,1,2,1:2:0:0:
455,327,146303,1,2,1:2:0:0:
497,261,146388,6,0,P|500:207|478:160,1,105.600003222656,6|2,1:2|1:2,0:0:0:0:
512,66,146729,1,10,0:0:0:0:
421,224,146899,1,2,1:2:0:0:
421,224,146984,1,8,0:0:0:0:
421,224,147069,1,0,1:0:0:0:
322,86,147240,2,0,B|318:142|318:142|340:214,1,105.600003222656,2|8,1:2|0:0,0:0:0:0:
421,224,147581,2,0,L|259:220,1,158.400004833985,2|0,1:2|0:0,0:0:0:0:
231,220,147922,1,2,1:2:0:0:
0,89,148092,5,10,0:0:0:0:
31,124,148177,1,2,0:0:0:0:
77,134,148262,1,2,1:2:0:0:
120,120,148348,1,2,0:0:0:0:
152,84,148433,2,0,P|209:79|245:115,1,105.600003222656,2|0,1:2|0:0,0:0:0:0:
404,73,148689,1,2,0:0:0:0:
404,73,148774,2,0,L|400:126,1,52.8000016113282,10|0,0:0|0:0,0:0:0:0:
242,109,148944,2,0,L|237:161,1,52.8000016113282,2|0,1:2|0:0,0:0:0:0:
314,210,149115,6,0,L|321:104,1,105.600003222656,2|0,1:2|0:0,0:0:0:0:
314,0,149371,2,0,L|321:105,1,105.600003222656,2|0,0:0|0:0,0:0:0:0:
131,168,149626,2,0,L|237:161,1,105.600003222656,2|0,0:0|0:0,0:0:0:0:
399,125,149882,2,0,L|392:231,1,105.600003222656,2|0,0:0|0:0,0:0:0:0:
231,266,150138,2,0,L|236:160,1,105.600003222656,10|0,0:0|1:0,0:0:0:0:
497,237,150393,2,0,L|392:230,1,105.600003222656,2|0,0:0|0:0,0:0:0:0:
313,209,150649,2,0,L|306:315,1,105.600003222656,2|8,1:2|0:0,0:0:0:0:
245,381,150905,5,2,0:0:0:0:
250,384,150990,1,2,0:0:0:0:
223,343,151075,1,10,0:0:0:0:
185,318,151160,1,2,1:2:0:0:
139,310,151246,1,2,0:0:0:0:
95,322,151331,1,2,1:2:0:0:
48,325,151416,1,2,0:0:0:0:
9,298,151501,1,10,0:0:0:0:
0,252,151586,1,2,0:0:0:0:
23,211,151672,1,2,0:0:0:0:
69,196,151757,1,2,0:0:0:0:
113,212,151843,5,6,1:2:0:0:
111,189,151928,1,2,0:0:0:0:
110,167,152013,1,2,0:0:0:0:
108,144,152098,1,2,0:0:0:0:
107,122,152183,2,0,L|176:120,1,52.8000016113282,10|2,0:0|0:0,0:0:0:0:
224,173,152354,1,2,0:0:0:0:
224,173,152440,2,0,B|239:127|239:127|226:54,1,105.600003222656,10|0,0:0|0:0,0:0:0:0:
299,31,152694,2,0,L|310:83,1,52.8000016113282,2|0,1:2|0:0,0:0:0:0:
156,44,152865,2,0,L|50:48,1,105.600003222656,10|2,0:0|1:2,0:0:0:0:
128,256,153206,5,2,1:2:0:0:
128,256,153291,1,2,0:0:0:0:
128,256,153376,1,2,0:0:0:0:
181,257,153461,1,2,0:0:0:0:
219,291,153546,1,10,0:0:0:0:
241,336,153632,1,2,0:0:0:0:
288,359,153717,1,2,0:0:0:0:
336,343,153802,1,2,0:0:0:0:
364,300,153888,1,2,0:0:0:0:
354,249,153972,1,2,0:0:0:0:
316,217,154058,1,2,0:0:0:0:
300,173,154143,1,2,0:0:0:0:
302,127,154229,5,10,0:0:0:0:
343,67,154314,1,2,0:0:0:0:
418,59,154399,1,2,0:0:0:0:
479,97,154484,1,2,0:0:0:0:
498,166,154569,6,0,L|492:219,1,52.8000016113282,2|2,1:2|0:0,0:0:0:0:
427,346,154740,2,0,L|421:293,1,52.8000016113282,2|2,1:2|0:0,0:0:0:0:
394,145,154910,6,0,L|388:198,1,52.8000016113282,2|2,1:2|0:0,0:0:0:0:
271,299,155081,1,2,1:2:0:0:
271,299,155166,1,2,0:0:0:0:
271,299,155251,2,8,L|324:293,1,52.8000016113282,10|10,0:0|0:0,0:0:0:0:
388,197,155422,5,10,0:0:0:0:
345,204,155507,1,10,0:0:0:0:
300,210,155592,1,2,1:2:0:0:
255,215,155677,1,2,1:2:0:0:
216,227,155763,1,2,1:2:0:0:
216,227,155848,1,2,1:2:0:0:
216,227,155933,6,0,L|117:220,1,52.8000016113282,6|2,1:2|0:0,0:0:0:0:
51,61,156189,5,2,0:0:0:0:
43,278,156359,5,2,0:0:0:0:
183,145,156530,1,2,0:0:0:0:
183,145,156615,1,10,0:0:0:0:
228,138,156700,1,10,0:0:0:0:
270,155,156785,1,10,0:0:0:0:
299,190,156870,1,10,0:0:0:0:
314,228,156956,1,2,1:2:0:0:
345,261,157041,1,2,1:2:0:0:
388,273,157126,1,10,0:0:0:0:
433,264,157211,1,10,0:0:0:0:
467,233,157297,6,0,L|470:118,1,105.600003222656,6|0,1:2|0:0,0:0:0:0:
393,74,157638,2,0,L|391:180,1,105.600003222656,2|0,1:2|0:0,0:0:0:0:
314,228,157979,2,0,L|317:113,1,105.600003222656,2|0,1:2|0:0,0:0:0:0:
240,69,158319,2,0,L|237:174,1,105.600003222656,2|0,1:2|0:0,0:0:0:0:
10,338,158660,6,0,L|7:223,1,105.600003222656,2|0,1:2|0:0,0:0:0:0:
83,179,159001,2,0,L|85:284,1,105.600003222656,2|0,1:2|0:0,0:0:0:0:
163,333,159342,2,0,L|160:218,1,105.600003222656,2|0,1:2|0:0,0:0:0:0:
237,174,159683,2,0,L|239:279,1,105.600003222656,2|0,1:2|0:0,0:0:0:0:
403,290,160024,5,2,1:2:0:0:
158,179,160365,1,2,1:2:0:0:
418,67,160706,1,2,1:2:0:0:
109,290,161047,1,2,1:2:0:0:
354,179,161388,1,2,1:2:0:0:
94,67,161729,1,2,1:2:0:0:
256,256,162069,1,2,1:2:0:0:
256,240,162155,1,0,1:0:0:0:
256,224,162240,1,0,1:0:0:0:
256,208,162325,1,0,1:0:0:0:
256,192,162410,1,2,1:2:0:0:
256,176,162496,1,0,1:0:0:0:
256,160,162581,1,8,0:0:0:0:
256,144,162666,1,8,0:0:0:0:
255,127,162751,6,0,P|209:151|151:154,1,105.600003222656,6|2,1:2|0:0,0:0:0:0:
354,179,163092,2,0,L|503:169,1,105.600003222656,2|2,1:2|0:0,0:0:0:0:
485,89,163433,5,10,1:2:0:0:
477,257,163603,1,10,0:2:0:0:
400,76,163774,5,10,1:2:0:0:
390,269,163944,1,10,0:2:0:0:
317,62,164115,5,10,1:2:0:0:
492,173,164285,1,10,0:2:0:0:
305,284,164456,5,10,1:2:0:0:
492,173,164626,1,10,0:2:0:0:
239,170,164797,5,10,1:2:0:0:
400,76,164967,1,10,0:2:0:0:
239,170,165138,5,10,1:2:0:0:
390,269,165308,1,10,0:2:0:0:
239,170,165479,6,0,P|183:171|140:198,1,105.600003222656,2|2,1:2|1:2,0:0:0:0:
91,257,165734,1,10,0:0:0:0:
91,257,165819,2,8,L|31:251,1,52.8000016113282,10|10,0:0|0:0,0:0:0:0:
164,72,165990,2,8,L|170:132,1,52.8000016113282,10|10,0:0|0:0,0:0:0:0:
210,257,166160,1,10,0:0:0:0:
235,286,166246,1,10,0:0:0:0:
271,302,166331,1,10,0:0:0:0:
310,300,166416,1,10,0:0:0:0:
351,277,166501,5,10,0:0:0:0:
354,236,166586,1,10,0:0:0:0:
357,195,166672,1,10,0:0:0:0:
360,154,166757,1,10,0:0:0:0:
362,113,166842,1,10,0:0:0:0:
402,106,177751,5,10,1:2:0:0:
410,260,177922,1,10,1:2:0:0:
297,110,178177,6,0,L|431:106,1,105.600003222656,2|0,1:2|0:0,0:0:0:0:
305,264,178433,2,0,L|439:260,1,105.600003222656,2|0,1:2|1:0,0:0:0:0:
512,183,178689,5,2,1:2:0:0:
512,183,178774,1,8,0:0:0:0:
477,183,178859,1,8,0:0:0:0:
443,184,178944,1,10,0:0:0:0:
408,185,179029,1,8,0:0:0:0:
375,185,179115,6,0,B|205:189,1,158.400004833985,6|0,1:2|0:0,0:0:0:0:
183,190,179456,1,10,0:0:0:0:
273,10,179626,1,2,1:2:0:0:
273,10,179711,1,8,0:0:0:0:
273,10,179797,2,0,P|294:49|288:135,1,105.600003222656,0|0,1:0|0:0,0:0:0:0:
305,264,180137,2,0,B|366:260|366:260|439:309|439:309|504:304,1,211.200006445313,10|0,0:0|0:0,0:0:0:0:
341,343,180649,6,0,L|288:346,1,52.8000016113282,2|0,1:2|0:0,0:0:0:0:
459,225,180819,1,10,0:0:0:0:
457,189,180904,1,2,0:0:0:0:
456,155,180989,1,2,1:2:0:0:
454,120,181075,1,10,0:0:0:0:
453,87,181160,1,2,1:2:0:0:
305,264,181331,1,2,1:2:0:0:
192,98,181501,1,10,0:0:0:0:
86,222,181672,1,2,1:2:0:0:
321,180,181842,6,0,L|155:172,1,158.400004833985,2|0,1:2|0:0,0:0:0:0:
166,202,182183,2,0,L|169:255,1,52.8000016113282,10|0,0:2|0:0,0:0:0:0:
12,280,182354,2,0,L|6:174,1,105.600003222656,2|0,1:2|1:0,0:0:0:0:
252,255,182694,1,2,1:2:0:0:
159,124,182865,2,0,B|79:96|79:96|86:221,1,211.200006445313,14|0,0:2|0:0,0:0:0:0:
92,327,183376,6,0,L|86:221,1,105.600003222656,2|10,1:2|0:0,0:0:0:0:
239,96,183717,1,2,1:2:0:0:
4,272,183888,1,10,0:0:0:0:
170,208,184058,1,10,0:0:0:0:
84,187,184229,1,10,0:0:0:0:
244,267,184399,1,10,0:0:0:0:
299,24,184569,6,0,B|325:90|325:90|302:215,1,158.400004833985,6|0,1:2|0:0,0:0:0:0:
309,176,184910,2,0,B|351:155|351:155|416:160,1,105.600003222656,10|0,0:0|1:0,0:0:0:0:
505,87,185166,1,8,0:0:0:0:
505,87,185251,2,0,L|389:78,1,105.600003222656,2|2,1:2|0:0,0:0:0:0:
239,96,185592,1,0,1:0:0:0:
512,243,185763,2,0,B|371:231|371:231|413:308,1,211.200006445313,2|0,1:2|1:0,0:0:0:0:
331,384,186274,2,0,B|337:325|337:325|308:267,1,105.600003222656,10|0,0:2|1:0,0:0:0:0:
239,96,186529,1,8,0:0:0:0:
239,96,186615,2,0,B|197:116|197:116|134:111,1,105.600003222656,2|0,1:2|1:0,0:0:0:0:
46,213,186956,2,0,L|158:218,1,105.600003222656,14|0,0:0|1:0,0:0:0:0:
310,44,187297,6,0,P|319:96|307:147,1,105.600003222656,2|0,1:2|1:0,0:0:0:0:
427,354,187638,2,0,P|417:302|430:251,1,105.600003222656,10|0,0:0|0:0,0:0:0:0:
242,198,187979,1,2,1:2:0:0:
490,141,188149,1,10,0:0:0:0:
490,141,188234,1,8,0:0:0:0:
490,141,188319,1,8,0:0:0:0:
496,306,188490,2,0,L|338:293,1,158.400004833985,6|0,1:2|0:0,0:0:0:0:
415,258,188831,1,2,1:2:0:0:
376,225,188916,1,0,1:0:0:0:
324,220,189001,1,10,0:0:0:0:
279,246,189086,1,8,0:0:0:0:
258,294,189172,1,8,0:0:0:0:
221,330,189257,1,8,0:0:0:0:
170,337,189342,1,10,0:0:0:0:
124,312,189427,1,8,0:0:0:0:
102,265,189513,1,8,0:0:0:0:
113,214,189598,1,8,0:0:0:0:
152,180,189683,5,10,0:0:0:0:
180,109,189768,1,10,0:0:0:0:
149,40,189854,1,10,0:0:0:0:
79,12,189939,1,10,0:0:0:0:
8,41,190024,6,0,P|0:109|27:152,1,105.600003222656,2|0,1:2|0:0,0:0:0:0:
183,259,190365,2,0,L|306:249,1,105.600003222656,8|2,0:0|1:2,0:0:0:0:
324,250,190620,1,8,0:0:0:0:
324,250,190705,1,0,1:0:0:0:
510,170,190876,1,0,1:0:0:0:
425,334,191047,2,0,B|427:187|427:187|396:280,1,211.200006445313,14|0,0:0|1:0,0:0:0:0:
287,340,191558,5,2,1:2:0:0:
251,334,191643,1,2,0:0:0:0:
216,340,191728,1,10,0:0:0:0:
185,357,191814,1,2,0:0:0:0:
154,374,191899,1,2,0:0:0:0:
119,381,191984,1,10,0:0:0:0:
84,375,192069,5,2,1:2:0:0:
210,259,192240,1,2,0:0:0:0:
78,159,192410,1,10,0:0:0:0:
214,50,192581,1,2,1:2:0:0:
1,199,192751,6,0,L|233:178,1,211.200006445313,2|10,1:2|0:0,0:0:0:0:
414,267,193263,1,2,1:2:0:0:
211,179,193433,2,0,B|231:236|231:236|222:297,1,105.600003222656,0|2,1:0|1:2,0:0:0:0:
348,341,193774,2,0,B|287:385|287:385|310:238,1,211.200006445313,14|0,0:0|1:0,0:0:0:0:
150,244,194285,5,0,1:0:0:0:
408,167,194456,1,10,0:0:0:0:
391,121,194542,1,2,0:0:0:0:
353,87,194627,1,2,1:2:0:0:
303,84,194711,1,10,0:0:0:0:
261,109,194797,1,10,1:2:0:0:
492,85,194967,1,10,0:0:0:0:
263,245,195138,1,10,0:0:0:0:
506,222,195308,1,10,0:0:0:0:
321,166,195478,6,0,B|245:159|245:159|185:190|185:190|116:184,1,211.200006445313,2|10,1:2|0:0,0:0:0:0:
269,350,195990,1,2,1:2:0:0:
269,350,196075,1,8,0:0:0:0:
269,350,196160,2,0,L|261:226,1,105.600003222656,2|0,1:2|1:0,0:0:0:0:
35,261,196501,1,8,0:0:0:0:
152,81,196672,2,0,P|65:109|117:184,1,211.200006445313,2|0,1:2|1:0,0:0:0:0:
262,244,197183,6,0,B|327:234|327:234|385:251,1,105.600003222656,10|0,0:0|1:0,0:0:0:0:
376,170,197438,1,8,0:0:0:0:
376,170,197524,2,0,B|414:181|414:181|479:171,1,105.600003222656,2|0,1:2|1:0,0:0:0:0:
403,364,197865,2,0,B|391:309|391:309|404:260,1,105.600003222656,14|0,0:0|0:0,0:0:0:0:
424,81,198206,6,0,B|314:76,1,105.600003222656,6|0,1:2|0:0,0:0:0:0:
308,101,198461,2,0,B|195:95,1,105.600003222656,2|0,1:2|0:0,0:0:0:0:
176,117,198717,1,2,1:2:0:0:
283,197,198888,2,0,B|288:309,1,105.600003222656,2|0,1:2|0:0,0:0:0:0:
267,329,199143,1,2,1:2:0:0:
11,305,199399,5,2,1:2:0:0:
50,332,199484,1,2,0:0:0:0:
97,331,199569,1,2,1:2:0:0:
136,304,199655,1,2,0:0:0:0:
153,260,199740,2,8,L|214:256,2,52.8000016113282,10|10|10,0:0|0:0|0:0,0:0:0:0:
18,151,200081,2,0,B|102:136|102:136|70:210,1,158.400004833985,2|0,1:2|0:0,0:0:0:0:
71,256,200422,2,8,L|74:203,1,52.8000016113282,10|8,1:2|0:0,0:0:0:0:
184,55,200592,2,8,L|188:108,1,52.8000016113282,10|8,0:0|0:0,0:0:0:0:
288,274,200763,2,8,L|291:221,1,52.8000016113282,10|8,1:2|0:0,0:0:0:0:
393,77,200933,6,0,B|425:144|425:144|400:224,1,158.400004833985,2|0,1:2|0:0,0:0:0:0:
390,252,201274,1,8,0:0:0:0:
225,157,201444,1,2,1:2:0:0:
225,157,201529,1,0,1:0:0:0:
225,157,201615,2,0,B|276:169|276:169|364:150,1,105.600003222656,8|0,0:0|0:0,0:0:0:0:
442,321,201956,2,0,B|391:333|391:333|338:321,1,105.600003222656,10|0,0:0|1:0,0:0:0:0:
115,267,202297,5,10,0:0:0:0:
338,321,202467,1,2,1:2:0:0:
277,91,202638,1,10,0:0:0:0:
235,275,202808,1,2,1:2:0:0:
512,160,202979,5,10,0:0:0:0:
472,161,203064,1,2,0:0:0:0:
432,162,203149,1,2,1:2:0:0:
393,163,203234,1,2,0:0:0:0:
354,184,203319,5,10,0:0:0:0:
314,185,203405,1,2,0:0:0:0:
274,186,203490,1,2,1:2:0:0:
234,187,203575,1,2,0:0:0:0:
194,198,203660,6,0,L|188:89,1,105.600003222656,14|0,0:0|1:0,0:0:0:0:
59,199,204001,1,10,0:0:0:0:
290,96,204172,1,2,1:2:0:0:
114,44,204342,1,10,0:0:0:0:
129,279,204513,1,2,1:2:0:0:
188,92,204683,2,0,P|138:123|75:122,1,105.600003222656,14|0,0:0|1:0,0:0:0:0:
23,283,205024,5,10,1:2:0:0:
23,283,205109,2,0,L|149:278,1,105.600003222656,10|0,0:0|0:0,0:0:0:0:
186,335,205365,2,0,B|206:287|206:287|195:220,1,105.600003222656,10|0,0:0|0:0,0:0:0:0:
264,141,205621,2,0,L|282:267,1,105.600003222656,2|0,1:2|0:0,0:0:0:0:
364,194,205876,1,2,1:2:0:0:
415,185,205961,1,0,1:0:0:0:
460,209,206046,1,10,0:0:0:0:
482,256,206131,1,8,0:0:0:0:
469,306,206216,1,10,0:0:0:0:
429,338,206302,1,8,0:0:0:0:
378,340,206388,6,0,P|330:319|257:329,1,105.600003222656,6|0,1:2|1:0,0:0:0:0:
280,87,206729,2,0,P|259:135|269:208,1,105.600003222656,10|0,0:0|1:0,0:0:0:0:
143,226,207069,1,10,0:0:0:0:
367,137,207240,1,2,1:2:0:0:
143,138,207410,1,8,0:0:0:0:
369,226,207581,1,2,1:2:0:0:
158,320,207751,5,8,0:0:0:0:
392,230,207921,1,0,1:0:0:0:
118,133,208091,1,10,0:0:0:0:
353,45,208262,1,0,1:0:0:0:
158,45,208433,1,10,0:0:0:0:
392,133,208604,1,0,1:0:0:0:
118,230,208774,1,14,0:0:0:0:
353,320,208944,1,0,1:0:0:0:
353,320,209030,1,0,1:0:0:0:
353,320,209115,6,0,P|408:328|461:310,1,105.600003222656,10|0,0:0|1:0,0:0:0:0:
497,223,209456,2,0,L|392:229,1,105.600003222656,10|0,0:0|1:0,0:0:0:0:
259,355,209797,1,10,0:0:0:0:
217,133,209967,1,10,0:0:0:0:
217,133,210052,1,8,0:0:0:0:
217,133,210138,1,8,0:0:0:0:
391,229,210308,1,2,1:2:0:0:
95,288,210649,5,2,1:2:0:0:
95,288,210819,1,2,1:2:0:0:
228,41,211160,1,2,1:2:0:0:
291,208,211331,1,0,1:0:0:0:
291,208,211416,1,0,1:0:0:0:
291,208,211502,1,10,0:0:0:0:
461,98,211842,5,10,0:0:0:0:
290,294,212013,1,2,1:2:0:0:
362,83,212183,1,2,1:2:0:0:
476,275,212354,5,10,0:2:0:0:
266,120,212525,1,2,1:2:0:0:
389,328,212695,1,2,1:2:0:0:
504,192,212865,5,2,0:2:0:0:
425,194,213036,1,2,0:2:0:0:
367,247,213206,1,2,0:2:0:0:
299,211,213376,5,2,0:2:0:0:
229,242,213547,1,2,0:2:0:0:
153,220,213717,1,2,0:2:0:0:
77,228,213888,6,0,L|43:223,5,35.2000010742188,2|2|2|2|2|2,0:0|0:0|0:0|0:0|0:0|0:0,0:0:0:0:
81,204,214229,2,0,L|47:199,5,35.2000010742188,2|2|2|2|2|2,0:0|0:0|0:0|0:0|0:0|0:0,0:0:0:0:
87,183,214569,6,0,B|85:106|135:34|205:21|280:16|366:39|399:117|406:203|387:293|345:346|239:345|134:365|94:260|88:203|88:203|188:222|188:222|214:283|214:283|252:281|252:281|267:218|267:218|330:196|330:196|328:156|328:156|262:148|262:148|242:80|242:80|204:82|204:82|186:151|186:151|115:171,1,1536,6|2,1:2|0:0,0:0:0:0:
0,118,220365,2,0,L|56:112,1,48,2|0,1:2|1:0,1:0:0:0:
119,169,220706,2,0,L|166:164,1,48,10|0,1:2|0:0,1:0:0:0:
253,211,221047,2,0,L|275:209,4,24,2|0|0|0|2,0:0|0:0|0:0|0:0|0:0,0:0:0:0:
171,248,221729,5,2,1:2:0:0:
360,209,222069,1,10,0:0:0:0:
360,209,222240,1,8,0:0:0:0:
327,287,222410,2,0,L|329:318,3,24,2|0|0|2,1:2|1:0|1:0|1:2,1:0:0:0:
259,86,223092,2,0,L|256:146,1,48,2|0,1:2|0:0,0:0:0:0:
253,211,223433,1,10,0:0:0:0:
382,129,223774,2,0,L|406:126,4,24,2|0|0|0|2,0:0|0:0|0:0|0:0|0:0,0:0:0:0:
149,187,224456,5,2,1:2:0:0:
243,337,224797,2,0,L|245:289,1,48,10|8,0:0|0:0,0:0:0:0:
253,211,225138,2,0,L|276:213,4,24,2|0|8|0|0,1:2|0:0|0:0|0:0|1:0,0:0:0:0:
