osu file format v14

[General]
AudioFilename: SadisticMusicFactory.mp3
AudioLeadIn: 0
PreviewTime: 121486
Countdown: 0
SampleSet: Soft
StackLeniency: 0.7
Mode: 0
LetterboxInBreaks: 1
WidescreenStoryboard: 0

[Editor]
DistanceSpacing: 0.9
BeatDivisor: 8
GridSize: 4
TimelineZoom: 1.9

[Metadata]
Title:Sadistic.Music Factory
TitleUnicode:Sadistic.Music∞Factory
Artist:cosMo@Bousou-P
ArtistUnicode:cosMo@暴走P
Creator:Chaoslitz
Version:Insane
Source:初音ミク -Project DIVA- f
Tags:vocaloid hatsune miku
BeatmapID:1018661
BeatmapSetID:476871

[Difficulty]
HPDrainRate:6
CircleSize:4
OverallDifficulty:8
ApproachRate:9
SliderMultiplier:1.7
SliderTickRate:1

[Events]
//Background and Video events
0,0,"bg.jpg",0,0
Video,-730,"musicfactory.flv"
//Break Periods
2,13895,19113
2,86822,90386
2,104277,109295
//Storyboard Layer 0 (Background)
//Storyboard Layer 1 (Fail)
//Storyboard Layer 2 (Pass)
//Storyboard Layer 3 (Foreground)
//Storyboard Sound Samples

[TimingPoints]
571,363.636363636364,4,2,1,40,1,0
2259,363.636363636364,4,2,1,40,1,0
3531,-100,4,2,2,40,0,0
4259,-100,4,2,1,40,0,0
8077,-100,4,2,2,40,0,0
10804,-100,4,2,1,40,0,0
10986,-100,4,2,2,40,0,0
19713,-100,4,2,2,50,0,0
21168,-100,4,2,2,60,0,0
22622,-100,4,2,2,70,0,0
24713,-100,4,2,1,70,0,0
24804,-100,4,2,2,70,0,0
25440,-100,4,2,1,10,0,0
25531,-100,4,2,1,80,0,1
26804,-100,4,2,1,80,0,1
27168,-100,4,2,1,80,0,1
28440,-100,4,2,1,70,0,0
29895,-100,4,2,2,70,0,0
30259,-100,4,2,1,70,0,0
30440,-100,4,2,2,70,0,0
30986,-100,4,2,1,70,0,0
31349,-100,4,2,2,70,0,0
31713,-100,4,2,1,70,0,0
32804,-100,4,2,2,70,0,0
33168,-100,4,2,1,70,0,0
33349,-100,4,2,2,70,0,0
33895,-100,4,2,1,70,0,0
34077,-100,4,2,2,70,0,0
34259,-100,4,2,1,70,0,0
35713,-100,4,2,2,70,0,0
36077,-100,4,2,1,70,0,0
36259,-100,4,2,2,70,0,0
36804,-100,4,2,1,70,0,0
37168,-100,4,2,2,70,0,0
37531,-100,4,2,1,70,0,0
40077,-100,4,2,1,70,0,0
41531,-133.333333333333,4,2,2,70,0,0
42077,-100,4,2,2,70,0,0
42622,-100,4,2,1,70,0,0
43713,-100,4,2,2,70,0,0
44077,-100,4,2,1,70,0,0
46804,-100,4,2,2,70,0,0
46986,-100,4,2,1,70,0,0
47349,-100,4,2,2,70,0,0
47713,-100,4,2,1,70,0,0
47895,-100,4,2,2,70,0,0
48259,-100,4,2,1,70,0,0
48440,-100,4,2,2,70,0,0
48622,-100,4,2,1,70,0,0
48805,-100,4,2,1,70,0,0
49531,-100,4,2,2,70,0,0
49713,-100,4,2,1,70,0,0
50259,-100,4,2,2,70,0,0
50622,-100,4,2,1,70,0,0
51168,-100,4,2,1,70,0,0
51713,-100,4,2,2,70,0,0
52077,-100,4,2,1,70,0,0
52259,-100,4,2,2,70,0,0
52804,-100,4,2,1,70,0,0
53168,-100,4,2,2,70,0,0
53531,-100,4,2,1,70,0,0
53713,-100,4,2,2,70,0,0
54259,-100,4,2,1,70,0,0
54622,-100,4,2,2,70,0,0
54986,-100,4,2,1,70,0,0
55168,-100,4,2,2,70,0,0
55713,-100,4,2,1,70,0,0
56077,-100,4,2,2,70,0,0
56440,-100,4,2,1,70,0,0
56622,-100,4,2,2,70,0,0
57168,-100,4,2,1,70,0,0
57531,-100,4,2,2,70,0,0
57895,-100,4,2,1,70,0,0
58077,-100,4,2,2,70,0,0
58622,-100,4,2,1,70,0,0
58986,-100,4,2,2,70,0,0
59349,-100,4,2,1,70,0,0
59531,-100,4,2,2,70,0,0
60077,-100,4,2,1,70,0,0
60440,-100,4,2,2,70,0,0
60713,-100,4,2,1,70,0,0
60986,-100,4,2,2,70,0,0
61349,-100,4,2,2,70,0,0
61531,-100,4,2,1,70,0,0
62622,-100,4,2,2,70,0,0
62986,-100,4,2,1,70,0,0
63349,-100,4,2,2,70,0,0
63713,-100,4,2,1,70,0,0
64077,-100,4,2,2,70,0,0
64440,-100,4,2,1,70,0,0
64804,-100,4,2,2,70,0,0
65168,-100,4,2,1,70,0,0
65531,-100,4,2,2,70,0,0
65895,-100,4,2,1,70,0,0
66259,-100,4,2,2,70,0,0
66440,-100,4,2,1,70,0,0
66622,-100,4,2,2,70,0,0
66804,-100,4,2,1,70,0,0
66986,-100,4,2,2,70,0,0
67168,-100,4,2,1,70,0,0
67349,-100,4,2,2,70,0,0
67531,-100,4,2,1,70,0,0
67713,-100,4,2,2,70,0,0
67895,-100,4,2,1,70,0,0
68077,-100,4,2,2,70,0,0
68259,-100,4,2,1,70,0,0
68440,-100,4,2,2,70,0,0
68804,-100,4,2,1,70,0,0
69168,-100,4,2,2,70,0,0
69531,-100,4,2,1,70,0,0
69895,-100,4,2,2,70,0,0
70259,-100,4,2,1,70,0,0
70622,-100,4,2,2,70,0,0
70986,-100,4,2,1,70,0,0
71349,-100,4,2,2,70,0,0
71713,-100,4,2,1,70,0,0
72077,-100,4,2,2,70,0,0
72259,-100,4,2,1,70,0,0
72440,-100,4,2,2,70,0,0
72622,-100,4,2,1,70,0,0
72804,-100,4,2,2,70,0,0
72986,-100,4,2,1,70,0,0
73168,-100,4,2,2,70,0,0
73349,-100,4,2,1,70,0,0
73531,-100,4,2,2,70,0,0
73713,-100,4,2,1,70,0,0
73895,-100,4,2,2,70,0,0
74077,-100,4,2,1,70,0,0
74259,-100,4,2,2,70,0,0
74622,-100,4,2,1,70,0,0
75713,-100,4,2,2,70,0,0
76077,-100,4,2,1,70,0,0
76440,-100,4,2,2,70,0,0
76804,-100,4,2,1,70,0,0
76986,-100,4,2,2,70,0,0
77259,-100,4,2,1,70,0,0
77440,-100,4,2,2,70,0,0
77531,-100,4,2,1,70,0,0
77895,-100,4,2,2,70,0,0
78986,-100,4,2,1,70,0,0
79531,-100,4,2,2,70,0,0
80440,-100,4,2,1,70,0,0
82077,-100,4,2,2,70,0,0
82622,-100,4,2,1,70,0,0
82804,-100,4,2,2,70,0,0
83349,-100,4,2,1,70,0,0
83713,-100,4,2,2,70,0,0
84077,-100,4,2,1,70,0,0
84259,-100,4,2,2,70,0,0
84804,-100,4,2,1,70,0,0
84895,-100,4,2,2,70,0,0
85168,-100,4,2,1,70,0,0
90986,-100,4,2,2,70,0,0
91349,-100,4,2,1,70,0,0
91622,-100,4,2,2,70,0,0
92077,-100,4,2,1,70,0,0
92440,-100,4,2,1,60,0,0
97531,-100,4,2,1,60,0,0
98259,-100,4,2,1,60,0,0
103168,-100,4,2,2,60,0,0
103349,-100,4,2,1,60,0,0
109895,-100,4,2,1,40,0,0
120168,-133.333333333333,4,2,1,40,0,0
121531,-100,4,1,1,70,0,1
133046,-100,4,1,1,70,0,0
133168,-90.9090909090909,4,1,1,80,0,1
144804,-90.9090909090909,4,1,1,80,0,0
147713,-100,4,1,1,80,0,1
149168,-100,4,1,1,80,0,1
150986,-100,4,1,1,80,0,0

[Colours]
Combo1 : 219,0,0
Combo2 : 87,0,174
Combo3 : 0,221,204
Combo4 : 238,119,0

[HitObjects]
283,60,571,6,0,P|261:62|238:64,1,42.5,2|2,0:0|0:0,0:0:0:0:
183,129,752,1,2,0:0:0:0:
183,129,843,2,0,P|130:124|46:118,2,127.5,2|2|2,0:0|0:0|0:0,0:0:0:0:
354,192,1661,1,2,0:0:0:0:
354,192,1752,1,2,0:0:0:0:
354,192,1843,1,2,0:0:0:0:
127,208,2259,6,0,P|132:241|136:266,1,42.5,4|0,1:0|0:0,0:0:0:0:
185,318,2440,2,0,P|188:339|191:360,1,42.5,2|0,0:0|0:0,0:0:0:0:
220,240,3531,6,0,P|216:261|213:282,1,42.5,2|0,0:0|0:0,0:0:0:0:
309,275,4259,2,0,P|312:296|315:317,1,42.5,2|0,0:0|0:0,0:0:0:0:
354,192,5077,1,0,0:0:0:0:
354,192,5168,1,0,0:0:0:0:
354,192,5259,1,2,0:0:0:0:
464,23,6259,6,0,P|467:44|470:65,1,42.5,2|2,0:0|0:0,0:0:0:0:
422,135,6440,1,2,0:0:0:0:
422,135,6531,2,0,P|364:108|303:119,2,127.5,2|2|2,0:0|0:0|0:0,0:0:0:0:
400,269,7349,1,2,0:0:0:0:
400,269,7440,1,2,0:0:0:0:
400,269,7531,1,2,0:0:0:0:
204,216,8077,6,0,P|181:213|154:210,1,42.5,2|0,0:0|0:0,0:0:0:0:
88,261,8259,2,0,P|65:258|38:255,1,42.5,2|0,0:0|0:0,0:0:0:0:
98,354,10804,5,2,0:0:0:0:
98,354,10895,1,2,0:0:0:0:
98,354,10986,2,0,P|120:356|147:359,1,42.5,6|0,0:0|0:0,0:0:0:0:
214,309,11168,2,0,P|236:311|263:314,1,42.5,2|0,0:0|0:0,0:0:0:0:
467,332,12440,6,0,P|445:332|425:327,1,42.5,8|0,0:0|0:0,0:0:0:0:
368,260,12622,2,0,P|347:255|326:255,1,42.5,2|0,0:0|0:0,0:0:0:0:
256,72,19713,5,12,0:0:0:0:
256,72,19895,1,8,0:0:0:0:
353,141,20077,2,0,P|395:137|437:134,1,85,8|8,0:0|0:0,0:0:0:0:
278,200,20440,5,8,0:0:0:0:
261,302,20622,1,8,0:0:0:0:
258,189,20804,2,0,P|215:194|173:198,1,85,8|8,0:0|0:0,0:0:0:0:
74,124,21168,5,8,0:0:0:0:
74,124,21349,1,8,0:0:0:0:
16,252,21531,2,0,P|65:256|111:262,1,85,8|8,0:0|0:0,0:0:0:0:
194,331,21895,5,8,0:0:0:0:
258,215,22077,1,8,0:0:0:0:
305,333,22259,2,0,P|258:337|216:340,1,85,8|8,0:0|0:0,0:0:0:0:
355,257,22622,6,0,L|359:204,3,42.5,8|8|8|8,0:0|0:0|0:0|0:0,0:0:0:0:
382,189,22986,2,0,L|386:136,3,42.5,8|8|8|8,0:0|0:0|0:0|0:0,0:0:0:0:
387,112,23349,5,8,0:0:0:0:
357,96,23439,1,8,0:0:0:0:
324,88,23530,1,8,0:0:0:0:
290,92,23622,1,8,0:0:0:0:
259,105,23713,1,8,0:0:0:0:
228,119,23804,1,8,0:0:0:0:
193,122,23895,1,8,0:0:0:0:
161,116,23986,1,8,0:0:0:0:
132,98,24077,6,0,L|124:52,3,42.5,0|0|0|0,0:0|0:0|0:0|0:0,0:0:0:0:
57,138,24440,1,0,0:0:0:0:
57,138,24531,1,0,0:0:0:0:
57,138,24622,1,0,0:0:0:0:
57,138,24713,1,2,0:0:0:0:
57,138,24804,6,0,L|50:187,3,42.5,2|0|0|0,0:0|0:0|0:0|0:0,0:0:0:0:
39,212,25168,2,0,P|45:278|99:313,1,127.5,2|0,0:0|0:0,0:0:0:0:
123,321,25531,6,0,P|145:317|164:316,3,42.5,2|0|0|0,0:0|0:0|0:0|0:0,0:0:0:0:
264,257,25986,1,2,0:0:0:0:
264,257,26077,2,0,L|255:198,1,42.5,2|0,0:0|0:0,0:0:0:0:
343,319,26259,2,0,L|350:251,1,56.6666666666667,2|2,0:0|0:0,0:0:0:0:
367,105,26622,5,2,0:0:0:0:
367,105,26713,1,2,0:0:0:0:
367,105,26804,2,0,P|319:82|268:92,1,106.25,2|0,0:0|0:0,0:0:0:0:
221,112,27168,2,0,L|227:76,16,21.25,0|4|0|0|0|0|0|0|0|0|0|0|0|0|0|0|0,0:0|0:0|0:0|0:0|0:0|0:0|0:0|0:0|0:0|0:0|0:0|0:0|0:0|0:0|0:0|0:0|0:0,0:0:0:0:
215,145,27986,1,8,0:0:0:0:
61,182,28440,6,0,P|45:249|75:311,1,127.5,4|0,2:0|0:0,0:0:0:0:
89,326,28804,2,0,P|140:319|195:312,1,85,8|0,0:0|0:0,0:0:0:0:
309,307,29168,1,0,0:0:0:0:
241,125,29349,1,0,0:0:0:0:
241,125,29440,1,0,0:0:0:0:
241,125,29531,2,0,P|237:174|232:219,1,85,8|0,0:0|0:0,0:0:0:0:
316,45,29895,6,0,P|322:86|328:129,1,85,8|0,0:0|0:0,0:0:0:0:
331,141,30168,1,8,0:0:0:0:
333,153,30259,1,8,0:0:0:0:
309,307,30440,2,0,P|388:314|447:238,1,170,8|8,0:0|0:0,0:0:0:0:
439,216,30895,1,0,0:0:0:0:
439,216,30986,2,0,P|442:173|445:131,1,85,8|0,0:0|0:0,0:0:0:0:
316,45,31349,6,0,P|258:19|197:31,1,127.5,8|0,0:0|0:0,0:0:0:0:
173,56,31713,2,0,P|131:49|89:42,1,85,8|0,0:0|0:0,0:0:0:0:
13,94,32077,1,0,0:0:0:0:
52,258,32259,1,0,0:0:0:0:
52,258,32349,1,0,0:0:0:0:
51,257,32440,2,0,P|93:261|130:242,1,85,8|0,0:0|0:0,0:0:0:0:
215,143,32804,6,0,P|221:210|227:281,1,127.5,8|8,0:0|0:0,0:0:0:0:
229,304,33168,1,8,0:0:0:0:
399,377,33349,2,0,P|424:300|367:241,1,170,8|8,0:0|0:0,0:0:0:0:
306,65,33895,1,8,0:0:0:0:
298,84,33985,1,8,0:0:0:0:
295,104,34076,1,8,0:0:0:0:
297,126,34167,1,8,0:0:0:0:
304,146,34259,6,0,P|365:150|442:157,1,127.5,4|0,0:0|0:0,0:0:0:0:
464,159,34622,1,8,0:0:0:0:
367,241,34804,1,0,0:0:0:0:
398,65,34986,2,0,P|458:60|503:56,1,85,0|0,0:0|0:0,0:0:0:0:
482,57,35259,1,0,0:0:0:0:
482,57,35349,1,8,0:0:0:0:
453,251,35531,1,0,0:0:0:0:
323,158,35713,6,0,P|284:208|286:270,1,127.5,8|8,0:0|0:0,0:0:0:0:
304,300,36077,1,8,0:0:0:0:
204,195,36259,2,0,P|119:182|35:172,1,170,8|8,0:0|0:0,0:0:0:0:
16,200,36713,1,0,0:0:0:0:
16,200,36804,2,0,P|21:248|25:295,1,85,8|0,0:0|0:0,0:0:0:0:
188,375,37168,6,0,P|247:353|272:297,1,127.5,8|0,0:0|0:0,0:0:0:0:
269,263,37531,1,8,0:0:0:0:
229,76,37713,1,0,0:0:0:0:
119,203,37895,2,0,P|161:198|205:194,1,85,0|0,0:0|0:0,0:0:0:0:
224,167,38168,1,0,0:0:0:0:
245,168,38258,1,8,0:0:0:0:
266,170,38349,1,0,0:0:0:0:
287,171,38440,1,0,0:0:0:0:
308,173,38531,1,0,0:0:0:0:
329,175,38622,5,4,0:0:0:0:
269,263,38804,1,0,0:0:0:0:
229,76,38986,1,8,0:0:0:0:
412,131,39168,1,0,0:0:0:0:
412,131,39259,1,0,0:0:0:0:
412,131,39349,2,0,P|419:165|422:187,3,42.5,0|0|0|0,0:0|0:0|0:0|0:0,0:0:0:0:
412,206,39713,2,0,P|405:240|402:262,3,42.5,8|8|0|8,0:0|0:0|0:0|0:0,0:0:0:0:
396,281,40077,6,0,P|375:284|353:287,1,42.5,4|0,0:0|0:0,0:0:0:0:
269,263,40259,1,0,0:0:0:0:
163,342,40440,1,8,0:0:0:0:
163,342,40531,1,0,0:0:0:0:
163,342,40622,2,0,L|156:285,1,42.5,0|0,0:0|0:0,0:0:0:0:
85,212,40804,1,0,0:0:0:0:
85,212,40895,2,0,P|115:181|125:140,1,85,0|0,0:0|0:0,0:0:0:0:
122,106,41168,1,8,0:0:0:0:
141,115,41258,1,0,0:0:0:0:
161,119,41349,1,0,0:0:0:0:
182,119,41440,1,0,0:0:0:0:
203,113,41531,6,0,P|242:110|316:102,1,95.6250036478044,12|8,0:0|0:0,0:0:0:0:
370,180,42077,1,8,0:0:0:0:
368,201,42167,1,8,0:0:0:0:
367,222,42258,1,8,0:0:0:0:
365,243,42349,1,8,0:0:0:0:
363,264,42440,1,8,0:0:0:0:
454,137,42622,1,8,0:0:0:0:
272,203,42804,1,0,2:0:0:0:
272,203,42895,1,0,2:0:0:0:
271,203,42986,6,0,P|277:244|284:287,1,85,4|0,2:0|2:0,2:2:0:0:
222,344,43259,1,0,0:0:0:0:
222,344,43349,2,0,P|172:348|127:352,1,85,8|0,0:0|0:0,0:0:0:0:
55,306,43713,1,8,0:0:0:0:
162,202,43895,1,8,0:0:0:0:
57,151,44077,1,8,0:0:0:0:
57,151,44168,1,0,0:0:0:0:
57,151,44259,2,0,P|59:172|62:193,1,42.5,0|0,0:0|0:0,0:0:0:0:
129,82,44440,6,0,P|169:72|209:86,1,85,0|0,0:0|0:0,0:0:0:0:
238,105,44713,1,0,0:0:0:0:
259,102,44803,1,8,0:0:0:0:
280,101,44894,1,0,0:0:0:0:
301,99,44985,1,0,0:0:0:0:
322,97,45076,1,0,0:0:0:0:
343,96,45168,2,0,P|349:74|354:46,1,42.5,0|0,0:0|0:0,0:0:0:0:
377,177,45349,1,0,0:0:0:0:
377,177,45440,1,0,0:0:0:0:
377,177,45531,2,0,P|418:186|457:169,1,85,8|0,0:0|0:0,0:0:0:0:
465,159,45804,1,0,0:0:0:0:
473,149,45895,5,4,0:0:0:0:
408,275,46077,2,0,P|412:300|415:327,2,42.5,0|0|8,0:0|0:0|0:0,0:0:0:0:
329,350,46440,1,0,0:0:0:0:
329,350,46531,1,0,0:0:0:0:
329,350,46622,2,0,P|283:344|240:338,2,85,2|8|8,0:0|0:0|0:0,0:0:0:0:
305,248,47168,2,0,P|284:249|263:252,1,42.5,0|0,0:0|0:0,0:0:0:0:
186,272,47349,6,0,P|151:295|104:295,1,85,8|8,0:0|0:0,0:0:0:0:
96,291,47622,1,8,0:0:0:0:
85,283,47713,1,8,0:0:0:0:
23,172,47895,1,8,0:0:0:0:
23,172,47986,1,0,0:0:0:0:
23,172,48077,2,0,P|17:136|13:116,2,42.5,8|8|8,0:0|0:0|0:0,0:0:0:0:
129,196,48440,1,8,0:0:0:0:
129,196,48622,1,8,0:0:0:0:
187,73,48804,6,0,P|233:76|291:81,1,85,4|0,0:0|0:0,0:0:0:0:
370,128,49168,2,0,P|377:166|380:193,3,42.5,8|0|0|0,0:0|0:0|0:0|0:0,0:0:0:0:
361,203,49531,2,0,P|357:237|356:258,2,42.5,8|0|2,0:0|0:0|0:0,0:0:0:0:
380,45,49895,1,8,0:0:0:0:
380,45,49986,2,0,P|431:47|469:88,1,85,2|0,0:0|0:0,0:0:0:0:
475,95,50259,6,0,L|480:138,1,42.5,8|0,0:0|0:0,0:0:0:0:
452,210,50440,2,0,L|457:253,1,42.5,8|0,0:0|0:0,0:0:0:0:
414,318,50622,1,8,0:0:0:0:
395,328,50712,1,0,0:0:0:0:
375,335,50803,1,0,0:0:0:0:
354,336,50894,1,0,0:0:0:0:
333,334,50986,2,0,P|299:328|284:326,1,42.5,0|0,0:0|0:0,0:0:0:0:
202,287,51168,2,0,P|206:330|209:372,1,85,8|8,0:0|0:0,0:0:0:0:
167,198,51531,1,8,0:0:0:0:
167,198,51622,1,0,0:0:0:0:
166,198,51713,6,0,P|207:189|247:201,1,85,6|0,0:0|0:0,0:0:0:0:
367,240,52077,2,0,P|363:197|358:155,1,85,8|8,0:0|0:0,0:0:0:0:
360,142,52349,1,0,0:0:0:0:
361,129,52440,1,0,0:0:0:0:
302,46,52622,1,8,0:0:0:0:
302,46,52713,1,0,0:0:0:0:
302,46,52804,2,0,P|261:35|218:36,1,85,8|0,0:0|0:0,0:0:0:0:
193,59,53077,1,0,0:0:0:0:
193,59,53168,6,0,P|173:55|152:52,3,42.5,8|0|0|0,0:0|0:0|0:0|0:0,0:0:0:0:
120,65,53531,2,0,P|99:69|78:72,3,42.5,8|0|8|0,0:0|0:0|0:0|0:0,0:0:0:0:
47,87,53895,1,0,0:0:0:0:
30,111,53985,1,0,0:0:0:0:
21,139,54076,1,8,0:0:0:0:
22,169,54167,1,0,0:0:0:0:
32,197,54259,2,0,P|37:223|42:252,3,42.5,8|0|8|0,0:0|0:0|0:0|0:0,0:0:0:0:
22,268,54622,6,0,P|73:272|121:280,1,85,6|0,0:0|0:0,0:0:0:0:
140,282,54895,1,0,0:0:0:0:
140,282,54986,2,0,P|136:316|132:342,3,42.5,8|0|8|0,0:0|0:0|0:0|0:0,0:0:0:0:
147,355,55349,2,0,P|187:363|226:348,1,85,0|8,0:0|0:0,0:0:0:0:
232,245,55713,1,8,0:0:0:0:
232,245,55804,1,0,0:0:0:0:
232,245,55895,1,0,0:0:0:0:
232,245,55986,1,0,0:0:0:0:
232,245,56077,6,0,P|277:256|325:274,1,85,8|0,0:0|0:0,0:0:0:0:
342,286,56349,1,0,0:0:0:0:
342,286,56440,2,0,P|344:264|348:243,3,42.5,8|0|8|0,0:0|0:0|0:0|0:0,0:0:0:0:
359,211,56804,2,0,P|356:189|352:168,3,42.5,0|0|8|0,0:0|0:0|0:0|0:0,0:0:0:0:
337,138,57168,1,8,0:0:0:0:
340,108,57258,1,2,0:0:0:0:
343,78,57349,1,10,0:0:0:0:
346,49,57440,1,2,0:0:0:0:
349,19,57531,6,0,P|391:15|433:24,1,85,6|0,0:0|0:0,0:0:0:0:
498,117,57895,1,8,0:0:0:0:
498,117,57986,1,0,0:0:0:0:
498,117,58077,1,8,0:0:0:0:
498,117,58168,1,0,0:0:0:0:
498,117,58259,2,0,P|505:169|509:206,1,85,0|8,0:0|0:0,0:0:0:0:
440,310,58622,1,8,0:0:0:0:
340,240,58804,1,0,0:0:0:0:
340,240,58895,1,0,0:0:0:0:
340,240,58986,6,0,P|292:233|226:227,1,85,8|0,0:0|0:0,0:0:0:0:
134,313,59349,1,8,0:0:0:0:
104,310,59439,1,0,0:0:0:0:
79,294,59530,1,8,0:0:0:0:
64,269,59621,1,0,0:0:0:0:
62,240,59713,2,0,P|66:207|69:184,3,42.5,0|0|8|0,0:0|0:0|0:0|0:0,0:0:0:0:
73,164,60077,2,0,P|69:130|66:107,3,42.5,8|0|8|0,0:0|0:0|0:0|0:0,0:0:0:0:
62,87,60440,6,0,P|105:91|146:84,1,85,6|0,0:0|0:0,0:0:0:0:
209,136,60713,2,0,P|204:199|201:230,1,85,4|0,0:0|0:0,0:0:0:0:
215,300,60986,2,0,P|262:295|304:292,1,85,8|0,0:0|0:0,0:0:0:0:
428,277,61349,1,8,0:0:0:0:
337,132,61531,1,8,0:0:0:0:
337,132,61622,1,0,0:0:0:0:
337,132,61713,1,0,0:0:0:0:
337,132,61804,1,0,0:0:0:0:
337,132,61895,6,0,P|400:138|464:145,2,127.5,8|8|8,0:0|0:0|0:0,0:0:0:0:
264,81,62622,1,8,0:0:0:0:
321,266,62804,1,8,0:0:0:0:
345,45,62986,2,0,L|337:0,4,28.3333333333333,8|0|0|0|0,0:0|0:0|0:0|0:0|0:0,0:0:0:0:
337,132,63349,5,12,0:0:0:0:
463,144,63531,1,0,0:0:0:0:
368,251,63713,2,0,P|326:242|284:233,1,85,8|0,0:0|0:0,0:0:0:0:
106,303,64077,2,0,P|188:296|248:352,1,170,8|8,0:0|0:0,0:0:0:0:
354,275,64622,1,0,0:0:0:0:
246,163,64804,2,0,P|242:117|238:66,1,85,8|0,0:0|0:0,0:0:0:0:
171,15,65168,1,8,0:0:0:0:
96,118,65349,1,0,0:0:0:0:
187,218,65531,5,8,0:0:0:0:
211,234,65621,1,0,0:0:0:0:
239,242,65712,1,0,0:0:0:0:
269,238,65803,1,0,0:0:0:0:
295,223,65895,1,8,0:0:0:0:
316,221,65985,1,0,0:0:0:0:
337,220,66076,1,0,0:0:0:0:
358,218,66167,1,0,0:0:0:0:
380,217,66259,6,0,P|407:220|435:223,3,42.5,8|0|8|0,0:0|0:0|0:0|0:0,0:0:0:0:
368,135,66622,2,0,P|395:138|423:141,3,42.5,8|0|8|0,0:0|0:0|0:0|0:0,0:0:0:0:
285,112,66986,2,0,P|258:115|230:118,3,42.5,8|0|8|0,0:0|0:0|0:0|0:0,0:0:0:0:
297,30,67349,2,0,P|270:33|242:36,3,42.5,8|0|8|0,0:0|0:0|0:0|0:0,0:0:0:0:
236,36,67713,5,8,0:0:0:0:
215,29,67803,1,0,0:0:0:0:
194,27,67894,1,8,0:0:0:0:
173,29,67985,1,0,0:0:0:0:
153,37,68076,1,8,0:0:0:0:
136,48,68167,1,0,0:0:0:0:
121,64,68258,1,8,0:0:0:0:
111,82,68349,1,0,0:0:0:0:
104,102,68440,2,0,P|109:128|113:152,3,42.5,8|8|8|8,0:0|0:0|0:0|0:0,0:0:0:0:
101,176,68804,2,0,P|96:202|92:226,3,42.5,8|8|0|8,0:0|0:0|0:0|0:0,0:0:0:0:
97,250,69168,6,0,P|133:274|175:277,1,85,12|0,2:0|0:0,0:0:0:0:
261,233,69531,1,8,0:0:0:0:
397,283,69713,1,0,0:0:0:0:
292,375,69895,2,0,P|281:290|272:206,1,170,8|8,0:0|0:0,0:0:0:0:
262,109,70440,1,0,0:0:0:0:
397,283,70622,5,8,0:0:0:0:
415,173,70804,1,0,0:0:0:0:
303,332,70986,2,0,P|296:284|290:236,1,85,8|0,0:0|0:0,0:0:0:0:
185,134,71349,1,8,0:0:0:0:
194,161,71439,1,0,0:0:0:0:
192,191,71530,1,0,0:0:0:0:
179,218,71621,1,0,0:0:0:0:
159,239,71713,1,8,0:0:0:0:
137,240,71803,1,0,0:0:0:0:
116,241,71894,1,0,0:0:0:0:
95,242,71985,1,0,0:0:0:0:
74,243,72077,6,0,P|67:212|63:193,3,42.5,8|0|8|0,0:0|0:0|0:0|0:0,0:0:0:0:
124,326,72440,2,0,P|128:346|133:367,3,42.5,8|0|8|0,0:0|0:0|0:0|0:0,0:0:0:0:
207,306,72804,2,0,P|211:326|215:347,3,42.5,8|0|8|0,0:0|0:0|0:0|0:0,0:0:0:0:
221,211,73168,2,0,P|214:180|210:161,3,42.5,8|0|8|0,0:0|0:0|0:0|0:0,0:0:0:0:
210,148,73531,5,8,0:0:0:0:
215,127,73621,1,0,0:0:0:0:
224,108,73712,1,8,0:0:0:0:
237,91,73803,1,0,0:0:0:0:
254,78,73894,1,8,0:0:0:0:
273,68,73985,1,0,0:0:0:0:
293,63,74076,1,8,0:0:0:0:
314,62,74167,1,0,0:0:0:0:
335,66,74259,2,0,P|371:62|397:58,3,42.5,8|8|8|8,0:0|0:0|0:0|0:0,0:0:0:0:
408,76,74622,2,0,P|443:71|469:67,3,42.5,8|8|0|8,0:0|0:0|0:0|0:0,0:0:0:0:
483,76,74986,6,0,P|490:126|492:147,1,42.5,4|0,0:0|0:0,0:0:0:0:
495,203,75168,2,0,P|452:196|410:191,1,85,0|8,0:0|0:0,0:0:0:0:
410,191,75440,1,0,0:0:0:0:
410,191,75531,1,0,0:0:0:0:
299,226,75713,2,0,P|279:274|330:342,1,127.5,8|0,0:0|0:0,0:0:0:0:
345,350,76077,2,0,P|377:345|405:343,2,42.5,8|0|0,0:0|0:0|0:0,0:0:0:0:
184,323,76440,6,0,P|188:280|193:238,1,85,8|0,0:0|0:0,0:0:0:0:
193,238,76713,1,0,0:0:0:0:
193,238,76804,1,8,0:0:0:0:
122,70,76986,2,0,P|130:109|131:128,1,42.5,8|8,0:0|0:0,0:0:0:0:
135,146,77168,1,8,0:0:0:0:
135,146,77259,2,0,P|186:150|227:154,1,85,8|8,0:0|0:0,0:0:0:0:
258,172,77531,2,0,P|286:167|309:162,2,42.5,8|8|8,0:0|0:0|0:0,0:0:0:0:
208,69,77895,5,8,0:0:0:0:
208,69,77986,1,8,0:0:0:0:
208,69,78077,2,0,P|200:34|197:16,2,42.5,8|8|8,0:0|0:0|0:0,0:0:0:0:
308,122,78440,1,8,0:0:0:0:
308,122,78531,1,8,0:0:0:0:
308,122,78622,2,0,P|303:142|298:163,2,42.5,8|8|8,0:0|0:0|0:0,0:0:0:0:
412,51,78986,5,8,0:0:0:0:
445,50,79076,1,8,0:0:0:0:
476,63,79167,1,8,0:0:0:0:
499,88,79258,1,8,0:0:0:0:
510,120,79349,1,8,0:0:0:0:
402,240,79531,1,8,0:0:0:0:
402,240,79622,1,8,0:0:0:0:
402,240,79713,2,0,L|358:232,2,42.5,8|8|8,0:0|0:0|0:0,0:0:0:0:
475,362,80077,5,8,0:0:0:0:
454,340,80167,1,8,0:0:0:0:
428,327,80258,1,8,0:0:0:0:
398,324,80349,1,8,0:0:0:0:
370,331,80440,2,0,P|328:323|286:316,1,85,8|0,0:0|0:0,0:0:0:0:
254,308,80713,1,0,0:0:0:0:
254,308,80804,6,0,P|211:313|196:315,3,42.5,4|0|0|0,0:0|0:0|0:0|0:0,0:0:0:0:
179,323,81168,2,0,P|137:326|100:307,1,85,8|0,0:0|0:0,0:0:0:0:
109,175,81531,1,0,0:0:0:0:
137,168,81621,1,0,0:0:0:0:
166,171,81712,1,0,0:0:0:0:
194,182,81803,1,0,0:0:0:0:
217,201,81895,2,0,P|224:159|231:117,1,85,8|8,0:0|0:0,0:0:0:0:
234,104,82168,1,8,0:0:0:0:
237,91,82259,5,8,0:0:0:0:
336,38,82440,1,0,0:0:0:0:
445,178,82622,1,8,0:0:0:0:
445,178,82713,2,0,P|402:181|360:186,1,85,0|0,0:0|0:0,0:0:0:0:
297,236,82986,1,8,0:0:0:0:
297,236,83077,2,0,P|280:279|296:336,1,85,8|8,0:0|0:0,0:0:0:0:
306,345,83349,2,0,P|353:350|410:356,1,85,8|0,0:0|0:0,0:0:0:0:
467,197,83713,5,12,0:0:0:0:
372,59,83895,1,0,0:0:0:0:
369,80,83985,1,0,0:0:0:0:
367,101,84076,1,8,0:0:0:0:
366,122,84167,1,0,0:0:0:0:
364,143,84258,1,8,0:0:0:0:
362,164,84349,1,8,0:0:0:0:
360,186,84440,2,0,P|318:219|226:195,1,127.5,8|0,0:0|0:0,0:0:0:0:
223,193,84804,1,8,0:0:0:0:
193,188,84894,1,8,0:0:0:0:
164,185,84985,1,8,0:0:0:0:
134,181,85076,1,8,0:0:0:0:
105,178,85168,6,0,P|113:245|119:306,2,127.5,4|2|0,0:0|0:0|0:0,0:0:0:0:
23,106,85895,2,0,P|75:73|149:80,1,127.5,2|0,0:0|0:0,0:0:0:0:
167,85,86259,2,0,P|213:80|254:77,1,85,8|0,0:0|0:0,0:0:0:0:
364,143,86622,5,4,0:0:0:0:
244,164,90986,5,8,0:0:0:0:
348,292,91168,1,0,0:0:0:0:
201,368,91349,1,8,0:0:0:0:
201,368,91440,2,0,P|211:306|221:261,1,85,0|8,0:0|0:0,0:0:0:0:
223,255,91713,1,8,0:0:0:0:
197,269,91803,1,0,0:0:0:0:
168,274,91894,1,0,0:0:0:0:
139,268,91985,1,8,0:0:0:0:
111,256,92077,2,0,P|106:205|103:168,1,85,8|0,0:0|0:0,0:0:0:0:
192,44,92440,5,4,0:0:0:0:
221,39,92530,1,0,0:0:0:0:
250,42,92621,1,0,0:0:0:0:
277,54,92712,1,0,0:0:0:0:
300,73,92804,1,8,0:0:0:0:
327,84,92894,1,0,0:0:0:0:
356,88,92985,1,0,0:0:0:0:
385,82,93076,1,0,0:0:0:0:
411,67,93167,1,0,0:0:0:0:
338,188,93349,1,0,0:0:0:0:
338,188,93440,1,0,0:0:0:0:
338,188,93531,2,0,P|342:238|346:276,1,85,8|0,0:0|0:0,0:0:0:0:
220,133,93895,5,4,0:0:0:0:
191,130,93985,1,0,0:0:0:0:
161,128,94076,1,0,0:0:0:0:
131,126,94167,1,0,0:0:0:0:
102,124,94259,1,8,0:0:0:0:
79,143,94349,1,0,0:3:0:0:
64,168,94440,1,0,0:3:0:0:
56,197,94531,1,0,0:3:0:0:
57,227,94622,2,0,P|65:253|70:273,3,42.5,0|0|0|0,0:0|0:0|0:0|0:0,0:0:0:0:
79,300,94986,2,0,P|71:325|66:345,3,42.5,8|0|0|0,0:0|0:0|0:0|0:0,0:0:0:0:
89,367,95349,5,0,0:0:0:0:
89,367,95440,1,0,0:0:0:0:
89,367,95531,1,0,0:0:0:0:
89,367,95622,1,0,0:0:0:0:
89,367,95713,2,0,P|122:364|153:359,1,42.5,8|0,0:0|0:0,0:0:0:0:
187,300,95895,2,0,P|219:305|250:308,1,42.5,0|0,0:0|0:0,0:0:0:0:
308,347,96077,1,0,0:3:0:0:
334,359,96167,1,0,0:3:0:0:
364,360,96258,1,0,0:3:0:0:
392,349,96349,1,0,0:3:0:0:
413,329,96440,1,8,0:0:0:0:
415,308,96530,1,8,0:0:0:0:
417,287,96621,1,0,0:0:0:0:
420,266,96712,1,8,0:0:0:0:
422,244,96804,6,0,L|413:198,3,42.5,0|0|0|0,0:0|0:0|0:0|0:0,0:0:0:0:
401,170,97168,2,0,L|405:122,3,42.5,8|0|0|0,0:0|0:0|0:0|0:0,0:0:0:0:
409,94,97531,2,0,P|387:100|365:97,1,42.5,0|0,0:0|0:0,0:0:0:0:
296,46,97713,2,0,P|273:41|240:45,1,42.5,0|0,0:0|0:0,0:0:0:0:
177,86,97895,2,0,P|174:119|171:136,1,42.5,8|0,0:0|0:0,0:0:0:0:
163,211,98077,1,8,0:0:0:0:
288,352,98259,5,4,0:0:0:0:
316,367,98349,1,0,0:0:0:0:
350,370,98440,1,0,0:0:0:0:
382,358,98531,1,0,0:0:0:0:
405,334,98622,1,8,0:0:0:0:
417,302,98713,1,0,0:0:0:0:
414,268,98804,1,0,0:0:0:0:
398,239,98895,1,0,0:0:0:0:
370,220,98986,2,0,P|330:217|276:213,1,85,0|0,0:0|0:0,0:0:0:0:
163,211,99349,1,8,0:0:0:0:
74,101,99531,1,0,0:0:0:0:
213,17,99713,5,0,0:0:0:0:
214,42,99803,1,0,0:0:0:0:
216,67,99894,1,0,0:0:0:0:
218,93,99985,1,0,0:0:0:0:
214,121,100077,1,8,0:0:0:0:
232,103,100167,1,0,0:0:0:0:
255,91,100258,1,0,0:0:0:0:
280,86,100349,1,0,0:0:0:0:
306,88,100440,1,0,0:0:0:0:
317,110,100530,1,0,0:0:0:0:
336,127,100621,1,0,0:0:0:0:
359,137,100712,1,0,0:0:0:0:
385,138,100804,2,0,P|428:132|481:125,1,85,8|0,0:0|0:0,0:0:0:0:
496,212,101077,1,0,0:0:0:0:
479,238,101168,6,0,P|474:280|465:343,1,85,0|0,0:0|0:0,0:0:0:0:
443,344,101440,1,0,0:0:0:0:
410,351,101530,1,8,0:0:0:0:
378,343,101621,1,0,0:0:0:0:
352,320,101712,1,0,0:0:0:0:
340,289,101803,1,0,0:0:0:0:
343,256,101894,1,0,0:0:0:0:
396,112,102077,1,0,0:0:0:0:
396,112,102168,1,0,0:0:0:0:
396,111,102259,2,0,P|401:153|405:195,1,85,8|0,0:0|0:0,0:0:0:0:
343,256,102531,1,0,0:0:0:0:
343,256,102622,6,0,P|301:263|261:251,1,85,2|0,0:0|0:0,0:0:0:0:
262,225,102895,2,0,P|218:233|150:243,1,85,2|0,0:0|0:0,0:0:0:0:
153,245,103168,2,0,P|161:213|165:201,1,42.5,8|0,0:0|0:0,0:0:0:0:
193,122,103349,6,0,L|231:114,4,28.3333333333333,0|0|0|0|0,2:0|2:0|2:0|2:0|2:0,0:0:0:0:
145,101,103713,2,0,L|107:109,4,28.3333333333333,8|8|8|8|8,2:0|2:0|2:0|2:0|2:0,0:0:0:0:
203,36,104077,5,4,0:0:0:0:
66,144,109895,5,0,0:0:0:0:
66,144,109986,1,0,0:0:0:0:
66,144,110077,2,0,P|71:175|75:199,2,42.5,0|2|0,0:0|0:0|0:0,0:0:0:0:
104,281,112804,5,0,0:0:0:0:
104,281,112895,1,0,0:0:0:0:
104,281,112986,2,0,P|99:312|95:336,2,42.5,0|2|0,0:0|0:0|0:0,0:0:0:0:
156,130,114259,5,0,0:0:0:0:
156,130,114350,1,0,0:0:0:0:
156,130,114441,2,0,P|161:161|165:185,2,42.5,0|2|0,0:0|0:0|0:0,0:0:0:0:
201,262,115713,6,0,P|238:265|258:268,1,42.5,0|0,0:0|0:0,0:0:0:0:
317,311,115895,2,0,P|353:307|366:305,1,42.5,0|2,0:0|0:0,0:0:0:0:
444,292,116077,1,0,0:0:0:0:
495,138,116986,6,0,P|458:141|438:144,1,42.5,0|0,0:0|0:0,0:0:0:0:
379,187,117168,2,0,P|343:183|330:181,1,42.5,0|2,0:0|0:0,0:0:0:0:
252,168,117350,1,0,0:0:0:0:
68,155,118622,6,0,P|64:175|66:196,1,42.5,0|0,0:0|0:0,0:0:0:0:
148,221,118804,2,0,P|151:200|149:179,1,42.5,0|2,0:0|0:0,0:0:0:0:
130,88,118986,1,0,0:0:0:0:
308,95,119349,6,0,P|310:73|305:53,1,42.5
223,37,119531,2,0,P|220:58|225:78,1,42.5,0|2,0:0|0:0,0:0:0:0:
252,168,119713,1,0,0:0:0:0:
308,309,120168,6,0,P|399:292|467:339,2,175.312506687641,2|0|0,0:0|0:0|0:0,0:0:0:0:
202,355,121531,5,4,0:0:0:0:
202,355,121652,2,0,P|163:347|130:344,1,56.6666666666667,0|0,0:0|0:0,0:0:0:0:
104,327,121895,2,0,P|80:332|49:336,2,56.6666666666667
167,254,122259,1,0,0:0:0:0:
167,254,122380,2,0,P|162:201|159:171,1,56.6666666666667,0|0,0:0|0:0,0:0:0:0:
155,112,122622,2,0,P|205:89|259:102,1,113.333333333333,2|0,0:0|0:0,0:0:0:0:
288,138,122986,6,0,P|297:185|298:209,2,56.6666666666667,2|0|0,0:0|0:0|0:0,0:0:0:0:
310,44,123349,2,0,P|353:50|383:52,1,56.6666666666667,0|2,0:0|0:0,0:0:0:0:
456,86,123592,1,0,0:0:0:0:
456,86,123713,1,0,0:0:0:0:
456,86,123834,2,0,P|497:81|532:77,2,56.6666666666667,2|0|2,0:0|0:0|0:0,0:0:0:0:
357,233,124440,6,0,P|322:230|293:227,2,56.6666666666667,2|2|2,0:0|0:0|0:0,0:0:0:0:
399,248,124804,2,0,P|417:298|368:365,1,113.333333333333,2|0,0:0|0:0,0:0:0:0:
312,357,125168,1,2,0:0:0:0:
312,357,125289,2,0,P|268:351|240:348,1,56.6666666666667,0|0,0:0|0:0,0:0:0:0:
196,284,125531,1,2,0:0:0:0:
151,275,125652,2,0,P|107:269|79:266,1,56.6666666666667,0|0,0:0|0:0,0:0:0:0:
20,213,125895,6,0,P|26:167|31:134,1,56.6666666666667,2|0,0:0|0:0,0:0:0:0:
27,156,126137,1,0,0:0:0:0:
101,106,126259,2,0,P|114:132|118:160,2,56.6666666666667,2|0|0,0:0|0:0|0:0,0:0:0:0:
72,71,126622,2,0,P|115:62|141:58,1,56.6666666666667,2|0,0:0|0:0,0:0:0:0:
210,98,126865,1,0,0:0:0:0:
210,98,126986,2,0,P|258:89|317:122,1,113.333333333333,2|0,0:0|0:0,0:0:0:0:
340,200,127349,5,2,0:0:0:0:
340,200,127471,2,0,P|334:244|331:267,1,56.6666666666667,0|0,0:0|0:0,0:0:0:0:
259,303,127713,2,0,P|263:337|266:374,2,56.6666666666667,2|0|0,0:0|0:0|0:0,0:0:0:0:
198,226,128077,2,0,P|149:247|79:218,1,113.333333333333,2|0,0:0|0:0,0:0:0:0:
68,193,128440,2,0,P|74:136|80:77,1,113.333333333333,2|0,0:0|0:0,0:0:0:0:
84,34,128804,6,0,P|47:40|26:45,2,56.6666666666667,2|0|0,0:0|0:0|0:0,0:0:0:0:
162,67,129168,1,0,0:0:0:0:
162,67,129289,2,0,P|190:63|218:60,1,56.6666666666667,2|0,0:0|0:0,0:0:0:0:
302,78,129531,2,0,P|302:43|291:16,2,56.6666666666667,2|0|0,0:0|0:0|0:0,0:0:0:0:
247,146,129895,2,0,P|251:189|253:206,1,56.6666666666667,2|0,0:0|0:0,0:0:0:0:
252,202,130137,1,0,0:0:0:0:
321,277,130259,6,0,P|378:274|417:232,1,113.333333333333,2|0,0:0|0:0,0:0:0:0:
435,195,130622,2,0,P|427:135|416:75,1,113.333333333333,2|0,0:0|0:0,0:0:0:0:
406,39,130986,1,2,0:0:0:0:
302,78,131228,1,0,0:0:0:0:
302,78,131349,2,0,P|245:71|182:64,1,113.333333333333,2|0,0:0|0:0,0:0:0:0:
126,128,131713,6,0,P|129:161|132:187,2,56.6666666666667,2|2|0,0:0|0:0|0:0,0:0:0:0:
95,95,132077,2,0,P|104:46|108:15,2,56.6666666666667,2|0|0,0:0|0:0|0:0,0:0:0:0:
38,170,132440,2,0,P|41:224|82:264,1,113.333333333333,2|0,0:0|0:0,0:0:0:0:
123,282,132804,2,0,P|119:310|112:337,2,56.6666666666667,2|2|0,0:0|0:0|0:0,0:0:0:0:
142,196,133168,5,4,0:0:0:0:
142,196,133259,1,0,0:0:0:0:
142,196,133349,1,0,0:0:0:0:
142,196,133440,1,0,0:0:0:0:
142,196,133531,2,0,P|167:194|192:192,1,46.7500014266968,8|0,0:0|0:0,0:0:0:0:
247,132,133713,2,0,P|275:130|302:128,1,46.7500014266968,0|0,0:0|0:0,0:0:0:0:
370,85,133895,5,0,0:0:0:0:
398,100,133985,1,0,0:0:0:0:
429,107,134076,1,0,0:0:0:0:
462,103,134167,1,0,0:0:0:0:
491,89,134259,1,8,0:0:0:0:
472,121,134349,1,0,0:0:0:0:
460,156,134440,1,0,0:0:0:0:
457,194,134531,1,0,0:0:0:0:
461,231,134622,6,0,P|463:258|465:283,3,46.7500014266968,0|0|0|0,0:0|0:0|0:0|0:0,0:0:0:0:
466,315,134986,1,8,0:0:0:0:
435,302,135076,1,0,0:0:0:0:
403,302,135167,1,0,0:0:0:0:
372,313,135258,1,0,0:0:0:0:
347,334,135349,2,0,P|321:327|300:325,3,46.7500014266968
272,304,135713,5,8,0:0:0:0:
249,333,135803,1,0,0:0:0:0:
217,352,135894,1,0,0:0:0:0:
180,356,135985,1,2,0:0:0:0:
144,345,136077,6,0,P|96:301|98:243,1,93.5000028533936,2|0,0:0|0:0,0:0:0:0:
202,98,136440,1,8,0:0:0:0:
202,98,136531,2,0,P|194:158|189:211,1,93.5000028533936,0|0,0:0|0:0,0:0:0:0:
186,227,136804,6,0,P|216:222|244:217,3,46.7500014266968
268,228,137168,2,0,P|298:233|326:238,3,46.7500014266968,8|0|0|0,0:0|0:0|0:0|0:0,0:0:0:0:
347,252,137531,5,2,0:0:0:0:
381,264,137621,1,0,0:0:0:0:
417,257,137712,1,0,0:0:0:0:
444,231,137803,1,0,0:0:0:0:
453,195,137895,1,10,0:0:0:0:
454,166,137985,1,0,0:0:0:0:
455,138,138076,1,0,0:0:0:0:
456,110,138167,1,0,0:0:0:0:
456,82,138259,6,0,P|414:74|393:70,1,46.7500014266968,0|0,0:0|0:0,0:0:0:0:
343,127,138440,2,0,P|301:119|280:115,1,46.7500014266968,0|0,0:0|0:0,0:0:0:0:
189,47,138622,1,8,0:0:0:0:
189,47,138713,1,0,0:0:0:0:
189,47,138804,2,0,P|194:88|196:109,1,46.7500014266968,0|0,0:0|0:0,0:0:0:0:
104,260,138986,5,4,0:0:0:0:
77,240,139076,1,0,0:0:0:0:
62,212,139167,1,0,0:0:0:0:
61,179,139258,1,0,0:0:0:0:
75,150,139349,2,0,P|108:146|133:142,1,46.7500014266968,8|0,0:0|0:0,0:0:0:0:
194,187,139531,2,0,P|227:183|252:179,1,46.7500014266968,0|0,0:0|0:0,0:0:0:0:
327,210,139713,5,0,0:3:0:0:
324,242,139803,1,0,0:3:0:0:
322,275,139894,1,0,0:3:0:0:
320,307,139985,1,0,0:3:0:0:
323,343,140077,1,8,0:0:0:0:
290,325,140167,1,0,0:0:0:0:
253,321,140258,1,2,0:0:0:0:
217,330,140349,1,2,0:0:0:0:
187,352,140440,6,0,P|163:348|137:344,3,46.7500014266968,2|0|0|0,0:0|0:0|0:0|0:0,0:0:0:0:
106,353,140804,1,8,0:0:0:0:
73,352,140894,1,0,0:0:0:0:
44,337,140985,1,0,0:0:0:0:
24,311,141076,1,0,0:0:0:0:
18,280,141168,6,0,P|25:237|28:218,1,46.7500014266968
106,241,141349,2,0,P|112:197|115:178,1,46.7500014266968,0|0,0:0|0:0,0:0:0:0:
193,201,141531,2,0,P|199:157|202:138,1,46.7500014266968,8|0,0:0|0:0,0:0:0:0:
280,161,141713,2,0,P|286:117|289:98,1,46.7500014266968,2|2,0:0|0:0,0:0:0:0:
303,26,141895,5,2,0:0:0:0:
337,13,141985,1,0,0:0:0:0:
374,15,142076,1,0,0:0:0:0:
407,33,142167,1,0,0:0:0:0:
429,62,142259,1,8,0:0:0:0:
422,93,142349,1,0,0:0:0:0:
424,126,142440,1,0,0:0:0:0:
437,156,142531,1,0,0:0:0:0:
461,185,142622,5,2,0:0:0:0:
424,189,142712,1,0,0:0:0:0:
392,208,142803,1,0,0:0:0:0:
371,239,142894,1,0,0:0:0:0:
364,275,142986,2,0,P|374:312|378:334,3,46.7500014266968,8|0|0|0,0:0|0:0|0:0|0:0,0:0:0:0:
397,352,143349,6,0,P|428:347|463:346,1,46.7500014266968,0|0,0:0|0:0,0:0:0:0:
288,342,143531,2,0,P|257:337|222:334,1,46.7500014266968,0|0,0:0|0:0,0:0:0:0:
294,182,143713,1,10,0:0:0:0:
294,182,143804,1,2,0:0:0:0:
294,182,143895,2,0,P|286:223|282:260,1,46.7500014266968,2|0,0:0|0:0,0:0:0:0:
345,61,144077,5,0,0:0:0:0:
309,51,144167,1,0,0:0:0:0:
272,54,144258,1,0,0:0:0:0:
238,70,144349,1,0,0:0:0:0:
212,97,144440,2,0,L|219:141,8,23.3750007133484,0|0|0|0|2|0|0|0|0,0:0|0:0|0:0|0:0|0:0|0:0|0:0|0:0|0:0,0:0:0:0:
153,196,147713,6,0,P|100:223|31:205,1,127.5,0|2,0:0|0:0,0:0:0:0:
37,78,148168,1,0,0:0:0:0:
37,78,148259,2,0,P|78:82|100:86,1,42.5,0|2,0:0|0:0,0:0:0:0:
167,105,148440,6,0,P|187:100|210:94,5,28.3333333333333,0|0|0|0|0|0,0:0|0:0|0:0|0:0|0:0|0:0,0:0:0:0:
222,90,148804,2,0,P|229:137|236:187,1,85,0|2,0:0|0:0,0:0:0:0:
262,307,149168,6,0,P|278:309|299:312,24,28.3333333333333,0|0|0|0|0|0|0|0|0|0|0|0|0|0|0|0|0|0|0|0|0|0|2|0|0,0:0|0:0|0:0|0:0|0:0|0:0|0:0|0:0|0:0|0:0|0:0|0:0|0:0|0:0|0:0|0:0|0:0|0:0|0:0|0:0|0:0|0:0|0:0|0:0|0:0,0:0:0:0:
432,192,150986,5,4,0:0:0:0:
256,192,151168,12,0,153895,0:0:0:0:
