osu file format v14

[General]
AudioFilename: SadisticMusicFactory.mp3
AudioLeadIn: 0
PreviewTime: 121486
Countdown: 0
SampleSet: Normal
StackLeniency: 0.7
Mode: 0
LetterboxInBreaks: 1
WidescreenStoryboard: 0

[Editor]
DistanceSpacing: 0.8
BeatDivisor: 4
GridSize: 4
TimelineZoom: 1.9

[Metadata]
Title:Sadistic.Music Factory
TitleUnicode:Sadistic.Music∞Factory
Artist:cosMo@Bousou-P
ArtistUnicode:cosMo@暴走P
Creator:Chaoslitz
Version:Easy
Source:初音ミク -Project DIVA- f
Tags:vocaloid hatsune miku
BeatmapID:1018662
BeatmapSetID:476871

[Difficulty]
HPDrainRate:2
CircleSize:3
OverallDifficulty:3
ApproachRate:3
SliderMultiplier:1.2
SliderTickRate:1

[Events]
//Background and Video events
0,0,"bg.jpg",0,0
Video,-730,"musicfactory.flv"
//Break Periods
2,13895,18273
2,63549,73546
2,86822,89546
2,104277,108455
//Storyboard Layer 0 (Background)
//Storyboard Layer 1 (Fail)
//Storyboard Layer 2 (Pass)
//Storyboard Layer 3 (Foreground)
//Storyboard Sound Samples

[TimingPoints]
571,363.636363636364,4,2,1,40,1,0
2259,363.636363636364,4,2,1,40,1,0
3531,-100,4,2,2,40,0,0
4259,-100,4,2,1,40,0,0
8077,-100,4,2,2,40,0,0
10804,-100,4,2,1,40,0,0
10986,-100,4,2,2,40,0,0
19713,-100,4,2,2,50,0,0
21168,-100,4,2,2,60,0,0
22622,-100,4,2,2,70,0,0
24713,-100,4,2,1,70,0,0
24804,-100,4,2,2,70,0,0
25440,-100,4,2,1,10,0,0
25531,-100,4,2,1,80,0,1
26804,-100,4,2,1,80,0,1
27168,-100,4,2,1,80,0,1
27213,-100,4,2,1,80,0,1
28440,-100,4,2,1,70,0,0
29895,-100,4,2,2,70,0,0
30259,-100,4,2,1,70,0,0
30440,-100,4,2,2,70,0,0
30986,-100,4,2,1,70,0,0
31349,-100,4,2,2,70,0,0
31713,-100,4,2,1,70,0,0
32804,-100,4,2,2,70,0,0
33168,-100,4,2,1,70,0,0
33349,-100,4,2,2,70,0,0
33895,-100,4,2,1,70,0,0
34077,-100,4,2,2,70,0,0
34259,-100,4,2,1,70,0,0
35713,-100,4,2,2,70,0,0
36077,-100,4,2,1,70,0,0
36259,-100,4,2,2,70,0,0
36804,-100,4,2,1,70,0,0
37168,-100,4,2,2,70,0,0
37531,-100,4,2,1,70,0,0
40077,-100,4,2,1,70,0,0
41531,-100,4,2,2,70,0,0
42077,-100,4,2,2,70,0,0
42622,-100,4,2,1,70,0,0
43713,-100,4,2,2,70,0,0
44077,-100,4,2,1,70,0,0
46622,-100,4,2,1,70,0,0
46804,-100,4,2,2,70,0,0
46986,-100,4,2,1,70,0,0
47349,-100,4,2,2,70,0,0
47713,-100,4,2,1,70,0,0
47895,-100,4,2,2,70,0,0
48259,-100,4,2,1,70,0,0
48440,-100,4,2,2,70,0,0
48622,-100,4,2,1,70,0,0
48804,-100,4,2,1,70,0,0
48805,-100,4,2,1,70,0,0
49531,-100,4,2,2,70,0,0
49713,-100,4,2,1,70,0,0
50259,-100,4,2,2,70,0,0
50622,-100,4,2,1,70,0,0
51168,-100,4,2,1,70,0,0
51713,-100,4,2,2,70,0,0
52077,-100,4,2,1,70,0,0
52259,-100,4,2,2,70,0,0
52804,-100,4,2,1,70,0,0
53168,-100,4,2,2,70,0,0
53531,-100,4,2,1,70,0,0
53713,-100,4,2,2,70,0,0
54259,-100,4,2,1,70,0,0
54622,-100,4,2,2,70,0,0
54986,-100,4,2,1,70,0,0
55168,-100,4,2,2,70,0,0
55713,-100,4,2,1,70,0,0
56077,-100,4,2,2,70,0,0
56440,-100,4,2,1,70,0,0
56622,-100,4,2,2,70,0,0
57168,-100,4,2,1,70,0,0
57531,-100,4,2,2,70,0,0
57895,-100,4,2,1,70,0,0
58077,-100,4,2,2,70,0,0
58622,-100,4,2,1,70,0,0
58986,-100,4,2,2,70,0,0
59349,-100,4,2,1,70,0,0
59531,-100,4,2,2,70,0,0
60077,-100,4,2,1,70,0,0
60440,-100,4,2,2,70,0,0
60713,-100,4,2,1,70,0,0
60986,-100,4,2,2,70,0,0
61349,-100,4,2,2,70,0,0
61531,-100,4,2,1,70,0,0
62622,-100,4,2,2,70,0,0
62986,-100,4,2,1,70,0,0
63349,-100,4,2,2,70,0,0
74622,-100,4,2,1,70,0,0
75713,-100,4,2,2,70,0,0
76077,-100,4,2,1,70,0,0
76440,-100,4,2,2,70,0,0
76804,-100,4,2,1,70,0,0
76986,-100,4,2,2,70,0,0
77259,-100,4,2,1,70,0,0
77440,-100,4,2,2,70,0,0
77531,-100,4,2,1,70,0,0
77895,-100,4,2,2,70,0,0
78986,-100,4,2,1,70,0,0
79531,-100,4,2,2,70,0,0
80440,-100,4,2,1,70,0,0
82077,-100,4,2,2,70,0,0
82622,-100,4,2,1,70,0,0
82804,-100,4,2,2,70,0,0
83349,-100,4,2,1,70,0,0
83713,-100,4,2,2,70,0,0
84077,-100,4,2,1,70,0,0
84259,-100,4,2,2,70,0,0
84804,-100,4,2,1,70,0,0
84895,-100,4,2,2,70,0,0
85168,-100,4,2,1,70,0,0
90986,-100,4,2,2,70,0,0
91349,-100,4,2,1,70,0,0
91622,-100,4,2,2,70,0,0
92077,-100,4,2,1,70,0,0
92440,-100,4,2,1,60,0,0
97531,-100,4,2,1,60,0,0
98259,-100,4,2,1,60,0,0
103168,-100,4,2,2,60,0,0
103349,-100,4,2,1,60,0,0
109895,-100,4,2,1,40,0,0
120168,-100,4,2,1,40,0,0
121531,-100,4,1,1,70,0,1
133046,-100,4,1,1,70,0,0
133168,-100,4,1,1,80,0,1
144804,-100,4,1,1,80,0,0
147713,-100,4,1,1,80,0,1
149168,-100,4,1,1,80,0,1
150986,-100,4,1,1,80,0,0

[Colours]
Combo1 : 219,0,0
Combo2 : 87,0,174
Combo3 : 0,221,204
Combo4 : 238,119,0

[HitObjects]
256,339,571,6,0,B|137:347|137:347|68:304,2,180,2|2|2,0:0|0:0|0:0,0:0:0:0:
412,318,2259,5,4,1:0:0:0:
256,20,3531,1,2,0:0:0:0:
70,73,4259,2,0,P|25:196|85:314,1,270,2|0,0:0|0:0,0:0:0:0:
397,314,6259,6,0,P|465:235|467:144,2,180,2|2|2,0:0|0:0|0:0,0:0:0:0:
211,248,8077,6,0,L|151:244,1,60,2|2,0:0|0:0,0:0:0:0:
241,346,10804,6,0,L|181:350,2,60,2|6|2,0:0|0:0|0:0,0:0:0:0:
415,58,12440,6,0,L|355:62,1,60,0|6,0:0|0:0,0:0:0:0:
80,344,19713,6,0,L|52:208,1,120,12|8,0:0|0:0,0:0:0:0:
33,133,20440,2,0,P|71:107|150:119,1,120,8|8,0:0|0:0,0:0:0:0:
202,189,21168,2,0,P|241:202|319:174,1,120,8|8,0:0|0:0,0:0:0:0:
375,105,21895,2,0,P|405:148|395:224,1,120,8|8,0:0|0:0,0:0:0:0:
388,308,22622,6,0,P|447:299|507:293,2,120,8|8|8,0:0|0:0|0:0,0:0:0:0:
312,367,23713,1,8,0:0:0:0:
248,295,24077,2,0,P|87:282|91:107,1,360,0|2,0:0|0:0,0:0:0:0:
161,59,25531,6,0,B|210:66|256:41|256:41|235:79|222:154|275:233|372:208|372:208|333:106|430:44|458:68,1,540
426,303,28077,1,2,0:0:0:0:
330,309,28440,6,0,B|195:315|195:315|96:251,1,240,4|0,2:0|0:0,0:0:0:0:
53,177,29531,1,8,0:0:0:0:
102,92,29895,2,0,P|162:108|231:95,1,120,8|8,0:0|0:0,0:0:0:0:
306,61,30622,2,0,P|370:53|426:71,1,120,0|8,0:0|0:0,0:0:0:0:
424,165,31349,6,0,P|327:143|251:258,1,240,8|0,0:0|0:0,0:0:0:0:
190,319,32440,1,8,0:0:0:0:
117,255,32804,2,0,P|67:277|-8:266,2,120,8|8|0,0:0|0:0|0:0,0:0:0:0:
179,181,33895,1,8,0:0:0:0:
250,244,34259,6,0,P|347:266|423:151,1,240,4|0,0:0|0:0,0:0:0:0:
387,76,35349,1,8,0:0:0:0:
301,32,35713,2,0,P|234:35|171:36,1,120,8|8,0:0|0:0,0:0:0:0:
141,123,36440,2,0,P|74:126|11:127,1,120,0|8,0:0|0:0,0:0:0:0:
4,221,37168,6,0,P|76:217|249:210,1,240,8|0,0:0|0:0,0:0:0:0:
339,202,38259,1,8,0:0:0:0:
421,250,38622,1,4,0:0:0:0:
421,250,40077,6,0,L|427:126,1,120,4|8,0:0|0:0,0:0:0:0:
375,49,40804,1,0,0:0:0:0:
296,104,41168,1,8,0:0:0:0:
222,165,41531,2,0,P|203:87|273:11,2,180,12|8|0,0:0|0:0|0:0,0:0:0:0:
237,260,42986,6,0,P|150:301|106:187,1,240,4|8,2:0|0:0,0:0:0:0:
147,108,44077,1,8,0:0:0:0:
222,166,44440,2,0,B|295:160|295:160|374:186|374:186|457:179,1,240
510,98,45531,1,8,0:0:0:0:
435,37,45895,6,0,P|392:23|326:63,1,120,4|8,0:0|0:0,0:0:0:0:
325,152,46622,2,0,L|331:288,1,120,2|8,0:0|0:0,0:0:0:0:
267,344,47349,1,8,0:0:0:0:
173,322,47713,1,8,0:0:0:0:
78,302,48077,2,0,P|73:240|68:175,1,120,8|8,0:0|0:0,0:0:0:0:
89,88,48804,6,0,P|169:43|248:87,2,180,4|0|8,0:0|0:0|0:0,0:0:0:0:
169,140,50259,2,0,P|175:181|186:276,1,120,8|8,0:0|0:0,0:0:0:0:
251,331,50986,1,0,0:0:0:0:
346,333,51349,1,8,0:0:0:0:
441,338,51713,6,0,P|485:230|406:139,1,240,6|0,0:0|0:0,0:0:0:0:
328,100,52804,1,8,0:0:0:0:
262,170,53168,2,0,L|135:157,1,120,8|8,0:0|0:0,0:0:0:0:
52,190,53895,2,0,P|31:241|54:311,1,120,0|8,0:0|0:0,0:0:0:0:
124,358,54622,6,0,P|244:357|295:251,1,240,6|0,0:0|0:0,0:0:0:0:
262,170,55713,1,8,0:0:0:0:
299,81,56077,2,0,P|357:75|420:71,1,120,8|8,0:0|0:0,0:0:0:0:
503,116,56804,1,0,0:0:0:0:
437,185,57168,1,8,0:0:0:0:
460,277,57531,6,0,B|440:341|374:349|374:349|255:325,1,240,6|0,0:0|0:0,0:0:0:0:
186,259,58622,1,8,0:0:0:0:
97,296,58986,2,0,P|63:269|61:187,1,120,8|8,0:0|0:0,0:0:0:0:
87,105,59713,1,0,0:0:0:0:
177,136,60077,1,8,0:0:0:0:
254,79,60440,6,0,L|445:62,2,180,6|8|8,0:0|0:0|0:0,0:0:0:0:
279,171,61895,2,0,P|302:296|191:333,1,240,8|8,0:0|0:0,0:0:0:0:
120,341,62986,1,8,0:0:0:0:
51,273,63349,5,12,0:0:0:0:
62,67,74986,6,0,P|125:71|192:74,1,120,4|8,0:0|0:0,0:0:0:0:
281,60,75713,2,0,P|290:136|296:185,1,120,8|8,0:0|0:0,0:0:0:0:
337,265,76440,2,0,P|312:345|278:348,1,120,8|8,0:0|0:0,0:0:0:0:
198,347,77168,1,8,0:0:0:0:
120,291,77531,1,8,0:0:0:0:
176,213,77895,6,0,L|164:77,1,120,8|8,0:0|0:0,0:0:0:0:
233,25,78622,2,0,P|291:16|345:41,1,120,8|8,0:0|0:0,0:0:0:0:
423,96,79349,1,8,0:0:0:0:
383,184,79713,2,0,P|328:176|263:168,2,120,8|8|8,0:0|0:0|0:0,0:0:0:0:
470,224,80804,6,0,P|474:282|438:338,1,120,4|8,0:0|0:0,0:0:0:0:
354,369,81531,1,0,0:0:0:0:
284,302,81895,1,8,0:0:0:0:
191,332,82259,2,0,P|148:322|55:308,1,120,8|8,0:0|0:0,0:0:0:0:
11,237,82986,2,0,P|24:172|35:103,1,120,8|8,0:0|0:0,0:0:0:0:
3,27,83713,6,0,P|84:108|197:87,1,240,12|8,0:0|0:0,0:0:0:0:
267,21,84804,1,8,0:0:0:0:
344,77,85168,2,0,P|351:164|361:274,1,180,4|0,0:0|0:0,0:0:0:0:
351,303,85895,2,0,P|287:337|175:301,1,180,2|0,0:0|0:0,0:0:0:0:
151,278,86622,5,4,0:0:0:0:
377,72,90986,6,0,B|256:92|256:44|131:69,1,240,8|8,0:0|0:0,0:0:0:0:
76,140,92077,1,8,0:0:0:0:
166,171,92440,6,0,L|170:295,1,120,4|8,0:0|0:0,0:0:0:0:
261,320,93168,2,0,L|264:200,1,120,0|8,0:0|0:0,0:0:0:0:
355,169,93895,1,4,0:0:0:0:
395,256,94259,2,0,P|454:260|512:245,2,120,8|0|8,0:0|0:0|0:0,0:0:0:0:
355,169,95349,5,0,0:0:0:0:
378,75,95713,2,0,P|435:60|495:64,2,120,8|0|8,0:0|0:3|0:0,0:0:0:0:
284,99,96804,2,0,L|144:95,1,120,0|8,0:0|0:0,0:0:0:0:
128,184,97531,2,0,L|247:187,1,120,0|8,0:0|0:0,0:0:0:0:
343,172,98259,5,4,0:0:0:0:
434,144,98622,1,8,0:0:0:0:
489,222,98986,2,0,P|481:286|477:354,1,120,0|8,0:0|0:0,0:0:0:0:
385,369,99713,1,0,0:0:0:0:
311,307,100077,1,8,0:0:0:0:
223,345,100440,2,0,P|159:341|87:337,1,120,0|8,0:0|0:0,0:0:0:0:
23,283,101168,6,0,P|11:215|37:159,1,120,0|8,0:0|0:0,0:0:0:0:
92,97,101895,1,0,0:0:0:0:
151,172,102259,1,8,0:0:0:0:
211,96,102622,2,0,P|262:59|379:85,1,180,2|8,0:0|0:0,0:0:0:0:
407,110,103349,2,0,L|390:308,1,180,0|8,0:0|0:0,0:0:0:0:
386,337,104077,5,4,0:0:0:0:
444,63,109895,6,0,P|385:57|322:51,1,120
22,98,112804,6,0,P|11:156|37:214,1,120
269,352,114259,6,0,L|388:359,1,120
487,88,115713,6,0,L|367:95,1,120
136,67,116986,6,0,P|77:56|24:82,1,120
218,346,118622,6,0,L|337:338,1,120
447,327,119349,2,0,P|474:274|467:215,1,120
365,156,120168,6,0,B|277:178|277:178|136:118|136:118|39:140,1,330,2|0,0:0|0:0,0:0:0:0:
13,224,121531,6,0,P|92:319|216:299,1,240,4|0,0:0|0:0,0:0:0:0:
287,270,122622,1,2,0:0:0:0:
366,323,122986,2,0,P|406:321|452:245,1,120,2|0,0:0|0:0,0:0:0:0:
440,166,123713,2,0,P|389:175|327:140,1,120,0|2,0:0|0:0,0:0:0:0:
265,73,124440,6,0,P|214:45|155:50,1,120,2|2,0:0|0:0,0:0:0:0:
74,104,125168,2,0,P|82:163|90:222,1,120,2|2,0:0|0:0,0:0:0:0:
72,317,125895,2,0,B|199:305|199:305|259:284|273:228,1,240,2|2,0:0|0:0,0:0:0:0:
259,132,126986,1,2,0:0:0:0:
347,167,127349,5,2,0:0:0:0:
432,124,127713,2,0,P|392:82|334:75,2,120,2|2|2,0:0|0:0|0:0,0:0:0:0:
427,219,128804,2,0,B|492:317|492:317|364:339,1,240,2|2,0:0|0:0,0:0:0:0:
325,253,129895,1,2,0:0:0:0:
255,317,130259,6,0,P|170:339|80:228,1,240,2|2,0:0|0:0,0:0:0:0:
85,138,131349,1,2,0:0:0:0:
128,49,131713,2,0,P|186:43|267:32,1,120,2|2,0:0|0:0,0:0:0:0:
295,117,132440,2,0,P|235:124|175:131,1,120,2|2,0:0|0:0,0:0:0:0:
158,223,133168,6,0,P|212:217|294:206,1,120,4|8,0:0|0:0,0:0:0:0:
359,257,133895,1,0,0:0:0:0:
434,316,134259,1,8,0:0:0:0:
479,237,134622,2,0,P|499:177|482:117,1,120,0|8,0:0|0:0,0:0:0:0:
402,75,135349,1,0,0:0:0:0:
313,111,135713,1,8,0:0:0:0:
218,127,136077,6,0,L|94:111,1,120,2|8,0:0|0:0,0:0:0:0:
133,21,136804,2,0,L|252:36,1,120,0|8,0:0|0:0,0:0:0:0:
313,111,137531,1,2,0:0:0:0:
402,75,137895,1,10,0:0:0:0:
457,153,138259,2,0,L|463:283,1,120,0|8,0:0|0:0,0:0:0:0:
395,341,138986,6,0,P|331:356|274:323,1,120,4|8,0:0|0:0,0:0:0:0:
191,307,139713,2,0,L|181:187,1,120,0|8,0:3|0:0,0:0:0:0:
170,91,140440,1,2,0:0:0:0:
258,128,140804,1,8,0:0:0:0:
335,71,141168,1,0,0:0:0:0:
419,116,141531,1,8,0:0:0:0:
382,205,141895,6,0,L|391:327,1,120,2|8,0:0|0:0,0:0:0:0:
296,343,142622,2,0,L|289:218,1,120,2|8,0:0|0:0,0:0:0:0:
258,128,143349,2,0,P|187:81|97:110,1,180,0|2,0:0|0:0,0:0:0:0:
67,141,144077,2,0,P|55:227|116:299,1,180,0|2,0:0|0:0,0:0:0:0:
155,310,144804,5,0,0:0:0:0:
269,36,147713,6,0,P|356:20|436:74,2,180
194,101,149168,2,0,B|177:205|177:205|205:253|205:253|191:331|191:331|156:382|71:383|22:309|58:237,1,480
95,153,150986,5,4,0:0:0:0:
256,192,151168,12,0,153895,0:0:0:0:
