osu file format v14

[General]
AudioFilename: audio.mp3
AudioLeadIn: 0
PreviewTime: -1
Countdown: 0
SampleSet: Soft
StackLeniency: 0.4
Mode: 0
LetterboxInBreaks: 0
WidescreenStoryboard: 0

[Editor]
DistanceSpacing: 0.1
BeatDivisor: 4
GridSize: 32
TimelineZoom: 2.2

[Metadata]
Title:Last Piece ni Shukufuku to Eikou o
TitleUnicode:ラストピースに祝福と栄光を
Artist:cosMo@Bousou-P
ArtistUnicode:cosMo@暴走P
Creator:Saggin
Version:a
Source:チュウニズム ルミナス
Tags:chunithm luminous
BeatmapID:4512892
BeatmapSetID:2143617

[Difficulty]
HPDrainRate:5
CircleSize:4
OverallDifficulty:9.6
ApproachRate:10
SliderMultiplier:1.7
SliderTickRate:1

[Events]
//Background and Video events
0,0,"maxresdefault_waifu2x_art_noise1_scale.png",0,0
//Break Periods
//Storyboard Layer 0 (Background)
//Storyboard Layer 1 (Fail)
//Storyboard Layer 2 (Pass)
//Storyboard Layer 3 (Foreground)
//Storyboard Layer 4 (Overlay)
//Storyboard Sound Samples

[TimingPoints]
14,214.285714285714,4,2,1,100,1,0
8585,-142.857142857143,4,2,1,100,0,0
9013,-200,4,2,1,100,0,0
9442,-142.857142857143,4,2,1,100,0,0
11156,-100,4,2,1,100,0,0
17156,-333.333333333333,4,2,1,100,0,0
23799,-100,4,2,1,100,0,0
38585,-111.111111111111,4,2,1,100,0,0
41156,-100,4,2,1,100,0,0
44585,-90.9090909090909,4,2,1,100,0,0
51442,-200,4,2,1,100,0,0
58299,-133.333333333333,4,2,1,100,0,0

[HitObjects]
402,118,442,5,0,0:0:0:0:
402,118,514,1,0,0:0:0:0:
402,118,585,2,0,P|426:92|454:90,3,56.6666666666667
351,47,871,5,6,0:0:0:0:
331,30,924,1,2,0:0:0:0:
307,20,978,1,2,0:0:0:0:
281,20,1031,1,2,0:0:0:0:
256,25,1085,1,2,0:0:0:0:
235,40,1139,1,2,0:0:0:0:
222,61,1192,1,2,0:0:0:0:
219,86,1246,1,2,0:0:0:0:
228,110,1299,2,2,L|294:129,7,42.5
67,50,1728,6,2,L|1:69,7,42.5
155,9,2156,1,2,0:0:0:0:
153,21,2210,1,2,0:0:0:0:
150,33,2263,1,2,0:0:0:0:
147,45,2317,1,2,0:0:0:0:
145,57,2371,1,2,0:0:0:0:
142,69,2424,1,2,0:0:0:0:
140,81,2478,1,2,0:0:0:0:
138,93,2531,1,2,0:0:0:0:
136,105,2585,6,2,L|125:164,15,42.5,6|2|2|2|2|2|2|2|2|2|2|2|2|2|2|2,0:0|0:0|0:0|0:0|0:0|0:0|0:0|0:0|0:0|0:0|0:0|0:0|0:0|0:0|0:0|0:0,0:0:0:0:
11,273,3442,6,2,L|0:230,15,42.5,6|2|2|2|2|2|2|2|2|2|2|2|2|2|2|2,0:0|0:0|0:0|0:0|0:0|0:0|0:0|0:0|0:0|0:0|0:0|0:0|0:0|0:0|0:0|0:0,0:0:0:0:
0,360,4299,1,6,0:0:0:0:
17,348,4353,1,2,0:0:0:0:
36,341,4406,1,2,0:0:0:0:
57,340,4460,1,2,0:0:0:0:
77,345,4513,1,2,0:0:0:0:
94,356,4567,1,2,0:0:0:0:
110,369,4621,1,2,0:0:0:0:
130,375,4674,1,2,0:0:0:0:
151,376,4728,1,2,0:0:0:0:
170,368,4781,1,2,0:0:0:0:
189,358,4835,1,2,0:0:0:0:
205,345,4888,1,2,0:0:0:0:
218,334,4942,5,2,0:0:0:0:
216,325,4996,1,2,0:0:0:0:
215,316,5049,1,2,0:0:0:0:
213,307,5103,1,2,0:0:0:0:
205,303,5156,5,2,0:0:0:0:
203,294,5210,1,2,0:0:0:0:
202,285,5263,1,2,0:0:0:0:
200,276,5317,1,2,0:0:0:0:
188,272,5371,5,2,0:0:0:0:
185,261,5425,1,2,0:0:0:0:
184,250,5478,1,2,0:0:0:0:
181,239,5532,1,2,0:0:0:0:
178,226,5585,1,2,0:0:0:0:
188,202,5638,1,2,0:0:0:0:
207,184,5692,1,2,0:0:0:0:
231,175,5746,1,2,0:0:0:0:
256,173,5799,1,2,0:0:0:0:
281,178,5853,1,2,0:0:0:0:
302,190,5906,1,2,0:0:0:0:
317,210,5960,1,2,0:0:0:0:
321,234,6013,2,2,L|312:293,7,42.5,6|2|2|2|2|2|2|2,0:0|0:0|0:0|0:0|0:0|0:0|0:0|0:0,0:0:0:0:
432,351,6442,5,2,0:0:0:0:
434,339,6496,1,2,0:0:0:0:
437,327,6549,1,2,0:0:0:0:
440,315,6603,1,2,0:0:0:0:
442,303,6657,1,2,0:0:0:0:
445,291,6710,1,2,0:0:0:0:
447,279,6764,1,2,0:0:0:0:
449,267,6817,1,2,0:0:0:0:
452,254,6871,6,2,L|459:212,7,42.5,6|2|2|2|2|2|2|2,0:0|0:0|0:0|0:0|0:0|0:0|0:0|0:0,0:0:0:0:
339,28,7299,1,2,1:2:0:0:
504,139,7406,1,0,1:0:0:0:
504,139,7460,1,0,1:0:0:0:
504,139,7513,1,0,1:0:0:0:
363,263,7621,1,0,1:0:0:0:
363,263,7675,1,0,1:0:0:0:
363,263,7728,6,0,P|303:232|99:214,1,255,6|0,0:0|0:0,0:0:0:0:
49,172,8156,1,2,0:0:0:0:
29,94,8263,5,2,0:0:0:0:
118,36,8424,5,2,0:0:0:0:
206,117,8585,6,0,P|241:132|282:13,1,208.249993644715,2|0,0:0|0:0,0:0:0:0:
267,3,9013,6,0,P|276:50|290:147,1,127.5,2|0,0:0|0:0,0:0:0:0:
380,115,9442,6,0,B|392:219|311:177|322:290,1,178.499994552612,2|0,0:0|0:0,0:0:0:0:
276,342,9871,1,2,0:0:0:0:
349,376,9978,5,0,0:0:0:0:
443,320,10138,5,0,0:0:0:0:
372,207,10299,5,8,0:0:0:0:
351,211,10371,1,8,0:0:0:0:
331,216,10442,1,8,0:0:0:0:
310,222,10513,1,8,0:0:0:0:
290,227,10585,1,8,0:0:0:0:
270,233,10656,1,8,0:0:0:0:
250,239,10728,1,8,0:0:0:0:
223,247,10799,5,8,0:0:0:0:
208,209,10871,1,8,0:0:0:0:
227,174,10942,1,8,0:0:0:0:
262,156,11013,1,8,0:0:0:0:
301,155,11085,1,8,0:0:0:0:
340,176,11156,6,0,P|327:234|321:295,1,85,4|0,1:2|0:0,0:0:0:0:
91,362,11371,2,0,P|84:319|74:278,1,85,0|0,1:0|0:0,0:0:0:0:
236,64,11585,5,0,1:0:0:0:
155,267,11692,1,0,1:0:0:0:
47,96,11799,2,0,P|106:111|152:117,1,85,0|0,1:0|0:0,0:0:0:0:
220,346,12013,5,0,1:0:0:0:
89,195,12121,1,0,1:0:0:0:
323,259,12228,2,0,P|382:274|428:280,1,85,0|0,1:0|0:0,0:0:0:0:
365,86,12442,2,0,P|322:129|294:166,1,85,0|0,1:0|0:0,0:0:0:0:
301,366,12656,5,0,1:0:0:0:
425,190,12763,1,0,1:0:0:0:
250,225,12871,5,0,1:0:0:0:
447,360,12978,1,0,1:0:0:0:
282,154,13085,6,0,P|226:139|178:235,1,170,0|0,1:0|1:0,0:0:0:0:
32,372,13406,1,0,1:0:0:0:
250,225,13513,1,0,1:0:0:0:
5,290,13621,1,0,1:0:0:0:
262,355,13728,5,10,0:0:0:0:
119,143,13835,2,0,P|132:84|136:29,1,85,10|0,0:0|0:0,0:0:0:0:
345,221,14049,1,10,0:0:0:0:
345,221,14103,1,0,1:0:0:0:
345,221,14156,1,10,0:0:0:0:
259,47,14263,1,2,0:0:0:0:
429,155,14371,5,10,0:0:0:0:
256,264,14478,1,10,0:0:0:0:
442,145,14585,1,2,0:0:0:0:
209,123,14692,5,10,0:0:0:0:
397,299,14799,2,0,P|386:350|381:389,1,85,10|0,0:0|0:0,0:0:0:0:
330,130,15013,5,10,0:0:0:0:
260,361,15121,1,10,0:0:0:0:
433,206,15228,1,10,0:0:0:0:
431,212,16835,5,2,0:0:0:0:
360,178,16996,5,2,0:0:0:0:
300,232,17156,6,0,P|294:255|285:313,1,76.4999976654053,2|0,0:0|0:0,0:0:0:0:
213,359,17585,5,2,0:0:0:0:
196,352,17692,1,2,0:0:0:0:
160,281,17799,5,2,0:0:0:0:
143,288,17906,1,2,0:0:0:0:
87,347,18013,5,0,0:0:0:0:
13,253,18228,1,0,0:0:0:0:
172,104,18442,5,0,0:0:0:0:
100,16,18656,1,0,0:0:0:0:
20,159,18871,6,0,P|68:168|103:184,1,76.4999976654053,2|0,0:0|0:0,0:0:0:0:
150,233,19299,1,0,0:0:0:0:
302,322,19513,5,2,0:0:0:0:
314,319,19621,1,2,0:0:0:0:
326,316,19728,1,2,0:0:0:0:
442,273,19942,1,0,0:0:0:0:
361,162,20156,1,0,0:0:0:0:
230,248,20371,1,0,0:0:0:0:
346,379,20585,6,0,P|350:330|359:299,1,76.4999976654053,2|0,0:0|0:0,0:0:0:0:
443,248,21013,5,2,0:0:0:0:
434,232,21121,1,2,0:0:0:0:
359,200,21228,5,2,0:0:0:0:
368,184,21336,1,2,0:0:0:0:
446,140,21442,5,0,0:0:0:0:
292,14,21656,1,0,0:0:0:0:
171,151,21871,5,2,0:0:0:0:
148,145,21978,1,2,0:0:0:0:
126,72,22085,5,2,0:0:0:0:
103,78,22192,1,2,0:0:0:0:
20,136,22299,6,0,P|48:140|79:154,1,50.9999984436036
154,250,22728,5,2,0:0:0:0:
171,246,22835,1,2,0:0:0:0:
188,243,22942,1,2,0:0:0:0:
290,138,23156,5,0,0:0:0:0:
200,339,23371,1,0,0:0:0:0:
17,215,23585,1,0,1:0:0:0:
36,218,23638,1,0,1:0:0:0:
56,222,23692,1,0,1:0:0:0:
76,226,23746,1,0,1:0:0:0:
97,232,23799,2,0,P|145:245|198:264,1,85,0|0,1:0|0:0,0:0:0:0:
420,343,24013,6,0,P|360:355|326:250,1,170,2|8,1:2|0:0,0:0:0:0:
442,166,24335,1,0,0:0:0:0:
240,111,24442,5,2,1:2:0:0:
411,248,24549,1,2,1:2:0:0:
512,74,24656,1,10,0:2:0:0:
350,189,24763,1,2,0:2:0:0:
248,13,24871,6,0,P|298:33|350:37,1,85,2|0,1:2|0:0,0:0:0:0:
136,178,25085,2,0,P|94:185|55:202,1,85,10|0,0:2|0:0,0:0:0:0:
234,356,25299,6,0,P|255:310|222:179,1,170,2|8,1:2|0:0,0:0:0:0:
426,31,25621,1,2,0:0:0:0:
426,31,25674,1,2,0:0:0:0:
426,31,25728,2,0,P|416:93|412:133,1,85,2|0,1:2|0:0,0:0:0:0:
395,254,25942,1,10,0:0:0:0:
231,79,26049,2,0,B|135:97|197:142|59:165,1,170,2|0,0:0|1:0,0:0:0:0:
304,249,26371,2,0,P|363:264|400:288,1,85,10|2,0:0|0:0,0:0:0:0:
152,360,26585,5,2,1:2:0:0:
97,236,26692,1,0,0:0:0:0:
194,360,26799,5,10,0:0:0:0:
180,154,26906,1,0,0:0:0:0:
237,362,27013,5,2,1:2:0:0:
279,113,27121,1,8,0:0:0:0:
275,368,27228,5,10,0:0:0:0:
382,92,27335,1,0,1:0:0:0:
512,223,27442,6,0,B|440:241|440:241|436:253|436:253|328:282,1,170,6|8,1:2|0:0,0:0:0:0:
164,330,27763,1,0,0:0:0:0:
350,192,27871,5,2,1:2:0:0:
223,384,27978,1,2,1:2:0:0:
43,231,28085,1,10,0:2:0:0:
274,316,28192,1,2,0:2:0:0:
167,132,28299,6,0,P|185:183|195:232,1,85,0|0,1:2|0:0,0:0:0:0:
408,377,28513,2,0,P|418:335|432:295,1,85,10|0,0:0|0:0,0:0:0:0:
458,102,28728,5,2,1:2:0:0:
349,308,28835,1,2,1:2:0:0:
298,151,28942,1,10,0:2:0:0:
512,275,29049,1,2,0:2:0:0:
283,139,29156,2,0,P|234:158|189:166,1,85,2|0,1:2|0:0,0:0:0:0:
45,273,29371,2,0,P|86:282|125:298,1,85,10|0,0:0|1:0,0:0:0:0:
348,219,29585,5,2,1:2:0:0:
168,371,29692,1,2,1:2:0:0:
202,149,29799,2,0,P|213:96|211:56,1,85,8|0,0:0|0:0,0:0:0:0:
250,268,30013,5,2,1:2:0:0:
68,148,30121,1,0,1:0:0:0:
286,168,30228,5,10,0:0:0:0:
35,255,30335,1,0,1:0:0:0:
135,43,30442,5,2,1:2:0:0:
168,50,30496,1,0,1:2:0:0:
200,58,30549,1,0,1:2:0:0:
233,67,30603,1,0,1:2:0:0:
265,75,30656,2,0,L|320:88,3,42.5,2|0|0|0,1:2|1:2|1:2|1:2,1:2:0:0:
506,153,30871,5,6,0:0:0:0:
471,129,30924,1,2,0:0:0:0:
428,120,30978,1,2,0:0:0:0:
387,132,31031,1,2,0:0:0:0:
359,164,31085,1,10,0:0:0:0:
352,205,31138,1,2,0:0:0:0:
368,244,31192,1,10,0:0:0:0:
399,274,31246,1,10,0:0:0:0:
440,278,31299,5,10,0:0:0:0:
452,274,31353,1,2,0:0:0:0:
462,267,31406,1,10,0:0:0:0:
464,258,31460,1,10,0:0:0:0:
460,245,31513,1,10,0:0:0:0:
452,234,31567,1,2,0:0:0:0:
439,230,31621,1,10,0:0:0:0:
426,227,31674,1,10,0:0:0:0:
415,234,31728,5,10,0:0:0:0:
401,243,31781,1,2,0:0:0:0:
386,263,31835,1,10,0:0:0:0:
376,299,31888,1,10,0:0:0:0:
347,331,31942,1,10,0:0:0:0:
306,346,31996,1,2,0:0:0:0:
263,347,32049,1,10,0:0:0:0:
223,329,32103,1,10,0:0:0:0:
196,296,32156,5,10,0:0:0:0:
202,284,32210,1,2,0:0:0:0:
208,272,32263,1,10,0:0:0:0:
214,261,32317,1,10,0:0:0:0:
217,248,32371,1,10,0:0:0:0:
223,236,32425,1,2,0:0:0:0:
229,224,32478,1,10,0:0:0:0:
235,213,32532,1,10,0:0:0:0:
241,201,32585,5,10,0:0:0:0:
246,180,32638,1,2,0:0:0:0:
243,150,32692,1,10,0:0:0:0:
220,118,32746,1,10,0:0:0:0:
188,97,32799,1,10,0:0:0:0:
149,95,32853,1,2,0:0:0:0:
113,108,32906,1,10,0:0:0:0:
87,137,32960,1,10,0:0:0:0:
79,174,33013,5,10,0:0:0:0:
113,206,33067,1,2,0:0:0:0:
159,213,33121,1,10,0:0:0:0:
202,196,33174,1,10,0:0:0:0:
236,164,33228,1,10,0:0:0:0:
281,158,33281,1,2,0:0:0:0:
326,170,33335,1,10,0:0:0:0:
356,204,33388,1,10,0:0:0:0:
369,249,33442,5,10,0:0:0:0:
354,293,33496,1,2,0:0:0:0:
320,325,33549,1,10,0:0:0:0:
273,334,33603,1,10,0:0:0:0:
229,318,33656,1,10,0:0:0:0:
200,280,33710,1,2,0:0:0:0:
179,238,33763,1,10,0:0:0:0:
140,209,33817,1,10,0:0:0:0:
92,210,33871,5,10,0:0:0:0:
75,214,33924,1,2,0:0:0:0:
60,223,33978,1,10,0:0:0:0:
50,236,34031,1,10,0:0:0:0:
46,252,34085,1,2,0:0:0:0:
49,268,34138,1,2,0:0:0:0:
58,282,34192,2,2,L|117:278,1,42.5,10|10,0:0|0:0,0:0:0:0:
228,146,34299,5,14,0:0:0:0:
244,149,34353,1,2,0:0:0:0:
260,151,34406,1,10,0:0:0:0:
276,153,34460,1,10,0:0:0:0:
292,156,34513,1,10,0:0:0:0:
308,160,34567,1,2,0:0:0:0:
324,164,34621,1,10,0:0:0:0:
340,167,34674,1,10,0:0:0:0:
356,170,34728,5,10,0:0:0:0:
393,167,34781,1,2,0:0:0:0:
425,145,34835,1,10,0:0:0:0:
447,109,34888,1,10,0:0:0:0:
444,66,34942,1,10,0:0:0:0:
418,31,34996,1,2,0:0:0:0:
378,16,35049,1,10,0:0:0:0:
335,22,35103,1,10,0:0:0:0:
303,49,35156,5,10,0:0:0:0:
305,65,35210,1,2,0:0:0:0:
307,81,35263,1,10,0:0:0:0:
309,97,35317,1,10,0:0:0:0:
313,113,35371,1,10,0:0:0:0:
316,129,35424,1,2,0:0:0:0:
320,145,35478,1,10,0:0:0:0:
322,161,35531,1,10,0:0:0:0:
326,177,35585,5,2,1:2:0:0:
398,352,35692,1,2,1:2:0:0:
418,154,35799,5,10,0:2:0:0:
315,351,35906,1,10,0:2:0:0:
145,193,36013,5,2,1:2:0:0:
352,274,36121,1,2,1:2:0:0:
414,73,36228,1,10,0:2:0:0:
438,276,36335,5,2,1:2:0:0:
233,169,36442,1,2,1:2:0:0:
141,359,36549,1,2,0:2:0:0:
142,98,36656,5,2,1:2:0:0:
273,296,36763,1,2,1:2:0:0:
428,150,36871,1,10,0:2:0:0:
193,239,36978,5,2,1:2:0:0:
406,350,37085,1,2,0:2:0:0:
512,162,37192,1,2,0:2:0:0:
323,43,37299,5,8,0:0:0:0:
327,65,37371,1,8,0:0:0:0:
331,87,37442,1,8,0:0:0:0:
336,108,37513,1,8,0:0:0:0:
341,130,37585,1,8,0:0:0:0:
345,152,37656,1,8,0:0:0:0:
350,174,37728,1,8,0:0:0:0:
350,174,37942,5,2,0:0:0:0:
316,264,38049,1,0,0:0:0:0:
260,186,38156,1,2,0:0:0:0:
390,322,38263,1,0,0:0:0:0:
415,237,38371,1,2,0:0:0:0:
308,361,38478,1,0,0:0:0:0:
155,300,38585,6,0,P|202:303|254:318,1,76.4999976654053,2|0,0:0|0:0,0:0:0:0:
67,202,38799,2,0,P|114:199|166:184,1,76.4999976654053,2|0,0:0|0:0,0:0:0:0:
275,62,39013,5,2,0:0:0:0:
202,106,39121,1,0,1:0:0:0:
286,154,39228,1,10,0:0:0:0:
115,109,39335,1,0,0:0:0:0:
300,163,39442,6,0,P|289:217|287:260,1,76.4999976654053,2|0,0:0|0:0,0:0:0:0:
434,370,39656,2,0,P|464:324|442:282,1,76.4999976654053,2|0,0:0|0:0,0:0:0:0:
393,145,39871,5,2,0:0:0:0:
450,207,39978,1,0,0:0:0:0:
378,226,40085,1,2,0:0:0:0:
477,133,40192,1,0,0:0:0:0:
311,163,40299,6,0,P|265:174|221:183,1,76.4999976654053,2|0,0:0|0:0,0:0:0:0:
224,316,40513,2,0,P|178:305|134:296,1,76.4999976654053,2|0,0:0|0:0,0:0:0:0:
44,202,40728,5,8,0:0:0:0:
30,186,40781,1,8,0:0:0:0:
23,165,40835,1,8,0:0:0:0:
24,144,40888,1,8,0:0:0:0:
34,125,40942,1,8,0:0:0:0:
51,112,40996,1,8,0:0:0:0:
71,106,41049,1,8,0:0:0:0:
92,107,41103,1,8,0:0:0:0:
115,116,41156,6,0,B|170:134|170:134|176:145|176:145|257:173,1,127.5,6|0,1:2|0:0,0:0:0:0:
313,129,41371,2,0,P|253:148|246:190,1,85,10|0,0:0|1:0,0:0:0:0:
256,352,41585,1,2,1:2:0:0:
377,202,41692,1,2,1:2:0:0:
212,272,41799,1,10,0:2:0:0:
383,353,41906,1,2,1:2:0:0:
472,191,42013,6,0,B|418:204|378:219|378:218,1,85,2|0,1:2|1:0,0:0:0:0:
272,354,42228,2,0,P|257:302|238:258,1,85,10|0,0:0|0:0,0:0:0:0:
187,76,42442,1,2,1:2:0:0:
312,226,42549,1,2,0:2:0:0:
278,87,42656,1,10,0:2:0:0:
229,274,42763,1,2,1:2:0:0:
99,179,42871,6,0,P|150:174|170:211,1,85,2|0,1:2|1:0,0:0:0:0:
347,324,43085,2,0,P|398:329|418:292,1,85,2|0,1:2|1:0,0:0:0:0:
257,160,43299,5,10,0:2:0:0:
479,262,43406,1,2,1:2:0:0:
393,76,43513,5,8,0:0:0:0:
389,101,43567,1,8,0:0:0:0:
385,126,43621,1,8,0:0:0:0:
381,151,43674,1,8,0:0:0:0:
378,176,43728,1,8,0:0:0:0:
477,131,43835,5,8,0:0:0:0:
271,265,43942,1,8,0:0:0:0:
96,91,44049,1,0,1:0:0:0:
303,35,44156,5,0,1:0:0:0:
159,243,44263,1,0,1:0:0:0:
320,357,44371,5,0,1:0:0:0:
200,132,44478,1,0,1:0:0:0:
3,274,44585,6,0,B|50:283|50:283|56:289|56:289|126:306,1,93.5000028533936,14|0,0:0|1:0,0:0:0:0:
288,204,44799,1,10,0:2:0:0:
111,65,44906,1,2,1:2:0:0:
220,11,45013,2,0,P|210:64|205:111,1,93.5000028533936,10|0,0:0|1:0,0:0:0:0:
345,284,45228,2,0,P|400:271|404:220,1,93.5000028533936,10|0,0:0|1:0,0:0:0:0:
474,30,45442,5,10,0:2:0:0:
322,207,45549,1,2,1:2:0:0:
252,16,45656,1,10,0:2:0:0:
459,172,45763,1,2,1:2:0:0:
243,315,45871,2,0,B|219:282|219:282|239:234,1,93.5000028533936,10|0,0:0|1:0,0:0:0:0:
393,29,46085,2,0,P|379:78|370:138,1,93.5000028533936,10|0,0:0|1:0,0:0:0:0:
157,102,46299,5,10,0:0:0:0:
343,194,46406,1,0,1:0:0:0:
160,194,46513,5,10,0:2:0:0:
385,119,46621,1,2,1:2:0:0:
138,95,46728,5,8,0:0:0:0:
425,194,46835,1,0,1:0:0:0:
123,90,46942,2,0,P|70:106|18:116,1,93.5000028533936,10|0,0:0|1:0,0:0:0:0:
136,298,47156,2,0,P|158:239|177:205,1,93.5000028533936,10|0,0:0|1:0,0:0:0:0:
232,16,47371,5,8,0:0:0:0:
84,200,47478,1,0,1:0:0:0:
316,178,47585,5,8,0:0:0:0:
346,171,47656,1,8,0:0:0:0:
376,163,47728,1,8,0:0:0:0:
406,156,47799,1,8,0:0:0:0:
436,149,47871,1,8,0:0:0:0:
466,141,47942,1,8,0:0:0:0:
496,140,48013,6,0,B|516:95|516:95|486:48,1,93.5000028533936,10|0,0:0|1:0,0:0:0:0:
324,254,48228,2,0,P|334:305|337:356,1,93.5000028533936,8|0,0:0|1:0,0:0:0:0:
298,94,48442,5,10,0:0:0:0:
444,263,48549,1,0,1:0:0:0:
236,225,48656,1,8,0:0:0:0:
409,71,48763,1,0,0:0:0:0:
184,149,48871,6,0,B|101:170|144:201|39:220,1,140.25000428009,10|0,0:0|0:0,0:0:0:0:
46,216,49085,2,0,P|1:189|16:143,1,93.5000028533936,10|0,0:0|1:0,0:0:0:0:
241,14,49299,5,10,0:2:0:0:
85,139,49406,1,2,1:2:0:0:
253,242,49513,1,10,0:2:0:0:
253,242,49567,1,8,0:2:0:0:
253,242,49621,1,2,1:2:0:0:
92,33,49728,6,0,P|44:50|-7:55,1,93.5000028533936,10|0,0:2|0:0,0:0:0:0:
250,144,49942,2,0,P|296:150|340:166,1,93.5000028533936,8|0,0:2|0:0,0:0:0:0:
139,349,50156,2,0,P|130:295|14:293,1,187.000005706787,10|8,0:0|0:0,0:0:0:0:
172,162,50478,5,2,1:2:0:0:
317,348,50585,2,0,P|373:329|381:282,1,93.5000028533936,10|0,0:0|1:0,0:0:0:0:
476,118,50799,5,10,0:0:0:0:
475,114,50852,1,8,0:0:0:0:
474,110,50906,1,8,0:0:0:0:
473,106,50959,1,8,0:0:0:0:
473,102,51013,1,0,1:0:0:0:
472,98,51066,1,0,1:0:0:0:
471,95,51120,1,0,1:0:0:0:
471,91,51173,1,0,1:0:0:0:
470,87,51227,1,0,1:0:0:0:
469,83,51281,1,0,1:0:0:0:
468,79,51334,1,0,1:0:0:0:
468,75,51388,1,0,1:0:0:0:
467,72,51442,6,0,L|453:0,2,56.6666666666667
377,30,51871,2,0,L|387:85,2,56.6666666666667
302,200,52299,6,0,L|288:272,2,56.6666666666667
212,242,52728,2,0,L|222:186,2,56.6666666666667
114,133,53156,6,0,L|104:77,2,56.6666666666667
24,91,53585,2,0,L|38:163,2,56.6666666666667
210,21,54013,5,0,0:0:0:0:
283,52,54156,1,0,0:0:0:0:
353,14,54299,1,0,0:0:0:0:
437,117,54442,6,0,L|464:109,7,21.25
420,124,54871,5,0,0:0:0:0:
246,206,55085,2,0,L|219:198,11,21.25
259,212,55728,5,0,0:0:0:0:
425,289,55942,2,0,L|472:274,5,42.5
408,295,56585,5,0,0:0:0:0:
318,350,56728,2,0,L|275:338,9,28.3333333333333
276,339,57442,5,0,0:0:0:0:
214,291,57585,2,0,L|186:298,9,28.3333333333333
139,355,58299,6,0,P|123:289|98:214,1,127.500004863739,4|0,1:2|1:0,0:0:0:0:
44,57,58728,5,8,0:0:0:0:
44,57,58781,1,8,0:0:0:0:
44,57,58835,1,8,0:0:0:0:
108,18,58942,1,8,0:0:0:0:
168,69,59049,1,8,0:0:0:0:
141,145,59156,5,0,1:2:0:0:
224,247,59371,1,0,1:2:0:0:
351,226,59585,1,0,1:2:0:0:
382,115,59799,1,8,0:0:0:0:
