osu file format v14

[General]
AudioFilename: audio.mp3
AudioLeadIn: 0
PreviewTime: 91432
Countdown: 0
SampleSet: Normal
StackLeniency: 0.4
Mode: 0
LetterboxInBreaks: 0
WidescreenStoryboard: 0

[Editor]
DistanceSpacing: 0.9
BeatDivisor: 4
GridSize: 32
TimelineZoom: 1.7

[Metadata]
Title:Hyper InfLATiON
TitleUnicode:Hyper∞LATiON
Artist:cosMo@Bousou-P
ArtistUnicode:cosMo@暴走P
Creator:sonic8889
Version:HE HE HE HE HE
Source:
Tags:InfiniteHOLiC
BeatmapID:1758020
BeatmapSetID:839860

[Difficulty]
HPDrainRate:5
CircleSize:4
OverallDifficulty:9.7
ApproachRate:9.6
SliderMultiplier:2.8
SliderTickRate:1

[Events]
//Background and Video events
0,0,"he he hehe he.jpg",0,0
//Break Periods
2,131483,133002
//Storyboard Layer 0 (Background)
//Storyboard Layer 1 (Fail)
//Storyboard Layer 2 (Pass)
//Storyboard Layer 3 (Foreground)
//Storyboard Sound Samples

[TimingPoints]
1036,297.029702970297,4,1,0,48,1,0
19748,-200,4,1,0,48,0,0
20045,-100,4,1,0,48,0,0
24501,-200,4,1,0,48,0,0
24798,-100,4,1,0,48,0,1
29253,-133.333333333333,4,1,0,48,0,1
29550,-100,4,1,0,48,0,1
34005,-133.333333333333,4,1,0,48,0,1
34303,-100,4,1,0,48,0,1
43808,-100,4,1,0,48,0,0
53313,-100,4,1,0,48,0,1
62521,-133.333333333333,4,1,0,48,0,0
72323,-100,4,1,0,48,0,1
74253,-66.6666666666667,4,1,0,48,0,1
74328,-66.6666666666667,4,1,0,5,0,1
74402,-66.6666666666667,4,1,0,48,0,1
74476,-66.6666666666667,4,1,0,5,0,1
74550,-66.6666666666667,4,1,0,48,0,1
74699,-100,4,1,0,48,0,1
75887,-66.6666666666667,4,1,0,48,0,1
75961,-66.6666666666667,4,1,0,5,0,1
76036,-66.6666666666667,4,1,0,48,0,1
76110,-66.6666666666667,4,1,0,5,0,1
76184,-66.6666666666667,4,1,0,48,0,1
76258,-66.6666666666667,4,1,0,5,0,1
76333,-66.6666666666667,4,1,0,48,0,1
76407,-66.6666666666667,4,1,0,5,0,1
76481,-66.6666666666667,4,1,0,5,0,1
76555,-66.6666666666667,4,1,0,5,0,1
76630,-66.6666666666667,4,1,0,48,0,1
76704,-66.6666666666667,4,1,0,5,0,1
76778,-66.6666666666667,4,1,0,48,0,1
76852,-66.6666666666667,4,1,0,5,0,1
77075,-100,4,1,0,48,0,1
81828,-100,4,1,0,48,0,0
91432,-100,4,1,0,48,0,0
91482,-100,4,1,0,5,0,0
91531,-50,4,1,0,48,0,0
91581,-50,4,1,0,5,0,0
91630,-40,4,1,0,48,0,0
91680,-40,4,1,0,5,0,0
91729,-33.3333333333333,4,1,0,48,0,0
91779,-33.3333333333333,4,1,0,5,0,0
91828,-20,4,1,0,48,0,0
91878,-20,4,1,0,5,0,0
91927,297.029702970297,4,1,0,48,1,0
91927,-100,4,1,0,48,0,1
99724,-100,4,1,0,5,0,1
99798,-100,4,1,0,48,0,1
100837,-133.333333333333,4,1,0,48,0,0
101431,-100,4,1,0,48,0,1
109600,-66.6666666666667,4,1,0,48,0,1
109674,-100,4,1,0,48,0,1
110862,-100,4,1,0,48,0,0
110936,-100,4,1,0,48,0,1
112867,-66.6666666666667,4,1,0,48,0,1
112941,-66.6666666666667,4,1,0,5,0,1
113016,-66.6666666666667,4,1,0,48,0,1
113090,-66.6666666666667,4,1,0,5,0,1
113164,-100,4,1,0,48,0,1
114501,-66.6666666666667,4,1,0,48,0,1
114575,-66.6666666666667,4,1,0,5,0,1
114649,-66.6666666666667,4,1,0,48,0,1
114724,-66.6666666666667,4,1,0,5,0,1
114798,-66.6666666666667,4,1,0,48,0,1
114872,-66.6666666666667,4,1,0,5,0,1
114946,-66.6666666666667,4,1,0,48,0,1
115021,-66.6666666666667,4,1,0,5,0,1
115095,-66.6666666666667,4,1,0,48,0,1
115169,-66.6666666666667,4,1,0,5,0,1
115243,-66.6666666666667,4,1,0,48,0,1
115318,-66.6666666666667,4,1,0,5,0,1
115392,-66.6666666666667,4,1,0,48,0,1
115466,-66.6666666666667,4,1,0,5,0,1
115689,-100,4,1,0,48,0,1
120441,-100,4,1,0,48,0,0
129946,-100,4,1,0,5,0,0
134847,-100,4,1,0,100,0,0

[Colours]
Combo1 : 255,91,114
Combo2 : 186,123,210

[HitObjects]
202,383,15293,5,0,0:0:0:0:
235,353,15392,1,0,0:0:0:0:
279,345,15491,1,0,0:0:0:0:
371,360,15590,5,0,0:0:0:0:
358,317,15689,1,0,0:0:0:0:
370,274,15788,1,0,0:0:0:0:
425,198,15887,5,0,0:0:0:0:
386,219,15986,1,0,0:0:0:0:
341,218,16085,1,0,0:0:0:0:
303,195,16184,1,0,0:0:0:0:
281,156,16283,1,0,0:0:0:0:
282,111,16382,1,0,0:0:0:0:
316,24,16481,5,0,0:0:0:0:
283,56,16580,1,0,0:0:0:0:
238,69,16679,1,0,0:0:0:0:
145,60,16778,5,0,0:0:0:0:
145,105,16877,1,0,0:0:0:0:
122,147,16976,1,0,0:0:0:0:
42,195,17075,5,0,0:0:0:0:
89,193,17174,1,0,0:0:0:0:
130,213,17273,1,0,0:0:0:0:
156,251,17372,1,0,0:0:0:0:
161,297,17471,1,0,0:0:0:0:
143,340,17570,1,0,0:0:0:0:
57,377,17669,5,0,0:0:0:0:
75,334,17768,1,0,0:0:0:0:
111,306,17867,1,0,0:0:0:0:
205,307,17966,5,0,0:0:0:0:
210,262,18065,1,0,0:0:0:0:
194,219,18164,1,0,0:0:0:0:
103,198,18263,5,0,0:0:0:0:
147,209,18362,1,0,0:0:0:0:
191,195,18461,1,0,0:0:0:0:
222,161,18560,1,0,0:0:0:0:
230,116,18659,1,0,0:0:0:0:
213,73,18758,1,0,0:0:0:0:
150,3,18857,5,0,0:0:0:0:
186,31,18956,1,0,0:0:0:0:
231,39,19055,1,0,0:0:0:0:
323,23,19154,5,0,0:0:0:0:
310,67,19253,1,0,0:0:0:0:
278,99,19352,1,0,0:0:0:0:
200,151,19451,5,0,0:0:0:0:
245,161,19550,1,0,0:0:0:0:
281,190,19649,1,0,0:0:0:0:
299,233,19748,2,0,P|305:277|282:310,2,46.6666666666667
388,206,20045,5,0,0:0:0:0:
355,175,20144,1,0,0:0:0:0:
344,132,20243,1,0,0:0:0:0:
350,39,20342,5,0,0:0:0:0:
309,55,20441,1,0,0:0:0:0:
264,47,20540,1,0,0:0:0:0:
184,1,20639,5,0,0:0:0:0:
209,37,20738,1,0,0:0:0:0:
212,81,20837,1,0,0:0:0:0:
192,121,20936,1,0,0:0:0:0:
155,147,21035,1,0,0:0:0:0:
110,149,21134,1,0,0:0:0:0:
18,129,21233,5,0,0:0:0:0:
61,145,21332,1,0,0:0:0:0:
91,180,21431,1,0,0:0:0:0:
122,269,21530,5,0,0:0:0:0:
163,249,21629,1,0,0:0:0:0:
211,252,21728,1,0,0:0:0:0:
288,304,21827,5,0,0:0:0:0:
267,263,21926,1,0,0:0:0:0:
268,218,22025,1,0,0:0:0:0:
291,178,22124,1,0,0:0:0:0:
331,153,22223,1,0,0:0:0:0:
378,152,22322,1,0,0:0:0:0:
447,214,22421,5,0,0:0:0:0:
401,215,22520,1,0,0:0:0:0:
360,195,22619,1,0,0:0:0:0:
321,110,22718,5,0,0:0:0:0:
278,124,22817,1,0,0:0:0:0:
247,157,22916,1,0,0:0:0:0:
265,248,23015,5,0,0:0:0:0:
257,203,23114,1,0,0:0:0:0:
226,168,23213,1,0,0:0:0:0:
182,155,23312,1,0,0:0:0:0:
138,168,23411,1,0,0:0:0:0:
106,201,23510,1,0,0:0:0:0:
69,288,23609,5,0,0:0:0:0:
79,244,23708,1,0,0:0:0:0:
68,199,23807,1,0,0:0:0:0:
14,123,23906,5,0,0:0:0:0:
59,116,24005,1,0,0:0:0:0:
102,131,24104,1,0,0:0:0:0:
183,180,24203,5,0,0:0:0:0:
172,134,24302,1,0,0:0:0:0:
183,90,24401,1,0,0:0:0:0:
218,59,24501,2,0,P|257:54|299:68,2,46.6666666666667
92,144,24798,5,0,0:0:0:0:
146,154,24897,1,0,0:0:0:0:
181,196,24996,1,0,0:0:0:0:
201,287,25095,5,0,0:0:0:0:
211,233,25194,1,0,0:0:0:0:
253,198,25293,1,0,0:0:0:0:
346,199,25392,5,0,0:0:0:0:
305,161,25491,1,0,0:0:0:0:
297,107,25590,1,0,0:0:0:0:
324,59,25689,1,0,0:0:0:0:
374,37,25788,1,0,0:0:0:0:
427,52,25887,1,0,0:0:0:0:
480,129,25986,5,0,0:0:0:0:
427,110,26085,1,0,0:0:0:0:
375,130,26184,1,0,0:0:0:0:
302,189,26283,5,0,0:0:0:0:
282,137,26382,1,0,0:0:0:0:
301,84,26481,1,0,0:0:0:0:
362,13,26580,5,0,0:0:0:0:
321,51,26679,1,0,0:0:0:0:
272,77,26778,1,0,0:0:0:0:
217,89,26877,1,0,0:0:0:0:
163,73,26976,1,0,0:0:0:0:
117,39,27075,1,0,0:0:0:0:
30,3,27174,5,0,0:0:0:0:
58,51,27273,1,0,0:0:0:0:
57,106,27372,1,0,0:0:0:0:
21,192,27471,5,0,0:0:0:0:
76,200,27570,1,0,0:0:0:0:
114,240,27669,1,0,0:0:0:0:
126,332,27768,5,0,0:0:0:0:
127,276,27867,1,0,0:0:0:0:
158,231,27966,1,0,0:0:0:0:
209,209,28065,1,0,0:0:0:0:
263,219,28164,1,0,0:0:0:0:
304,257,28263,1,0,0:0:0:0:
327,347,28362,5,0,0:0:0:0:
364,305,28461,1,0,0:0:0:0:
419,297,28560,1,0,0:0:0:0:
511,306,28659,5,0,0:0:0:0:
464,276,28758,1,0,0:0:0:0:
448,222,28857,1,0,0:0:0:0:
470,131,28956,5,0,0:0:0:0:
431,170,29055,1,0,0:0:0:0:
378,188,29154,1,0,0:0:0:0:
323,181,29253,2,0,P|291:163|253:117,2,70.0000026702882
424,318,29550,5,0,0:0:0:0:
385,278,29649,1,0,0:0:0:0:
380,224,29748,1,0,0:0:0:0:
416,138,29847,5,0,0:0:0:0:
377,176,29946,1,0,0:0:0:0:
323,181,30045,1,0,0:0:0:0:
229,183,30144,5,0,0:0:0:0:
270,221,30243,1,0,0:0:0:0:
278,275,30342,1,0,0:0:0:0:
251,323,30441,1,0,0:0:0:0:
201,345,30540,1,0,0:0:0:0:
148,330,30639,1,0,0:0:0:0:
68,281,30738,5,0,0:0:0:0:
124,290,30837,1,0,0:0:0:0:
171,262,30936,1,0,0:0:0:0:
233,191,31035,5,0,0:0:0:0:
262,239,31134,1,0,0:0:0:0:
252,294,31233,1,0,0:0:0:0:
204,375,31332,5,0,0:0:0:0:
238,330,31431,1,0,0:0:0:0:
282,296,31530,1,0,0:0:0:0:
334,274,31629,1,0,0:0:0:0:
390,281,31728,1,0,0:0:0:0:
441,306,31827,1,0,0:0:0:0:
512,335,31926,5,0,0:0:0:0:
495,293,32025,1,0,0:0:0:0:
486,238,32124,1,0,0:0:0:0:
507,147,32223,5,0,0:0:0:0:
451,149,32322,1,0,0:0:0:0:
407,116,32421,1,0,0:0:0:0:
379,28,32520,5,0,0:0:0:0:
388,83,32619,1,0,0:0:0:0:
365,133,32718,1,0,0:0:0:0:
319,163,32817,1,0,0:0:0:0:
264,163,32916,1,0,0:0:0:0:
217,132,33015,1,0,0:0:0:0:
178,48,33114,5,0,0:0:0:0:
149,95,33213,1,0,0:0:0:0:
96,113,33312,1,0,0:0:0:0:
4,120,33411,5,0,0:0:0:0:
56,141,33510,1,0,0:0:0:0:
81,192,33609,1,0,0:0:0:0:
75,285,33708,5,0,0:0:0:0:
107,240,33807,1,0,0:0:0:0:
156,213,33906,1,0,0:0:0:0:
211,210,34005,2,0,P|246:223|291:261,2,70.0000026702882
104,206,34303,5,0,0:0:0:0:
102,219,34377,1,0,0:0:0:0:
103,233,34451,1,0,0:0:0:0:
105,247,34525,1,0,0:0:0:0:
109,261,34600,1,0,0:0:0:0:
114,274,34674,1,0,0:0:0:0:
121,286,34748,1,0,0:0:0:0:
129,298,34822,1,0,0:0:0:0:
138,308,34897,1,0,0:0:0:0:
148,317,34971,1,0,0:0:0:0:
160,326,35045,1,0,0:0:0:0:
172,332,35119,1,0,0:0:0:0:
185,338,35194,1,0,0:0:0:0:
198,341,35268,1,0,0:0:0:0:
212,344,35342,1,0,0:0:0:0:
226,344,35416,1,0,0:0:0:0:
296,331,35491,5,0,0:0:0:0:
286,322,35565,1,0,0:0:0:0:
277,311,35639,1,0,0:0:0:0:
271,298,35713,1,0,0:0:0:0:
266,285,35788,1,0,0:0:0:0:
264,271,35862,1,0,0:0:0:0:
264,257,35936,1,0,0:0:0:0:
267,244,36010,1,0,0:0:0:0:
271,230,36085,1,0,0:0:0:0:
278,218,36159,1,0,0:0:0:0:
287,208,36233,1,0,0:0:0:0:
298,198,36307,1,0,0:0:0:0:
310,191,36382,1,0,0:0:0:0:
323,186,36456,1,0,0:0:0:0:
336,183,36530,1,0,0:0:0:0:
350,183,36604,1,0,0:0:0:0:
414,212,36679,5,0,0:0:0:0:
401,205,36753,1,0,0:0:0:0:
391,195,36827,1,0,0:0:0:0:
384,184,36901,1,0,0:0:0:0:
380,170,36976,1,0,0:0:0:0:
379,156,37050,1,0,0:0:0:0:
383,143,37124,1,0,0:0:0:0:
389,131,37198,1,0,0:0:0:0:
399,121,37273,1,0,0:0:0:0:
411,114,37347,1,0,0:0:0:0:
425,110,37421,1,0,0:0:0:0:
437,103,37496,1,0,0:0:0:0:
447,93,37570,1,0,0:0:0:0:
454,82,37644,1,0,0:0:0:0:
458,68,37719,1,0,0:0:0:0:
459,54,37793,1,0,0:0:0:0:
400,15,37867,5,0,0:0:0:0:
386,12,37941,1,0,0:0:0:0:
372,12,38015,1,0,0:0:0:0:
358,14,38089,1,0,0:0:0:0:
344,17,38164,1,0,0:0:0:0:
331,22,38238,1,0,0:0:0:0:
319,29,38312,1,0,0:0:0:0:
308,38,38386,1,0,0:0:0:0:
298,47,38461,1,0,0:0:0:0:
290,59,38535,1,0,0:0:0:0:
283,71,38609,1,0,0:0:0:0:
278,84,38683,1,0,0:0:0:0:
274,97,38758,1,0,0:0:0:0:
273,111,38832,1,0,0:0:0:0:
273,125,38906,1,0,0:0:0:0:
275,139,38980,1,0,0:0:0:0:
318,195,39055,5,0,0:0:0:0:
306,202,39129,1,0,0:0:0:0:
296,212,39203,1,0,0:0:0:0:
287,223,39277,1,0,0:0:0:0:
280,235,39352,1,0,0:0:0:0:
275,248,39426,1,0,0:0:0:0:
272,262,39500,1,0,0:0:0:0:
270,275,39574,1,0,0:0:0:0:
271,289,39649,1,0,0:0:0:0:
274,303,39723,1,0,0:0:0:0:
279,316,39797,1,0,0:0:0:0:
286,328,39871,1,0,0:0:0:0:
294,340,39946,1,0,0:0:0:0:
304,349,40020,1,0,0:0:0:0:
316,357,40094,1,0,0:0:0:0:
328,364,40168,1,0,0:0:0:0:
397,378,40243,5,0,0:0:0:0:
400,364,40317,1,0,0:0:0:0:
402,350,40391,1,0,0:0:0:0:
401,336,40465,1,0,0:0:0:0:
398,322,40540,1,0,0:0:0:0:
393,309,40614,1,0,0:0:0:0:
386,297,40688,1,0,0:0:0:0:
378,286,40762,1,0,0:0:0:0:
367,277,40837,1,0,0:0:0:0:
355,270,40911,1,0,0:0:0:0:
343,264,40985,1,0,0:0:0:0:
329,260,41059,1,0,0:0:0:0:
315,259,41134,1,0,0:0:0:0:
301,260,41208,1,0,0:0:0:0:
288,263,41282,1,0,0:0:0:0:
275,268,41356,1,0,0:0:0:0:
217,309,41432,5,0,0:0:0:0:
217,295,41506,1,0,0:0:0:0:
216,281,41580,1,0,0:0:0:0:
212,267,41654,1,0,0:0:0:0:
206,254,41729,1,0,0:0:0:0:
199,243,41803,1,0,0:0:0:0:
189,233,41877,1,0,0:0:0:0:
178,224,41951,1,0,0:0:0:0:
166,217,42026,1,0,0:0:0:0:
152,213,42100,1,0,0:0:0:0:
139,211,42174,1,0,0:0:0:0:
125,211,42248,1,0,0:0:0:0:
111,213,42323,1,0,0:0:0:0:
98,217,42397,1,0,0:0:0:0:
85,224,42471,1,0,0:0:0:0:
74,232,42545,1,0,0:0:0:0:
36,292,42620,5,0,0:0:0:0:
75,279,42694,1,0,0:0:0:0:
114,266,42768,1,0,0:0:0:0:
153,253,42842,1,0,0:0:0:0:
190,273,42917,1,0,0:0:0:0:
197,284,42991,1,0,0:0:0:0:
204,295,43065,1,0,0:0:0:0:
211,306,43139,1,0,0:0:0:0:
251,363,43214,5,0,0:0:0:0:
272,359,43288,1,0,0:0:0:0:
288,345,43362,1,0,0:0:0:0:
297,323,43436,1,0,0:0:0:0:
295,294,43511,1,0,0:0:0:0:
278,264,43585,1,0,0:0:0:0:
229,219,43659,5,0,0:0:0:0:
146,195,43734,5,0,0:0:0:0:
54,234,43808,6,0,P|26:279|33:339,2,93.3333333333334
191,229,44105,2,0,P|216:293|153:385,1,186.666666666667
114,103,44402,1,0,0:0:0:0:
148,89,44501,1,0,0:0:0:0:
182,75,44600,1,0,0:0:0:0:
216,61,44699,2,0,P|306:91|320:221,1,186.666666666667
195,326,44996,2,0,P|174:237|230:166,1,186.666666666667
464,238,45293,1,0,0:0:0:0:
424,246,45392,5,0,0:0:0:0:
349,253,45491,1,0,0:0:0:0:
274,260,45590,5,0,0:0:0:0:
305,192,45689,1,0,0:0:0:0:
336,124,45788,1,0,0:0:0:0:
366,56,45887,2,0,P|451:79|461:167,1,186.666666666667
256,167,46184,6,0,B|224:167|224:167|192:135|192:135|160:167|160:167|64:167,1,186.666666666667
239,253,46481,2,0,P|326:242|350:158,1,186.666666666667
157,236,46778,2,0,P|161:288|220:330,2,93.3333333333334
439,174,47075,2,0,P|417:88|332:58,1,186.666666666667
239,253,47372,5,0,0:0:0:0:
239,328,47471,1,0,0:0:0:0:
303,291,47570,1,0,0:0:0:0:
303,366,47669,5,0,0:0:0:0:
340,369,47768,1,0,0:0:0:0:
377,372,47867,1,0,0:0:0:0:
414,375,47966,5,0,0:0:0:0:
353,303,48065,1,0,0:0:0:0:
292,231,48164,1,0,0:0:0:0:
231,159,48263,6,0,P|180:204|67:150,1,186.666666666667
254,42,48560,2,0,B|286:42|286:42|318:74|318:74|350:42|350:42|446:42,1,186.666666666667
439,174,48857,2,0,L|345:174,2,93.3333333333334
402,282,49154,5,0,0:0:0:0:
356,291,49253,1,0,0:0:0:0:
310,300,49352,1,0,0:0:0:0:
264,309,49451,2,0,P|204:246|262:140,1,186.666666666667
354,105,49748,6,0,P|367:68|330:10,2,93.3333333333334
230,158,50045,2,0,P|193:171|172:237,2,93.3333333333334
337,238,50342,1,0,0:0:0:0:
366,273,50441,1,0,0:0:0:0:
395,308,50540,1,0,0:0:0:0:
424,343,50639,6,0,L|468:132,1,186.666666666667
432,351,50936,2,0,L|470:168,1,186.666666666667
268,168,51234,2,0,L|306:350,1,186.666666666667
336,92,51531,1,0,0:0:0:0:
292,75,51630,1,0,0:0:0:0:
245,73,51729,1,0,0:0:0:0:
202,93,51828,2,0,P|169:129|168:202,2,93.3333333333334
371,105,52125,5,0,0:0:0:0:
381,150,52224,1,0,0:0:0:0:
391,195,52323,1,0,0:0:0:0:
401,240,52422,5,0,0:0:0:0:
373,236,52521,1,0,0:0:0:0:
345,233,52620,1,0,0:0:0:0:
317,230,52719,5,0,0:0:0:0:
280,175,52818,1,0,0:0:0:0:
243,120,52917,1,0,0:0:0:0:
206,65,53016,6,0,L|138:198,2,93.3333333333333
436,88,53313,5,0,0:0:0:0:
448,142,53412,1,0,0:0:0:0:
424,192,53511,1,0,0:0:0:0:
371,212,53610,1,0,0:0:0:0:
379,220,53907,5,0,0:0:0:0:
335,254,54006,1,0,0:0:0:0:
281,265,54105,1,0,0:0:0:0:
228,249,54204,1,0,0:0:0:0:
188,210,54303,1,0,0:0:0:0:
170,158,54402,1,0,0:0:0:0:
179,103,54501,1,0,0:0:0:0:
213,59,54600,1,0,0:0:0:0:
263,35,54699,1,0,0:0:0:0:
318,37,54798,1,0,0:0:0:0:
366,64,54897,1,0,0:0:0:0:
396,111,54996,1,0,0:0:0:0:
414,203,55095,5,0,0:0:0:0:
359,195,55194,1,0,0:0:0:0:
311,222,55293,1,0,0:0:0:0:
288,272,55392,1,0,0:0:0:0:
296,280,55689,5,0,0:0:0:0:
248,310,55788,1,0,0:0:0:0:
192,319,55887,1,0,0:0:0:0:
141,294,55986,5,0,0:0:0:0:
164,278,56085,1,0,0:0:0:0:
187,262,56184,1,0,0:0:0:0:
210,246,56283,5,0,0:0:0:0:
190,194,56382,1,0,0:0:0:0:
208,143,56481,1,0,0:0:0:0:
255,115,56580,1,0,0:0:0:0:
309,125,56679,1,0,0:0:0:0:
344,168,56778,1,0,0:0:0:0:
379,211,56877,1,0,0:0:0:0:
433,221,56976,1,0,0:0:0:0:
480,193,57075,1,0,0:0:0:0:
498,142,57174,1,0,0:0:0:0:
479,91,57273,1,0,0:0:0:0:
432,59,57372,1,0,0:0:0:0:
338,52,57471,5,0,0:0:0:0:
370,97,57570,1,0,0:0:0:0:
379,152,57669,1,0,0:0:0:0:
356,203,57768,1,0,0:0:0:0:
364,211,58065,5,0,0:0:0:0:
327,265,58164,1,0,0:0:0:0:
270,298,58263,1,0,0:0:0:0:
205,285,58362,1,0,0:0:0:0:
213,293,58659,5,0,0:0:0:0:
150,280,58758,1,0,0:0:0:0:
108,231,58857,1,0,0:0:0:0:
105,167,58956,1,0,0:0:0:0:
143,116,59055,1,0,0:0:0:0:
205,98,59154,1,0,0:0:0:0:
264,123,59253,1,0,0:0:0:0:
295,179,59352,1,0,0:0:0:0:
326,235,59451,1,0,0:0:0:0:
385,259,59550,1,0,0:0:0:0:
446,242,59649,1,0,0:0:0:0:
484,190,59748,1,0,0:0:0:0:
464,89,59847,5,0,0:0:0:0:
427,143,59946,1,0,0:0:0:0:
370,176,60045,1,0,0:0:0:0:
304,174,60144,1,0,0:0:0:0:
312,182,60441,5,0,0:0:0:0:
240,202,60540,1,0,0:0:0:0:
197,263,60639,1,0,0:0:0:0:
191,337,60738,1,0,0:0:0:0:
199,345,61036,5,0,0:0:0:0:
126,336,61135,1,0,0:0:0:0:
84,278,61234,1,0,0:0:0:0:
100,207,61333,1,0,0:0:0:0:
108,215,61630,5,0,0:0:0:0:
161,164,61729,1,0,0:0:0:0:
234,160,61828,1,0,0:0:0:0:
293,203,61927,1,0,0:0:0:0:
352,246,62026,1,0,0:0:0:0:
425,241,62125,1,0,0:0:0:0:
478,191,62224,1,0,0:0:0:0:
487,117,62323,1,0,0:0:0:0:
455,49,62422,1,0,0:0:0:0:
383,27,62521,6,0,L|403:95,3,52.5000020027161
410,152,62818,6,0,P|332:166|320:288,1,210.000008010865
384,233,63263,1,0,0:0:0:0:
225,163,63412,2,0,P|176:165|133:209,1,105.000004005432
115,276,63709,1,0,0:0:0:0:
100,63,63857,1,0,0:0:0:0:
82,101,63932,1,0,0:0:0:0:
65,139,64006,1,0,0:0:0:0:
237,23,64154,1,0,0:0:0:0:
73,147,64303,2,0,P|82:208|152:234,1,105.000004005432
328,213,64600,6,0,P|318:278|171:329,1,210.000008010865
218,227,65045,1,0,0:0:0:0:
337,131,65194,2,0,P|391:157|402:234,1,105.000004005432
410,238,65417,1,0,0:0:0:0:
413,279,65491,1,0,0:0:0:0:
421,287,65788,6,0,P|441:265|441:169,1,105.000004005432
283,192,66085,2,0,P|284:243|313:286,1,105.000004005432
367,216,66382,1,0,0:0:0:0:
196,57,66531,1,0,0:0:0:0:
185,97,66605,1,0,0:0:0:0:
168,135,66679,1,0,0:0:0:0:
99,279,66828,1,0,0:0:0:0:
375,224,66976,2,0,P|344:157|302:147,1,105.000004005432
339,294,67273,5,0,0:0:0:0:
335,70,67422,1,0,0:0:0:0:
212,305,67570,6,0,P|157:270|230:149,1,210.000008010865
403,218,68016,1,0,0:0:0:0:
379,252,68090,1,0,0:0:0:0:
355,286,68164,2,0,P|322:257|325:176,1,105.000004005432
411,70,68461,1,0,0:0:0:0:
221,217,68610,1,0,0:0:0:0:
230,176,68684,1,0,0:0:0:0:
240,135,68758,2,0,L|342:68,1,105.000004005432
307,341,69055,1,0,0:0:0:0:
307,341,69130,2,0,L|226:251,1,105.000004005432
200,222,69352,6,0,L|146:162,1,52.5000020027161
128,142,69501,1,0,0:0:0:0:
62,274,69649,1,0,0:0:0:0:
265,93,69798,1,0,0:0:0:0:
154,330,69946,6,0,P|141:260|240:306,1,210.000008010865
62,252,70392,1,0,0:0:0:0:
77,213,70466,1,0,0:0:0:0:
104,181,70540,1,0,0:0:0:0:
142,163,70615,1,0,0:0:0:0:
183,161,70689,1,0,0:0:0:0:
191,169,70837,5,0,0:0:0:0:
159,218,70912,1,0,0:0:0:0:
128,266,70986,1,0,0:0:0:0:
97,314,71060,1,0,0:0:0:0:
66,363,71135,5,0,0:0:0:0:
90,353,71209,1,0,0:0:0:0:
114,343,71283,1,0,0:0:0:0:
138,333,71357,1,0,0:0:0:0:
184,357,71432,5,0,0:0:0:0:
208,347,71506,1,0,0:0:0:0:
232,337,71580,1,0,0:0:0:0:
256,327,71654,1,0,0:0:0:0:
278,279,71729,5,0,0:0:0:0:
302,269,71803,1,0,0:0:0:0:
326,259,71877,1,0,0:0:0:0:
350,249,71951,1,0,0:0:0:0:
380,205,72026,6,0,L|345:161,3,52.5000020027161
436,271,72323,5,0,0:0:0:0:
421,310,72397,1,0,0:0:0:0:
393,340,72471,1,0,0:0:0:0:
355,358,72545,1,0,0:0:0:0:
313,360,72620,1,0,0:0:0:0:
274,346,72694,1,0,0:0:0:0:
243,319,72768,1,0,0:0:0:0:
224,281,72842,1,0,0:0:0:0:
221,240,72917,1,0,0:0:0:0:
234,200,72991,1,0,0:0:0:0:
261,168,73065,1,0,0:0:0:0:
289,138,73139,1,0,0:0:0:0:
301,98,73213,1,0,0:0:0:0:
293,57,73287,1,0,0:0:0:0:
267,24,73362,1,0,0:0:0:0:
229,6,73436,1,0,0:0:0:0:
188,7,73510,1,0,0:0:0:0:
196,15,73808,5,0,0:0:0:0:
204,23,73956,1,0,0:0:0:0:
187,77,74031,1,0,0:0:0:0:
171,130,74105,1,0,0:0:0:0:
155,183,74179,1,0,0:0:0:0:
139,236,74253,2,0,P|140:282|197:333,1,105.000004005432
335,325,74402,2,0,P|369:287|373:236,1,105.000004005432
381,244,74699,5,0,0:0:0:0:
390,203,74773,1,0,0:0:0:0:
384,162,74847,1,0,0:0:0:0:
364,125,74921,1,0,0:0:0:0:
331,99,74996,1,0,0:0:0:0:
291,87,75070,1,0,0:0:0:0:
250,90,75144,1,0,0:0:0:0:
212,108,75218,1,0,0:0:0:0:
184,139,75293,1,0,0:0:0:0:
169,178,75367,1,0,0:0:0:0:
170,220,75441,1,0,0:0:0:0:
160,260,75515,1,0,0:0:0:0:
166,301,75589,1,0,0:0:0:0:
186,338,75663,1,0,0:0:0:0:
219,364,75738,1,0,0:0:0:0:
259,376,75812,1,0,0:0:0:0:
300,373,75887,6,0,P|334:336|337:267,1,105.000004005432
170,283,76036,2,0,P|177:334|212:373,1,105.000004005432
340,208,76184,2,0,B|340:188|340:188|359:168|359:168|340:149|340:149|340:90,1,105.000004005432
172,119,76333,2,0,B|172:149|172:149|152:168|152:168|172:188|172:188|172:208,1,105.000004005432
421,96,76481,2,0,P|391:50|299:42,1,105.000004005432
166,32,76630,2,0,P|118:52|91:96,1,105.000004005432
256,256,76778,6,0,B|256:224|256:224|288:191|288:191|256:160|256:160|256:64,1,210.000008010865
3,35,77075,6,0,L|3:-29,1,35
39,51,77149,2,0,L|39:-13,1,35
75,69,77224,2,0,L|75:133,1,35
112,84,77298,2,0,L|112:20,1,35
147,100,77372,2,0,L|147:36,1,35
178,119,77446,2,0,L|178:55,1,35
214,133,77521,2,0,L|214:197,1,35
249,149,77595,2,0,L|249:213,1,35
319,182,77669,6,0,L|319:147,1,35
284,198,77743,2,0,L|284:163,1,35
248,212,77818,2,0,L|248:247,1,35
217,231,77892,2,0,L|217:266,1,35
182,247,77966,2,0,L|182:282,1,35
145,262,78040,2,0,L|145:227,1,35
109,280,78115,2,0,L|109:315,1,35
73,296,78189,2,0,L|73:331,1,35
3,325,78263,6,0,L|3:360,1,35
39,324,78337,2,0,L|39:289,1,35
77,324,78412,2,0,L|77:359,1,35
114,324,78486,2,0,L|114:359,1,35
151,324,78560,2,0,L|151:289,1,35
190,323,78634,2,0,L|190:358,1,35
229,322,78709,2,0,L|229:287,1,35
268,321,78783,2,0,L|268:356,1,35
329,267,78857,6,0,L|329:302,1,35
293,266,78931,2,0,L|293:231,1,35
255,266,79006,2,0,L|255:301,1,35
218,266,79080,2,0,L|218:301,1,35
181,266,79154,2,0,L|181:231,1,35
142,265,79228,6,0,B|99:268|142:300,1,35
103,264,79303,6,0,B|66:256|103:229,1,35
64,263,79377,6,0,B|23:274|64:298,1,35
23,261,79451,6,0,P|20:190|204:187,1,280
320,256,79897,1,0,0:0:0:0:
112,221,80045,1,0,0:0:0:0:
328,264,80194,1,0,0:0:0:0:
271,141,80342,1,0,0:0:0:0:
310,155,80417,1,0,0:0:0:0:
349,169,80491,1,0,0:0:0:0:
388,183,80565,1,0,0:0:0:0:
427,197,80639,5,0,0:0:0:0:
410,210,80714,1,0,0:0:0:0:
393,223,80788,1,0,0:0:0:0:
376,236,80862,1,0,0:0:0:0:
359,249,80936,5,0,0:0:0:0:
347,200,81011,1,0,0:0:0:0:
358,152,81085,1,0,0:0:0:0:
396,121,81159,1,0,0:0:0:0:
445,114,81234,6,0,L|474:318,2,140
243,22,81679,1,0,0:0:0:0:
251,30,81828,5,0,0:0:0:0:
258,78,81902,1,0,0:0:0:0:
265,126,81976,1,0,0:0:0:0:
272,174,82050,1,0,0:0:0:0:
279,222,82125,2,0,L|215:303,1,70
348,39,82273,5,0,0:0:0:0:
355,87,82347,1,0,0:0:0:0:
362,135,82421,1,0,0:0:0:0:
369,183,82495,1,0,0:0:0:0:
376,231,82570,2,0,L|312:312,1,70
220,30,82719,5,0,0:0:0:0:
213,78,82793,1,0,0:0:0:0:
206,126,82867,1,0,0:0:0:0:
199,174,82941,1,0,0:0:0:0:
192,222,83016,2,0,L|256:303,1,70
118,41,83164,5,0,0:0:0:0:
111,89,83238,1,0,0:0:0:0:
104,137,83312,1,0,0:0:0:0:
97,185,83386,1,0,0:0:0:0:
90,233,83461,2,0,L|154:314,1,70
230,16,83610,5,0,0:0:0:0:
277,28,83684,1,0,0:0:0:0:
324,41,83758,1,0,0:0:0:0:
371,54,83833,1,0,0:0:0:0:
418,67,83907,5,0,0:0:0:0:
403,81,83981,1,0,0:0:0:0:
388,95,84055,1,0,0:0:0:0:
373,110,84130,1,0,0:0:0:0:
358,124,84204,5,0,0:0:0:0:
365,172,84278,1,0,0:0:0:0:
372,220,84352,1,0,0:0:0:0:
379,268,84426,1,0,0:0:0:0:
386,316,84501,2,0,L|322:397,1,70
259,104,84649,5,0,0:0:0:0:
266,152,84723,1,0,0:0:0:0:
273,200,84797,1,0,0:0:0:0:
280,248,84871,1,0,0:0:0:0:
287,296,84946,2,0,L|223:377,1,70
157,47,85095,5,0,0:0:0:0:
150,95,85169,1,0,0:0:0:0:
143,143,85243,1,0,0:0:0:0:
136,191,85317,1,0,0:0:0:0:
129,239,85392,2,0,L|193:320,1,70
63,70,85540,5,0,0:0:0:0:
56,118,85614,1,0,0:0:0:0:
49,166,85688,1,0,0:0:0:0:
42,214,85762,1,0,0:0:0:0:
35,262,85837,2,0,L|99:343,1,70
307,0,85986,5,0,0:0:0:0:
260,12,86060,1,0,0:0:0:0:
213,25,86134,1,0,0:0:0:0:
166,38,86209,1,0,0:0:0:0:
119,51,86283,5,0,0:0:0:0:
134,65,86357,1,0,0:0:0:0:
149,79,86431,1,0,0:0:0:0:
164,94,86506,1,0,0:0:0:0:
179,108,86580,5,0,0:0:0:0:
172,156,86654,1,0,0:0:0:0:
165,204,86728,1,0,0:0:0:0:
158,252,86802,1,0,0:0:0:0:
151,300,86877,2,0,L|215:381,1,70
285,94,87026,5,0,0:0:0:0:
278,142,87100,1,0,0:0:0:0:
271,190,87174,1,0,0:0:0:0:
264,238,87248,1,0,0:0:0:0:
257,286,87323,2,0,L|321:367,1,70
388,94,87471,5,0,0:0:0:0:
395,142,87545,1,0,0:0:0:0:
402,190,87619,1,0,0:0:0:0:
409,238,87693,1,0,0:0:0:0:
416,286,87768,2,0,L|352:367,1,70
478,109,87917,5,0,0:0:0:0:
485,157,87991,1,0,0:0:0:0:
492,205,88065,1,0,0:0:0:0:
499,253,88139,1,0,0:0:0:0:
506,301,88214,2,0,L|442:382,1,70
246,0,88362,5,0,0:0:0:0:
293,12,88436,1,0,0:0:0:0:
340,25,88510,1,0,0:0:0:0:
387,38,88585,1,0,0:0:0:0:
434,51,88659,5,0,0:0:0:0:
419,65,88733,1,0,0:0:0:0:
404,79,88807,1,0,0:0:0:0:
389,94,88882,1,0,0:0:0:0:
374,108,88956,5,0,0:0:0:0:
381,156,89030,1,0,0:0:0:0:
388,204,89104,1,0,0:0:0:0:
395,252,89178,1,0,0:0:0:0:
402,300,89253,2,0,L|338:381,1,70
287,78,89402,5,0,0:0:0:0:
294,126,89476,1,0,0:0:0:0:
301,174,89550,1,0,0:0:0:0:
308,222,89624,1,0,0:0:0:0:
315,270,89699,2,0,L|251:351,1,70
198,21,89847,5,0,0:0:0:0:
191,69,89921,1,0,0:0:0:0:
184,117,89995,1,0,0:0:0:0:
177,165,90069,1,0,0:0:0:0:
170,213,90144,2,0,L|234:294,1,70
107,41,90293,5,0,0:0:0:0:
100,89,90367,1,0,0:0:0:0:
93,137,90441,1,0,0:0:0:0:
86,185,90515,1,0,0:0:0:0:
79,233,90590,2,0,L|143:314,1,70
243,237,90738,5,0,0:0:0:0:
255,268,90812,1,0,0:0:0:0:
276,296,90886,1,0,0:0:0:0:
316,290,90960,5,0,0:0:0:0:
336,330,91035,1,0,0:0:0:0:
346,340,91432,6,0,P|384:332|407:309,1,46.6666666666667
346,241,91531,6,0,P|388:195|393:135,1,93.3333333333333
294,156,91630,6,0,P|316:75|264:26,1,116.666666666667
216,93,91729,6,0,P|194:27|100:17,1,140.000005340576
117,108,91828,6,0,B|46:37|-52:170|93:213|119:135,1,233.333333333333
166,139,91927,6,0,B|237:210|335:77|190:34|164:112,1,233.333333333333
160,224,92224,2,0,P|232:232|306:187,1,140
258,0,92521,2,0,P|216:54|211:123,1,140
403,197,92818,2,0,P|376:133|319:94,1,140
168,232,93115,6,0,P|263:225|194:176,1,210
205,338,93412,2,0,P|291:312|328:256,1,140
226,102,93709,2,0,P|140:128|103:184,1,140
333,231,94006,2,0,P|307:145|251:108,1,140
97,209,94303,6,0,B|92:299|175:329|175:329|225:292|201:231,1,210
213,213,94600,1,0,0:0:0:0:
114,132,94748,1,0,0:0:0:0:
270,152,94897,2,0,L|419:242,1,140
221,221,95194,2,0,L|71:130,1,140
198,34,95491,6,0,B|315:104|315:104|309:169|237:145,1,210
78,141,95788,2,0,P|33:171|20:262,1,140
281,197,96085,2,0,P|326:227|339:318,1,140
157,238,96382,2,0,P|146:291|201:364,1,140
367,174,96679,6,0,P|328:112|326:212,1,210
339,244,96976,1,0,0:0:0:0:
208,87,97125,1,0,0:0:0:0:
339,264,97273,1,0,0:0:0:0:
407,71,97422,1,0,0:0:0:0:
216,95,97570,2,0,P|195:150|214:230,1,140
396,310,97867,6,0,P|392:256|368:331,1,210
456,212,98164,2,0,P|396:169|310:169,1,140
224,192,98461,2,0,P|157:185|174:84,1,140
291,163,98758,1,0,0:0:0:0:
152,49,98907,1,0,0:0:0:0:
273,343,99055,6,0,P|280:290|428:313,1,210
194,344,99352,2,0,P|197:291|260:197,1,140
317,175,99649,2,0,P|407:183|437:203,1,70
451,203,99798,1,0,0:0:0:0:
308,86,99946,1,0,0:0:0:0:
278,268,100095,1,0,0:0:0:0:
135,151,100243,5,0,0:0:0:0:
120,174,100342,1,0,0:0:0:0:
109,199,100441,1,0,0:0:0:0:
105,226,100540,1,0,0:0:0:0:
129,239,100639,1,0,0:0:0:0:
153,252,100738,1,0,0:0:0:0:
177,264,100837,6,0,L|210:210,3,52.5000020027161
279,187,101134,2,0,L|246:241,3,52.5000020027161
232,306,101431,5,0,0:0:0:0:
269,325,101505,1,0,0:0:0:0:
310,329,101579,1,0,0:0:0:0:
351,319,101653,1,0,0:0:0:0:
385,295,101728,1,0,0:0:0:0:
409,261,101802,1,0,0:0:0:0:
418,220,101876,1,0,0:0:0:0:
413,179,101950,1,0,0:0:0:0:
394,142,102025,1,0,0:0:0:0:
363,114,102099,1,0,0:0:0:0:
324,99,102173,1,0,0:0:0:0:
282,99,102248,1,0,0:0:0:0:
241,105,102322,1,0,0:0:0:0:
204,125,102396,1,0,0:0:0:0:
175,155,102471,2,0,P|148:191|138:229,1,70
136,368,102620,5,0,0:0:0:0:
156,331,102694,1,0,0:0:0:0:
188,304,102768,1,0,0:0:0:0:
228,290,102842,1,0,0:0:0:0:
269,290,102917,1,0,0:0:0:0:
308,305,102991,1,0,0:0:0:0:
337,335,103065,1,0,0:0:0:0:
376,350,103139,1,0,0:0:0:0:
418,348,103213,1,0,0:0:0:0:
455,329,103288,1,0,0:0:0:0:
481,296,103362,1,0,0:0:0:0:
491,256,103436,1,0,0:0:0:0:
483,215,103510,1,0,0:0:0:0:
459,181,103585,1,0,0:0:0:0:
423,160,103659,2,0,P|389:153|335:162,1,70
221,226,103808,5,0,0:0:0:0:
173,217,103882,1,0,0:0:0:0:
138,183,103956,1,0,0:0:0:0:
128,136,104030,1,0,0:0:0:0:
146,91,104105,1,0,0:0:0:0:
186,64,104179,1,0,0:0:0:0:
234,63,104253,1,0,0:0:0:0:
274,90,104327,1,0,0:0:0:0:
307,125,104401,1,0,0:0:0:0:
310,173,104476,1,0,0:0:0:0:
300,221,104550,1,0,0:0:0:0:
318,266,104624,1,0,0:0:0:0:
358,293,104698,1,0,0:0:0:0:
406,293,104773,1,0,0:0:0:0:
447,267,104847,2,0,P|462:233|451:186,1,70
402,55,104996,5,0,0:0:0:0:
431,92,105070,1,0,0:0:0:0:
436,140,105144,1,0,0:0:0:0:
414,184,105218,1,0,0:0:0:0:
373,208,105293,1,0,0:0:0:0:
324,206,105367,1,0,0:0:0:0:
285,178,105441,1,0,0:0:0:0:
267,133,105516,1,0,0:0:0:0:
231,101,105590,1,0,0:0:0:0:
183,96,105664,1,0,0:0:0:0:
141,120,105738,1,0,0:0:0:0:
122,164,105813,1,0,0:0:0:0:
133,211,105887,1,0,0:0:0:0:
170,243,105961,1,0,0:0:0:0:
218,246,106035,2,0,P|250:234|281:190,1,70
332,27,106184,5,0,0:0:0:0:
292,65,106258,1,0,0:0:0:0:
286,120,106332,1,0,0:0:0:0:
314,167,106406,1,0,0:0:0:0:
366,186,106481,1,0,0:0:0:0:
418,169,106555,1,0,0:0:0:0:
467,193,106629,1,0,0:0:0:0:
486,244,106703,1,0,0:0:0:0:
463,294,106777,1,0,0:0:0:0:
412,313,106852,1,0,0:0:0:0:
362,292,106926,1,0,0:0:0:0:
342,241,107001,1,0,0:0:0:0:
318,191,107075,1,0,0:0:0:0:
269,166,107149,1,0,0:0:0:0:
215,176,107224,2,0,P|178:209|168:255,1,70
127,378,107372,5,0,0:0:0:0:
78,351,107446,1,0,0:0:0:0:
56,301,107520,1,0,0:0:0:0:
69,248,107595,1,0,0:0:0:0:
95,199,107669,1,0,0:0:0:0:
143,170,107743,1,0,0:0:0:0:
191,140,107817,1,0,0:0:0:0:
244,126,107892,1,0,0:0:0:0:
293,150,107966,1,0,0:0:0:0:
315,200,108040,1,0,0:0:0:0:
299,253,108115,1,0,0:0:0:0:
252,282,108189,1,0,0:0:0:0:
198,273,108263,1,0,0:0:0:0:
162,232,108337,1,0,0:0:0:0:
154,176,108412,2,0,P|160:134|203:95,1,70
349,35,108560,5,0,0:0:0:0:
413,59,108634,1,0,0:0:0:0:
448,118,108708,1,0,0:0:0:0:
439,186,108782,1,0,0:0:0:0:
390,234,108857,1,0,0:0:0:0:
322,242,108931,1,0,0:0:0:0:
264,206,109005,1,0,0:0:0:0:
210,164,109080,1,0,0:0:0:0:
141,165,109154,1,0,0:0:0:0:
89,210,109228,1,0,0:0:0:0:
77,277,109303,1,0,0:0:0:0:
111,337,109377,1,0,0:0:0:0:
175,362,109451,1,0,0:0:0:0:
240,340,109525,1,0,0:0:0:0:
290,291,109600,2,0,P|312:250|291:176,1,105.000004005432
30,65,109748,5,0,0:0:0:0:
20,133,109822,1,0,0:0:0:0:
50,194,109896,1,0,0:0:0:0:
111,228,109970,1,0,0:0:0:0:
181,216,110045,1,0,0:0:0:0:
234,169,110119,1,0,0:0:0:0:
261,100,110194,1,0,0:0:0:0:
332,80,110268,1,0,0:0:0:0:
391,126,110342,1,0,0:0:0:0:
387,200,110417,1,0,0:0:0:0:
326,242,110491,1,0,0:0:0:0:
290,307,110565,1,0,0:0:0:0:
327,371,110639,1,0,0:0:0:0:
400,375,110713,1,0,0:0:0:0:
444,315,110788,1,0,0:0:0:0:
416,247,110862,1,0,0:0:0:0:
346,225,110936,5,0,0:0:0:0:
378,198,111010,1,0,0:0:0:0:
394,160,111084,1,0,0:0:0:0:
390,118,111158,1,0,0:0:0:0:
368,83,111233,1,0,0:0:0:0:
332,63,111307,1,0,0:0:0:0:
290,62,111381,1,0,0:0:0:0:
253,80,111455,1,0,0:0:0:0:
228,114,111530,1,0,0:0:0:0:
223,155,111604,1,0,0:0:0:0:
237,194,111679,1,0,0:0:0:0:
262,228,111753,1,0,0:0:0:0:
266,269,111827,1,0,0:0:0:0:
250,307,111901,1,0,0:0:0:0:
217,332,111976,1,0,0:0:0:0:
175,336,112050,1,0,0:0:0:0:
137,319,112124,1,0,0:0:0:0:
145,327,112422,5,0,0:0:0:0:
153,335,112570,1,0,0:0:0:0:
136,281,112645,1,0,0:0:0:0:
120,228,112719,1,0,0:0:0:0:
104,175,112793,1,0,0:0:0:0:
88,122,112867,2,0,P|89:76|146:25,1,105.000004005432
284,33,113016,2,0,P|318:71|322:122,1,105.000004005432
329,131,113313,5,0,0:0:0:0:
291,148,113387,1,0,0:0:0:0:
267,182,113461,1,0,0:0:0:0:
262,223,113535,1,0,0:0:0:0:
279,261,113610,1,0,0:0:0:0:
312,287,113684,1,0,0:0:0:0:
353,292,113758,1,0,0:0:0:0:
387,267,113832,1,0,0:0:0:0:
420,242,113906,1,0,0:0:0:0:
454,217,113980,1,0,0:0:0:0:
479,184,114055,1,0,0:0:0:0:
485,143,114129,1,0,0:0:0:0:
471,104,114204,2,0,L|411:185,1,70
399,68,114352,2,0,L|340:150,1,70
212,373,114501,6,0,P|178:336|175:267,1,105.000004005432
342,283,114650,2,0,P|335:334|300:373,1,105.000004005432
172,208,114798,2,0,B|172:188|172:188|153:168|153:168|172:149|172:149|172:90,1,105.000004005432
340,119,114947,2,0,B|340:149|340:149|360:168|360:168|340:188|340:188|340:208,1,105.000004005432
91,96,115095,2,0,P|121:50|213:42,1,105.000004005432
346,32,115244,2,0,P|394:52|421:96,1,105.000004005432
256,256,115392,6,0,B|256:224|256:224|224:191|224:191|256:160|256:160|256:64,1,210.000008010865
400,35,115689,6,0,L|400:-29,1,35
364,51,115763,2,0,L|364:-13,1,35
328,69,115838,2,0,L|328:133,1,35
291,84,115912,2,0,L|291:20,1,35
256,100,115986,2,0,L|256:36,1,35
225,119,116060,2,0,L|225:55,1,35
189,133,116135,2,0,L|189:197,1,35
154,149,116209,2,0,L|154:213,1,35
84,182,116283,6,0,L|84:147,1,35
119,198,116357,2,0,L|119:163,1,35
155,212,116432,2,0,L|155:247,1,35
186,231,116506,2,0,L|186:266,1,35
221,247,116580,2,0,L|221:282,1,35
258,262,116654,2,0,L|258:227,1,35
294,280,116729,2,0,L|294:315,1,35
330,296,116803,2,0,L|330:331,1,35
400,325,116877,6,0,L|400:360,1,35
364,324,116951,2,0,L|364:289,1,35
326,324,117026,2,0,L|326:359,1,35
289,324,117100,2,0,L|289:359,1,35
252,324,117174,2,0,L|252:289,1,35
213,323,117248,2,0,L|213:358,1,35
174,322,117323,2,0,L|174:287,1,35
135,321,117397,2,0,L|135:356,1,35
74,267,117471,6,0,L|74:302,1,35
110,266,117545,2,0,L|110:231,1,35
148,266,117620,2,0,L|148:301,1,35
185,266,117694,2,0,L|185:301,1,35
222,266,117768,2,0,L|222:231,1,35
261,265,117842,6,0,B|304:268|261:300,1,35
300,264,117917,6,0,B|337:256|300:229,1,35
339,263,117991,6,0,B|380:274|339:298,1,35
380,261,118065,5,0,0:0:0:0:
341,111,118362,5,0,0:0:0:0:
341,111,118436,1,0,0:0:0:0:
349,119,118956,2,0,P|280:187|401:283,1,280
364,204,119402,1,0,0:0:0:0:
184,233,119550,1,0,0:0:0:0:
374,204,119699,1,0,0:0:0:0:
207,129,119847,1,0,0:0:0:0:
384,204,119996,1,0,0:0:0:0:
204,233,120144,1,0,0:0:0:0:
259,30,120441,5,0,0:0:0:0:
252,78,120515,1,0,0:0:0:0:
245,126,120589,1,0,0:0:0:0:
238,174,120663,1,0,0:0:0:0:
231,222,120738,2,0,L|295:303,1,70
162,39,120886,5,0,0:0:0:0:
155,87,120960,1,0,0:0:0:0:
148,135,121034,1,0,0:0:0:0:
141,183,121110,1,0,0:0:0:0:
134,231,121183,2,0,L|198:312,1,70
290,30,121332,5,0,0:0:0:0:
297,78,121406,1,0,0:0:0:0:
304,126,121480,1,0,0:0:0:0:
311,174,121554,1,0,0:0:0:0:
318,222,121629,2,0,L|254:303,1,70
392,41,121777,5,0,0:0:0:0:
399,89,121851,1,0,0:0:0:0:
406,137,121927,1,0,0:0:0:0:
413,185,122001,1,0,0:0:0:0:
420,233,122074,2,0,L|356:314,1,70
280,16,122223,5,0,0:0:0:0:
233,28,122297,1,0,0:0:0:0:
186,41,122371,1,0,0:0:0:0:
139,54,122446,1,0,0:0:0:0:
92,67,122520,5,0,0:0:0:0:
107,81,122594,1,0,0:0:0:0:
122,95,122668,1,0,0:0:0:0:
137,110,122743,1,0,0:0:0:0:
152,124,122817,5,0,0:0:0:0:
145,172,122891,1,0,0:0:0:0:
138,220,122965,1,0,0:0:0:0:
131,268,123039,1,0,0:0:0:0:
124,316,123114,2,0,L|188:397,1,70
251,104,123262,5,0,0:0:0:0:
244,152,123336,1,0,0:0:0:0:
237,200,123412,1,0,0:0:0:0:
230,248,123486,1,0,0:0:0:0:
223,296,123559,2,0,L|287:377,1,70
353,47,123708,5,0,0:0:0:0:
360,95,123782,1,0,0:0:0:0:
367,143,123856,1,0,0:0:0:0:
374,191,123930,1,0,0:0:0:0:
381,239,124005,2,0,L|317:320,1,70
447,70,124153,5,0,0:0:0:0:
454,118,124227,1,0,0:0:0:0:
461,166,124303,1,0,0:0:0:0:
468,214,124377,1,0,0:0:0:0:
475,262,124451,2,0,L|411:343,1,70
203,0,124599,5,0,0:0:0:0:
250,12,124673,1,0,0:0:0:0:
297,25,124747,1,0,0:0:0:0:
344,38,124822,1,0,0:0:0:0:
391,51,124896,5,0,0:0:0:0:
376,65,124970,1,0,0:0:0:0:
361,79,125044,1,0,0:0:0:0:
346,94,125119,1,0,0:0:0:0:
331,108,125193,5,0,0:0:0:0:
372,146,125268,1,0,0:0:0:0:
394,196,125342,1,0,0:0:0:0:
390,252,125417,1,0,0:0:0:0:
364,301,125491,2,0,L|305:241,1,70
192,41,125639,5,0,0:0:0:0:
233,79,125714,1,0,0:0:0:0:
255,129,125788,1,0,0:0:0:0:
251,185,125863,1,0,0:0:0:0:
225,234,125937,2,0,L|166:174,1,70
75,8,126085,5,0,0:0:0:0:
34,46,126160,1,0,0:0:0:0:
12,96,126234,1,0,0:0:0:0:
16,152,126309,1,0,0:0:0:0:
42,201,126383,2,0,L|101:141,1,70
260,70,126530,5,0,0:0:0:0:
219,108,126605,1,0,0:0:0:0:
197,158,126679,1,0,0:0:0:0:
201,214,126754,1,0,0:0:0:0:
227,263,126828,2,0,L|286:203,1,70
338,11,126976,5,0,0:0:0:0:
291,23,127050,1,0,0:0:0:0:
244,36,127124,1,0,0:0:0:0:
197,49,127199,1,0,0:0:0:0:
150,62,127273,5,0,0:0:0:0:
165,76,127347,1,0,0:0:0:0:
180,90,127421,1,0,0:0:0:0:
195,105,127496,1,0,0:0:0:0:
210,119,127570,5,0,0:0:0:0:
157,149,127644,1,0,0:0:0:0:
147,209,127718,1,0,0:0:0:0:
187,255,127792,1,0,0:0:0:0:
248,253,127867,2,0,L|309:174,1,70
406,62,128016,5,0,0:0:0:0:
354,92,128090,1,0,0:0:0:0:
344,152,128164,1,0,0:0:0:0:
384,198,128238,1,0,0:0:0:0:
445,196,128313,2,0,L|505:116,1,70
279,52,128461,5,0,0:0:0:0:
331,82,128535,1,0,0:0:0:0:
341,142,128609,1,0,0:0:0:0:
301,188,128683,1,0,0:0:0:0:
240,186,128758,2,0,L|179:106,1,70
95,30,128907,5,0,0:0:0:0:
147,60,128981,1,0,0:0:0:0:
157,120,129055,1,0,0:0:0:0:
117,166,129129,1,0,0:0:0:0:
56,164,129204,2,0,L|-4:84,1,70
16,322,129352,5,0,0:0:0:0:
64,280,129427,1,0,0:0:0:0:
111,320,129501,1,0,0:0:0:0:
173,313,129575,1,0,0:0:0:0:
202,257,129649,1,0,0:0:0:0:
213,194,129724,1,0,0:0:0:0:
272,213,129798,1,0,0:0:0:0:
290,153,129872,1,0,0:0:0:0:
334,108,129946,5,0,0:0:0:0:
256,192,129965,12,0,131283,0:0:0:0:
256,192,133511,12,0,134829,0:0:0:0:
0,384,134847,5,14,0:3:0:0:
