osu file format v14

[General]
AudioFilename: For UltraPlayers (Long Ver.) 128kbps.mp3
AudioLeadIn: 0
PreviewTime: 97972
Countdown: 0
SampleSet: Normal
StackLeniency: 0.7
Mode: 3
LetterboxInBreaks: 0
SpecialStyle: 0
WidescreenStoryboard: 1

[Editor]
DistanceSpacing: 0.8
BeatDivisor: 3
GridSize: 8
TimelineZoom: 2.599999

[Metadata]
Title:For UltraPlayers (Long Ver.)
TitleUnicode:For UltraPlayers (Long Ver.)
Artist:cosMo@Bousou-P
ArtistUnicode:cosMo@暴走P
Creator:mijkolsmith
Version:Easy
Source:
Tags:
BeatmapID:824914
BeatmapSetID:352539

[Difficulty]
HPDrainRate:6.5
CircleSize:4
OverallDifficulty:6
ApproachRate:5
SliderMultiplier:1.4
SliderTickRate:1

[Events]
//Background and Video events
0,0,"bg.jpg",0,0
//Break Periods
//Storyboard Layer 0 (Background)
//Storyboard Layer 1 (Fail)
//Storyboard Layer 2 (Pass)
//Storyboard Layer 3 (Foreground)
//Storyboard Sound Samples

[TimingPoints]
875,298.507462686567,4,1,0,29,1,0

[HitObjects]
64,192,875,5,0,0:0:0:0:
320,192,1024,1,0,0:0:0:0:
448,192,1472,1,0,0:0:0:0:
192,192,1621,1,0,0:0:0:0:
64,192,2069,1,0,0:0:0:0:
320,192,2218,1,0,0:0:0:0:
448,192,2666,1,0,0:0:0:0:
192,192,2815,1,0,0:0:0:0:
320,192,3263,1,0,0:0:0:0:
64,192,3412,1,0,0:0:0:0:
192,192,3860,1,0,0:0:0:0:
448,192,4009,1,0,0:0:0:0:
320,192,4457,1,0,0:0:0:0:
64,192,4606,1,0,0:0:0:0:
192,192,5054,1,0,0:0:0:0:
448,192,5203,1,0,0:0:0:0:
320,192,5651,1,0,0:0:0:0:
192,192,5800,1,0,0:0:0:0:
448,192,6248,1,0,0:0:0:0:
64,192,6397,1,0,0:0:0:0:
192,192,6845,1,0,0:0:0:0:
320,192,6994,1,0,0:0:0:0:
64,192,7442,1,0,0:0:0:0:
448,192,7591,1,0,0:0:0:0:
320,192,8039,1,0,0:0:0:0:
64,192,8188,1,0,0:0:0:0:
192,192,8636,1,0,0:0:0:0:
448,192,8785,1,0,0:0:0:0:
320,192,9233,1,0,0:0:0:0:
64,192,9382,1,0,0:0:0:0:
448,192,9830,1,0,0:0:0:0:
192,192,9979,1,0,0:0:0:0:
64,192,10427,1,0,0:0:0:0:
320,192,10576,1,0,0:0:0:0:
448,192,11024,1,0,0:0:0:0:
64,192,11173,1,0,0:0:0:0:
448,192,11621,1,0,0:0:0:0:
192,192,11770,1,0,0:0:0:0:
64,192,12218,1,0,0:0:0:0:
448,192,12367,1,0,0:0:0:0:
320,192,12815,1,0,0:0:0:0:
192,192,12964,1,0,0:0:0:0:
64,192,13412,1,0,0:0:0:0:
192,192,13561,1,0,0:0:0:0:
320,192,14009,1,0,0:0:0:0:
448,192,14158,1,0,0:0:0:0:
192,192,14606,1,0,0:0:0:0:
64,192,14755,1,0,0:0:0:0:
448,192,15203,1,0,0:0:0:0:
64,192,15352,1,0,0:0:0:0:
192,192,15501,1,0,0:0:0:0:
320,192,15800,1,0,0:0:0:0:
64,192,15949,1,0,0:0:0:0:
448,192,16098,1,0,0:0:0:0:
192,192,16397,1,0,0:0:0:0:
64,192,16546,1,0,0:0:0:0:
320,192,16695,1,0,0:0:0:0:
64,192,16994,1,0,0:0:0:0:
448,192,17143,1,0,0:0:0:0:
192,192,17292,1,0,0:0:0:0:
192,192,17591,1,0,0:0:0:0:
448,192,17740,1,0,0:0:0:0:
64,192,17889,1,0,0:0:0:0:
320,192,18188,1,0,0:0:0:0:
448,192,18337,1,0,0:0:0:0:
192,192,18486,1,0,0:0:0:0:
320,192,18785,1,0,0:0:0:0:
64,192,19083,1,0,0:0:0:0:
448,192,19382,1,0,0:0:0:0:
320,192,19680,1,0,0:0:0:0:
192,192,19979,1,0,0:0:0:0:
448,192,21173,1,0,0:0:0:0:
448,192,21472,1,0,0:0:0:0:
64,192,21770,1,0,0:0:0:0:
64,192,22069,1,0,0:0:0:0:
192,192,22367,1,0,0:0:0:0:
192,192,22666,1,0,0:0:0:0:
320,192,22964,1,0,0:0:0:0:
320,192,23263,1,0,0:0:0:0:
448,192,23561,1,0,0:0:0:0:
448,192,23860,1,0,0:0:0:0:
320,192,24158,1,0,0:0:0:0:
320,192,24457,1,0,0:0:0:0:
192,192,24755,1,0,0:0:0:0:
192,192,25054,1,0,0:0:0:0:
64,192,25352,1,0,0:0:0:0:
64,192,25651,1,0,0:0:0:0:
320,192,25949,1,0,0:0:0:0:
192,192,26248,1,0,0:0:0:0:
64,192,26546,1,0,0:0:0:0:
192,192,26845,1,0,0:0:0:0:
320,192,27143,1,0,0:0:0:0:
64,192,27442,1,0,0:0:0:0:
448,192,27740,1,0,0:0:0:0:
192,192,28039,1,0,0:0:0:0:
320,192,28337,1,0,0:0:0:0:
448,192,28636,1,0,0:0:0:0:
192,192,28934,1,0,0:0:0:0:
320,192,29233,1,0,0:0:0:0:
64,192,29531,1,0,0:0:0:0:
192,192,29830,1,0,0:0:0:0:
320,192,30128,1,0,0:0:0:0:
448,192,30427,1,0,0:0:0:0:
192,192,30725,1,0,0:0:0:0:
320,192,31024,1,0,0:0:0:0:
448,192,31322,1,0,0:0:0:0:
192,192,31621,1,0,0:0:0:0:
320,192,31919,1,0,0:0:0:0:
64,192,32218,1,0,0:0:0:0:
192,192,32516,1,0,0:0:0:0:
448,192,32815,1,0,0:0:0:0:
192,192,33113,1,0,0:0:0:0:
64,192,33412,1,0,0:0:0:0:
320,192,33710,1,0,0:0:0:0:
448,192,34009,1,0,0:0:0:0:
192,192,34307,1,0,0:0:0:0:
64,192,34606,1,0,0:0:0:0:
320,192,34904,1,0,0:0:0:0:
448,192,35203,1,0,0:0:0:0:
192,192,35501,1,0,0:0:0:0:
64,192,35800,1,0,0:0:0:0:
320,192,36098,1,0,0:0:0:0:
192,192,36397,1,0,0:0:0:0:
448,192,36695,1,0,0:0:0:0:
64,192,36994,1,0,0:0:0:0:
320,192,37292,1,0,0:0:0:0:
448,192,37591,1,0,0:0:0:0:
64,192,37889,128,0,38188:0:0:0:0:
320,192,38188,1,0,0:0:0:0:
192,192,38486,1,0,0:0:0:0:
448,192,38785,1,0,0:0:0:0:
320,192,39083,1,0,0:0:0:0:
320,192,39382,1,0,0:0:0:0:
448,192,39680,1,0,0:0:0:0:
448,192,39979,1,0,0:0:0:0:
192,192,40277,1,0,0:0:0:0:
64,192,40874,1,0,0:0:0:0:
320,192,41472,1,0,0:0:0:0:
64,192,42516,1,0,0:0:0:0:
192,192,42666,1,0,0:0:0:0:
448,192,43710,1,0,0:0:0:0:
320,192,43860,1,0,0:0:0:0:
192,192,44904,1,0,0:0:0:0:
320,192,45054,1,0,0:0:0:0:
64,192,45651,1,0,0:0:0:0:
192,192,45949,1,0,0:0:0:0:
320,192,46098,1,0,0:0:0:0:
448,192,46248,1,0,0:0:0:0:
448,192,47292,1,0,0:0:0:0:
192,192,47442,1,0,0:0:0:0:
64,192,48486,1,0,0:0:0:0:
320,192,48636,1,0,0:0:0:0:
192,192,49680,1,0,0:0:0:0:
320,192,49830,1,0,0:0:0:0:
448,192,50427,1,0,0:0:0:0:
320,192,50725,1,0,0:0:0:0:
192,192,50874,1,0,0:0:0:0:
64,192,51024,1,0,0:0:0:0:
192,192,52069,1,0,0:0:0:0:
448,192,52218,1,0,0:0:0:0:
320,192,53263,1,0,0:0:0:0:
64,192,53412,1,0,0:0:0:0:
192,192,54606,1,0,0:0:0:0:
64,192,54606,1,0,0:0:0:0:
448,192,54830,1,0,0:0:0:0:
320,192,54830,1,0,0:0:0:0:
192,192,55054,1,0,0:0:0:0:
320,192,55203,1,0,0:0:0:0:
448,192,55501,128,0,55800:0:0:0:0:
64,192,55800,1,0,0:0:0:0:
320,192,56098,1,0,0:0:0:0:
192,192,56397,1,0,0:0:0:0:
448,192,56695,1,0,0:0:0:0:
320,192,56994,1,0,0:0:0:0:
192,192,57292,1,0,0:0:0:0:
448,192,57591,1,0,0:0:0:0:
192,192,57889,1,0,0:0:0:0:
320,192,58188,1,0,0:0:0:0:
64,192,58785,1,0,0:0:0:0:
320,192,59382,1,0,0:0:0:0:
192,192,59979,1,0,0:0:0:0:
448,192,60576,1,0,0:0:0:0:
320,192,60874,1,0,0:0:0:0:
64,192,61173,1,0,0:0:0:0:
192,192,61472,1,0,0:0:0:0:
320,192,61770,1,0,0:0:0:0:
64,192,62069,1,0,0:0:0:0:
192,192,62367,1,0,0:0:0:0:
448,192,62666,1,0,0:0:0:0:
64,192,62964,1,0,0:0:0:0:
64,192,63113,1,0,0:0:0:0:
192,192,63561,1,0,0:0:0:0:
192,192,63710,1,0,0:0:0:0:
320,192,64158,1,0,0:0:0:0:
448,192,64755,1,0,0:0:0:0:
64,192,65352,1,0,0:0:0:0:
448,192,65651,1,0,0:0:0:0:
192,192,65949,1,0,0:0:0:0:
320,192,66248,1,0,0:0:0:0:
64,192,66546,1,0,0:0:0:0:
448,192,66845,1,0,0:0:0:0:
192,192,67143,1,0,0:0:0:0:
64,192,67442,1,0,0:0:0:0:
320,192,67740,1,0,0:0:0:0:
64,192,68337,1,0,0:0:0:0:
448,192,68934,1,0,0:0:0:0:
64,192,69233,1,0,0:0:0:0:
320,192,69531,1,0,0:0:0:0:
448,192,69830,1,0,0:0:0:0:
64,192,70128,1,0,0:0:0:0:
448,192,71322,1,0,0:0:0:0:
320,192,72516,1,0,0:0:0:0:
64,192,73710,1,0,0:0:0:0:
192,192,74307,1,0,0:0:0:0:
320,192,74904,1,0,0:0:0:0:
192,192,76098,1,0,0:0:0:0:
320,192,76695,1,0,0:0:0:0:
320,192,76994,1,0,0:0:0:0:
192,192,77292,1,0,0:0:0:0:
448,192,77889,1,0,0:0:0:0:
64,192,78486,1,0,0:0:0:0:
192,192,78785,1,0,0:0:0:0:
320,192,79083,1,0,0:0:0:0:
448,192,79382,1,0,0:0:0:0:
320,192,79680,1,0,0:0:0:0:
64,192,80277,1,0,0:0:0:0:
192,192,80874,1,0,0:0:0:0:
448,192,81472,1,0,0:0:0:0:
320,192,82069,1,0,0:0:0:0:
192,192,82666,1,0,0:0:0:0:
448,192,83263,1,0,0:0:0:0:
192,192,83860,1,0,0:0:0:0:
448,192,84158,1,0,0:0:0:0:
64,192,84457,1,0,0:0:0:0:
320,192,85054,1,0,0:0:0:0:
192,192,85651,1,0,0:0:0:0:
448,192,86248,1,0,0:0:0:0:
320,192,86845,1,0,0:0:0:0:
192,192,87143,1,0,0:0:0:0:
320,192,87442,1,0,0:0:0:0:
192,192,87740,1,0,0:0:0:0:
320,192,88039,1,0,0:0:0:0:
448,192,88337,1,0,0:0:0:0:
64,192,88636,1,0,0:0:0:0:
64,192,88934,1,0,0:0:0:0:
192,192,89233,1,0,0:0:0:0:
448,192,89531,1,0,0:0:0:0:
448,192,90128,1,0,0:0:0:0:
448,192,90725,1,0,0:0:0:0:
448,192,91322,1,0,0:0:0:0:
64,192,91621,128,0,92218:0:0:0:0:
192,192,92218,128,0,92815:0:0:0:0:
320,192,92815,128,0,93412:0:0:0:0:
448,192,93412,128,0,94009:0:0:0:0:
64,192,94009,1,0,0:0:0:0:
192,192,95203,1,0,0:0:0:0:
448,192,95800,1,0,0:0:0:0:
64,192,96098,1,0,0:0:0:0:
320,192,96397,1,0,0:0:0:0:
448,192,96695,1,0,0:0:0:0:
192,192,96994,1,0,0:0:0:0:
320,192,97292,1,0,0:0:0:0:
448,192,97591,1,0,0:0:0:0:
64,192,97591,128,0,98188:0:0:0:0:
192,192,98188,128,0,98785:0:0:0:0:
448,192,98785,1,0,0:0:0:0:
320,192,98785,1,0,0:0:0:0:
192,192,99083,1,0,0:0:0:0:
64,192,99382,1,0,0:0:0:0:
448,192,99680,1,0,0:0:0:0:
320,192,99979,1,0,0:0:0:0:
192,192,100277,1,0,0:0:0:0:
64,192,100576,1,0,0:0:0:0:
320,192,100874,1,0,0:0:0:0:
64,192,101173,1,0,0:0:0:0:
320,192,101472,1,0,0:0:0:0:
192,192,101770,1,0,0:0:0:0:
448,192,102069,1,0,0:0:0:0:
320,192,102367,1,0,0:0:0:0:
192,192,102666,1,0,0:0:0:0:
448,192,102964,1,0,0:0:0:0:
320,192,103263,1,0,0:0:0:0:
192,192,103561,1,0,0:0:0:0:
448,192,103860,1,0,0:0:0:0:
64,192,104158,1,0,0:0:0:0:
320,192,104457,1,0,0:0:0:0:
192,192,104755,1,0,0:0:0:0:
448,192,105054,1,0,0:0:0:0:
320,192,105352,1,0,0:0:0:0:
192,192,105651,1,0,0:0:0:0:
64,192,105949,1,0,0:0:0:0:
320,192,106248,1,0,0:0:0:0:
192,192,106546,1,0,0:0:0:0:
448,192,106845,1,0,0:0:0:0:
64,192,107143,1,0,0:0:0:0:
192,192,107442,1,0,0:0:0:0:
320,192,107666,1,0,0:0:0:0:
448,192,107740,1,0,0:0:0:0:
64,192,108188,128,0,108636:0:0:0:0:
192,192,108636,1,0,0:0:0:0:
448,192,108934,1,0,0:0:0:0:
320,192,109233,1,0,0:0:0:0:
192,192,109531,1,0,0:0:0:0:
64,192,109830,1,0,0:0:0:0:
192,192,110128,1,0,0:0:0:0:
448,192,110427,1,0,0:0:0:0:
320,192,110725,1,0,0:0:0:0:
64,192,111024,1,0,0:0:0:0:
192,192,111322,1,0,0:0:0:0:
320,192,111621,1,0,0:0:0:0:
64,192,111919,1,0,0:0:0:0:
192,192,112218,1,0,0:0:0:0:
448,192,112516,1,0,0:0:0:0:
64,192,112815,1,0,0:0:0:0:
448,192,113113,1,0,0:0:0:0:
320,192,113412,1,0,0:0:0:0:
192,192,113710,1,0,0:0:0:0:
192,192,114009,1,0,0:0:0:0:
320,192,114307,1,0,0:0:0:0:
448,192,114606,1,0,0:0:0:0:
192,192,114904,1,0,0:0:0:0:
320,192,115203,1,0,0:0:0:0:
64,192,115501,1,0,0:0:0:0:
192,192,115800,1,0,0:0:0:0:
64,192,115949,1,0,0:0:0:0:
448,192,116098,1,0,0:0:0:0:
320,192,116248,1,0,0:0:0:0:
192,192,116397,1,0,0:0:0:0:
448,192,116695,1,0,0:0:0:0:
320,192,116994,1,0,0:0:0:0:
192,192,117292,1,0,0:0:0:0:
64,192,117591,1,0,0:0:0:0:
192,192,117889,128,0,122666:0:0:0:0:
320,192,122666,128,0,123860:0:0:0:0:
64,192,123860,128,0,125054:0:0:0:0:
448,192,125054,128,0,126248:0:0:0:0:
64,192,126248,128,0,127442:0:0:0:0:
192,192,127442,128,0,128636:0:0:0:0:
320,192,127442,1,0,0:0:0:0:
64,192,128636,1,0,0:0:0:0:
448,192,128636,128,0,129830:0:0:0:0:
320,192,129830,1,0,0:0:0:0:
64,192,129830,128,0,131024:0:0:0:0:
320,192,131024,128,0,132218:0:0:0:0:
192,192,131024,1,0,0:0:0:0:
448,192,132218,128,0,133412:0:0:0:0:
64,192,132218,1,0,0:0:0:0:
192,192,133412,128,0,134606:0:0:0:0:
320,192,133412,1,0,0:0:0:0:
320,192,134606,128,0,135800:0:0:0:0:
64,192,134606,1,0,0:0:0:0:
448,192,135800,1,0,0:0:0:0:
320,192,136397,1,0,0:0:0:0:
192,192,136994,1,0,0:0:0:0:
64,192,137292,1,0,0:0:0:0:
192,192,137591,1,0,0:0:0:0:
320,192,137889,1,0,0:0:0:0:
448,192,138188,1,0,0:0:0:0:
448,192,138486,1,0,0:0:0:0:
64,192,138785,1,0,0:0:0:0:
64,192,139083,1,0,0:0:0:0:
320,192,139382,1,0,0:0:0:0:
320,192,139680,1,0,0:0:0:0:
192,192,139979,1,0,0:0:0:0:
64,192,140277,1,0,0:0:0:0:
448,192,140576,1,0,0:0:0:0:
448,192,140874,1,0,0:0:0:0:
320,192,141173,1,0,0:0:0:0:
320,192,141472,1,0,0:0:0:0:
192,192,141770,1,0,0:0:0:0:
192,192,142069,1,0,0:0:0:0:
64,192,142367,1,0,0:0:0:0:
320,192,142666,1,0,0:0:0:0:
192,192,142964,1,0,0:0:0:0:
192,192,143263,1,0,0:0:0:0:
320,192,143561,1,0,0:0:0:0:
320,192,143860,1,0,0:0:0:0:
64,192,144158,1,0,0:0:0:0:
64,192,144457,1,0,0:0:0:0:
448,192,144755,1,0,0:0:0:0:
320,192,145054,1,0,0:0:0:0:
192,192,145352,1,0,0:0:0:0:
192,192,145651,1,0,0:0:0:0:
64,192,145949,1,0,0:0:0:0:
64,192,146248,1,0,0:0:0:0:
448,192,146546,1,0,0:0:0:0:
448,192,146845,1,0,0:0:0:0:
320,192,147143,1,0,0:0:0:0:
192,192,147442,1,0,0:0:0:0:
320,192,147740,1,0,0:0:0:0:
320,192,148039,1,0,0:0:0:0:
192,192,148337,1,0,0:0:0:0:
192,192,148636,1,0,0:0:0:0:
448,192,148934,1,0,0:0:0:0:
448,192,149233,1,0,0:0:0:0:
320,192,149531,1,0,0:0:0:0:
320,192,149830,1,0,0:0:0:0:
192,192,150128,1,0,0:0:0:0:
192,192,150427,1,0,0:0:0:0:
64,192,150725,1,0,0:0:0:0:
64,192,151024,1,0,0:0:0:0:
192,192,151322,1,0,0:0:0:0:
320,192,151621,1,0,0:0:0:0:
192,192,151919,1,0,0:0:0:0:
320,192,152218,1,0,0:0:0:0:
64,192,152516,1,0,0:0:0:0:
448,192,152815,1,0,0:0:0:0:
64,192,153113,1,0,0:0:0:0:
448,192,153412,1,0,0:0:0:0:
320,192,153710,1,0,0:0:0:0:
64,192,154009,1,0,0:0:0:0:
320,192,154307,1,0,0:0:0:0:
64,192,154606,1,0,0:0:0:0:
192,192,154904,1,0,0:0:0:0:
448,192,155203,1,0,0:0:0:0:
192,192,155501,1,0,0:0:0:0:
448,192,155800,1,0,0:0:0:0:
64,192,156098,128,0,156695:0:0:0:0:
192,192,156695,128,0,157292:0:0:0:0:
320,192,157292,128,0,157889:0:0:0:0:
448,192,157889,128,0,158486:0:0:0:0:
64,192,158486,128,0,159083:0:0:0:0:
448,192,159083,128,0,159680:0:0:0:0:
192,192,159680,128,0,160277:0:0:0:0:
320,192,160277,128,0,160874:0:0:0:0:
64,192,160874,1,0,0:0:0:0:
192,192,161173,1,0,0:0:0:0:
320,192,161472,1,0,0:0:0:0:
448,192,161770,1,0,0:0:0:0:
320,192,162069,128,0,162666:0:0:0:0:
64,192,162069,1,0,0:0:0:0:
192,192,162666,128,0,163263:0:0:0:0:
64,192,163263,1,0,0:0:0:0:
448,192,163263,1,0,0:0:0:0:
64,192,164457,1,0,0:0:0:0:
192,192,165054,1,0,0:0:0:0:
320,192,165352,1,0,0:0:0:0:
448,192,165651,1,0,0:0:0:0:
320,192,166845,1,0,0:0:0:0:
192,192,168039,1,0,0:0:0:0:
320,192,168636,1,0,0:0:0:0:
64,192,169233,1,0,0:0:0:0:
448,192,170427,1,0,0:0:0:0:
320,192,171621,1,0,0:0:0:0:
64,192,172815,1,0,0:0:0:0:
320,192,173412,1,0,0:0:0:0:
448,192,174009,1,0,0:0:0:0:
320,192,174606,1,0,0:0:0:0:
192,192,175203,1,0,0:0:0:0:
448,192,175203,1,0,0:0:0:0:
64,192,176397,1,0,0:0:0:0:
192,192,176695,1,0,0:0:0:0:
448,192,176994,1,0,0:0:0:0:
320,192,177292,1,0,0:0:0:0:
192,192,177591,1,0,0:0:0:0:
320,192,178188,1,0,0:0:0:0:
64,192,178785,1,0,0:0:0:0:
192,192,179382,1,0,0:0:0:0:
448,192,179680,1,0,0:0:0:0:
320,192,179979,1,0,0:0:0:0:
64,192,180277,1,0,0:0:0:0:
192,192,180576,1,0,0:0:0:0:
448,192,180874,1,0,0:0:0:0:
64,192,181173,1,0,0:0:0:0:
192,192,181472,1,0,0:0:0:0:
320,192,181770,1,0,0:0:0:0:
192,192,182069,1,0,0:0:0:0:
448,192,182367,1,0,0:0:0:0:
320,192,182367,128,0,183561:0:0:0:0:
64,192,183561,1,0,0:0:0:0:
448,192,183561,1,0,0:0:0:0:
192,192,183785,1,0,0:0:0:0:
320,192,183785,1,0,0:0:0:0:
64,192,184009,1,0,0:0:0:0:
448,192,184158,1,0,0:0:0:0:
64,192,184755,1,0,0:0:0:0:
448,192,184755,1,0,0:0:0:0:
192,192,185054,1,0,0:0:0:0:
320,192,185352,1,0,0:0:0:0:
448,192,185651,1,0,0:0:0:0:
320,192,185949,1,0,0:0:0:0:
192,192,186248,1,0,0:0:0:0:
64,192,186546,1,0,0:0:0:0:
320,192,186845,1,0,0:0:0:0:
192,192,187143,1,0,0:0:0:0:
448,192,187442,1,0,0:0:0:0:
320,192,187740,1,0,0:0:0:0:
192,192,188039,1,0,0:0:0:0:
64,192,188337,1,0,0:0:0:0:
320,192,188636,1,0,0:0:0:0:
192,192,188934,1,0,0:0:0:0:
320,192,189233,1,0,0:0:0:0:
448,192,189531,1,0,0:0:0:0:
192,192,189830,1,0,0:0:0:0:
320,192,190128,1,0,0:0:0:0:
192,192,190427,1,0,0:0:0:0:
64,192,190725,1,0,0:0:0:0:
320,192,191024,1,0,0:0:0:0:
448,192,191322,1,0,0:0:0:0:
64,192,191621,1,0,0:0:0:0:
192,192,191919,1,0,0:0:0:0:
320,192,192218,1,0,0:0:0:0:
64,192,192516,1,0,0:0:0:0:
448,192,192815,1,0,0:0:0:0:
192,192,193113,1,0,0:0:0:0:
320,192,193412,1,0,0:0:0:0:
192,192,193710,1,0,0:0:0:0:
320,192,194009,1,0,0:0:0:0:
448,192,194307,1,0,0:0:0:0:
64,192,194606,1,0,0:0:0:0:
320,192,194904,1,0,0:0:0:0:
192,192,195203,1,0,0:0:0:0:
448,192,195501,1,0,0:0:0:0:
64,192,195800,1,0,0:0:0:0:
320,192,196098,1,0,0:0:0:0:
192,192,196397,1,0,0:0:0:0:
448,192,196695,1,0,0:0:0:0:
64,192,197292,1,0,0:0:0:0:
320,192,197889,1,0,0:0:0:0:
64,192,198486,1,0,0:0:0:0:
320,192,198785,1,0,0:0:0:0:
192,192,199083,1,0,0:0:0:0:
320,192,199382,1,0,0:0:0:0:
448,192,199680,1,0,0:0:0:0:
320,192,199979,1,0,0:0:0:0:
448,192,200277,1,0,0:0:0:0:
64,192,200576,1,0,0:0:0:0:
192,192,200874,1,0,0:0:0:0:
64,192,201173,1,0,0:0:0:0:
192,192,201472,1,0,0:0:0:0:
448,192,202069,1,0,0:0:0:0:
64,192,202666,1,0,0:0:0:0:
192,192,202964,1,0,0:0:0:0:
320,192,203263,1,0,0:0:0:0:
448,192,203561,1,0,0:0:0:0:
320,192,203860,128,0,205054:0:0:0:0:
64,192,205054,1,0,0:0:0:0:
448,192,205054,1,0,0:0:0:0:
192,192,205352,1,0,0:0:0:0:
320,192,205651,1,0,0:0:0:0:
448,192,205949,1,0,0:0:0:0:
192,192,206248,1,0,0:0:0:0:
320,192,206546,1,0,0:0:0:0:
64,192,206845,1,0,0:0:0:0:
192,192,207143,1,0,0:0:0:0:
448,192,207442,1,0,0:0:0:0:
320,192,207740,1,0,0:0:0:0:
192,192,208039,1,0,0:0:0:0:
448,192,208337,1,0,0:0:0:0:
64,192,208636,1,0,0:0:0:0:
320,192,208934,1,0,0:0:0:0:
192,192,209233,1,0,0:0:0:0:
448,192,209531,1,0,0:0:0:0:
320,192,209830,1,0,0:0:0:0:
64,192,210128,1,0,0:0:0:0:
192,192,210427,1,0,0:0:0:0:
448,192,210725,1,0,0:0:0:0:
320,192,211024,1,0,0:0:0:0:
192,192,211322,1,0,0:0:0:0:
64,192,211621,1,0,0:0:0:0:
320,192,211919,1,0,0:0:0:0:
448,192,212218,1,0,0:0:0:0:
192,192,212516,1,0,0:0:0:0:
320,192,212815,1,0,0:0:0:0:
64,192,213113,1,0,0:0:0:0:
320,192,213412,1,0,0:0:0:0:
320,192,213710,1,0,0:0:0:0:
192,192,214009,1,0,0:0:0:0:
448,192,214307,1,0,0:0:0:0:
64,192,214606,1,0,0:0:0:0:
192,192,214904,1,0,0:0:0:0:
320,192,215203,1,0,0:0:0:0:
448,192,215501,1,0,0:0:0:0:
64,192,215800,1,0,0:0:0:0:
192,192,216098,1,0,0:0:0:0:
320,192,216397,1,0,0:0:0:0:
448,192,216695,1,0,0:0:0:0:
192,192,216994,1,0,0:0:0:0:
320,192,217591,1,0,0:0:0:0:
64,192,218188,1,0,0:0:0:0:
192,192,218486,1,0,0:0:0:0:
448,192,218785,1,0,0:0:0:0:
320,192,218934,1,0,0:0:0:0:
192,192,219083,1,0,0:0:0:0:
64,192,219233,1,0,0:0:0:0:
192,192,219382,1,0,0:0:0:0:
448,192,219680,1,0,0:0:0:0:
320,192,219979,1,0,0:0:0:0:
192,192,220277,1,0,0:0:0:0:
448,192,220576,1,0,0:0:0:0:
192,192,220874,1,0,0:0:0:0:
320,192,221173,1,0,0:0:0:0:
192,192,221472,1,0,0:0:0:0:
64,192,221770,1,0,0:0:0:0:
192,192,222367,1,0,0:0:0:0:
320,192,222964,1,0,0:0:0:0:
448,192,223561,1,0,0:0:0:0:
192,192,224158,1,0,0:0:0:0:
320,192,224457,1,0,0:0:0:0:
192,192,224755,1,0,0:0:0:0:
320,192,225054,1,0,0:0:0:0:
64,192,225352,1,0,0:0:0:0:
192,192,225651,1,0,0:0:0:0:
320,192,225949,1,0,0:0:0:0:
192,192,226248,1,0,0:0:0:0:
64,192,226546,1,0,0:0:0:0:
448,192,226845,1,0,0:0:0:0:
320,192,227143,1,0,0:0:0:0:
192,192,227442,1,0,0:0:0:0:
320,192,227740,1,0,0:0:0:0:
448,192,228039,1,0,0:0:0:0:
192,192,228337,1,0,0:0:0:0:
320,192,228636,1,0,0:0:0:0:
192,192,228934,1,0,0:0:0:0:
320,192,229531,1,0,0:0:0:0:
448,192,229680,1,0,0:0:0:0:
64,192,230128,1,0,0:0:0:0:
448,192,230427,1,0,0:0:0:0:
192,192,230725,1,0,0:0:0:0:
448,192,231024,1,0,0:0:0:0:
320,192,231322,1,0,0:0:0:0:
64,192,231322,128,0,233710:0:0:0:0:
448,192,233710,128,0,236098:0:0:0:0:
192,192,236098,128,0,238486:0:0:0:0:
320,192,236098,1,0,0:0:0:0:
320,192,238486,128,0,240874:0:0:0:0:
192,192,240874,1,0,0:0:0:0:
64,192,241074,1,0,0:0:0:0:
