osu file format v14

[General]
AudioFilename: Denpa Shoujo to Kuusou Teien.mp3
AudioLeadIn: 0
PreviewTime: 79377
Countdown: 0
SampleSet: None
StackLeniency: 0.7
Mode: 0
LetterboxInBreaks: 0
WidescreenStoryboard: 0

[Editor]
Bookmarks: 5645,17586,27138,41466,51019,79675,117884,127437,136989,175198,184750,194302,203854,215795,234899,254004
DistanceSpacing: 0.3
BeatDivisor: 4
GridSize: 4
TimelineZoom: 1

[Metadata]
Title:Denpa Shoujo to Kuusou Teien
TitleUnicode:電波少女と空想庭園
Artist:cosMo@Bousou-P
ArtistUnicode:cosMo@暴走P
Creator:BarkingMadDog
Version:Radio Girl and the Fantastic Garden
Source:
Tags:syuri22 Vocaloid Hatsune Miku 初音ミク Camui Gackpo 星ノ少女ト幻奏楽土 Hoshi no Shoujo to Gensou Rakudo Star Girl and the Illusion Paradise ニコニコ動画 nico nico douga nnd rpg style
BeatmapID:861415
BeatmapSetID:395862

[Difficulty]
HPDrainRate:6
CircleSize:4
OverallDifficulty:9
ApproachRate:9.6
SliderMultiplier:1.84
SliderTickRate:1

[Events]
//Background and Video events
0,0,"ilovemikuuu.jpg",0,0
//Break Periods
//Storyboard Layer 0 (Background)
//Storyboard Layer 1 (Fail)
//Storyboard Layer 2 (Pass)
//Storyboard Layer 3 (Foreground)
//Storyboard Sound Samples

[TimingPoints]
5646,298.507462686567,4,2,1,46,1,0
5944,-125,4,2,1,46,0,0
15198,-200,4,2,1,51,0,0
17586,-100,4,2,1,56,0,0
22362,-111.111111111111,4,2,1,56,0,0
27138,-142.857142857143,4,2,1,46,0,0
31914,-117.647058823529,4,2,1,46,0,0
41466,-125,4,2,1,43,0,0
51019,-111.111111111111,4,2,1,47,0,0
60571,-117.647058823529,4,2,1,45,0,0
70123,-125,4,2,1,43,0,0
73705,-105.263157894737,4,2,1,43,0,0
74899,-105.263157894737,4,2,3,43,0,0
77287,-105.263157894737,4,2,1,43,0,0
79675,-90.9090909090909,4,2,2,61,0,1
89153,-90.9090909090909,4,2,2,61,0,0
89228,-90.9090909090909,4,2,2,61,0,1
98705,-90.9090909090909,4,2,1,61,0,0
98780,-90.9090909090909,4,2,2,61,0,1
108257,-90.9090909090909,4,2,1,61,0,0
108332,-90.9090909090909,4,2,3,61,0,1
117287,-100,4,2,1,56,0,1
117884,-117.647058823529,4,2,1,43,0,0
127437,-105.263157894737,4,2,3,51,0,1
132213,-200,4,2,3,41,0,0
136989,-133.333333333333,4,2,1,49,0,0
141765,-100,4,2,1,39,0,0
144153,-100,4,2,1,43,0,0
146541,-111.111111111111,4,2,1,48,0,0
165645,-105.263157894737,4,2,1,51,0,0
170422,-105.263157894737,4,2,3,51,0,0
172810,-105.263157894737,4,2,1,51,0,0
174004,-111.111111111111,4,2,1,51,0,0
175198,-133.333333333333,4,2,1,39,0,0
179526,-133.333333333333,4,2,3,39,0,0
182362,-166.666666666667,4,2,1,39,0,0
183556,-133.333333333333,4,2,1,39,0,0
183854,-117.647058823529,4,2,1,39,0,0
184750,-100,4,2,1,42,0,1
193108,-83.3333333333333,4,2,1,42,0,1
194228,-83.3333333333333,4,2,1,42,0,0
194302,-90.9090909090909,4,2,1,52,0,1
203780,-90.9090909090909,4,2,1,52,0,0
203854,-100,4,2,1,32,0,1
211019,-181.818181818182,4,2,1,32,0,1
213407,-181.818181818182,4,2,1,32,0,0
214004,-181.818181818182,4,2,1,14,0,0
214004,-181.818181818182,4,2,1,25,0,0
214750,-181.818181818182,4,2,1,8,0,0
215048,-181.818181818182,4,2,1,5,0,0
215795,-166.666666666667,4,2,1,24,0,0
222959,-166.666666666667,4,2,2,31,0,0
225347,-142.857142857143,4,2,1,36,0,0
230123,-117.647058823529,4,2,1,41,0,0
234302,-166.666666666667,4,2,1,41,0,0
234526,-166.666666666667,4,2,1,5,0,0
234601,-111.111111111111,4,2,1,41,0,0
234899,-86.9565217391304,4,2,2,62,0,1
244377,-86.9565217391304,4,2,1,62,0,0
244451,-86.9565217391304,4,2,2,65,0,1
251616,-86.9565217391304,4,2,1,65,0,1
254004,-86.9565217391304,4,2,1,65,0,0

[HitObjects]
284,216,5645,5,0,0:0:0:0:
284,216,5795,1,0,0:0:0:0:
192,208,5944,2,0,L|108:204,1,73.6
232,292,6243,1,0,0:0:0:0:
160,120,6392,1,0,0:0:0:0:
118,204,6541,1,0,0:0:0:0:
360,220,6690,1,0,0:0:0:0:
360,220,6765,1,0,0:0:0:0:
360,220,6840,6,0,B|368:184|368:184|360:136,1,73.6
232,292,7138,2,0,B|224:328|224:328|232:376,1,73.6
316,328,7437,1,0,0:0:0:0:
264,132,7586,1,0,0:0:0:0:
264,132,7660,1,0,0:0:0:0:
264,132,7735,1,0,0:0:0:0:
118,204,7884,1,0,0:0:0:0:
118,204,7959,1,0,0:0:0:0:
118,204,8034,5,0,0:0:0:0:
232,292,8183,1,0,0:0:0:0:
264,132,8332,1,0,0:0:0:0:
120,236,8481,5,0,0:0:0:0:
264,280,8631,1,0,0:0:0:0:
232,128,8780,1,0,0:0:0:0:
140,256,8929,5,0,0:0:0:0:
440,184,9078,1,0,0:0:0:0:
440,184,9153,1,0,0:0:0:0:
440,184,9228,5,0,0:0:0:0:
232,128,9377,1,0,0:0:0:0:
456,172,9526,1,0,0:0:0:0:
264,280,9675,1,0,0:0:0:0:
292,60,9825,5,0,0:0:0:0:
292,60,9899,1,0,0:0:0:0:
292,60,9974,1,0,0:0:0:0:
360,228,10123,1,0,0:0:0:0:
118,204,10272,1,0,0:0:0:0:
118,204,10347,1,0,0:0:0:0:
118,204,10422,5,0,0:0:0:0:
324,144,10571,1,0,0:0:0:0:
192,244,10720,1,0,0:0:0:0:
148,128,10869,1,0,0:0:0:0:
360,228,11019,2,0,P|368:272|360:312,1,73.6
244,184,11317,2,0,P|236:140|244:100,1,73.6
240,111,11541,1,0,0:0:0:0:
240,111,11616,5,0,0:0:0:0:
324,144,11765,1,0,0:0:0:0:
118,204,11914,1,0,0:0:0:0:
344,56,12063,1,0,0:0:0:0:
329,54,12138,1,0,0:0:0:0:
313,52,12213,5,0,0:0:0:0:
132,92,12362,1,0,0:0:0:0:
147,94,12437,1,0,0:0:0:0:
163,96,12512,1,0,0:0:0:0:
248,260,12660,1,0,0:0:0:0:
248,260,12735,1,0,0:0:0:0:
248,260,12810,6,0,B|256:296|256:296|248:344,1,73.6
200,192,13108,1,0,0:0:0:0:
220,180,13183,1,0,0:0:0:0:
244,176,13257,1,0,0:0:0:0:
268,180,13332,1,0,0:0:0:0:
288,188,13407,5,0,0:0:0:0:
116,284,13556,1,0,0:0:0:0:
248,260,13705,1,0,0:0:0:0:
232,32,13854,1,0,0:0:0:0:
232,32,13929,1,0,0:0:0:0:
232,32,14004,5,0,0:0:0:0:
288,188,14153,1,0,0:0:0:0:
163,96,14302,1,0,0:0:0:0:
116,284,14451,1,0,0:0:0:0:
116,284,14526,1,0,0:0:0:0:
116,284,14601,1,0,0:0:0:0:
288,188,14750,1,0,0:0:0:0:
64,224,14899,5,0,0:0:0:0:
36,272,14974,1,0,0:0:0:0:
44,328,15048,1,0,0:0:0:0:
88,360,15123,1,0,0:0:0:0:
144,364,15198,6,0,B|232:352|232:352|288:368|288:368|500:348,1,345,4|0,0:0|0:0,0:0:0:0:
348,188,16392,6,0,P|236:232|300:296,1,253,4|0,0:0|0:0,0:0:0:0:
300,232,17287,5,0,0:0:0:0:
244,237,17362,1,0,0:0:0:0:
188,244,17437,1,0,0:0:0:0:
132,251,17511,1,0,0:0:0:0:
76,256,17586,5,4,0:0:0:0:
196,48,17735,1,2,0:0:0:0:
204,36,18034,1,2,0:0:0:0:
212,24,18332,1,2,0:0:0:0:
220,12,18631,1,2,0:0:0:0:
300,232,18929,5,2,0:0:0:0:
64,116,19078,1,12,0:0:0:0:
40,104,19377,5,0,0:0:0:0:
232,200,19526,1,2,0:0:0:0:
96,48,19675,1,8,0:0:0:0:
140,324,19825,1,0,0:0:0:0:
292,152,19974,5,4,0:0:0:0:
128,248,20123,1,0,0:0:0:0:
312,312,20272,1,8,0:0:0:0:
284,72,20422,1,6,0:0:0:0:
280,48,20720,1,0,0:0:0:0:
280,48,20795,1,0,0:0:0:0:
280,48,20869,1,8,0:0:0:0:
128,248,21019,5,6,0:0:0:0:
116,268,21317,1,2,0:0:0:0:
376,196,21466,1,8,0:0:0:0:
388,192,21541,1,0,0:0:0:0:
400,188,21616,1,0,0:0:0:0:
412,184,21690,1,0,0:0:0:0:
424,180,21765,5,0,0:0:0:0:
420,236,21840,1,0,0:0:0:0:
368,248,21914,1,0,0:0:0:0:
324,212,21989,1,0,0:0:0:0:
336,160,22063,5,8,0:0:0:0:
420,364,22213,1,0,0:0:0:0:
420,364,22287,1,0,0:0:0:0:
420,364,22362,6,0,L|332:372,1,82.7999974731446,6|0,0:0|0:0,0:0:0:0:
216,280,22660,2,0,L|304:288,1,82.7999974731446,10|0,0:0|0:0,0:0:0:0:
144,232,22959,2,0,P|128:284|140:324,1,82.7999974731446,2|0,0:0|0:0,0:0:0:0:
264,172,23257,2,0,P|280:120|268:80,1,82.7999974731446,10|0,0:0|0:0,0:0:0:0:
200,124,23556,5,2,0:0:0:0:
200,124,23705,1,0,0:0:0:0:
376,196,23854,1,10,0:0:0:0:
376,196,24004,1,0,0:0:0:0:
264,84,24153,5,2,0:0:0:0:
298,287,24302,1,0,0:0:0:0:
376,112,24451,1,10,0:0:0:0:
192,208,24601,1,0,0:0:0:0:
192,208,24675,1,0,0:0:0:0:
192,208,24750,5,6,0:0:0:0:
392,288,24899,1,0,0:0:0:0:
392,288,24974,1,0,0:0:0:0:
392,288,25048,1,10,0:0:0:0:
264,84,25198,1,4,0:0:0:0:
196,320,25347,1,2,0:0:0:0:
464,228,25496,1,0,0:0:0:0:
464,228,25571,1,0,0:0:0:0:
464,228,25645,1,10,0:0:0:0:
152,124,25795,6,0,P|96:204|136:284,1,165.599994946289,6|2,0:0|0:0,0:0:0:0:
180,52,26243,2,0,L|112:48,1,41.3999987365723,8|0,0:0|0:0,0:0:0:0:
192,208,26392,2,0,L|260:212,1,41.3999987365723
296,100,26541,6,0,L|300:36,1,41.3999987365723
192,208,26690,2,0,L|188:272,1,41.3999987365723
400,204,26840,1,4,0:0:0:0:
420,200,26914,1,0,0:0:0:0:
440,196,26989,1,0,0:0:0:0:
460,192,27063,1,0,0:0:0:0:
476,188,27138,6,0,L|479:123,1,64.399998034668,4|0,0:0|0:0,0:0:0:0:
292,188,27437,2,0,L|288:252,1,64.399998034668
400,384,27735,1,12,0:0:0:0:
472,280,27884,1,0,0:0:0:0:
344,320,28034,1,0,0:0:0:0:
480,360,28183,1,0,0:0:0:0:
392,252,28332,6,0,P|356:240|304:244,1,64.399998034668,4|8,0:0|0:0,0:0:0:0:
204,312,28631,2,0,P|240:324|292:320,1,64.399998034668
216,116,28929,1,12,0:0:0:0:
248,244,29078,1,0,0:0:0:0:
296,128,29228,1,8,0:0:0:0:
192,188,29377,1,0,0:0:0:0:
320,204,29526,6,0,B|348:208|348:208|400:196,2,42.933332023112,4|0|0,0:0|0:0|0:0,0:0:0:0:
192,188,29825,2,0,B|164:184|164:184|112:196,2,42.933332023112,4|0|0,0:0|0:0|0:0,0:0:0:0:
296,128,30123,2,0,L|304:68,2,42.933332023112,4|0|0,0:0|0:0|0:0,0:0:0:0:
248,244,30422,2,0,L|242:286,2,42.933332023112,4|0|0,0:0|0:0|0:0,0:0:0:0:
296,128,30720,5,4,0:0:0:0:
192,188,30869,1,0,0:0:0:0:
320,280,31019,1,8,0:0:0:0:
216,116,31168,1,0,0:0:0:0:
248,332,31317,5,0,0:0:0:0:
268,352,31392,1,0,0:0:0:0:
296,364,31466,1,0,0:0:0:0:
324,368,31541,1,0,0:0:0:0:
352,364,31616,5,8,0:0:0:0:
392,336,31690,1,0,0:0:0:0:
408,284,31765,1,0,0:0:0:0:
392,228,31840,1,0,0:0:0:0:
340,196,31914,6,0,L|280:200,1,39.1000007457733,6|0,0:0|0:0,0:0:0:0:
228,240,32063,2,0,L|232:148,1,78.2000014915467,0|8,0:0|0:0,0:0:0:0:
328,44,32362,1,0,0:0:0:0:
328,44,32437,1,0,0:0:0:0:
328,44,32511,2,0,L|324:140,1,78.2000014915467,2|0,0:0|0:0,0:0:0:0:
320,280,32810,1,8,0:0:0:0:
320,280,32884,1,0,0:0:0:0:
320,280,32959,1,0,0:0:0:0:
160,196,33108,5,2,0:0:0:0:
408,156,33257,2,0,L|460:148,2,39.1000007457733,0|0|8,0:0|0:0|0:0,0:0:0:0:
244,88,33556,2,0,L|192:80,2,39.1000007457733,0|0|2,0:0|0:0|0:0,0:0:0:0:
328,44,33854,1,0,0:0:0:0:
328,44,33929,1,0,0:0:0:0:
328,44,34004,1,8,0:0:0:0:
320,280,34153,1,0,0:0:0:0:
320,280,34228,1,0,0:0:0:0:
320,280,34302,5,2,0:0:0:0:
160,196,34451,1,0,0:0:0:0:
180,193,34526,1,0,0:0:0:0:
200,190,34601,1,8,0:0:0:0:
120,288,34750,1,0,0:0:0:0:
100,291,34825,1,0,0:0:0:0:
80,294,34900,1,2,0:0:0:0:
89,144,35048,2,0,L|92:104,2,39.1000007457733,0|0|8,0:0|0:0|0:0,0:0:0:0:
196,272,35347,2,0,L|192:324,1,39.1000007457733
200,190,35496,5,2,0:0:0:0:
80,294,35645,1,0,0:0:0:0:
276,240,35795,1,8,0:0:0:0:
89,144,35944,1,0,0:0:0:0:
89,144,36019,1,0,0:0:0:0:
89,144,36093,1,2,0:0:0:0:
184,384,36243,1,0,0:0:0:0:
184,384,36317,1,0,0:0:0:0:
184,384,36392,1,8,0:0:0:0:
353,233,36541,1,0,0:0:0:0:
353,233,36616,1,0,0:0:0:0:
353,233,36690,6,0,L|257:241,1,78.2000014915467,6|0,0:0|0:0,0:0:0:0:
400,176,36989,1,8,0:0:0:0:
424,208,37063,1,0,0:0:0:0:
424,248,37138,1,0,0:0:0:0:
408,284,37213,1,0,0:0:0:0:
376,304,37287,5,2,0:0:0:0:
336,304,37362,1,0,0:0:0:0:
300,284,37437,1,0,0:0:0:0:
280,248,37511,1,0,0:0:0:0:
284,208,37586,5,8,0:0:0:0:
288,196,37660,1,0,0:0:0:0:
292,184,37735,1,0,0:0:0:0:
296,172,37810,1,0,0:0:0:0:
300,160,37884,6,0,B|304:136|304:136|300:104,1,39.1000007457733,2|0,0:0|0:0,0:0:0:0:
220,96,38034,2,0,B|216:120|216:120|217:134,1,39.1000007457733
328,40,38183,2,0,L|284:44,1,39.1000007457733,8|0,0:0|0:0,0:0:0:0:
388,112,38332,2,0,L|432:108,1,39.1000007457733
136,140,38481,5,2,0:0:0:0:
328,40,38631,1,0,0:0:0:0:
328,40,38705,1,0,0:0:0:0:
328,40,38780,1,8,0:0:0:0:
248,336,38929,1,0,0:0:0:0:
248,336,39004,1,0,0:0:0:0:
248,336,39078,5,6,0:0:0:0:
220,96,39228,1,0,0:0:0:0:
228,316,39377,1,8,0:0:0:0:
240,124,39526,1,0,0:0:0:0:
152,216,39675,5,2,0:0:0:0:
352,152,39825,1,0,0:0:0:0:
240,124,39974,2,0,P|236:152|240:176,1,39.1000007457733,8|0,0:0|0:0,0:0:0:0:
368,68,40123,2,0,P|372:40|368:16,1,39.1000007457733,8|0,0:0|0:0,0:0:0:0:
264,240,40272,5,6,0:0:0:0:
260,252,40571,1,0,0:0:0:0:
256,264,40869,1,0,0:0:0:0:
284,256,40944,1,0,0:0:0:0:
312,256,41019,1,0,0:0:0:0:
340,264,41093,1,0,0:0:0:0:
360,280,41168,5,0,0:0:0:0:
404,288,41243,1,0,0:0:0:0:
448,272,41317,1,0,0:0:0:0:
472,232,41392,1,0,0:0:0:0:
456,184,41466,6,0,B|352:192,1,73.6,4|0,0:0|0:0,0:0:0:0:
320,100,41765,2,0,B|393:105,1,73.6
232,140,42063,1,0,0:0:0:0:
232,140,42213,2,0,P|224:100|232:56,1,73.6
382,189,42511,6,0,P|390:229|382:273,1,73.6
240,320,42810,1,0,0:0:0:0:
200,232,42959,2,0,B|240:224|240:224|288:232,1,73.6
152,312,43257,2,0,B|112:320|112:320|64:312,1,73.6
79,314,43481,1,0,0:0:0:0:
79,314,43556,1,0,0:0:0:0:
120,164,43705,1,0,0:0:0:0:
120,164,43854,6,0,L|112:252,1,73.6
212,120,44153,1,0,0:0:0:0:
200,232,44302,1,0,0:0:0:0:
132,84,44451,2,0,L|140:-4,1,73.6
344,172,44750,2,0,P|300:184|248:180,1,73.6
272,184,44974,1,0,0:0:0:0:
272,184,45048,5,0,0:0:0:0:
292,76,45198,1,0,0:0:0:0:
268,208,45347,1,0,0:0:0:0:
212,120,45496,1,0,0:0:0:0:
212,120,45571,1,0,0:0:0:0:
212,120,45645,1,0,0:0:0:0:
416,196,45795,1,0,0:0:0:0:
188,220,45944,2,0,L|108:228,1,73.6
275,346,46243,6,0,P|291:302|263:202,1,147.2,4|0,0:0|0:0,0:0:0:0:
114,227,46690,1,0,0:0:0:0:
114,227,46840,1,0,0:0:0:0:
184,280,46989,1,0,0:0:0:0:
184,280,47138,1,0,0:0:0:0:
168,72,47287,1,0,0:0:0:0:
140,152,47437,6,0,L|220:144,1,73.6
352,128,47735,1,0,0:0:0:0:
252,56,47884,1,0,0:0:0:0:
267,207,48034,2,0,L|276:288,1,73.6
288,356,48257,1,0,0:0:0:0:
288,356,48332,2,0,B|328:348|328:348|380:360,1,73.6
312,140,48631,6,0,P|236:132|188:192,1,147.2
275,280,49078,1,0,0:0:0:0:
275,280,49228,2,0,L|268:180,1,73.6
384,48,49526,1,0,0:0:0:0:
388,88,49601,1,0,0:0:0:0:
392,128,49675,1,0,0:0:0:0:
396,168,49750,1,0,0:0:0:0:
400,208,49825,5,6,0:0:0:0:
191,179,49974,1,0,0:0:0:0:
464,56,50123,1,8,0:0:0:0:
275,280,50272,5,0,0:0:0:0:
240,40,50422,1,2,0:0:0:0:
476,184,50571,1,0,0:0:0:0:
168,280,50720,5,8,0:0:0:0:
168,280,50795,1,0,0:0:0:0:
168,280,50869,1,0,0:0:0:0:
168,280,50944,1,0,0:0:0:0:
168,280,51019,6,0,L|64:276,1,82.7999974731446,6|0,0:0|0:0,0:0:0:0:
275,280,51317,1,8,0:0:0:0:
191,179,51466,1,0,0:0:0:0:
152,356,51616,1,2,0:0:0:0:
275,280,51765,1,0,0:0:0:0:
116,208,51914,1,8,0:0:0:0:
264,120,52063,6,0,L|272:216,1,82.7999974731446,0|2,0:0|0:0,0:0:0:0:
270,202,52362,1,0,0:0:0:0:
204,52,52511,2,0,P|240:32|308:40,1,82.7999974731446,8|0,0:0|0:0,0:0:0:0:
348,160,52810,1,2,0:0:0:0:
172,140,52959,1,2,0:0:0:0:
376,72,53108,1,8,0:0:0:0:
128,124,53257,1,8,0:0:0:0:
416,96,53407,6,0,L|512:88,1,82.7999974731446,2|0,0:0|0:0,0:0:0:0:
124,204,53705,2,0,L|28:196,1,82.7999974731446,8|0,0:0|0:0,0:0:0:0:
348,244,54004,1,2,0:0:0:0:
212,152,54153,1,0,0:0:0:0:
256,356,54302,1,8,0:0:0:0:
348,244,54451,6,0,P|352:192|344:136,1,82.7999974731446,0|2,0:0|0:0,0:0:0:0:
188,60,54750,1,0,0:0:0:0:
236,252,54899,1,8,0:0:0:0:
276,80,55048,1,0,0:0:0:0:
276,80,55123,1,0,0:0:0:0:
276,80,55198,1,2,0:0:0:0:
124,204,55347,1,2,0:0:0:0:
349,161,55496,1,8,0:0:0:0:
188,60,55645,1,8,0:0:0:0:
304,328,55795,6,0,P|376:336|444:256,1,165.599994946289,6|8,0:0|0:0,0:0:0:0:
228,276,56243,1,0,0:0:0:0:
228,276,56392,2,0,L|224:376,1,82.7999974731446,2|0,0:0|0:0,0:0:0:0:
349,161,56690,2,0,L|353:61,1,82.7999974731446,8|0,0:0|0:0,0:0:0:0:
196,180,56989,6,0,B|236:192|236:192|292:180,1,82.7999974731446,2|0,0:0|0:0,0:0:0:0:
424,140,57287,1,8,0:0:0:0:
240,80,57437,1,0,0:0:0:0:
240,80,57511,1,0,0:0:0:0:
240,80,57586,1,2,0:0:0:0:
448,136,57735,1,2,0:0:0:0:
276,183,57884,1,8,0:0:0:0:
352,78,58034,1,8,0:0:0:0:
345,326,58183,6,0,L|349:146,1,165.599994946289,2|8,0:0|0:0,0:0:0:0:
464,240,58631,1,0,0:0:0:0:
264,264,58780,2,0,B|184:272|184:272|168:280|168:280|68:292,1,165.599994946289,2|8,0:0|0:0,0:0:0:0:
216,352,59228,1,0,0:0:0:0:
132,188,59377,5,2,0:0:0:0:
84,372,59526,1,0,0:0:0:0:
68,100,59675,1,8,0:0:0:0:
264,264,59825,5,0,0:0:0:0:
24,192,59974,1,2,0:0:0:0:
208,24,60123,1,2,0:0:0:0:
304,324,60272,1,8,0:0:0:0:
252,336,60347,1,0,0:0:0:0:
204,308,60422,1,8,0:0:0:0:
192,256,60496,1,0,0:0:0:0:
220,208,60571,5,6,0:0:0:0:
304,324,60720,1,0,0:0:0:0:
304,324,60795,1,0,0:0:0:0:
304,324,60869,1,8,0:0:0:0:
128,296,61019,1,0,0:0:0:0:
128,296,61093,1,0,0:0:0:0:
128,296,61168,5,2,0:0:0:0:
292,196,61317,1,0,0:0:0:0:
196,384,61466,1,8,0:0:0:0:
148,120,61616,1,0,0:0:0:0:
148,120,61690,1,0,0:0:0:0:
148,120,61765,5,2,0:0:0:0:
304,324,61914,1,0,0:0:0:0:
140,208,62063,1,8,0:0:0:0:
276,80,62213,1,0,0:0:0:0:
276,80,62287,1,0,0:0:0:0:
276,80,62362,5,2,0:0:0:0:
216,272,62511,1,0,0:0:0:0:
160,36,62660,1,8,0:0:0:0:
396,124,62810,1,0,0:0:0:0:
396,124,62884,1,0,0:0:0:0:
396,124,62959,5,6,0:0:0:0:
248,168,63108,1,0,0:0:0:0:
364,28,63257,1,8,0:0:0:0:
304,324,63407,1,0,0:0:0:0:
304,324,63481,1,0,0:0:0:0:
304,324,63556,5,6,0:0:0:0:
352,224,63705,1,0,0:0:0:0:
224,272,63854,1,8,0:0:0:0:
472,324,64004,1,0,0:0:0:0:
472,324,64078,1,0,0:0:0:0:
472,324,64153,5,6,0:0:0:0:
352,224,64302,1,0,0:0:0:0:
304,324,64451,1,8,0:0:0:0:
248,168,64601,1,0,0:0:0:0:
84,268,64750,2,0,B|76:228|76:228|84:180,1,78.2000014915467,2|0,0:0|0:0,0:0:0:0:
246,91,65048,2,0,B|254:131|254:131|246:179,1,78.2000014915467,8|0,0:0|0:0,0:0:0:0:
172,132,65347,5,6,0:0:0:0:
324,48,65496,1,0,0:0:0:0:
324,48,65571,1,0,0:0:0:0:
324,48,65645,1,8,0:0:0:0:
144,116,65795,1,0,0:0:0:0:
352,224,65944,5,2,0:0:0:0:
352,224,66019,1,0,0:0:0:0:
352,224,66093,1,0,0:0:0:0:
246,91,66243,1,8,0:0:0:0:
208,348,66392,1,0,0:0:0:0:
208,348,66466,1,0,0:0:0:0:
208,348,66541,6,0,L|308:344,1,78.2000014915467,2|0,0:0|0:0,0:0:0:0:
84,268,66840,2,0,L|-16:272,1,78.2000014915467,8|0,0:0|0:0,0:0:0:0:
246,91,67138,1,2,0:0:0:0:
246,91,67213,1,0,0:0:0:0:
246,91,67287,1,0,0:0:0:0:
216,272,67437,1,8,0:0:0:0:
216,64,67586,1,0,0:0:0:0:
352,224,67735,5,2,0:0:0:0:
112,192,67884,1,0,0:0:0:0:
112,192,67959,1,0,0:0:0:0:
112,192,68034,1,8,0:0:0:0:
246,91,68183,1,0,0:0:0:0:
216,272,68332,6,0,L|208:320,1,39.1000007457733,2|0,0:0|0:0,0:0:0:0:
268,200,68481,2,0,L|260:152,1,39.1000007457733
352,224,68631,1,8,0:0:0:0:
112,192,68780,1,0,0:0:0:0:
112,192,68854,1,0,0:0:0:0:
112,192,68929,5,6,0:0:0:0:
416,152,69078,1,0,0:0:0:0:
216,272,69228,1,8,0:0:0:0:
188,32,69377,1,4,0:0:0:0:
184,16,69675,6,0,B|176:40|176:40|184:68,1,39.1000007457733
260,48,69825,2,0,B|268:72|268:72|260:100,1,39.1000007457733
116,154,69974,2,0,B|108:178|108:178|116:206,1,39.1000007457733
216,272,70123,5,6,0:0:0:0:
184,184,70272,1,0,0:0:0:0:
200,308,70422,1,8,0:0:0:0:
208,152,70571,1,0,0:0:0:0:
128,264,70720,1,2,0:0:0:0:
284,204,70869,1,0,0:0:0:0:
116,154,71019,1,8,0:0:0:0:
200,308,71168,1,0,0:0:0:0:
296,40,71317,5,2,0:0:0:0:
208,152,71466,1,0,0:0:0:0:
380,128,71616,1,8,0:0:0:0:
144,104,71765,2,0,P|128:160|140:196,1,73.6,0|2,0:0|0:0,0:0:0:0:
200,308,72063,1,0,0:0:0:0:
288,136,72213,1,8,0:0:0:0:
164,240,72362,1,0,0:0:0:0:
348,260,72511,5,2,0:0:0:0:
124,304,72660,1,0,0:0:0:0:
372,240,72810,1,8,0:0:0:0:
224,188,72959,1,0,0:0:0:0:
224,188,73034,1,0,0:0:0:0:
224,188,73108,5,2,0:0:0:0:
288,360,73257,1,0,0:0:0:0:
324,144,73407,1,8,0:0:0:0:
124,304,73556,1,0,0:0:0:0:
392,224,73705,6,0,L|400:340,1,87.3999976661683,6|0,0:0|0:0,0:0:0:0:
224,188,74004,2,0,L|216:72,1,87.3999976661683,8|0,0:0|0:0,0:0:0:0:
284,24,74302,1,6,0:0:0:0:
304,244,74451,1,0,0:0:0:0:
304,244,74526,1,0,0:0:0:0:
304,244,74601,1,8,0:0:0:0:
136,144,74750,1,0,0:0:0:0:
136,144,74825,1,0,0:0:0:0:
136,144,74899,5,4,0:0:0:0:
217,100,75048,1,2,0:0:0:0:
224,188,75198,1,8,0:0:0:0:
140,60,75347,5,2,0:0:0:0:
300,140,75496,1,0,0:0:0:0:
144,232,75645,1,2,0:0:0:0:
140,60,75795,1,8,0:0:0:0:
304,224,75944,1,2,0:0:0:0:
72,192,76093,5,0,0:0:0:0:
217,100,76243,1,2,0:0:0:0:
236,272,76392,1,8,0:0:0:0:
72,192,76541,1,2,0:0:0:0:
300,140,76690,1,0,0:0:0:0:
164,320,76840,1,2,0:0:0:0:
108,128,76989,1,8,0:0:0:0:
380,176,77138,1,2,0:0:0:0:
380,176,77213,1,0,0:0:0:0:
380,176,77287,5,6,0:0:0:0:
217,100,77437,1,2,0:0:0:0:
312,224,77586,1,10,0:0:0:0:
288,52,77735,1,2,0:0:0:0:
220,208,77884,5,2,0:0:0:0:
392,84,78034,1,2,0:0:0:0:
212,16,78183,1,10,0:0:0:0:
252,316,78332,1,2,0:0:0:0:
232,140,78481,5,0,0:0:0:0:
220,136,78556,1,0,0:0:0:0:
208,136,78631,1,0,0:0:0:0:
196,140,78705,1,0,0:0:0:0:
184,148,78780,5,0,0:0:0:0:
160,172,78854,1,0,0:0:0:0:
152,204,78929,1,0,0:0:0:0:
160,240,79004,1,0,0:0:0:0:
184,264,79078,5,0,0:0:0:0:
236,272,79153,1,0,0:0:0:0:
280,244,79228,1,0,0:0:0:0:
328,220,79302,1,0,0:0:0:0:
380,228,79377,5,0,0:0:0:0:
424,276,79451,1,0,0:0:0:0:
420,340,79526,1,0,0:0:0:0:
368,380,79601,1,0,0:0:0:0:
300,368,79675,6,0,L|304:264,1,101.200003088379,6|0,0:0|0:0,0:0:0:0:
208,266,79974,2,0,L|212:368,1,101.200003088379,10|0,0:0|0:0,0:0:0:0:
124,112,80272,2,0,L|0:100,1,101.200003088379,2|0,0:0|0:0,0:0:0:0:
388,112,80571,2,0,L|512:100,1,101.200003088379,10|0,0:0|0:0,0:0:0:0:
256,32,80869,5,2,0:0:0:0:
256,32,81019,1,0,0:0:0:0:
168,192,81168,1,10,0:0:0:0:
344,192,81317,1,0,0:0:0:0:
152,88,81466,1,2,0:0:0:0:
256,268,81616,1,0,0:0:0:0:
360,88,81765,1,10,0:0:0:0:
92,232,81914,1,0,0:0:0:0:
92,232,81989,1,0,0:0:0:0:
92,232,82063,5,2,0:0:0:0:
256,268,82213,1,0,0:0:0:0:
256,32,82362,1,10,0:0:0:0:
168,192,82511,1,0,0:0:0:0:
420,232,82660,5,2,0:0:0:0:
256,268,82809,1,0,0:0:0:0:
256,32,82958,1,10,0:0:0:0:
344,192,83107,1,0,0:0:0:0:
344,192,83183,1,0,0:0:0:0:
344,192,83257,5,2,0:0:0:0:
200,116,83407,1,0,0:0:0:0:
392,72,83556,1,10,0:0:0:0:
168,192,83705,5,0,0:0:0:0:
312,116,83855,1,2,0:0:0:0:
120,72,84004,1,0,0:0:0:0:
256,268,84153,1,10,0:0:0:0:
256,32,84302,1,0,0:0:0:0:
256,32,84377,1,0,0:0:0:0:
256,32,84451,5,2,0:0:0:0:
168,192,84601,1,0,0:0:0:0:
280,40,84750,1,10,0:0:0:0:
120,72,84899,1,0,0:0:0:0:
304,44,85048,1,2,0:0:0:0:
256,268,85197,1,0,0:0:0:0:
324,44,85347,5,10,0:0:0:0:
168,192,85496,1,0,0:0:0:0:
424,112,85645,1,2,0:0:0:0:
144,184,85795,1,0,0:0:0:0:
392,232,85944,1,10,0:0:0:0:
184,120,86093,1,0,0:0:0:0:
296,348,86243,5,2,0:0:0:0:
280,120,86392,1,0,0:0:0:0:
172,308,86541,1,10,0:0:0:0:
392,232,86690,1,0,0:0:0:0:
392,232,86765,1,0,0:0:0:0:
392,232,86840,6,0,P|402:183|386:135,1,101.200003088379,2|0,0:0|0:0,0:0:0:0:
125,135,87138,2,0,P|109:183|120:232,1,101.200003088379,10|0,0:0|0:0,0:0:0:0:
296,348,87437,2,0,L|284:216,1,101.200003088379,2|0,0:0|0:0,0:0:0:0:
216,36,87735,2,0,L|228:168,1,101.200003088379,10|0,0:0|0:0,0:0:0:0:
412,280,88034,5,2,0:0:0:0:
388,268,88108,1,0,0:0:0:0:
364,264,88183,1,0,0:0:0:0:
340,268,88257,1,0,0:0:0:0:
320,284,88332,5,10,0:0:0:0:
284,300,88407,1,0,0:0:0:0:
244,308,88481,1,0,0:0:0:0:
204,304,88556,1,0,0:0:0:0:
168,284,88631,5,2,0:0:0:0:
144,240,88705,1,0,0:0:0:0:
140,188,88780,1,0,0:0:0:0:
164,144,88854,1,0,0:0:0:0:
216,120,88929,5,10,0:0:0:0:
276,156,89004,1,8,0:0:0:0:
344,168,89078,1,8,0:0:0:0:
412,152,89153,1,8,0:0:0:0:
460,100,89228,6,0,L|468:-12,1,101.200003088379,6|0,0:0|0:0,0:0:0:0:
232,212,89526,2,0,L|225:312,1,101.200003088379,10|0,0:0|0:0,0:0:0:0:
332,56,89825,1,2,0:0:0:0:
332,56,89974,1,0,0:0:0:0:
320,272,90123,1,10,0:0:0:0:
140,188,90272,1,0,0:0:0:0:
380,216,90422,6,0,P|400:264|388:320,1,101.200003088379,2|0,0:0|0:0,0:0:0:0:
232,124,90720,1,10,0:0:0:0:
320,272,90869,1,0,0:0:0:0:
244,100,91019,1,2,0:0:0:0:
184,324,91168,1,0,0:0:0:0:
184,324,91243,1,0,0:0:0:0:
184,324,91317,1,10,0:0:0:0:
312,160,91466,1,0,0:0:0:0:
80,132,91616,6,0,P|60:180|72:236,1,101.200003088379,2|0,0:0|0:0,0:0:0:0:
312,160,91914,1,10,0:0:0:0:
140,188,92063,1,0,0:0:0:0:
184,44,92213,1,2,0:0:0:0:
228,176,92362,1,0,0:0:0:0:
80,132,92511,1,10,0:0:0:0:
308,32,92660,1,0,0:0:0:0:
288,260,92810,5,2,0:0:0:0:
184,44,92959,1,0,0:0:0:0:
396,152,93108,5,10,0:0:0:0:
140,188,93257,1,0,0:0:0:0:
308,32,93407,5,2,0:0:0:0:
280,336,93556,1,0,0:0:0:0:
280,336,93631,1,0,0:0:0:0:
280,336,93705,1,10,0:0:0:0:
64,208,93854,1,0,0:0:0:0:
400,60,94004,5,14,0:0:0:0:
468,92,94078,1,8,0:0:0:0:
488,164,94153,1,8,0:0:0:0:
448,228,94228,1,8,0:0:0:0:
372,240,94302,6,0,B|256:272|272:208|144:252,1,202.400006176758,14|2,0:0|0:0,0:0:0:0:
220,360,94750,1,0,0:0:0:0:
396,152,94899,1,10,0:0:0:0:
348,328,95048,1,0,0:0:0:0:
164,116,95198,5,2,0:0:0:0:
372,240,95347,1,0,0:0:0:0:
124,288,95496,1,10,0:0:0:0:
184,44,95645,1,0,0:0:0:0:
268,292,95795,5,2,0:0:0:0:
60,132,95944,1,0,0:0:0:0:
316,140,96093,1,10,0:0:0:0:
124,288,96243,1,0,0:0:0:0:
184,44,96392,5,2,0:0:0:0:
268,292,96541,1,0,0:0:0:0:
60,132,96690,1,10,0:0:0:0:
316,140,96840,1,0,0:0:0:0:
124,288,96989,1,2,0:0:0:0:
184,44,97138,1,0,0:0:0:0:
364,240,97287,1,10,0:0:0:0:
92,212,97437,1,0,0:0:0:0:
436,204,97586,6,0,P|444:232|440:268,1,50.6000015441895,2|0,0:0|0:0,0:0:0:0:
316,140,97735,2,0,P|308:112|312:76,1,50.6000015441895
252,272,97884,2,0,L|244:328,1,50.6000015441895,10|0,0:0|0:0,0:0:0:0:
191,94,98034,2,0,L|183:43,1,50.6000015441895
92,212,98183,5,2,0:0:0:0:
80,232,98257,1,0,0:0:0:0:
68,252,98332,1,0,0:0:0:0:
56,272,98407,1,0,0:0:0:0:
44,292,98481,5,10,0:0:0:0:
104,252,98556,1,8,0:0:0:0:
176,244,98631,1,8,0:0:0:0:
248,260,98705,1,8,0:0:0:0:
304,312,98780,5,6,0:0:0:0:
191,94,98929,1,0,0:0:0:0:
168,384,99078,1,10,0:0:0:0:
344,220,99228,1,0,0:0:0:0:
44,292,99377,5,2,0:0:0:0:
304,312,99526,1,0,0:0:0:0:
80,144,99675,1,10,0:0:0:0:
420,280,99825,1,0,0:0:0:0:
176,304,99974,5,2,0:0:0:0:
392,68,100123,1,0,0:0:0:0:
304,312,100272,1,10,0:0:0:0:
191,94,100422,1,0,0:0:0:0:
472,168,100571,5,2,0:0:0:0:
128,228,100720,1,0,0:0:0:0:
392,68,100869,1,10,0:0:0:0:
276,384,101019,1,0,0:0:0:0:
276,384,101093,1,0,0:0:0:0:
276,384,101168,6,0,P|264:280|260:168,1,202.400006176758,6|10,0:0|0:0,0:0:0:0:
276,24,101616,1,0,0:0:0:0:
448,144,101765,2,0,P|384:148|344:148,1,101.200003088379,2|0,0:0|0:0,0:0:0:0:
392,68,102063,1,10,0:0:0:0:
408,236,102213,1,0,0:0:0:0:
408,236,102287,1,0,0:0:0:0:
408,236,102362,6,0,P|412:304|416:356,1,101.200003088379,2|0,0:0|0:0,0:0:0:0:
212,284,102660,2,0,P|280:288|332:292,1,101.200003088379,10|0,0:0|0:0,0:0:0:0:
264,100,102959,2,0,P|268:168|272:220,1,101.200003088379,2|0,0:0|0:0,0:0:0:0:
68,148,103257,2,0,P|136:152|188:156,1,101.200003088379,10|0,0:0|0:0,0:0:0:0:
264,100,103556,5,2,0:0:0:0:
112,232,103705,1,0,0:0:0:0:
356,152,103854,1,10,0:0:0:0:
180,48,104004,1,0,0:0:0:0:
180,48,104078,1,0,0:0:0:0:
180,48,104153,2,0,B|168:96|168:96|180:168,1,101.200003088379,2|0,0:0|0:0,0:0:0:0:
208,280,104451,1,10,0:0:0:0:
457,154,104601,6,0,L|328:150,1,101.200003088379,0|2,0:0|0:0,0:0:0:0:
176,147,104899,1,0,0:0:0:0:
344,48,105048,1,10,0:0:0:0:
264,216,105198,1,0,0:0:0:0:
180,48,105347,1,2,0:0:0:0:
355,151,105496,1,0,0:0:0:0:
100,92,105645,1,10,0:0:0:0:
412,92,105795,1,0,0:0:0:0:
412,92,105869,1,0,0:0:0:0:
412,92,105944,6,0,P|424:192|312:220,1,202.400006176758,2|10,0:0|0:0,0:0:0:0:
253,147,106392,1,0,0:0:0:0:
253,147,106466,1,0,0:0:0:0:
253,147,106541,2,0,L|361:151,1,101.200003088379,2|0,0:0|0:0,0:0:0:0:
432,312,106840,2,0,L|324:308,1,101.200003088379,10|0,0:0|0:0,0:0:0:0:
180,172,107138,5,2,0:0:0:0:
180,172,107213,1,0,0:0:0:0:
180,172,107287,2,0,B|176:140|176:140|179:122,1,50.6000015441895
240,228,107437,1,10,0:0:0:0:
240,228,107512,1,0,0:0:0:0:
240,228,107586,2,0,B|244:260|244:260|240:277,1,50.6000015441895
104,72,107735,1,2,0:0:0:0:
140,40,107810,1,0,0:0:0:0:
188,32,107884,1,0,0:0:0:0:
236,52,107959,1,0,0:0:0:0:
255,96,108034,6,0,L|251:164,1,50.6000015441895,10|8,0:0|0:0,0:0:0:0:
360,68,108183,2,0,L|364:0,1,50.6000015441895,8|8,0:0|0:0,0:0:0:0:
484,188,108332,5,4,0:0:0:0:
179,121,108481,1,2,0:0:0:0:
504,176,108631,1,8,0:0:0:0:
144,248,108780,1,2,0:0:0:0:
360,68,108929,5,0,0:0:0:0:
460,272,109078,1,2,0:0:0:0:
104,172,109228,1,8,0:0:0:0:
432,124,109377,1,2,0:0:0:0:
196,332,109526,5,0,0:0:0:0:
240,24,109675,1,2,0:0:0:0:
40,244,109825,1,8,0:0:0:0:
400,212,109974,1,2,0:0:0:0:
172,96,110123,5,0,0:0:0:0:
276,372,110272,1,2,0:0:0:0:
332,72,110422,1,8,0:0:0:0:
116,292,110571,1,2,0:0:0:0:
472,160,110720,6,0,P|488:204|476:260,1,101.200003088379,0|2,0:0|0:0,0:0:0:0:
100,148,111019,2,0,P|84:104|96:48,1,101.200003088379,8|2,0:0|0:0,0:0:0:0:
332,72,111317,1,0,0:0:0:0:
172,96,111466,1,2,0:0:0:0:
240,0,111616,1,8,0:0:0:0:
280,200,111765,1,2,0:0:0:0:
280,200,111840,1,0,0:0:0:0:
280,200,111914,6,0,P|288:256|276:324,1,101.200003088379,0|2,0:0|0:0,0:0:0:0:
172,96,112213,1,8,0:0:0:0:
400,212,112362,1,2,0:0:0:0:
176,256,112511,1,0,0:0:0:0:
240,0,112660,1,2,0:0:0:0:
400,212,112810,1,8,0:0:0:0:
176,176,112959,1,2,0:0:0:0:
472,160,113108,6,0,P|488:204|476:260,1,101.200003088379,4|2,0:0|0:0,0:0:0:0:
284,192,113407,1,8,0:0:0:0:
400,212,113556,1,2,0:0:0:0:
360,112,113705,1,0,0:0:0:0:
324,280,113854,1,2,0:0:0:0:
472,160,114004,1,8,0:0:0:0:
240,96,114153,1,2,0:0:0:0:
240,96,114228,1,0,0:0:0:0:
240,96,114302,6,0,P|180:92|116:108,1,101.200003088379,0|2,0:0|0:0,0:0:0:0:
324,280,114601,1,8,0:0:0:0:
360,112,114750,1,2,0:0:0:0:
192,204,114899,1,0,0:0:0:0:
472,160,115048,1,2,0:0:0:0:
240,96,115198,1,8,0:0:0:0:
364,372,115347,1,2,0:0:0:0:
364,372,115422,1,0,0:0:0:0:
364,372,115496,6,0,B|413:385|413:385|461:373,1,101.200003088379,0|2,0:0|0:0,0:0:0:0:
224,292,115795,2,0,B|174:278|174:278|126:290,1,101.200003088379,8|2,0:0|0:0,0:0:0:0:
412,256,116093,1,0,0:0:0:0:
192,204,116243,1,2,0:0:0:0:
440,264,116392,1,0,0:0:0:0:
126,289,116541,1,2,0:0:0:0:
126,289,116616,1,0,0:0:0:0:
126,289,116690,5,14,0:0:0:0:
126,289,117287,6,0,B|96:284|96:284|48:292,2,61.3333333333333
192,364,117586,2,0,B|222:369|222:369|270:361,2,61.3333333333333
96,208,117884,6,0,B|80:168|80:168|168:188,1,104.266668655396,2|0,0:0|0:0,0:0:0:0:
248,204,118183,2,0,B|280:212|280:212|272:148,1,52.1333343276978
264,76,118382,1,0,0:0:0:0:
264,76,118481,6,0,L|184:60,2,52.1333343276978,2|0|0,0:0|0:0|0:0,0:0:0:0:
344,128,118780,2,0,L|424:112,2,52.1333343276978
248,204,119078,6,0,P|244:240|248:276,1,52.1333343276978,2|0,0:0|0:0,0:0:0:0:
376,256,119277,1,0,0:0:0:0:
383,243,119377,2,0,P|358:239|332:240,1,52.1333343276978
296,332,119576,1,0,0:0:0:0:
288,344,119676,2,0,P|313:347|339:347,1,52.1333343276978,2|0,0:0|0:0,0:0:0:0:
188,332,119874,1,0,0:0:0:0:
164,328,119974,1,0,0:0:0:0:
140,324,120073,2,0,P|144:288|140:252,1,52.1333343276978
60,180,120272,6,0,B|96:200|96:200|200:164,1,104.266668655396,2|0,0:0|0:0,0:0:0:0:
228,144,120571,1,0,0:0:0:0:
164,104,120670,1,0,0:0:0:0:
155,179,120770,1,0,0:0:0:0:
240,64,120869,6,0,B|244:36|244:36|232:0,2,52.1333343276978,2|0|0,0:0|0:0|0:0,0:0:0:0:
155,179,121168,2,0,B|136:244|180:232|144:324,1,104.266668655396
148,364,121466,6,0,B|176:368|176:368|232:356,1,52.1333343276978,2|0,0:0|0:0,0:0:0:0:
304,308,121665,1,0,0:0:0:0:
288,288,121765,2,0,B|260:284|260:284|204:296,1,52.1333343276978
360,364,121964,1,0,0:0:0:0:
376,384,122064,2,0,B|404:388|404:388|460:376,2,52.1333343276978,2|0|0,0:0|0:0|0:0,0:0:0:0:
352,244,122362,1,0,0:0:0:0:
428,232,122461,1,0,0:0:0:0:
408,308,122561,1,0,0:0:0:0:
304,184,122660,6,0,P|296:148|300:112,1,52.1333343276978,2|0,0:0|0:0,0:0:0:0:
372,40,122859,1,0,0:0:0:0:
380,52,122959,1,0,0:0:0:0:
388,64,123058,2,0,B|360:72|360:72|312:64,1,52.1333343276978
176,36,123257,5,2,0:0:0:0:
152,112,123357,1,0,0:0:0:0:
200,176,123456,1,0,0:0:0:0:
156,244,123556,2,0,P|148:280|152:316,2,52.1333343276978
208,336,123854,6,0,P|152:368|100:348,1,104.266668655396,2|0,0:0|0:0,0:0:0:0:
264,256,124153,2,0,P|314:249|355:279,1,104.266668655396
296,324,124451,2,0,L|288:212,1,104.266668655396,2|0,0:0|0:0,0:0:0:0:
352,80,124750,2,0,L|360:192,1,104.266668655396
280,144,125048,6,0,L|208:136,2,52.1333343276978,2|0|0,0:0|0:0|0:0,0:0:0:0:
416,164,125347,2,0,P|419:138|419:112,2,52.1333343276978
372,264,125645,2,0,L|444:272,2,52.1333343276978,2|0|0,0:0|0:0|0:0,0:0:0:0:
248,248,125944,2,0,P|244:292|248:328,2,52.1333343276978
276,64,126243,6,0,B|280:36|280:36|272:-4,2,52.1333343276978,2|0|0,0:0|0:0|0:0,0:0:0:0:
192,88,126541,2,0,B|188:60|188:60|196:20,2,52.1333343276978
336,128,126840,2,0,B|353:105|353:105|366:67,2,52.1333343276978,2|0|0,0:0|0:0|0:0,0:0:0:0:
124,160,127138,2,0,B|106:137|106:137|93:99,2,52.1333343276978
252,240,127437,5,4,0:0:0:0:
324,264,127536,1,0,0:0:0:0:
312,188,127636,1,0,0:0:0:0:
192,288,127735,2,0,P|184:332|192:368,2,58.2666651107789
312,188,128034,5,2,0:0:0:0:
388,180,128133,1,0,0:0:0:0:
452,224,128233,1,0,0:0:0:0:
492,288,128332,2,0,P|500:332|492:368,2,58.2666651107789
456,148,128631,6,0,B|452:120|452:120|455:90,2,58.2666651107789,2|0|0,0:0|0:0|0:0,0:0:0:0:
312,188,128929,2,0,B|308:217|308:217|312:245,2,58.2666651107789
196,88,129228,2,0,B|200:60|200:60|196:30,2,58.2666651107789,2|0|0,0:0|0:0|0:0,0:0:0:0:
40,164,129526,2,0,B|36:192|36:192|39:221,2,58.2666651107789
176,200,129825,5,2,0:0:0:0:
164,276,129924,1,0,0:0:0:0:
152,352,130024,1,0,0:0:0:0:
224,328,130123,6,0,B|312:312|312:312|288:340,1,116.533330221558
380,368,130422,2,0,B|356:372|356:372|388:332,1,58.2666651107789,2|0,0:0|0:0,0:0:0:0:
436,252,130621,1,0,0:0:0:0:
444,240,130720,2,0,B|465:213|465:213|441:217,1,58.2666651107789
236,248,130919,1,0,0:0:0:0:
236,248,131019,6,0,L|132:268,2,58.2666651107789,2|0|0,0:0|0:0|0:0,0:0:0:0:
324,132,131317,1,0,0:0:0:0:
324,132,131417,2,0,L|266:143,1,58.2666651107789
100,120,131616,5,0,0:0:0:0:
236,40,131765,1,0,0:0:0:0:
176,192,131914,1,0,0:0:0:0:
132,24,132063,1,0,0:0:0:0:
266,143,132213,6,0,P|220:284|76:216,1,345,4|0,0:0|0:0,0:0:0:0:
176,196,133407,6,0,B|316:276|280:116|400:172|436:196|448:248|432:288|420:308,1,345,6|0,0:0|0:0,0:0:0:0:
352,264,134601,6,0,B|320:48|320:48|280:136|228:140,1,345,4|0,0:0|0:0,0:0:0:0:
152,72,135795,6,0,L|176:236,1,161,4|0,0:0|0:0,0:0:0:0:
188,312,136392,5,0,0:0:0:0:
224,296,136466,1,0,0:0:0:0:
264,296,136541,1,0,0:0:0:0:
300,312,136616,1,0,0:0:0:0:
324,340,136690,5,0,0:0:0:0:
356,360,136765,1,0,0:0:0:0:
404,364,136840,1,0,0:0:0:0:
452,344,136914,1,0,0:0:0:0:
484,292,136989,6,0,L|476:192,1,69.0000026321412,6|0,0:0|0:0,0:0:0:0:
393,199,137287,2,0,L|388:268,1,69.0000026321412,10|0,0:0|0:0,0:0:0:0:
468,148,137586,2,0,L|460:48,1,69.0000026321412,2|0,0:0|0:0,0:0:0:0:
377,55,137884,2,0,L|371:123,1,69.0000026321412,10|0,0:0|0:0,0:0:0:0:
224,84,138183,6,0,P|268:76|304:80,1,69.0000026321412,2|0,0:0|0:0,0:0:0:0:
264,172,138481,2,0,P|220:180|184:176,1,69.0000026321412,10|0,0:0|0:0,0:0:0:0:
128,56,138780,2,0,B|136:92|136:92|128:136,1,69.0000026321412,2|0,0:0|0:0,0:0:0:0:
48,168,139078,2,0,B|40:132|40:132|48:88,1,69.0000026321412,10|0,0:0|0:0,0:0:0:0:
72,252,139377,6,0,L|-16:248,1,69.0000026321412,2|0,0:0|0:0,0:0:0:0:
130,123,139675,2,0,L|218:127,1,69.0000026321412,10|0,0:0|0:0,0:0:0:0:
168,328,139974,2,0,L|80:324,1,69.0000026321412,2|0,0:0|0:0,0:0:0:0:
226,199,140272,2,0,L|314:203,1,69.0000026321412,10|0,0:0|0:0,0:0:0:0:
448,212,140571,6,0,P|456:248|448:288,1,69.0000026321412,2|0,0:0|0:0,0:0:0:0:
264,360,140869,2,0,P|256:324|264:284,1,69.0000026321412,10|0,0:0|0:0,0:0:0:0:
294,202,141168,1,2,0:0:0:0:
294,202,141317,1,0,0:0:0:0:
368,248,141466,1,10,0:0:0:0:
168,328,141616,1,0,0:0:0:0:
224,148,141765,5,0,0:0:0:0:
228,136,141840,1,0,0:0:0:0:
232,124,141914,1,0,0:0:0:0:
236,112,141989,1,0,0:0:0:0:
240,100,142063,5,0,0:0:0:0:
264,72,142138,1,0,0:0:0:0:
300,60,142213,1,0,0:0:0:0:
332,76,142287,1,0,0:0:0:0:
352,108,142362,1,0,0:0:0:0:
348,144,142437,1,0,0:0:0:0:
316,176,142511,1,0,0:0:0:0:
268,172,142586,1,0,0:0:0:0:
232,144,142660,5,0,0:0:0:0:
192,120,142735,1,0,0:0:0:0:
144,120,142810,1,0,0:0:0:0:
104,140,142884,1,0,0:0:0:0:
80,180,142959,5,0,0:0:0:0:
84,220,143034,1,0,0:0:0:0:
108,256,143108,1,0,0:0:0:0:
148,268,143183,1,0,0:0:0:0:
188,256,143257,5,0,0:0:0:0:
184,232,143332,1,0,0:0:0:0:
180,208,143407,1,0,0:0:0:0:
176,184,143481,1,0,0:0:0:0:
172,160,143556,5,0,0:0:0:0:
192,108,143631,1,0,0:0:0:0:
244,88,143705,1,0,0:0:0:0:
300,100,143780,1,0,0:0:0:0:
336,140,143854,1,0,0:0:0:0:
388,156,143929,1,0,0:0:0:0:
440,140,144004,1,0,0:0:0:0:
472,96,144078,1,0,0:0:0:0:
468,44,144153,6,0,L|464:-8,1,46
480,244,144302,1,0,0:0:0:0:
384,72,144451,1,10,0:0:0:0:
300,296,144601,1,0,0:0:0:0:
132,128,144750,1,2,0:0:0:0:
344,184,144899,1,4,0:0:0:0:
116,244,145048,1,10,0:0:0:0:
260,68,145198,1,4,0:0:0:0:
328,368,145347,5,6,0:0:0:0:
132,128,145496,1,0,0:0:0:0:
344,184,145645,1,10,0:0:0:0:
40,264,145795,1,4,0:0:0:0:
260,68,145944,1,2,0:0:0:0:
300,296,146093,1,0,0:0:0:0:
76,72,146243,1,10,0:0:0:0:
76,72,146317,1,0,0:0:0:0:
76,72,146392,1,0,0:0:0:0:
76,72,146466,1,0,0:0:0:0:
76,72,146541,6,0,P|128:128|216:108,1,165.599994946289,6|8,0:0|0:0,0:0:0:0:
156,52,146989,1,0,0:0:0:0:
80,192,147138,1,2,0:0:0:0:
209,114,147287,1,0,0:0:0:0:
76,72,147437,1,8,0:0:0:0:
164,284,147586,1,0,0:0:0:0:
344,156,147735,5,2,0:0:0:0:
209,114,147884,1,0,0:0:0:0:
432,96,148034,1,8,0:0:0:0:
188,196,148183,1,0,0:0:0:0:
228,32,148332,1,2,0:0:0:0:
432,188,148481,1,2,0:0:0:0:
432,188,148556,1,0,0:0:0:0:
432,188,148631,1,8,0:0:0:0:
132,136,148780,1,8,0:0:0:0:
332,68,148929,5,2,0:0:0:0:
248,256,149078,1,0,0:0:0:0:
64,92,149228,2,0,P|52:148|68:188,1,82.7999974731446,8|0,0:0|0:0,0:0:0:0:
296,160,149526,1,2,0:0:0:0:
132,136,149675,1,0,0:0:0:0:
248,256,149825,1,8,0:0:0:0:
224,80,149974,1,0,0:0:0:0:
140,240,150123,5,2,0:0:0:0:
296,160,150272,1,0,0:0:0:0:
58,171,150422,1,8,0:0:0:0:
348,240,150571,1,0,0:0:0:0:
140,36,150720,1,2,0:0:0:0:
192,336,150869,1,2,0:0:0:0:
192,336,150944,1,0,0:0:0:0:
192,336,151019,1,8,0:0:0:0:
384,156,151168,1,8,0:0:0:0:
58,171,151317,6,0,L|54:255,1,82.7999974731446,6|0,0:0|0:0,0:0:0:0:
264,104,151616,2,0,L|268:20,1,82.7999974731446,8|0,0:0|0:0,0:0:0:0:
256,280,151914,1,2,0:0:0:0:
164,140,152063,1,0,0:0:0:0:
320,220,152213,1,8,0:0:0:0:
164,232,152362,1,0,0:0:0:0:
384,156,152511,6,0,P|428:148|476:152,1,82.7999974731446,2|0,0:0|0:0,0:0:0:0:
432,296,152810,2,0,P|388:304|340:300,1,82.7999974731446,8|0,0:0|0:0,0:0:0:0:
164,232,153108,1,2,0:0:0:0:
384,156,153257,1,2,0:0:0:0:
384,156,153332,1,0,0:0:0:0:
384,156,153407,1,8,0:0:0:0:
256,280,153556,1,8,0:0:0:0:
336,72,153705,6,0,P|404:60|480:144,1,165.599994946289,2|8,0:0|0:0,0:0:0:0:
432,296,154153,1,0,0:0:0:0:
384,156,154302,1,2,0:0:0:0:
408,324,154451,1,0,0:0:0:0:
400,136,154601,1,8,0:0:0:0:
256,280,154750,1,0,0:0:0:0:
476,212,154899,5,6,0:0:0:0:
164,140,155048,1,0,0:0:0:0:
336,72,155198,1,8,0:0:0:0:
228,352,155347,5,4,0:0:0:0:
252,108,155496,1,2,0:0:0:0:
332,212,155645,1,2,0:0:0:0:
84,176,155795,2,0,L|24:168,1,41.3999987365723,8|0,0:0|0:0,0:0:0:0:
216,280,155944,2,0,L|276:288,1,41.3999987365723,8|0,0:0|0:0,0:0:0:0:
172,57,156093,6,0,L|163:142,1,82.7999974731446,6|0,0:0|0:0,0:0:0:0:
152,216,156317,1,0,0:0:0:0:
132,240,156392,2,0,L|123:325,1,82.7999974731446,8|0,0:0|0:0,0:0:0:0:
332,212,156690,1,2,0:0:0:0:
228,192,156840,1,0,0:0:0:0:
228,192,156914,1,0,0:0:0:0:
228,192,156989,1,8,0:0:0:0:
256,360,157138,1,0,0:0:0:0:
256,360,157213,1,0,0:0:0:0:
256,360,157287,6,0,B|304:352|304:352|360:368,1,82.7999974731446,2|0,0:0|0:0,0:0:0:0:
408,384,157511,1,0,0:0:0:0:
408,384,157586,2,0,L|417:299,1,82.7999974731446,8|0,0:0|0:0,0:0:0:0:
440,104,157884,1,2,0:0:0:0:
504,212,158034,1,0,0:0:0:0:
504,212,158108,1,0,0:0:0:0:
504,212,158183,1,8,0:0:0:0:
340,129,158332,1,0,0:0:0:0:
340,129,158407,1,0,0:0:0:0:
340,129,158481,6,0,L|331:214,1,82.7999974731446,2|0,0:0|0:0,0:0:0:0:
320,284,158705,1,0,0:0:0:0:
320,284,158780,1,12,0:0:0:0:
124,160,158929,1,0,0:0:0:0:
148,156,159004,1,0,0:0:0:0:
172,153,159078,5,2,0:0:0:0:
340,129,159228,1,0,0:0:0:0:
244,216,159377,1,12,0:0:0:0:
256,16,159526,1,0,0:0:0:0:
256,16,159601,1,0,0:0:0:0:
256,16,159675,5,2,0:0:0:0:
331,211,159825,1,0,0:0:0:0:
172,153,159974,1,12,0:0:0:0:
412,88,160123,1,0,0:0:0:0:
412,88,160198,1,0,0:0:0:0:
412,88,160272,2,0,B|424:128|424:128|408:196,1,82.7999974731446,2|0,0:0|0:0,0:0:0:0:
174,232,160571,2,0,B|162:192|162:192|178:124,1,82.7999974731446,12|0,0:0|0:0,0:0:0:0:
256,16,160869,5,6,0:0:0:0:
256,288,161018,1,0,0:0:0:0:
256,288,161093,1,0,0:0:0:0:
256,288,161168,1,8,0:0:0:0:
171,152,161317,1,0,0:0:0:0:
331,211,161466,1,2,0:0:0:0:
80,248,161616,1,0,0:0:0:0:
80,248,161690,1,0,0:0:0:0:
80,248,161765,1,8,0:0:0:0:
248,104,161914,1,0,0:0:0:0:
248,104,161989,1,0,0:0:0:0:
248,104,162063,6,0,P|260:152|248:200,1,82.7999974731446,2|0,0:0|0:0,0:0:0:0:
168,272,162287,1,0,0:0:0:0:
152,288,162362,2,0,L|256:284,1,82.7999974731446,8|0,0:0|0:0,0:0:0:0:
413,207,162660,2,0,L|309:211,1,82.7999974731446,2|0,0:0|0:0,0:0:0:0:
330,210,162884,1,0,0:0:0:0:
330,210,162959,1,8,0:0:0:0:
376,348,163108,1,0,0:0:0:0:
352,72,163257,5,2,0:0:0:0:
330,210,163407,1,0,0:0:0:0:
456,112,163556,1,8,0:0:0:0:
260,164,163705,1,0,0:0:0:0:
260,164,163780,1,0,0:0:0:0:
260,164,163854,6,0,P|248:212|260:260,1,82.7999974731446,2|0,0:0|0:0,0:0:0:0:
288,312,164078,1,0,0:0:0:0:
288,312,164153,1,8,0:0:0:0:
396,164,164302,1,0,0:0:0:0:
396,164,164377,1,0,0:0:0:0:
396,164,164451,5,6,0:0:0:0:
108,132,164601,1,0,0:0:0:0:
330,210,164750,1,8,0:0:0:0:
256,4,164899,1,6,0:0:0:0:
280,272,165198,5,0,0:0:0:0:
332,288,165272,1,0,0:0:0:0:
384,268,165347,1,0,0:0:0:0:
408,220,165422,1,0,0:0:0:0:
396,164,165496,1,0,0:0:0:0:
352,136,165571,1,0,0:0:0:0:
300,136,165645,6,0,L|200:140,1,87.3999976661683,6|0,0:0|0:0,0:0:0:0:
412,88,165944,1,8,0:0:0:0:
330,210,166093,1,0,0:0:0:0:
252,64,166243,1,2,0:0:0:0:
404,120,166392,1,0,0:0:0:0:
212,200,166541,1,8,0:0:0:0:
480,124,166690,1,0,0:0:0:0:
252,64,166840,5,2,0:0:0:0:
272,280,166989,1,0,0:0:0:0:
328,92,167138,1,8,0:0:0:0:
168,276,167287,5,0,0:0:0:0:
408,220,167437,1,2,0:0:0:0:
120,192,167586,1,0,0:0:0:0:
220,356,167735,5,8,0:0:0:0:
168,112,167884,1,0,0:0:0:0:
72,280,168034,5,2,0:0:0:0:
320,188,168183,1,0,0:0:0:0:
40,140,168332,2,0,P|24:192|36:236,1,87.3999976661683,8|0,0:0|0:0,0:0:0:0:
336,272,168631,1,2,0:0:0:0:
120,192,168780,1,0,0:0:0:0:
220,356,168929,1,8,0:0:0:0:
304,104,169078,1,0,0:0:0:0:
304,104,169153,1,0,0:0:0:0:
304,104,169228,6,0,P|312:52|296:0,1,87.3999976661683,6|0,0:0|0:0,0:0:0:0:
119,106,169526,2,0,P|111:148|119:191,1,87.3999976661683,12|0,0:0|0:0,0:0:0:0:
220,356,169825,1,6,0:0:0:0:
304,104,169974,1,0,0:0:0:0:
304,104,170048,1,0,0:0:0:0:
304,104,170123,1,8,0:0:0:0:
119,191,170272,1,0,0:0:0:0:
380,196,170422,6,0,L|508:200,1,87.3999976661683,4|2,0:0|0:0,0:0:0:0:
304,104,170720,1,8,0:0:0:0:
119,191,170869,2,0,L|-9:187,1,87.3999976661683,2|0,0:0|0:0,0:0:0:0:
304,104,171168,1,2,0:0:0:0:
208,192,171317,1,8,0:0:0:0:
248,36,171466,1,2,0:0:0:0:
380,196,171616,5,0,0:0:0:0:
228,116,171765,1,2,0:0:0:0:
380,88,171914,1,8,0:0:0:0:
296,192,172063,1,2,0:0:0:0:
248,36,172213,1,0,0:0:0:0:
456,112,172362,1,2,0:0:0:0:
456,112,172437,1,0,0:0:0:0:
456,112,172511,2,0,B|464:136|464:136|456:168,1,43.6999988330841,8|0,0:0|0:0,0:0:0:0:
296,192,172660,2,0,B|288:168|288:168|296:136,1,43.6999988330841,2|0,0:0|0:0,0:0:0:0:
380,88,172810,5,6,0:0:0:0:
336,256,172959,1,2,0:0:0:0:
228,116,173108,1,10,0:0:0:0:
404,208,173257,5,2,0:0:0:0:
160,184,173407,1,2,0:0:0:0:
304,16,173556,1,2,0:0:0:0:
256,364,173705,5,10,0:0:0:0:
136,80,173854,1,2,0:0:0:0:
408,292,174004,6,0,L|412:336,3,41.3999987365723,4|0|0|0,0:0|0:0|0:0|0:0,0:0:0:0:
336,256,174302,2,0,L|332:214,3,41.3999987365723
256,364,174601,5,0,0:0:0:0:
232,360,174675,1,0,0:0:0:0:
208,356,174750,1,0,0:0:0:0:
184,352,174825,1,0,0:0:0:0:
168,356,174899,5,0,0:0:0:0:
151,353,174974,1,0,0:0:0:0:
135,350,175048,1,0,0:0:0:0:
119,348,175123,1,0,0:0:0:0:
106,346,175198,5,4,0:0:0:0:
336,256,175496,1,0,0:0:0:0:
80,76,176093,5,0,0:0:0:0:
336,256,176690,5,0,0:0:0:0:
280,8,177287,5,0,0:0:0:0:
208,168,177437,1,0,0:0:0:0:
208,168,177511,1,0,0:0:0:0:
208,168,177586,5,0,0:0:0:0:
184,44,177884,1,0,0:0:0:0:
480,156,178481,5,0,0:0:0:0:
104,172,179078,5,0,0:0:0:0:
292,80,179526,5,2,0:0:0:0:
232,296,179675,1,0,0:0:0:0:
208,168,179825,1,0,0:0:0:0:
208,168,179899,1,0,0:0:0:0:
208,168,179974,6,0,L|288:164,1,69.0000026321412,4|0,0:0|0:0,0:0:0:0:
232,296,180272,2,0,L|72:304,1,138.000005264282
94,302,180869,1,0,0:0:0:0:
312,272,181317,6,0,L|316:336,1,34.5000013160706
339,355,181466,2,0,L|335:218,1,138.000005264282
332,84,181914,1,0,0:0:0:0:
332,84,182063,1,0,0:0:0:0:
432,152,182213,2,0,L|368:156,1,34.5000013160706
208,168,182362,6,0,P|136:140|184:16,1,220.799993261719
196,92,183108,1,2,0:0:0:0:
196,92,183257,1,8,0:0:0:0:
314,306,183556,6,0,L|312:272,1,34.5000013160706
304,196,183705,1,0,0:0:0:0:
204,272,183854,1,0,0:0:0:0:
204,272,183929,1,0,0:0:0:0:
204,272,184004,6,0,B|268:268|268:268|288:276|288:276|396:272,1,156.400002983093,0|2,0:0|0:0,0:0:0:0:
248,364,184451,1,8,0:0:0:0:
196,92,184601,1,0,0:0:0:0:
196,92,184675,1,0,0:0:0:0:
196,92,184750,6,0,L|264:88,3,46,6|0|0|0,0:0|0:0|0:0|0:0,0:0:0:0:
296,24,185048,1,8,0:0:0:0:
344,20,185123,1,0,0:0:0:0:
384,40,185198,1,2,0:0:0:0:
404,80,185272,1,0,0:0:0:0:
404,128,185347,6,0,L|400:176,3,46,0|0|2|0,0:0|0:0|0:0|0:0,0:0:0:0:
408,220,185645,1,8,0:0:0:0:
368,196,185720,1,0,0:0:0:0:
320,200,185795,1,0,0:0:0:0:
280,224,185869,1,0,0:0:0:0:
264,268,185944,6,0,L|268:316,3,46,2|0|0|0,0:0|0:0|0:0|0:0,0:0:0:0:
228,384,186243,1,8,0:0:0:0:
196,352,186317,1,0,0:0:0:0:
152,344,186392,1,0,0:0:0:0:
108,352,186466,1,0,0:0:0:0:
64,368,186541,5,2,0:0:0:0:
20,360,186616,1,0,0:0:0:0:
4,316,186690,1,2,0:0:0:0:
12,272,186765,1,0,0:0:0:0:
28,228,186840,2,0,P|36:192|36:152,3,46,8|0|0|0,0:0|0:0|0:0|0:0,0:0:0:0:
32,96,187138,5,2,0:0:0:0:
68,68,187213,1,0,0:0:0:0:
112,72,187287,1,0,0:0:0:0:
152,96,187362,1,0,0:0:0:0:
196,104,187437,2,0,P|236:100|276:88,3,46,8|0|2|0,0:0|0:0|0:0|0:0,0:0:0:0:
328,84,187735,5,0,0:0:0:0:
372,92,187810,1,0,0:0:0:0:
408,120,187884,1,2,0:0:0:0:
420,164,187959,1,0,0:0:0:0:
412,208,188034,2,0,P|408:256|400:276,3,46,8|0|0|0,0:0|0:0|0:0|0:0,0:0:0:0:
332,172,188332,5,2,0:0:0:0:
284,160,188407,1,0,0:0:0:0:
236,168,188481,1,0,0:0:0:0:
196,200,188556,1,0,0:0:0:0:
180,248,188631,2,0,P|184:296|192:316,3,46,8|0|2|0,0:0|0:0|0:0|0:0,0:0:0:0:
280,260,188929,5,0,0:0:0:0:
280,208,189004,1,0,0:0:0:0:
284,160,189078,1,2,0:0:0:0:
284,108,189153,1,0,0:0:0:0:
284,56,189228,2,0,L|288:4,3,46,8|0|0|0,0:0|0:0|0:0|0:0,0:0:0:0:
360,144,189526,5,6,0:0:0:0:
308,172,189601,1,0,0:0:0:0:
248,172,189675,1,0,0:0:0:0:
196,140,189750,1,0,0:0:0:0:
164,88,189825,2,0,L|168:36,3,46,8|0|2|0,0:0|0:0|0:0|0:0,0:0:0:0:
88,12,190123,5,0,0:0:0:0:
84,72,190198,1,0,0:0:0:0:
80,132,190272,1,2,0:0:0:0:
76,192,190347,1,0,0:0:0:0:
68,252,190422,2,0,L|0:244,3,46,8|0|2|0,0:0|0:0|0:0|0:0,0:0:0:0:
152,232,190720,5,0,0:0:0:0:
208,216,190795,1,0,0:0:0:0:
264,236,190869,1,2,0:0:0:0:
308,276,190944,1,0,0:0:0:0:
368,288,191019,1,8,0:0:0:0:
424,268,191093,1,0,0:0:0:0:
456,216,191168,1,0,0:0:0:0:
468,156,191243,1,0,0:0:0:0:
460,96,191317,6,0,L|456:48,1,46,2|0,0:0|0:0,0:0:0:0:
360,160,191466,2,0,L|356:205,1,46,2|0,0:0|0:0,0:0:0:0:
256,104,191616,5,8,0:0:0:0:
253,91,191690,1,0,0:0:0:0:
250,79,191765,1,0,0:0:0:0:
247,67,191840,1,0,0:0:0:0:
244,52,191914,5,2,0:0:0:0:
188,24,191989,1,0,0:0:0:0:
124,32,192063,1,0,0:0:0:0:
84,84,192138,1,0,0:0:0:0:
84,148,192213,2,0,L|100:220,3,46,8|0|2|0,0:0|0:0|0:0|0:0,0:0:0:0:
60,264,192511,5,0,0:0:0:0:
120,236,192586,1,0,0:0:0:0:
184,248,192660,1,2,0:0:0:0:
220,300,192735,1,0,0:0:0:0:
264,348,192810,5,8,0:0:0:0:
328,380,192884,1,0,0:0:0:0:
408,384,192959,1,0,0:0:0:0:
468,332,193034,1,0,0:0:0:0:
500,256,193108,6,0,L|492:112,1,110.399996630859,14|0,0:0|0:0,0:0:0:0:
264,20,193407,1,14,0:0:0:0:
268,76,193481,1,0,0:0:0:0:
272,140,193556,1,0,0:0:0:0:
276,208,193631,1,0,0:0:0:0:
284,284,193705,6,0,B|228:296|228:296|168:280,1,110.399996630859,14|0,0:0|0:0,0:0:0:0:
60,148,194004,1,14,0:0:0:0:
58,128,194078,1,0,0:0:0:0:
56,104,194153,1,0,0:0:0:0:
54,80,194228,1,0,0:0:0:0:
52,60,194302,5,6,0:0:0:0:
176,282,194451,1,0,0:0:0:0:
176,282,194526,1,0,0:0:0:0:
176,282,194601,1,8,0:0:0:0:
140,104,194750,1,0,0:0:0:0:
0,220,194899,2,0,L|128:232,1,101.200003088379,2|0,0:0|0:0,0:0:0:0:
272,244,195198,1,8,0:0:0:0:
88,312,195347,1,0,0:0:0:0:
368,188,195496,6,0,P|384:251|368:304,1,101.200003088379,6|0,0:0|0:0,0:0:0:0:
272,244,195795,1,8,0:0:0:0:
456,132,195944,1,0,0:0:0:0:
456,132,196019,1,0,0:0:0:0:
456,132,196093,1,2,0:0:0:0:
377,285,196243,1,0,0:0:0:0:
432,96,196392,1,8,0:0:0:0:
504,236,196541,1,0,0:0:0:0:
248,224,196690,6,0,L|124:220,1,101.200003088379,6|0,0:0|0:0,0:0:0:0:
404,192,196989,1,8,0:0:0:0:
196,308,197138,1,0,0:0:0:0:
436,208,197287,1,2,0:0:0:0:
200,136,197437,1,0,0:0:0:0:
200,136,197511,1,0,0:0:0:0:
200,136,197586,1,8,0:0:0:0:
288,300,197735,1,0,0:0:0:0:
452,132,197884,6,0,P|463:82|454:33,1,101.200003088379,6|0,0:0|0:0,0:0:0:0:
100,88,198183,2,0,P|88:137|97:186,1,101.200003088379,8|0,0:0|0:0,0:0:0:0:
288,300,198481,1,2,0:0:0:0:
200,136,198631,1,0,0:0:0:0:
200,136,198705,1,0,0:0:0:0:
200,136,198780,1,8,0:0:0:0:
104,316,198929,1,0,0:0:0:0:
320,176,199078,6,0,P|368:168|452:172,1,101.200003088379,6|0,0:0|0:0,0:0:0:0:
288,300,199377,1,8,0:0:0:0:
200,136,199526,1,0,0:0:0:0:
384,276,199675,1,2,0:0:0:0:
152,232,199825,1,0,0:0:0:0:
300,56,199974,1,8,0:0:0:0:
384,276,200123,1,0,0:0:0:0:
152,232,200272,6,0,L|36:220,1,101.200003088379,6|0,0:0|0:0,0:0:0:0:
51,221,200496,1,0,0:0:0:0:
51,221,200571,1,8,0:0:0:0:
200,136,200720,1,0,0:0:0:0:
288,300,200869,1,2,0:0:0:0:
300,56,201019,1,0,0:0:0:0:
300,56,201093,1,0,0:0:0:0:
300,56,201168,1,8,0:0:0:0:
152,232,201317,1,0,0:0:0:0:
464,220,201466,6,0,P|480:276|468:328,1,101.200003088379,6|0,0:0|0:0,0:0:0:0:
152,232,201765,1,8,0:0:0:0:
384,140,201914,1,0,0:0:0:0:
288,300,202063,1,2,0:0:0:0:
208,48,202213,1,0,0:0:0:0:
208,48,202287,1,0,0:0:0:0:
208,48,202362,1,8,0:0:0:0:
464,220,202511,1,0,0:0:0:0:
84,204,202660,6,0,L|-32:200,1,101.200003088379,6|0,0:0|0:0,0:0:0:0:
208,48,202959,2,0,L|92:44,1,101.200003088379,8|0,0:0|0:0,0:0:0:0:
288,300,203257,1,2,0:0:0:0:
485,143,203407,1,0,0:0:0:0:
485,143,203481,1,0,0:0:0:0:
485,143,203556,2,0,L|369:139,1,101.200003088379,8|0,0:0|0:0,0:0:0:0:
232,128,203854,5,4,0:0:0:0:
231,139,203929,1,0,0:0:0:0:
230,151,204004,1,0,0:0:0:0:
230,163,204078,1,0,0:0:0:0:
229,175,204153,1,0,0:0:0:0:
228,187,204228,1,0,0:0:0:0:
228,199,204302,1,0,0:0:0:0:
227,211,204377,1,0,0:0:0:0:
226,223,204451,5,0,0:0:0:0:
256,212,204526,1,0,0:0:0:0:
288,212,204601,1,0,0:0:0:0:
316,228,204675,1,0,0:0:0:0:
336,256,204750,1,0,0:0:0:0:
340,288,204825,1,0,0:0:0:0:
328,320,204899,1,0,0:0:0:0:
304,344,204974,1,0,0:0:0:0:
272,352,205048,5,0,0:0:0:0:
300,336,205123,1,0,0:0:0:0:
332,332,205198,1,0,0:0:0:0:
364,340,205272,1,0,0:0:0:0:
392,360,205347,1,0,0:0:0:0:
424,368,205422,1,0,0:0:0:0:
456,364,205496,1,0,0:0:0:0:
484,348,205571,1,0,0:0:0:0:
500,320,205645,5,0,0:0:0:0:
504,288,205720,1,0,0:0:0:0:
496,256,205795,1,0,0:0:0:0:
476,232,205869,1,0,0:0:0:0:
448,220,205944,1,0,0:0:0:0:
416,216,206019,1,0,0:0:0:0:
384,228,206093,1,0,0:0:0:0:
388,196,206168,1,0,0:0:0:0:
392,164,206243,6,0,L|400:84,7,46
400,44,206840,1,0,0:0:0:0:
376,24,206914,1,0,0:0:0:0:
344,20,206989,1,0,0:0:0:0:
312,28,207063,1,0,0:0:0:0:
288,52,207138,1,0,0:0:0:0:
260,68,207213,1,0,0:0:0:0:
228,72,207287,1,0,0:0:0:0:
196,68,207362,1,0,0:0:0:0:
164,60,207437,6,0,L|168:8,3,46
76,97,207735,2,0,L|80:52,3,46
200,196,208034,2,0,L|203:150,3,46
68,272,208332,1,0,0:0:0:0:
67,283,208407,1,0,0:0:0:0:
66,295,208481,1,0,0:0:0:0:
65,307,208556,1,0,0:0:0:0:
64,320,208631,5,4,0:0:0:0:
224,376,208780,1,0,0:0:0:0:
225,364,208855,1,0,0:0:0:0:
226,351,208930,1,0,0:0:0:0:
200,196,209078,1,0,0:0:0:0:
199,207,209153,1,0,0:0:0:0:
198,219,209227,1,0,0:0:0:0:
197,231,209302,1,0,0:0:0:0:
196,244,209377,5,0,0:0:0:0:
348,252,209527,1,0,0:0:0:0:
348,252,209601,1,0,0:0:0:0:
348,252,209676,1,0,0:0:0:0:
348,252,209750,1,0,0:0:0:0:
348,252,209825,6,0,L|452:256,1,92
404,144,210123,1,0,0:0:0:0:
404,144,210198,1,0,0:0:0:0:
404,144,210272,1,0,0:0:0:0:
320,340,210421,5,0,0:0:0:0:
352,342,210496,1,0,0:0:0:0:
384,344,210571,1,0,0:0:0:0:
416,346,210645,1,0,0:0:0:0:
448,349,210720,1,0,0:0:0:0:
404,144,210869,1,0,0:0:0:0:
240,328,211019,6,0,P|108:260|260:212,1,379.500011581421,4|0,0:0|0:0,0:0:0:0:
192,260,212213,6,0,L|184:76,1,177.100005404663,4|0,0:0|0:0,0:0:0:0:
112,140,212810,6,0,B|168:128|168:128|208:144|208:144|248:128|304:132,1,177.100005404663,4|0,0:0|0:0,0:0:0:0:
348,172,213407,6,0,L|352:192,14,12.6500003860474
283,131,213966,6,0,L|280:118,7,12.6500003860474
237,219,214265,2,0,L|240:232,11,12.6500003860474
168,132,214713,6,0,L|164:112,12,12.6500003860474
84,224,215198,6,0,L|68:228,10,12.6500003860474
156,208,215645,1,8,0:0:0:0:
156,208,215720,1,8,0:0:0:0:
156,208,215795,6,0,L|152:308,1,82.7999974731446,6|0,0:0|0:0,0:0:0:0:
188,272,216093,2,0,L|192:212,2,36.7999988769532
200,348,216392,2,0,B|228:356|228:356|264:348,1,55.1999983154297,10|0,0:0|0:0,0:0:0:0:
300,264,216690,2,0,B|280:260|280:260|256:264,2,36.7999988769532
372,308,216989,6,0,B|382:267|382:267|374:227,1,82.7999974731446,10|0,0:0|0:0,0:0:0:0:
400,216,217287,2,0,L|412:272,2,36.7999988769532
464,140,217586,2,0,L|452:84,2,36.7999988769532,10|0|0,0:0|0:0|0:0,0:0:0:0:
484,216,217884,1,0,0:0:0:0:
348,152,218034,1,0,0:0:0:0:
348,152,218183,6,0,P|288:152|216:160,1,110.399996630859,10|0,0:0|0:0,0:0:0:0:
168,80,218780,2,0,P|228:80|300:72,1,110.399996630859,10|0,0:0|0:0,0:0:0:0:
132,184,219377,5,10,0:0:0:0:
237,156,219526,1,0,0:0:0:0:
237,156,219601,1,0,0:0:0:0:
237,156,219675,1,0,0:0:0:0:
100,176,219825,1,0,0:0:0:0:
288,216,219974,1,10,0:0:0:0:
168,80,220123,1,0,0:0:0:0:
144,276,220272,6,0,L|140:320,2,36.7999988769532
163,268,220571,6,0,L|160:324,1,55.1999983154297,10|0,0:0|0:0,0:0:0:0:
248,356,220869,2,0,L|244:300,1,55.1999983154297
360,192,221168,2,0,L|356:247,1,55.1999983154297,10|0,0:0|0:0,0:0:0:0:
452,356,221466,2,0,L|448:300,1,55.1999983154297
404,120,221765,6,0,P|360:108|336:112,1,55.1999983154297,10|0,0:0|0:0,0:0:0:0:
359,191,222063,1,0,0:0:0:0:
359,191,222213,1,0,0:0:0:0:
359,191,222362,2,0,P|403:203|427:199,1,55.1999983154297,10|0,0:0|0:0,0:0:0:0:
288,60,222660,2,0,P|244:48|220:52,1,55.1999983154297
240,160,222959,5,10,0:0:0:0:
244,188,223556,1,10,0:0:0:0:
248,216,224153,5,10,0:0:0:0:
264,332,224302,1,0,0:0:0:0:
164,180,224451,1,10,0:0:0:0:
352,264,224601,1,0,0:0:0:0:
112,324,224750,2,0,P|106:297|108:269,1,55.1999983154297,10|0,0:0|0:0,0:0:0:0:
251,161,225048,2,0,P|252:194|240:232,1,55.1999983154297,10|0,0:0|0:0,0:0:0:0:
192,84,225347,6,0,P|296:76|344:196,1,225.399993121338,6|0,0:0|0:0,0:0:0:0:
251,161,225944,6,0,B|368:128|364:204|480:148,1,225.399993121338,10|0,0:0|0:0,0:0:0:0:
480,72,226541,6,0,L|468:312,1,225.399993121338,14|0,0:0|0:0,0:0:0:0:
400,296,227138,6,0,B|452:208|452:208|444:336,1,225.399993121338,10|0,0:0|0:0,0:0:0:0:
380,372,227735,6,0,B|300:352|300:352|188:368|188:368|152:340,1,225.399993121338,14|0,0:0|0:0,0:0:0:0:
156,328,228332,6,0,B|188:348|188:348|296:332|296:332|216:280,1,225.399993121338,10|0,0:0|0:0,0:0:0:0:
168,248,228929,6,0,P|76:308|120:400,1,225.399993121338,14|0,0:0|0:0,0:0:0:0:
156,328,229526,6,0,L|164:244,1,64.399998034668,10|2,0:0|0:0,0:0:0:0:
184,60,229825,1,8,0:0:0:0:
96,148,229974,1,8,0:0:0:0:
96,148,230048,1,0,0:0:0:0:
96,148,230123,6,0,L|184:156,1,78.2000014915467,14|0,0:0|0:0,0:0:0:0:
261,67,230422,2,0,L|173:59,1,78.2000014915467,10|0,0:0|0:0,0:0:0:0:
248,208,230720,2,0,L|336:216,1,78.2000014915467,10|0,0:0|0:0,0:0:0:0:
413,127,231019,2,0,L|325:119,1,78.2000014915467,10|0,0:0|0:0,0:0:0:0:
480,172,231317,6,0,P|492:136|484:92,1,78.2000014915467,10|0,0:0|0:0,0:0:0:0:
325,215,231616,2,0,P|313:251|321:295,1,78.2000014915467,10|0,0:0|0:0,0:0:0:0:
473,247,231914,2,0,P|485:211|477:167,1,78.2000014915467,10|0,0:0|0:0,0:0:0:0:
318,290,232213,2,0,P|306:326|314:370,1,78.2000014915467,10|0,0:0|0:0,0:0:0:0:
472,248,232511,5,2,0:0:0:0:
325,215,232660,1,2,0:0:0:0:
492,268,232810,1,10,0:0:0:0:
388,336,232959,1,2,0:0:0:0:
264,104,233108,5,2,0:0:0:0:
318,290,233257,1,2,0:0:0:0:
336,68,233407,1,8,0:0:0:0:
256,248,233556,1,0,0:0:0:0:
479,171,233705,5,14,0:0:0:0:
84,128,233854,1,14,0:0:0:0:
264,24,234004,5,0,0:0:0:0:
264,24,234153,1,0,0:0:0:0:
264,104,234302,6,0,P|212:88|188:52,1,82.7999974731446
336,68,234601,6,0,L|344:232,1,124.199996209717
348,268,234899,5,6,0:0:0:0:
36,220,235048,1,0,0:0:0:0:
428,132,235198,1,10,0:0:0:0:
16,232,235347,1,0,0:0:0:0:
436,276,235496,5,2,0:0:0:0:
84,128,235645,1,0,0:0:0:0:
284,384,235795,1,10,0:0:0:0:
424,4,235944,1,0,0:0:0:0:
120,224,236093,5,2,0:0:0:0:
504,200,236243,1,0,0:0:0:0:
152,24,236392,1,10,0:0:0:0:
284,384,236541,1,0,0:0:0:0:
320,100,236690,5,2,0:0:0:0:
112,384,236840,1,0,0:0:0:0:
512,272,236989,1,10,0:0:0:0:
108,96,237138,1,0,0:0:0:0:
108,96,237213,1,0,0:0:0:0:
108,96,237287,6,0,L|112:316,1,211.60000403595,2|10,0:0|0:0,0:0:0:0:
200,248,237735,1,0,0:0:0:0:
200,248,237884,2,0,L|198:127,1,105.800002017975,2|0,0:0|0:0,0:0:0:0:
24,248,238183,2,0,L|25:368,1,105.800002017975,10|0,0:0|0:0,0:0:0:0:
376,192,238481,6,0,P|324:180|244:192,1,105.800002017975,2|0,0:0|0:0,0:0:0:0:
136,360,238780,2,0,P|188:372|268:360,1,105.800002017975,10|0,0:0|0:0,0:0:0:0:
364,280,239078,1,2,0:0:0:0:
200,248,239228,1,0,0:0:0:0:
380,308,239377,1,10,0:0:0:0:
136,360,239526,1,0,0:0:0:0:
136,360,239601,1,0,0:0:0:0:
136,360,239675,5,2,0:0:0:0:
124,92,239825,1,0,0:0:0:0:
200,248,239974,1,10,0:0:0:0:
48,168,240123,1,0,0:0:0:0:
216,136,240272,1,2,0:0:0:0:
104,268,240422,1,0,0:0:0:0:
408,96,240571,1,10,0:0:0:0:
212,30,240720,1,0,0:0:0:0:
212,30,240795,1,0,0:0:0:0:
212,30,240869,6,0,L|216:146,1,105.800002017975,2|0,0:0|0:0,0:0:0:0:
220,332,241168,1,10,0:0:0:0:
296,196,241317,1,0,0:0:0:0:
104,268,241466,1,2,0:0:0:0:
336,320,241616,1,0,0:0:0:0:
80,280,241765,1,10,0:0:0:0:
416,308,241914,1,0,0:0:0:0:
416,308,241989,1,0,0:0:0:0:
416,308,242063,6,0,L|408:80,1,211.60000403595,2|10,0:0|0:0,0:0:0:0:
408,96,242511,1,0,0:0:0:0:
215,135,242660,1,2,0:0:0:0:
472,212,242810,1,0,0:0:0:0:
296,48,242959,1,10,0:0:0:0:
240,280,243108,1,0,0:0:0:0:
472,212,243257,5,2,0:0:0:0:
472,212,243332,1,0,0:0:0:0:
472,212,243407,2,0,L|476:152,1,52.9000010089875
240,280,243556,1,10,0:0:0:0:
240,280,243631,1,0,0:0:0:0:
240,280,243706,2,0,L|236:340,1,52.9000010089875
332,216,243854,5,2,0:0:0:0:
284,176,243929,1,0,0:0:0:0:
220,172,244004,1,0,0:0:0:0:
164,200,244078,1,0,0:0:0:0:
132,256,244153,6,0,L|124:336,1,52.9000010089875,10|8,0:0|0:0,0:0:0:0:
256,104,244302,2,0,L|264:24,1,52.9000010089875,8|8,0:0|0:0,0:0:0:0:
408,296,244451,5,6,0:0:0:0:
48,188,244601,1,0,0:0:0:0:
504,152,244750,1,10,0:0:0:0:
132,256,244899,1,0,0:0:0:0:
456,224,245048,5,2,0:0:0:0:
116,96,245198,1,0,0:0:0:0:
360,372,245347,1,10,0:0:0:0:
240,12,245496,1,0,0:0:0:0:
44,280,245645,5,2,0:0:0:0:
504,152,245795,1,0,0:0:0:0:
152,16,245944,1,10,0:0:0:0:
256,384,246093,1,0,0:0:0:0:
388,12,246243,5,2,0:0:0:0:
496,364,246392,1,0,0:0:0:0:
48,188,246541,1,10,0:0:0:0:
412,92,246690,1,0,0:0:0:0:
412,92,246765,1,0,0:0:0:0:
412,92,246840,6,0,P|424:140|416:208,1,105.800002017975,2|0,0:0|0:0,0:0:0:0:
392,264,247063,1,0,0:0:0:0:
392,264,247138,1,10,0:0:0:0:
48,188,247287,1,0,0:0:0:0:
336,152,247437,1,2,0:0:0:0:
124,264,247586,1,0,0:0:0:0:
48,72,247735,1,10,0:0:0:0:
48,72,247810,1,0,0:0:0:0:
48,72,247884,1,0,0:0:0:0:
212,328,248034,5,2,0:0:0:0:
164,368,248108,1,0,0:0:0:0:
100,372,248183,1,0,0:0:0:0:
44,340,248257,1,0,0:0:0:0:
16,284,248332,1,10,0:0:0:0:
316,220,248481,5,0,0:0:0:0:
324,284,248556,1,0,0:0:0:0:
332,348,248631,1,2,0:0:0:0:
124,264,248780,5,0,0:0:0:0:
116,200,248855,1,0,0:0:0:0:
108,136,248930,1,10,0:0:0:0:
292,8,249078,5,0,0:0:0:0:
292,8,249153,1,0,0:0:0:0:
292,8,249228,1,6,0:0:0:0:
316,220,250422,5,4,0:0:0:0:
124,264,251616,5,2,0:0:0:0:
404,96,251765,1,2,0:0:0:0:
332,348,251914,1,10,0:0:0:0:
92,140,252063,5,8,0:0:0:0:
460,200,252213,1,2,0:0:0:0:
32,280,252362,1,2,0:0:0:0:
260,0,252511,5,10,0:0:0:0:
240,376,252660,1,0,0:0:0:0:
240,376,252735,1,0,0:0:0:0:
240,376,252810,5,4,0:0:0:0:
180,72,254004,5,4,0:0:0:0:
