osu file format v14

[General]
AudioFilename: audio.mp3
AudioLeadIn: 0
PreviewTime: 162527
Countdown: 0
SampleSet: Soft
StackLeniency: 0.7
Mode: 3
LetterboxInBreaks: 0
SpecialStyle: 0
WidescreenStoryboard: 1

[Editor]
DistanceSpacing: 0.8
BeatDivisor: 4
GridSize: 8
TimelineZoom: 3.249999

[Metadata]
Title:Veauty and Violence
TitleUnicode:Veauty and Violence
Artist:cosMo@Bousou P
ArtistUnicode:cosMo@暴走P
Creator:LostCool
Version:Lv.132
Source:cosMo@暴走Pインストコレクション vol.2
Tags:instrument collection コスモ
BeatmapID:1898136
BeatmapSetID:909619

[Difficulty]
HPDrainRate:8
CircleSize:7
OverallDifficulty:2.5
ApproachRate:5
SliderMultiplier:1.4
SliderTickRate:1

[Events]
//Background and Video events
0,0,"VV-bg.jpg",0,0
//Break Periods
//Storyboard Layer 0 (Background)
//Storyboard Layer 1 (Fail)
//Storyboard Layer 2 (Pass)
//Storyboard Layer 3 (Foreground)
//Storyboard Sound Samples

[TimingPoints]
988,259.74025974026,4,2,0,0,1,0
988,-100,4,2,0,0,0,0
117351,389.61038961039,4,2,0,0,1,0
117351,-66.6666666666667,4,2,0,0,0,0
142286,389.61038961039,4,2,0,0,1,0
142286,-66.6666666666667,4,2,0,0,0,0
145402,377.358490566038,4,2,0,0,1,0
145402,-68.9655172413793,4,2,0,0,0,0
148420,365.853658536585,4,2,0,0,1,0
148420,-71.4285714285714,4,2,0,0,0,0
151346,355.029585798817,4,2,0,0,1,0
151346,-73.5294117647059,4,2,0,0,0,0
154186,344.827586206897,4,2,0,0,1,0
154186,-75.7575757575758,4,2,0,0,0,0
155565,326.086956521739,4,2,0,0,1,0
155565,-80,4,2,0,0,0,0
156869,309.278350515464,4,2,0,0,1,0
156869,-84.0336134453781,4,2,0,0,0,0
158106,294.117647058824,4,2,0,0,1,0
158106,-88.4955752212389,4,2,0,0,0,0
159282,281.69014084507,4,2,0,0,1,0
159282,-92.5925925925926,4,2,0,0,0,0
160408,270.27027027027,4,2,0,0,1,0
160408,-96.1538461538461,4,2,0,0,0,0
161489,259.74025974026,4,2,0,0,1,0
161489,-100,4,2,0,0,0,0

[HitObjects]
182,192,988,5,0,0:0:0:0:
256,192,1117,1,0,0:0:0:0:
109,192,1117,1,0,0:0:0:0:
329,192,1247,1,0,0:0:0:0:
36,192,1247,1,0,0:0:0:0:
402,192,1377,1,0,0:0:0:0:
109,192,1377,128,0,1767:0:0:0:0:
475,192,1507,1,0,0:0:0:0:
402,192,1637,1,0,0:0:0:0:
329,192,1767,1,0,0:0:0:0:
256,192,1897,1,0,0:0:0:0:
182,192,2026,1,0,0:0:0:0:
329,192,2026,1,0,0:0:0:0:
109,192,2156,1,0,0:0:0:0:
402,192,2156,1,0,0:0:0:0:
475,192,2286,1,0,0:0:0:0:
36,192,2286,1,0,0:0:0:0:
109,192,2416,1,0,0:0:0:0:
402,192,2416,128,0,2806:0:0:0:0:
182,192,2546,1,0,0:0:0:0:
256,192,2676,1,0,0:0:0:0:
36,192,2676,1,0,0:0:0:0:
109,192,2806,1,0,0:0:0:0:
329,192,2806,1,0,0:0:0:0:
182,192,2936,1,0,0:0:0:0:
402,192,2936,1,0,0:0:0:0:
256,192,3065,1,0,0:0:0:0:
475,192,3065,1,0,0:0:0:0:
402,192,3195,1,0,0:0:0:0:
182,192,3195,1,0,0:0:0:0:
329,192,3325,1,0,0:0:0:0:
109,192,3325,1,0,0:0:0:0:
256,192,3455,1,0,0:0:0:0:
36,192,3455,1,0,0:0:0:0:
182,192,3585,1,0,0:0:0:0:
475,192,3715,1,0,0:0:0:0:
109,192,3715,1,0,0:0:0:0:
36,192,3845,1,0,0:0:0:0:
402,192,3845,1,0,0:0:0:0:
329,192,3975,1,0,0:0:0:0:
109,192,3975,1,0,0:0:0:0:
256,192,4104,1,0,0:0:0:0:
182,192,4104,1,0,0:0:0:0:
402,192,4104,1,0,0:0:0:0:
329,192,4234,1,0,0:0:0:0:
109,192,4234,1,0,0:0:0:0:
475,192,4299,1,0,0:0:0:0:
329,192,4364,1,0,0:0:0:0:
109,192,4364,1,0,0:0:0:0:
182,192,4364,1,0,0:0:0:0:
256,192,4494,1,0,0:0:0:0:
36,192,4494,1,0,0:0:0:0:
256,192,4624,1,0,0:0:0:0:
182,192,4624,1,0,0:0:0:0:
402,192,4624,1,0,0:0:0:0:
329,192,4754,1,0,0:0:0:0:
109,192,4754,1,0,0:0:0:0:
329,192,4884,1,0,0:0:0:0:
402,192,4884,1,0,0:0:0:0:
36,192,4884,1,0,0:0:0:0:
475,192,5013,1,0,0:0:0:0:
182,192,5013,1,0,0:0:0:0:
475,192,5143,1,0,0:0:0:0:
402,192,5143,1,0,0:0:0:0:
109,192,5143,1,0,0:0:0:0:
329,192,5273,1,0,0:0:0:0:
475,192,5273,1,0,0:0:0:0:
109,192,5273,1,0,0:0:0:0:
402,192,5403,1,0,0:0:0:0:
256,192,5403,1,0,0:0:0:0:
36,192,5403,1,0,0:0:0:0:
329,192,5533,1,0,0:0:0:0:
182,192,5533,1,0,0:0:0:0:
36,192,5533,1,0,0:0:0:0:
256,192,5663,1,0,0:0:0:0:
109,192,5663,128,0,5858:0:0:0:0:
329,192,5793,1,0,0:0:0:0:
109,192,5923,1,0,0:0:0:0:
402,192,5923,1,0,0:0:0:0:
475,192,6052,1,0,0:0:0:0:
182,192,6052,1,0,0:0:0:0:
256,192,6182,1,0,0:0:0:0:
402,192,6182,1,0,0:0:0:0:
329,192,6312,1,0,0:0:0:0:
182,192,6312,1,0,0:0:0:0:
402,192,6312,1,0,0:0:0:0:
256,192,6442,1,0,0:0:0:0:
109,192,6442,1,0,0:0:0:0:
475,192,6442,1,0,0:0:0:0:
182,192,6572,1,0,0:0:0:0:
36,192,6572,1,0,0:0:0:0:
475,192,6572,1,0,0:0:0:0:
109,192,6702,1,0,0:0:0:0:
402,192,6702,128,0,6832:0:0:0:0:
182,192,6832,1,0,0:0:0:0:
36,192,6832,1,0,0:0:0:0:
329,192,6832,128,0,6962:0:0:0:0:
256,192,6962,1,0,0:0:0:0:
109,192,6962,1,0,0:0:0:0:
402,192,6962,128,0,7091:0:0:0:0:
329,192,7091,1,0,0:0:0:0:
182,192,7091,1,0,0:0:0:0:
475,192,7091,128,0,7221:0:0:0:0:
256,192,7221,1,0,0:0:0:0:
402,192,7221,1,0,0:0:0:0:
475,192,7351,1,0,0:0:0:0:
182,192,7351,1,0,0:0:0:0:
109,192,7481,1,0,0:0:0:0:
402,192,7481,1,0,0:0:0:0:
182,192,7611,1,0,0:0:0:0:
329,192,7611,1,0,0:0:0:0:
256,192,7741,1,0,0:0:0:0:
182,192,7871,1,0,0:0:0:0:
329,192,7871,1,0,0:0:0:0:
402,192,8000,1,0,0:0:0:0:
109,192,8000,1,0,0:0:0:0:
36,192,8130,1,0,0:0:0:0:
475,192,8130,1,0,0:0:0:0:
109,192,8260,1,0,0:0:0:0:
402,192,8260,1,0,0:0:0:0:
256,192,8390,1,0,0:0:0:0:
329,192,8455,1,0,0:0:0:0:
182,192,8455,1,0,0:0:0:0:
256,192,8520,1,0,0:0:0:0:
182,192,8650,1,0,0:0:0:0:
329,192,8650,1,0,0:0:0:0:
109,192,8780,1,0,0:0:0:0:
402,192,8780,1,0,0:0:0:0:
475,192,8910,1,0,0:0:0:0:
36,192,8910,1,0,0:0:0:0:
109,192,9039,128,0,9250:0:0:0:0:
256,192,9039,128,0,9250:0:0:0:0:
402,192,9039,128,0,9250:0:0:0:0:
182,192,9056,128,0,9250:0:0:0:0:
36,192,9056,128,0,9250:0:0:0:0:
329,192,9056,128,0,9250:0:0:0:0:
475,192,9056,128,0,9250:0:0:0:0:
182,192,9299,1,0,0:0:0:0:
36,192,9299,1,0,0:0:0:0:
109,192,9299,1,0,0:0:0:0:
256,192,9299,1,0,0:0:0:0:
402,192,9299,1,0,0:0:0:0:
329,192,9299,1,0,0:0:0:0:
475,192,9299,1,0,0:0:0:0:
329,192,9429,128,0,9516:0:0:0:0:
109,192,9559,1,0,0:0:0:0:
36,192,9559,1,0,0:0:0:0:
402,192,9559,128,0,9646:0:0:0:0:
475,192,9689,128,0,9775:0:0:0:0:
182,192,9819,1,0,0:0:0:0:
36,192,9819,1,0,0:0:0:0:
256,192,9819,128,0,9905:0:0:0:0:
475,192,9949,128,0,10035:0:0:0:0:
109,192,10078,1,0,0:0:0:0:
256,192,10078,1,0,0:0:0:0:
402,192,10078,128,0,10165:0:0:0:0:
329,192,10208,128,0,10295:0:0:0:0:
475,192,10338,1,0,0:0:0:0:
402,192,10338,1,0,0:0:0:0:
256,192,10338,1,0,0:0:0:0:
182,192,10338,128,0,10425:0:0:0:0:
109,192,10468,128,0,10555:0:0:0:0:
329,192,10598,1,0,0:0:0:0:
475,192,10598,1,0,0:0:0:0:
36,192,10598,128,0,10684:0:0:0:0:
256,192,10728,128,0,10814:0:0:0:0:
475,192,10858,1,0,0:0:0:0:
402,192,10858,1,0,0:0:0:0:
36,192,10858,128,0,10944:0:0:0:0:
109,192,10988,128,0,11074:0:0:0:0:
329,192,11117,1,0,0:0:0:0:
475,192,11117,1,0,0:0:0:0:
182,192,11117,128,0,11204:0:0:0:0:
256,192,11247,128,0,11334:0:0:0:0:
182,192,11377,1,0,0:0:0:0:
36,192,11377,1,0,0:0:0:0:
329,192,11377,128,0,11464:0:0:0:0:
475,192,11377,128,0,11464:0:0:0:0:
256,192,11507,128,0,11594:0:0:0:0:
402,192,11507,128,0,11594:0:0:0:0:
36,192,11637,1,0,0:0:0:0:
109,192,11637,1,0,0:0:0:0:
329,192,11637,128,0,11723:0:0:0:0:
182,192,11637,128,0,11723:0:0:0:0:
256,192,11767,128,0,11853:0:0:0:0:
402,192,11767,128,0,11853:0:0:0:0:
182,192,11897,1,0,0:0:0:0:
36,192,11897,1,0,0:0:0:0:
329,192,11897,128,0,11983:0:0:0:0:
475,192,11897,128,0,11983:0:0:0:0:
402,192,12026,128,0,12113:0:0:0:0:
256,192,12026,128,0,12113:0:0:0:0:
109,192,12156,1,0,0:0:0:0:
36,192,12156,1,0,0:0:0:0:
182,192,12156,128,0,12243:0:0:0:0:
329,192,12156,128,0,12243:0:0:0:0:
256,192,12286,128,0,12373:0:0:0:0:
402,192,12416,1,0,0:0:0:0:
475,192,12416,1,0,0:0:0:0:
182,192,12416,128,0,12503:0:0:0:0:
36,192,12416,128,0,12503:0:0:0:0:
109,192,12546,1,0,0:0:0:0:
256,192,12546,1,0,0:0:0:0:
182,192,12611,1,0,0:0:0:0:
329,192,12611,1,0,0:0:0:0:
475,192,12676,1,0,0:0:0:0:
402,192,12676,1,0,0:0:0:0:
256,192,12676,128,0,12806:0:0:0:0:
36,192,12676,1,0,0:0:0:0:
329,192,12806,128,0,12892:0:0:0:0:
475,192,12806,128,0,12892:0:0:0:0:
182,192,12936,1,0,0:0:0:0:
36,192,12936,1,0,0:0:0:0:
402,192,12936,128,0,13022:0:0:0:0:
256,192,12936,128,0,13022:0:0:0:0:
329,192,13065,128,0,13152:0:0:0:0:
182,192,13065,128,0,13152:0:0:0:0:
36,192,13195,1,0,0:0:0:0:
475,192,13195,1,0,0:0:0:0:
256,192,13195,128,0,13282:0:0:0:0:
402,192,13195,128,0,13282:0:0:0:0:
329,192,13325,128,0,13412:0:0:0:0:
402,192,13455,1,0,0:0:0:0:
475,192,13455,1,0,0:0:0:0:
109,192,13455,1,0,0:0:0:0:
36,192,13455,1,0,0:0:0:0:
256,192,13455,128,0,13585:0:0:0:0:
329,192,13455,1,0,0:0:0:0:
182,192,13455,1,0,0:0:0:0:
182,192,13585,128,0,13715:0:0:0:0:
329,192,13585,1,0,0:0:0:0:
402,192,13715,1,0,0:0:0:0:
475,192,13715,1,0,0:0:0:0:
109,192,13715,128,0,13845:0:0:0:0:
256,192,13715,1,0,0:0:0:0:
36,192,13845,128,0,13975:0:0:0:0:
182,192,13845,1,0,0:0:0:0:
329,192,13975,1,0,0:0:0:0:
475,192,13975,1,0,0:0:0:0:
256,192,13975,128,0,14104:0:0:0:0:
109,192,13975,1,0,0:0:0:0:
36,192,14104,128,0,14234:0:0:0:0:
182,192,14104,1,0,0:0:0:0:
475,192,14234,1,0,0:0:0:0:
402,192,14234,1,0,0:0:0:0:
109,192,14234,128,0,14364:0:0:0:0:
256,192,14234,1,0,0:0:0:0:
182,192,14364,128,0,14407:0:0:0:0:
329,192,14364,1,0,0:0:0:0:
36,192,14494,1,0,0:0:0:0:
109,192,14494,1,0,0:0:0:0:
256,192,14494,1,0,0:0:0:0:
329,192,14494,128,0,14624:0:0:0:0:
402,192,14624,128,0,14754:0:0:0:0:
256,192,14624,1,0,0:0:0:0:
182,192,14754,1,0,0:0:0:0:
36,192,14754,1,0,0:0:0:0:
475,192,14754,128,0,14884:0:0:0:0:
329,192,14754,1,0,0:0:0:0:
256,192,14884,128,0,15013:0:0:0:0:
402,192,14884,1,0,0:0:0:0:
36,192,15013,1,0,0:0:0:0:
109,192,15013,1,0,0:0:0:0:
475,192,15013,128,0,15143:0:0:0:0:
329,192,15013,1,0,0:0:0:0:
402,192,15143,128,0,15273:0:0:0:0:
256,192,15143,1,0,0:0:0:0:
109,192,15273,1,0,0:0:0:0:
36,192,15273,1,0,0:0:0:0:
329,192,15273,128,0,15403:0:0:0:0:
182,192,15273,1,0,0:0:0:0:
256,192,15403,128,0,15446:0:0:0:0:
109,192,15403,1,0,0:0:0:0:
402,192,15533,1,0,0:0:0:0:
475,192,15533,1,0,0:0:0:0:
182,192,15533,128,0,15620:0:0:0:0:
36,192,15533,128,0,15620:0:0:0:0:
256,192,15663,128,0,15749:0:0:0:0:
109,192,15663,128,0,15749:0:0:0:0:
475,192,15793,1,0,0:0:0:0:
402,192,15793,1,0,0:0:0:0:
182,192,15793,128,0,15879:0:0:0:0:
329,192,15793,128,0,15879:0:0:0:0:
256,192,15923,128,0,16009:0:0:0:0:
109,192,15923,128,0,16009:0:0:0:0:
329,192,16052,1,0,0:0:0:0:
475,192,16052,1,0,0:0:0:0:
182,192,16052,128,0,16139:0:0:0:0:
36,192,16052,128,0,16139:0:0:0:0:
109,192,16182,128,0,16269:0:0:0:0:
256,192,16182,128,0,16269:0:0:0:0:
402,192,16312,1,0,0:0:0:0:
475,192,16312,1,0,0:0:0:0:
329,192,16312,128,0,16399:0:0:0:0:
182,192,16312,128,0,16399:0:0:0:0:
256,192,16442,128,0,16529:0:0:0:0:
109,192,16572,1,0,0:0:0:0:
36,192,16572,1,0,0:0:0:0:
329,192,16572,128,0,16658:0:0:0:0:
475,192,16572,128,0,16658:0:0:0:0:
402,192,16702,1,0,0:0:0:0:
256,192,16702,1,0,0:0:0:0:
329,192,16767,1,0,0:0:0:0:
182,192,16767,1,0,0:0:0:0:
36,192,16832,1,0,0:0:0:0:
109,192,16832,1,0,0:0:0:0:
256,192,16832,128,0,16962:0:0:0:0:
182,192,16962,128,0,17048:0:0:0:0:
36,192,16962,128,0,17048:0:0:0:0:
402,192,17091,1,0,0:0:0:0:
475,192,17091,1,0,0:0:0:0:
256,192,17091,128,0,17178:0:0:0:0:
109,192,17156,1,0,0:0:0:0:
329,192,17221,128,0,17308:0:0:0:0:
36,192,17221,128,0,17286:0:0:0:0:
182,192,17286,1,0,0:0:0:0:
475,192,17351,1,0,0:0:0:0:
402,192,17351,128,0,17438:0:0:0:0:
109,192,17351,128,0,17416:0:0:0:0:
256,192,17416,1,0,0:0:0:0:
475,192,17481,128,0,17568:0:0:0:0:
182,192,17481,128,0,17546:0:0:0:0:
329,192,17546,1,0,0:0:0:0:
36,192,17611,1,0,0:0:0:0:
402,192,17611,1,0,0:0:0:0:
475,192,17611,1,0,0:0:0:0:
256,192,17611,128,0,17676:0:0:0:0:
109,192,17627,1,0,0:0:0:0:
182,192,17643,1,0,0:0:0:0:
402,192,17741,1,0,0:0:0:0:
329,192,17741,128,0,17806:0:0:0:0:
36,192,17871,1,0,0:0:0:0:
475,192,17871,1,0,0:0:0:0:
402,192,17871,128,0,17936:0:0:0:0:
109,192,17887,1,0,0:0:0:0:
182,192,17903,1,0,0:0:0:0:
256,192,18000,1,0,0:0:0:0:
329,192,18000,128,0,18065:0:0:0:0:
36,192,18130,1,0,0:0:0:0:
402,192,18130,1,0,0:0:0:0:
475,192,18130,128,0,18195:0:0:0:0:
109,192,18147,1,0,0:0:0:0:
182,192,18163,1,0,0:0:0:0:
329,192,18260,1,0,0:0:0:0:
256,192,18260,128,0,18325:0:0:0:0:
36,192,18390,1,0,0:0:0:0:
402,192,18390,1,0,0:0:0:0:
329,192,18390,128,0,18455:0:0:0:0:
109,192,18406,1,0,0:0:0:0:
182,192,18423,1,0,0:0:0:0:
402,192,18520,128,0,18585:0:0:0:0:
475,192,18520,1,0,0:0:0:0:
182,192,18650,1,0,0:0:0:0:
109,192,18650,1,0,0:0:0:0:
36,192,18650,128,0,18715:0:0:0:0:
256,192,18666,1,0,0:0:0:0:
329,192,18682,1,0,0:0:0:0:
475,192,18780,1,0,0:0:0:0:
402,192,18780,128,0,18845:0:0:0:0:
182,192,18910,1,0,0:0:0:0:
36,192,18910,1,0,0:0:0:0:
109,192,18910,128,0,18975:0:0:0:0:
256,192,18926,1,0,0:0:0:0:
329,192,18942,1,0,0:0:0:0:
402,192,19039,1,0,0:0:0:0:
475,192,19039,128,0,19104:0:0:0:0:
182,192,19169,1,0,0:0:0:0:
36,192,19169,1,0,0:0:0:0:
109,192,19169,128,0,19234:0:0:0:0:
256,192,19186,1,0,0:0:0:0:
329,192,19202,1,0,0:0:0:0:
402,192,19299,1,0,0:0:0:0:
475,192,19299,128,0,19364:0:0:0:0:
182,192,19429,1,0,0:0:0:0:
36,192,19429,1,0,0:0:0:0:
109,192,19429,128,0,19494:0:0:0:0:
256,192,19445,1,0,0:0:0:0:
329,192,19462,1,0,0:0:0:0:
402,192,19559,128,0,19624:0:0:0:0:
256,192,19559,1,0,0:0:0:0:
475,192,19689,1,0,0:0:0:0:
36,192,19689,1,0,0:0:0:0:
182,192,19689,1,0,0:0:0:0:
256,192,19689,128,0,19754:0:0:0:0:
402,192,19705,1,0,0:0:0:0:
329,192,19721,1,0,0:0:0:0:
109,192,19819,1,0,0:0:0:0:
182,192,19819,128,0,19884:0:0:0:0:
475,192,19949,1,0,0:0:0:0:
36,192,19949,1,0,0:0:0:0:
109,192,19949,128,0,20013:0:0:0:0:
402,192,19965,1,0,0:0:0:0:
329,192,19981,1,0,0:0:0:0:
256,192,20078,1,0,0:0:0:0:
182,192,20078,128,0,20143:0:0:0:0:
475,192,20208,1,0,0:0:0:0:
109,192,20208,1,0,0:0:0:0:
36,192,20208,128,0,20273:0:0:0:0:
402,192,20225,1,0,0:0:0:0:
329,192,20241,1,0,0:0:0:0:
182,192,20338,1,0,0:0:0:0:
256,192,20338,128,0,20403:0:0:0:0:
475,192,20468,1,0,0:0:0:0:
109,192,20468,1,0,0:0:0:0:
182,192,20468,128,0,20533:0:0:0:0:
402,192,20484,1,0,0:0:0:0:
329,192,20500,1,0,0:0:0:0:
36,192,20598,128,0,20663:0:0:0:0:
109,192,20598,1,0,0:0:0:0:
475,192,20728,1,0,0:0:0:0:
256,192,20728,128,0,20793:0:0:0:0:
182,192,20728,1,0,0:0:0:0:
36,192,20728,1,0,0:0:0:0:
402,192,20744,1,0,0:0:0:0:
329,192,20760,1,0,0:0:0:0:
109,192,20858,128,0,20923:0:0:0:0:
402,192,20988,1,0,0:0:0:0:
36,192,20988,1,0,0:0:0:0:
256,192,20988,128,0,21052:0:0:0:0:
109,192,21004,1,0,0:0:0:0:
182,192,21020,1,0,0:0:0:0:
402,192,21117,128,0,21182:0:0:0:0:
109,192,21117,1,0,0:0:0:0:
182,192,21247,1,0,0:0:0:0:
36,192,21247,1,0,0:0:0:0:
256,192,21247,1,0,0:0:0:0:
329,192,21247,1,0,0:0:0:0:
475,192,21247,1,0,0:0:0:0:
402,192,21377,128,0,21442:0:0:0:0:
109,192,21377,1,0,0:0:0:0:
329,192,21442,1,0,0:0:0:0:
256,192,21442,1,0,0:0:0:0:
36,192,21442,1,0,0:0:0:0:
182,192,21442,1,0,0:0:0:0:
475,192,21442,1,0,0:0:0:0:
256,192,21637,128,0,21702:0:0:0:0:
36,192,21637,1,0,0:0:0:0:
329,192,21637,1,0,0:0:0:0:
402,192,21637,1,0,0:0:0:0:
475,192,21637,1,0,0:0:0:0:
182,192,21637,1,0,0:0:0:0:
109,192,21637,1,0,0:0:0:0:
36,192,21767,128,0,21832:0:0:0:0:
475,192,21767,128,0,21945:0:0:0:0:
182,192,21767,128,0,21832:0:0:0:0:
402,192,21783,128,0,21962:0:0:0:0:
329,192,21799,1,0,0:0:0:0:
109,192,21897,1,0,0:0:0:0:
256,192,21897,128,0,21962:0:0:0:0:
36,192,22026,1,0,0:0:0:0:
475,192,22026,128,0,22205:0:0:0:0:
182,192,22026,128,0,22091:0:0:0:0:
402,192,22043,1,0,0:0:0:0:
329,192,22059,128,0,22221:0:0:0:0:
256,192,22156,1,0,0:0:0:0:
109,192,22156,128,0,22221:0:0:0:0:
475,192,22286,1,0,0:0:0:0:
109,192,22286,1,0,0:0:0:0:
36,192,22286,128,0,22351:0:0:0:0:
402,192,22302,128,0,22465:0:0:0:0:
329,192,22319,128,0,22481:0:0:0:0:
182,192,22416,1,0,0:0:0:0:
256,192,22416,128,0,22481:0:0:0:0:
109,192,22546,1,0,0:0:0:0:
475,192,22546,128,0,22660:0:0:0:0:
182,192,22546,128,0,22611:0:0:0:0:
402,192,22562,1,0,0:0:0:0:
329,192,22578,128,0,22676:0:0:0:0:
109,192,22676,128,0,22741:0:0:0:0:
402,192,22676,1,0,0:0:0:0:
36,192,22676,1,0,0:0:0:0:
329,192,22806,1,0,0:0:0:0:
475,192,22806,128,0,22871:0:0:0:0:
256,192,22822,128,0,22984:0:0:0:0:
182,192,22838,128,0,23000:0:0:0:0:
36,192,22936,1,0,0:0:0:0:
109,192,22936,128,0,23000:0:0:0:0:
475,192,23065,1,0,0:0:0:0:
329,192,23065,128,0,23244:0:0:0:0:
402,192,23065,128,0,23130:0:0:0:0:
256,192,23082,1,0,0:0:0:0:
182,192,23098,128,0,23260:0:0:0:0:
109,192,23195,1,0,0:0:0:0:
36,192,23195,128,0,23260:0:0:0:0:
475,192,23325,1,0,0:0:0:0:
329,192,23325,128,0,23504:0:0:0:0:
402,192,23325,128,0,23390:0:0:0:0:
256,192,23341,128,0,23520:0:0:0:0:
182,192,23358,1,0,0:0:0:0:
109,192,23455,1,0,0:0:0:0:
36,192,23455,128,0,23520:0:0:0:0:
329,192,23585,1,0,0:0:0:0:
475,192,23585,1,0,0:0:0:0:
256,192,23601,128,0,23699:0:0:0:0:
182,192,23617,128,0,23715:0:0:0:0:
109,192,23650,128,0,23715:0:0:0:0:
402,192,23715,128,0,23780:0:0:0:0:
329,192,23715,1,0,0:0:0:0:
36,192,23715,1,0,0:0:0:0:
36,192,23845,128,0,24023:0:0:0:0:
256,192,23845,128,0,23910:0:0:0:0:
109,192,23861,128,0,24039:0:0:0:0:
182,192,23877,1,0,0:0:0:0:
402,192,23975,1,0,0:0:0:0:
329,192,23975,128,0,24039:0:0:0:0:
475,192,24104,1,0,0:0:0:0:
36,192,24104,128,0,24283:0:0:0:0:
402,192,24104,128,0,24169:0:0:0:0:
109,192,24121,1,0,0:0:0:0:
182,192,24137,128,0,24299:0:0:0:0:
256,192,24234,1,0,0:0:0:0:
329,192,24234,128,0,24299:0:0:0:0:
36,192,24364,1,0,0:0:0:0:
402,192,24364,1,0,0:0:0:0:
475,192,24364,128,0,24429:0:0:0:0:
109,192,24380,128,0,24543:0:0:0:0:
182,192,24397,128,0,24559:0:0:0:0:
329,192,24494,1,0,0:0:0:0:
256,192,24494,128,0,24559:0:0:0:0:
402,192,24624,1,0,0:0:0:0:
36,192,24624,128,0,24802:0:0:0:0:
329,192,24624,128,0,24689:0:0:0:0:
109,192,24640,1,0,0:0:0:0:
182,192,24656,128,0,24819:0:0:0:0:
402,192,24754,128,0,24819:0:0:0:0:
109,192,24754,1,0,0:0:0:0:
475,192,24754,1,0,0:0:0:0:
256,192,24884,128,0,24949:0:0:0:0:
36,192,24884,1,0,0:0:0:0:
109,192,24900,128,0,25013:0:0:0:0:
182,192,24916,1,0,0:0:0:0:
329,192,24949,1,0,0:0:0:0:
402,192,25013,128,0,25078:0:0:0:0:
109,192,25078,1,0,0:0:0:0:
256,192,25143,128,0,25208:0:0:0:0:
475,192,25143,1,0,0:0:0:0:
402,192,25160,128,0,25273:0:0:0:0:
329,192,25176,1,0,0:0:0:0:
182,192,25208,1,0,0:0:0:0:
109,192,25273,128,0,25338:0:0:0:0:
402,192,25403,128,0,25468:0:0:0:0:
329,192,25403,1,0,0:0:0:0:
475,192,25403,1,0,0:0:0:0:
256,192,25403,1,0,0:0:0:0:
182,192,25403,1,0,0:0:0:0:
36,192,25403,128,0,25468:0:0:0:0:
329,192,25598,128,0,25663:0:0:0:0:
182,192,25598,1,0,0:0:0:0:
256,192,25598,1,0,0:0:0:0:
402,192,25598,1,0,0:0:0:0:
109,192,25598,1,0,0:0:0:0:
475,192,25793,128,0,25858:0:0:0:0:
256,192,25793,128,0,25858:0:0:0:0:
182,192,25793,1,0,0:0:0:0:
109,192,25793,1,0,0:0:0:0:
36,192,25793,1,0,0:0:0:0:
329,192,25793,1,0,0:0:0:0:
36,192,25923,128,0,26020:0:0:0:0:
475,192,25923,1,0,0:0:0:0:
402,192,25923,1,0,0:0:0:0:
109,192,25939,128,0,26036:0:0:0:0:
182,192,25955,128,0,26052:0:0:0:0:
256,192,26052,128,0,26117:0:0:0:0:
329,192,26052,128,0,26150:0:0:0:0:
475,192,26182,128,0,26280:0:0:0:0:
109,192,26182,1,0,0:0:0:0:
36,192,26182,1,0,0:0:0:0:
402,192,26199,128,0,26296:0:0:0:0:
329,192,26215,128,0,26312:0:0:0:0:
256,192,26312,128,0,26377:0:0:0:0:
182,192,26312,128,0,26410:0:0:0:0:
36,192,26442,128,0,26604:0:0:0:0:
402,192,26442,1,0,0:0:0:0:
475,192,26442,1,0,0:0:0:0:
109,192,26458,128,0,26621:0:0:0:0:
182,192,26475,128,0,26637:0:0:0:0:
329,192,26572,128,0,26669:0:0:0:0:
256,192,26572,128,0,26653:0:0:0:0:
475,192,26702,128,0,26864:0:0:0:0:
109,192,26702,1,0,0:0:0:0:
36,192,26702,1,0,0:0:0:0:
402,192,26718,128,0,26880:0:0:0:0:
329,192,26734,128,0,26897:0:0:0:0:
256,192,26832,128,0,26913:0:0:0:0:
182,192,26832,128,0,26929:0:0:0:0:
36,192,26962,128,0,27221:0:0:0:0:
402,192,26962,1,0,0:0:0:0:
475,192,26962,1,0,0:0:0:0:
109,192,26978,128,0,27221:0:0:0:0:
182,192,26994,128,0,27221:0:0:0:0:
256,192,27091,128,0,27173:0:0:0:0:
329,192,27108,128,0,27156:0:0:0:0:
475,192,27221,128,0,27481:0:0:0:0:
402,192,27238,128,0,27481:0:0:0:0:
329,192,27254,128,0,27481:0:0:0:0:
256,192,27351,128,0,27432:0:0:0:0:
182,192,27367,128,0,27416:0:0:0:0:
36,192,27481,128,0,27725:0:0:0:0:
109,192,27497,128,0,27708:0:0:0:0:
182,192,27513,128,0,27692:0:0:0:0:
256,192,27611,128,0,27676:0:0:0:0:
329,192,27627,128,0,27676:0:0:0:0:
475,192,27741,128,0,27984:0:0:0:0:
182,192,27741,1,0,0:0:0:0:
109,192,27757,1,0,0:0:0:0:
402,192,27757,128,0,27968:0:0:0:0:
36,192,27773,1,0,0:0:0:0:
329,192,27773,128,0,27952:0:0:0:0:
256,192,27871,128,0,27936:0:0:0:0:
182,192,27887,128,0,27936:0:0:0:0:
329,192,28000,1,0,0:0:0:0:
36,192,28000,128,0,28244:0:0:0:0:
402,192,28017,1,0,0:0:0:0:
109,192,28017,128,0,28228:0:0:0:0:
475,192,28033,1,0,0:0:0:0:
182,192,28033,128,0,28212:0:0:0:0:
256,192,28130,1,0,0:0:0:0:
329,192,28260,128,0,28504:0:0:0:0:
182,192,28260,1,0,0:0:0:0:
402,192,28276,128,0,28488:0:0:0:0:
109,192,28276,1,0,0:0:0:0:
475,192,28293,128,0,28471:0:0:0:0:
36,192,28293,1,0,0:0:0:0:
256,192,28390,1,0,0:0:0:0:
475,192,28520,1,0,0:0:0:0:
36,192,28520,128,0,28763:0:0:0:0:
402,192,28536,1,0,0:0:0:0:
109,192,28536,128,0,28747:0:0:0:0:
329,192,28552,1,0,0:0:0:0:
182,192,28552,128,0,28731:0:0:0:0:
256,192,28650,1,0,0:0:0:0:
182,192,28780,1,0,0:0:0:0:
475,192,28780,128,0,29023:0:0:0:0:
109,192,28796,1,0,0:0:0:0:
402,192,28796,128,0,29007:0:0:0:0:
36,192,28812,1,0,0:0:0:0:
329,192,28812,128,0,28991:0:0:0:0:
256,192,28910,1,0,0:0:0:0:
329,192,29039,1,0,0:0:0:0:
182,192,29039,128,0,29283:0:0:0:0:
402,192,29056,1,0,0:0:0:0:
109,192,29056,128,0,29267:0:0:0:0:
475,192,29072,1,0,0:0:0:0:
36,192,29072,128,0,29250:0:0:0:0:
256,192,29169,1,0,0:0:0:0:
36,192,29299,1,0,0:0:0:0:
329,192,29299,128,0,29543:0:0:0:0:
109,192,29315,1,0,0:0:0:0:
402,192,29315,128,0,29526:0:0:0:0:
182,192,29332,1,0,0:0:0:0:
475,192,29332,128,0,29510:0:0:0:0:
256,192,29429,1,0,0:0:0:0:
182,192,29559,128,0,29802:0:0:0:0:
475,192,29559,1,0,0:0:0:0:
109,192,29575,128,0,29786:0:0:0:0:
402,192,29575,1,0,0:0:0:0:
36,192,29591,128,0,29770:0:0:0:0:
329,192,29591,1,0,0:0:0:0:
256,192,29689,1,0,0:0:0:0:
36,192,29819,1,0,0:0:0:0:
329,192,29819,128,0,30062:0:0:0:0:
109,192,29835,1,0,0:0:0:0:
402,192,29835,128,0,30046:0:0:0:0:
182,192,29851,1,0,0:0:0:0:
475,192,29851,128,0,30030:0:0:0:0:
256,192,29949,1,0,0:0:0:0:
475,192,30078,1,0,0:0:0:0:
109,192,30078,1,0,0:0:0:0:
36,192,30078,1,0,0:0:0:0:
402,192,30095,1,0,0:0:0:0:
329,192,30111,1,0,0:0:0:0:
256,192,30143,1,0,0:0:0:0:
475,192,30208,1,0,0:0:0:0:
36,192,30208,1,0,0:0:0:0:
109,192,30208,1,0,0:0:0:0:
402,192,30225,1,0,0:0:0:0:
329,192,30241,1,0,0:0:0:0:
256,192,30273,1,0,0:0:0:0:
402,192,30338,1,0,0:0:0:0:
475,192,30338,1,0,0:0:0:0:
36,192,30338,1,0,0:0:0:0:
109,192,30354,1,0,0:0:0:0:
182,192,30371,1,0,0:0:0:0:
256,192,30403,1,0,0:0:0:0:
36,192,30468,1,0,0:0:0:0:
475,192,30468,1,0,0:0:0:0:
402,192,30468,1,0,0:0:0:0:
109,192,30484,1,0,0:0:0:0:
182,192,30500,1,0,0:0:0:0:
256,192,30533,1,0,0:0:0:0:
475,192,30598,1,0,0:0:0:0:
109,192,30598,1,0,0:0:0:0:
36,192,30598,1,0,0:0:0:0:
402,192,30614,1,0,0:0:0:0:
329,192,30630,1,0,0:0:0:0:
256,192,30663,1,0,0:0:0:0:
109,192,30728,1,0,0:0:0:0:
36,192,30728,1,0,0:0:0:0:
475,192,30728,1,0,0:0:0:0:
402,192,30744,1,0,0:0:0:0:
329,192,30760,1,0,0:0:0:0:
256,192,30793,1,0,0:0:0:0:
475,192,30858,1,0,0:0:0:0:
36,192,30858,1,0,0:0:0:0:
402,192,30858,1,0,0:0:0:0:
109,192,30874,1,0,0:0:0:0:
182,192,30890,1,0,0:0:0:0:
256,192,30923,1,0,0:0:0:0:
475,192,30988,1,0,0:0:0:0:
402,192,30988,1,0,0:0:0:0:
36,192,30988,1,0,0:0:0:0:
109,192,31004,1,0,0:0:0:0:
182,192,31020,1,0,0:0:0:0:
256,192,31052,1,0,0:0:0:0:
109,192,31117,1,0,0:0:0:0:
182,192,31117,1,0,0:0:0:0:
475,192,31117,1,0,0:0:0:0:
402,192,31134,1,0,0:0:0:0:
329,192,31150,1,0,0:0:0:0:
256,192,31182,1,0,0:0:0:0:
475,192,31247,1,0,0:0:0:0:
109,192,31247,1,0,0:0:0:0:
182,192,31247,1,0,0:0:0:0:
402,192,31263,1,0,0:0:0:0:
329,192,31280,1,0,0:0:0:0:
256,192,31312,1,0,0:0:0:0:
329,192,31377,1,0,0:0:0:0:
36,192,31377,1,0,0:0:0:0:
402,192,31377,1,0,0:0:0:0:
109,192,31393,1,0,0:0:0:0:
182,192,31410,1,0,0:0:0:0:
256,192,31442,1,0,0:0:0:0:
36,192,31507,1,0,0:0:0:0:
329,192,31507,1,0,0:0:0:0:
402,192,31507,1,0,0:0:0:0:
109,192,31523,1,0,0:0:0:0:
182,192,31539,1,0,0:0:0:0:
256,192,31572,1,0,0:0:0:0:
182,192,31637,1,0,0:0:0:0:
475,192,31637,1,0,0:0:0:0:
109,192,31637,1,0,0:0:0:0:
402,192,31653,1,0,0:0:0:0:
329,192,31669,1,0,0:0:0:0:
256,192,31702,1,0,0:0:0:0:
475,192,31767,1,0,0:0:0:0:
182,192,31767,1,0,0:0:0:0:
109,192,31767,1,0,0:0:0:0:
402,192,31783,1,0,0:0:0:0:
329,192,31799,1,0,0:0:0:0:
256,192,31832,1,0,0:0:0:0:
402,192,31897,1,0,0:0:0:0:
36,192,31897,1,0,0:0:0:0:
329,192,31897,1,0,0:0:0:0:
109,192,31913,1,0,0:0:0:0:
182,192,31929,1,0,0:0:0:0:
256,192,31962,1,0,0:0:0:0:
402,192,32026,1,0,0:0:0:0:
36,192,32026,1,0,0:0:0:0:
329,192,32026,1,0,0:0:0:0:
109,192,32043,1,0,0:0:0:0:
182,192,32059,1,0,0:0:0:0:
256,192,32091,1,0,0:0:0:0:
475,192,32156,1,0,0:0:0:0:
36,192,32156,1,0,0:0:0:0:
402,192,32173,1,0,0:0:0:0:
329,192,32189,1,0,0:0:0:0:
109,192,32221,1,0,0:0:0:0:
182,192,32286,1,0,0:0:0:0:
475,192,32286,1,0,0:0:0:0:
402,192,32302,1,0,0:0:0:0:
329,192,32319,1,0,0:0:0:0:
256,192,32351,1,0,0:0:0:0:
36,192,32416,1,0,0:0:0:0:
475,192,32416,1,0,0:0:0:0:
109,192,32432,1,0,0:0:0:0:
182,192,32449,1,0,0:0:0:0:
402,192,32481,1,0,0:0:0:0:
329,192,32546,1,0,0:0:0:0:
36,192,32546,1,0,0:0:0:0:
109,192,32562,1,0,0:0:0:0:
182,192,32578,1,0,0:0:0:0:
256,192,32611,1,0,0:0:0:0:
329,192,32676,1,0,0:0:0:0:
36,192,32676,1,0,0:0:0:0:
402,192,32692,1,0,0:0:0:0:
475,192,32708,1,0,0:0:0:0:
109,192,32741,1,0,0:0:0:0:
329,192,32806,1,0,0:0:0:0:
182,192,32806,1,0,0:0:0:0:
402,192,32822,1,0,0:0:0:0:
475,192,32838,1,0,0:0:0:0:
256,192,32871,1,0,0:0:0:0:
475,192,32936,1,0,0:0:0:0:
182,192,32936,1,0,0:0:0:0:
109,192,32952,1,0,0:0:0:0:
36,192,32968,1,0,0:0:0:0:
402,192,33000,1,0,0:0:0:0:
182,192,33065,1,0,0:0:0:0:
329,192,33065,1,0,0:0:0:0:
109,192,33082,1,0,0:0:0:0:
36,192,33098,1,0,0:0:0:0:
256,192,33130,1,0,0:0:0:0:
329,192,33195,1,0,0:0:0:0:
402,192,33212,1,0,0:0:0:0:
475,192,33228,1,0,0:0:0:0:
182,192,33260,1,0,0:0:0:0:
109,192,33276,1,0,0:0:0:0:
36,192,33293,1,0,0:0:0:0:
329,192,33325,1,0,0:0:0:0:
402,192,33341,1,0,0:0:0:0:
475,192,33358,1,0,0:0:0:0:
182,192,33390,1,0,0:0:0:0:
109,192,33406,1,0,0:0:0:0:
36,192,33423,1,0,0:0:0:0:
329,192,33455,1,0,0:0:0:0:
402,192,33471,1,0,0:0:0:0:
475,192,33488,1,0,0:0:0:0:
182,192,33520,1,0,0:0:0:0:
109,192,33536,1,0,0:0:0:0:
36,192,33552,1,0,0:0:0:0:
329,192,33585,1,0,0:0:0:0:
402,192,33601,1,0,0:0:0:0:
475,192,33617,1,0,0:0:0:0:
182,192,33650,1,0,0:0:0:0:
109,192,33666,1,0,0:0:0:0:
36,192,33682,1,0,0:0:0:0:
329,192,33715,128,0,33736:0:0:0:0:
402,192,33715,128,0,33736:0:0:0:0:
475,192,33715,128,0,33736:0:0:0:0:
256,192,33715,128,0,33736:0:0:0:0:
109,192,33975,128,0,33996:0:0:0:0:
182,192,33975,128,0,33996:0:0:0:0:
36,192,33975,128,0,33996:0:0:0:0:
256,192,33975,128,0,33996:0:0:0:0:
36,192,34234,1,0,0:0:0:0:
256,192,34234,1,0,0:0:0:0:
329,192,34234,1,0,0:0:0:0:
475,192,34234,1,0,0:0:0:0:
402,192,34234,1,0,0:0:0:0:
182,192,34364,1,0,0:0:0:0:
36,192,34494,1,0,0:0:0:0:
256,192,34494,1,0,0:0:0:0:
329,192,34494,1,0,0:0:0:0:
402,192,34494,1,0,0:0:0:0:
475,192,34494,1,0,0:0:0:0:
182,192,34624,1,0,0:0:0:0:
109,192,34754,1,0,0:0:0:0:
36,192,34754,1,0,0:0:0:0:
329,192,34754,1,0,0:0:0:0:
182,192,34884,1,0,0:0:0:0:
256,192,34884,1,0,0:0:0:0:
475,192,34884,1,0,0:0:0:0:
329,192,35013,1,0,0:0:0:0:
402,192,35013,1,0,0:0:0:0:
475,192,35013,1,0,0:0:0:0:
329,192,35143,1,0,0:0:0:0:
182,192,35143,1,0,0:0:0:0:
256,192,35273,1,0,0:0:0:0:
402,192,35273,1,0,0:0:0:0:
475,192,35273,1,0,0:0:0:0:
36,192,35273,1,0,0:0:0:0:
109,192,35273,1,0,0:0:0:0:
329,192,35403,1,0,0:0:0:0:
182,192,35533,1,0,0:0:0:0:
36,192,35533,1,0,0:0:0:0:
475,192,35533,1,0,0:0:0:0:
329,192,35663,1,0,0:0:0:0:
182,192,35793,1,0,0:0:0:0:
36,192,35793,1,0,0:0:0:0:
475,192,35793,1,0,0:0:0:0:
402,192,35858,1,0,0:0:0:0:
329,192,35923,1,0,0:0:0:0:
109,192,36052,1,0,0:0:0:0:
402,192,36052,1,0,0:0:0:0:
475,192,36052,1,0,0:0:0:0:
36,192,36052,1,0,0:0:0:0:
329,192,36117,1,0,0:0:0:0:
256,192,36182,1,0,0:0:0:0:
182,192,36247,1,0,0:0:0:0:
36,192,36312,1,0,0:0:0:0:
402,192,36312,1,0,0:0:0:0:
475,192,36312,1,0,0:0:0:0:
109,192,36312,1,0,0:0:0:0:
329,192,36312,1,0,0:0:0:0:
475,192,36442,1,0,0:0:0:0:
256,192,36442,1,0,0:0:0:0:
402,192,36572,1,0,0:0:0:0:
329,192,36572,1,0,0:0:0:0:
36,192,36572,1,0,0:0:0:0:
182,192,36572,1,0,0:0:0:0:
402,192,36702,1,0,0:0:0:0:
109,192,36702,1,0,0:0:0:0:
329,192,36832,1,0,0:0:0:0:
475,192,36832,1,0,0:0:0:0:
182,192,36832,1,0,0:0:0:0:
109,192,36832,1,0,0:0:0:0:
36,192,36962,1,0,0:0:0:0:
475,192,36962,1,0,0:0:0:0:
256,192,36962,1,0,0:0:0:0:
182,192,37091,1,0,0:0:0:0:
36,192,37091,1,0,0:0:0:0:
475,192,37091,1,0,0:0:0:0:
402,192,37091,1,0,0:0:0:0:
182,192,37221,1,0,0:0:0:0:
475,192,37221,1,0,0:0:0:0:
329,192,37221,1,0,0:0:0:0:
109,192,37351,1,0,0:0:0:0:
36,192,37351,1,0,0:0:0:0:
256,192,37351,1,0,0:0:0:0:
402,192,37351,1,0,0:0:0:0:
402,192,37481,1,0,0:0:0:0:
109,192,37481,1,0,0:0:0:0:
475,192,37481,1,0,0:0:0:0:
36,192,37611,1,0,0:0:0:0:
329,192,37611,1,0,0:0:0:0:
182,192,37611,1,0,0:0:0:0:
256,192,37611,1,0,0:0:0:0:
109,192,37741,1,0,0:0:0:0:
329,192,37741,1,0,0:0:0:0:
402,192,37741,1,0,0:0:0:0:
402,192,37871,1,0,0:0:0:0:
475,192,37871,1,0,0:0:0:0:
182,192,37871,1,0,0:0:0:0:
36,192,37871,1,0,0:0:0:0:
256,192,37936,1,0,0:0:0:0:
329,192,38000,1,0,0:0:0:0:
36,192,38000,1,0,0:0:0:0:
109,192,38065,1,0,0:0:0:0:
475,192,38065,1,0,0:0:0:0:
402,192,38130,1,0,0:0:0:0:
182,192,38130,1,0,0:0:0:0:
329,192,38130,1,0,0:0:0:0:
256,192,38260,1,0,0:0:0:0:
109,192,38260,1,0,0:0:0:0:
475,192,38260,1,0,0:0:0:0:
36,192,38260,1,0,0:0:0:0:
402,192,38325,1,0,0:0:0:0:
329,192,38390,1,0,0:0:0:0:
109,192,38390,1,0,0:0:0:0:
36,192,38390,1,0,0:0:0:0:
182,192,38390,1,0,0:0:0:0:
109,192,38520,128,0,38585:0:0:0:0:
182,192,38520,128,0,38585:0:0:0:0:
256,192,38520,128,0,38585:0:0:0:0:
329,192,38585,128,0,38650:0:0:0:0:
402,192,38585,128,0,38650:0:0:0:0:
475,192,38585,128,0,38650:0:0:0:0:
182,192,38650,1,0,0:0:0:0:
109,192,38650,1,0,0:0:0:0:
36,192,38650,1,0,0:0:0:0:
256,192,38780,128,0,38845:0:0:0:0:
329,192,38780,128,0,38845:0:0:0:0:
402,192,38780,128,0,38845:0:0:0:0:
182,192,38845,128,0,38910:0:0:0:0:
109,192,38845,128,0,38910:0:0:0:0:
36,192,38845,128,0,38910:0:0:0:0:
329,192,38910,1,0,0:0:0:0:
402,192,38910,1,0,0:0:0:0:
475,192,38910,1,0,0:0:0:0:
182,192,39039,128,0,39104:0:0:0:0:
109,192,39039,128,0,39104:0:0:0:0:
36,192,39039,128,0,39104:0:0:0:0:
329,192,39104,128,0,39169:0:0:0:0:
402,192,39104,128,0,39169:0:0:0:0:
475,192,39104,128,0,39169:0:0:0:0:
182,192,39169,1,0,0:0:0:0:
109,192,39169,1,0,0:0:0:0:
36,192,39169,1,0,0:0:0:0:
329,192,39299,128,0,39364:0:0:0:0:
402,192,39299,128,0,39364:0:0:0:0:
475,192,39299,128,0,39364:0:0:0:0:
182,192,39364,128,0,39429:0:0:0:0:
109,192,39364,128,0,39429:0:0:0:0:
36,192,39364,128,0,39429:0:0:0:0:
402,192,39429,1,0,0:0:0:0:
329,192,39429,1,0,0:0:0:0:
475,192,39429,1,0,0:0:0:0:
109,192,39559,128,0,39624:0:0:0:0:
36,192,39559,128,0,39624:0:0:0:0:
402,192,39559,128,0,39624:0:0:0:0:
475,192,39559,128,0,39624:0:0:0:0:
182,192,39624,128,0,39689:0:0:0:0:
256,192,39624,128,0,39689:0:0:0:0:
329,192,39624,128,0,39689:0:0:0:0:
475,192,39689,1,0,0:0:0:0:
402,192,39689,1,0,0:0:0:0:
109,192,39689,1,0,0:0:0:0:
36,192,39689,1,0,0:0:0:0:
182,192,39819,128,0,39949:0:0:0:0:
256,192,39819,128,0,39949:0:0:0:0:
329,192,39819,128,0,39949:0:0:0:0:
109,192,39949,128,0,40078:0:0:0:0:
36,192,39949,128,0,40078:0:0:0:0:
402,192,39949,128,0,40078:0:0:0:0:
475,192,39949,128,0,40078:0:0:0:0:
329,192,40078,1,0,0:0:0:0:
256,192,40078,1,0,0:0:0:0:
182,192,40078,1,0,0:0:0:0:
109,192,40208,1,0,0:0:0:0:
402,192,40208,1,0,0:0:0:0:
36,192,40208,1,0,0:0:0:0:
475,192,40208,1,0,0:0:0:0:
182,192,40273,1,0,0:0:0:0:
329,192,40273,1,0,0:0:0:0:
256,192,40338,1,0,0:0:0:0:
182,192,40403,1,0,0:0:0:0:
329,192,40403,1,0,0:0:0:0:
402,192,40468,1,0,0:0:0:0:
109,192,40468,1,0,0:0:0:0:
36,192,40468,1,0,0:0:0:0:
475,192,40468,1,0,0:0:0:0:
256,192,40598,128,0,40728:0:0:0:0:
109,192,40728,128,0,40793:0:0:0:0:
36,192,40728,128,0,40793:0:0:0:0:
402,192,40728,1,0,0:0:0:0:
475,192,40728,1,0,0:0:0:0:
182,192,40728,128,0,41182:0:0:0:0:
329,192,40728,128,0,41182:0:0:0:0:
36,192,40858,1,0,0:0:0:0:
109,192,40858,1,0,0:0:0:0:
402,192,40858,128,0,40923:0:0:0:0:
475,192,40858,128,0,40923:0:0:0:0:
475,192,40988,1,0,0:0:0:0:
402,192,40988,1,0,0:0:0:0:
109,192,40988,128,0,41052:0:0:0:0:
36,192,40988,128,0,41052:0:0:0:0:
36,192,41117,1,0,0:0:0:0:
109,192,41117,1,0,0:0:0:0:
402,192,41117,128,0,41182:0:0:0:0:
475,192,41117,128,0,41182:0:0:0:0:
256,192,41247,128,0,41312:0:0:0:0:
182,192,41247,128,0,41312:0:0:0:0:
329,192,41247,128,0,41312:0:0:0:0:
402,192,41247,1,0,0:0:0:0:
475,192,41247,1,0,0:0:0:0:
109,192,41247,128,0,41442:0:0:0:0:
36,192,41247,128,0,41442:0:0:0:0:
182,192,41377,1,0,0:0:0:0:
256,192,41377,1,0,0:0:0:0:
329,192,41377,1,0,0:0:0:0:
109,192,41507,1,0,0:0:0:0:
36,192,41507,1,0,0:0:0:0:
182,192,41507,128,0,41572:0:0:0:0:
256,192,41507,128,0,41572:0:0:0:0:
329,192,41507,128,0,41572:0:0:0:0:
402,192,41507,128,0,41702:0:0:0:0:
475,192,41507,128,0,41702:0:0:0:0:
329,192,41637,1,0,0:0:0:0:
182,192,41637,1,0,0:0:0:0:
256,192,41637,1,0,0:0:0:0:
402,192,41767,1,0,0:0:0:0:
475,192,41767,1,0,0:0:0:0:
109,192,41767,128,0,41962:0:0:0:0:
36,192,41767,128,0,41962:0:0:0:0:
182,192,41767,128,0,41832:0:0:0:0:
256,192,41767,128,0,41832:0:0:0:0:
329,192,41767,128,0,41832:0:0:0:0:
329,192,41897,1,0,0:0:0:0:
256,192,41897,1,0,0:0:0:0:
182,192,41897,1,0,0:0:0:0:
36,192,42026,1,0,0:0:0:0:
109,192,42026,1,0,0:0:0:0:
402,192,42026,128,0,42156:0:0:0:0:
475,192,42026,128,0,42156:0:0:0:0:
256,192,42026,1,0,0:0:0:0:
402,192,42221,1,0,0:0:0:0:
475,192,42221,1,0,0:0:0:0:
109,192,42221,128,0,42351:0:0:0:0:
36,192,42221,128,0,42351:0:0:0:0:
256,192,42221,1,0,0:0:0:0:
109,192,42416,1,0,0:0:0:0:
36,192,42416,1,0,0:0:0:0:
402,192,42416,1,0,0:0:0:0:
475,192,42416,1,0,0:0:0:0:
256,192,42416,1,0,0:0:0:0:
329,192,42546,1,0,0:0:0:0:
475,192,42546,1,0,0:0:0:0:
182,192,42546,1,0,0:0:0:0:
36,192,42546,1,0,0:0:0:0:
402,192,42676,1,0,0:0:0:0:
256,192,42676,1,0,0:0:0:0:
109,192,42676,1,0,0:0:0:0:
182,192,42806,1,0,0:0:0:0:
329,192,42806,1,0,0:0:0:0:
475,192,42806,1,0,0:0:0:0:
36,192,42936,1,0,0:0:0:0:
256,192,42936,1,0,0:0:0:0:
402,192,42936,1,0,0:0:0:0:
182,192,43065,1,0,0:0:0:0:
329,192,43065,1,0,0:0:0:0:
475,192,43065,1,0,0:0:0:0:
36,192,43195,1,0,0:0:0:0:
475,192,43195,1,0,0:0:0:0:
329,192,43195,1,0,0:0:0:0:
256,192,43325,1,0,0:0:0:0:
402,192,43325,1,0,0:0:0:0:
475,192,43325,1,0,0:0:0:0:
182,192,43325,1,0,0:0:0:0:
402,192,43455,1,0,0:0:0:0:
182,192,43455,1,0,0:0:0:0:
329,192,43585,1,0,0:0:0:0:
256,192,43585,1,0,0:0:0:0:
109,192,43585,1,0,0:0:0:0:
36,192,43585,1,0,0:0:0:0:
182,192,43715,1,0,0:0:0:0:
402,192,43715,1,0,0:0:0:0:
256,192,43845,1,0,0:0:0:0:
109,192,43845,1,0,0:0:0:0:
36,192,43845,1,0,0:0:0:0:
329,192,43845,1,0,0:0:0:0:
402,192,43975,1,0,0:0:0:0:
109,192,43975,1,0,0:0:0:0:
256,192,43975,1,0,0:0:0:0:
329,192,44104,1,0,0:0:0:0:
182,192,44104,1,0,0:0:0:0:
36,192,44104,1,0,0:0:0:0:
475,192,44104,1,0,0:0:0:0:
402,192,44234,1,0,0:0:0:0:
256,192,44234,1,0,0:0:0:0:
109,192,44234,1,0,0:0:0:0:
182,192,44364,1,0,0:0:0:0:
36,192,44364,1,0,0:0:0:0:
475,192,44364,1,0,0:0:0:0:
256,192,44429,1,0,0:0:0:0:
329,192,44494,1,0,0:0:0:0:
36,192,44494,1,0,0:0:0:0:
402,192,44559,1,0,0:0:0:0:
475,192,44624,1,0,0:0:0:0:
256,192,44624,1,0,0:0:0:0:
109,192,44624,1,0,0:0:0:0:
475,192,44754,1,0,0:0:0:0:
256,192,44754,1,0,0:0:0:0:
109,192,44754,1,0,0:0:0:0:
402,192,44884,1,0,0:0:0:0:
329,192,44884,1,0,0:0:0:0:
182,192,44884,1,0,0:0:0:0:
36,192,44884,1,0,0:0:0:0:
36,192,45013,1,0,0:0:0:0:
182,192,45013,1,0,0:0:0:0:
329,192,45013,1,0,0:0:0:0:
402,192,45013,1,0,0:0:0:0:
109,192,45143,1,0,0:0:0:0:
256,192,45143,1,0,0:0:0:0:
475,192,45143,1,0,0:0:0:0:
256,192,45273,1,0,0:0:0:0:
109,192,45273,1,0,0:0:0:0:
475,192,45273,1,0,0:0:0:0:
402,192,45273,1,0,0:0:0:0:
329,192,45403,1,0,0:0:0:0:
182,192,45403,1,0,0:0:0:0:
36,192,45403,1,0,0:0:0:0:
402,192,45403,1,0,0:0:0:0:
256,192,45533,1,0,0:0:0:0:
109,192,45533,1,0,0:0:0:0:
329,192,45663,1,0,0:0:0:0:
402,192,45663,1,0,0:0:0:0:
475,192,45663,1,0,0:0:0:0:
182,192,45663,1,0,0:0:0:0:
36,192,45663,1,0,0:0:0:0:
256,192,45793,1,0,0:0:0:0:
109,192,45923,1,0,0:0:0:0:
182,192,45923,1,0,0:0:0:0:
36,192,45923,1,0,0:0:0:0:
475,192,45923,1,0,0:0:0:0:
329,192,45923,1,0,0:0:0:0:
256,192,46052,1,0,0:0:0:0:
402,192,46052,1,0,0:0:0:0:
109,192,46052,1,0,0:0:0:0:
329,192,46182,1,0,0:0:0:0:
475,192,46182,1,0,0:0:0:0:
36,192,46182,1,0,0:0:0:0:
402,192,46247,1,0,0:0:0:0:
475,192,46312,1,0,0:0:0:0:
109,192,46312,1,0,0:0:0:0:
182,192,46377,1,0,0:0:0:0:
36,192,46442,1,0,0:0:0:0:
256,192,46442,1,0,0:0:0:0:
475,192,46442,1,0,0:0:0:0:
329,192,46507,1,0,0:0:0:0:
109,192,46507,1,0,0:0:0:0:
402,192,46572,1,0,0:0:0:0:
182,192,46572,1,0,0:0:0:0:
475,192,46572,1,0,0:0:0:0:
256,192,46637,1,0,0:0:0:0:
36,192,46702,1,0,0:0:0:0:
329,192,46702,1,0,0:0:0:0:
182,192,46702,1,0,0:0:0:0:
475,192,46702,1,0,0:0:0:0:
182,192,46832,128,0,46962:0:0:0:0:
256,192,46832,128,0,46962:0:0:0:0:
36,192,46832,128,0,46962:0:0:0:0:
402,192,46897,1,0,0:0:0:0:
329,192,46897,1,0,0:0:0:0:
329,192,46962,128,0,47091:0:0:0:0:
402,192,46962,128,0,47091:0:0:0:0:
109,192,46962,128,0,47091:0:0:0:0:
256,192,47091,1,0,0:0:0:0:
182,192,47091,1,0,0:0:0:0:
36,192,47091,1,0,0:0:0:0:
475,192,47156,128,0,47221:0:0:0:0:
256,192,47156,128,0,47189:0:0:0:0:
109,192,47221,1,0,0:0:0:0:
329,192,47221,1,0,0:0:0:0:
402,192,47221,1,0,0:0:0:0:
36,192,47351,128,0,47481:0:0:0:0:
182,192,47351,128,0,47481:0:0:0:0:
256,192,47351,128,0,47481:0:0:0:0:
329,192,47416,1,0,0:0:0:0:
402,192,47416,1,0,0:0:0:0:
109,192,47481,128,0,47611:0:0:0:0:
329,192,47481,128,0,47611:0:0:0:0:
402,192,47481,128,0,47611:0:0:0:0:
256,192,47611,1,0,0:0:0:0:
182,192,47611,1,0,0:0:0:0:
36,192,47611,1,0,0:0:0:0:
475,192,47676,128,0,47741:0:0:0:0:
256,192,47676,128,0,47708:0:0:0:0:
109,192,47741,1,0,0:0:0:0:
329,192,47741,1,0,0:0:0:0:
402,192,47741,1,0,0:0:0:0:
256,192,47871,128,0,47903:0:0:0:0:
182,192,47871,128,0,47903:0:0:0:0:
475,192,47871,128,0,47903:0:0:0:0:
36,192,48000,1,0,0:0:0:0:
329,192,48000,128,0,48033:0:0:0:0:
402,192,48000,128,0,48033:0:0:0:0:
109,192,48000,1,0,0:0:0:0:
475,192,48130,1,0,0:0:0:0:
256,192,48130,128,0,48260:0:0:0:0:
182,192,48130,128,0,48260:0:0:0:0:
475,192,48260,128,0,48390:0:0:0:0:
402,192,48260,1,0,0:0:0:0:
329,192,48260,1,0,0:0:0:0:
109,192,48260,128,0,48358:0:0:0:0:
36,192,48260,128,0,48358:0:0:0:0:
402,192,48390,128,0,48520:0:0:0:0:
329,192,48390,128,0,48520:0:0:0:0:
256,192,48390,1,0,0:0:0:0:
182,192,48390,1,0,0:0:0:0:
36,192,48390,1,0,0:0:0:0:
109,192,48390,1,0,0:0:0:0:
36,192,48520,1,0,0:0:0:0:
475,192,48520,1,0,0:0:0:0:
256,192,48520,1,0,0:0:0:0:
109,192,48520,128,0,48585:0:0:0:0:
182,192,48520,128,0,48585:0:0:0:0:
329,192,48585,128,0,48650:0:0:0:0:
402,192,48585,128,0,48650:0:0:0:0:
109,192,48650,128,0,48715:0:0:0:0:
36,192,48650,128,0,48715:0:0:0:0:
256,192,48715,128,0,48780:0:0:0:0:
182,192,48715,128,0,48780:0:0:0:0:
329,192,48780,1,0,0:0:0:0:
109,192,48780,128,0,48910:0:0:0:0:
402,192,48780,128,0,48845:0:0:0:0:
475,192,48780,128,0,48845:0:0:0:0:
36,192,48910,128,0,48975:0:0:0:0:
475,192,48910,1,0,0:0:0:0:
402,192,48910,128,0,48975:0:0:0:0:
329,192,48910,128,0,48975:0:0:0:0:
109,192,48975,128,0,49039:0:0:0:0:
182,192,49039,128,0,49104:0:0:0:0:
475,192,49039,128,0,49169:0:0:0:0:
402,192,49039,1,0,0:0:0:0:
256,192,49039,128,0,49104:0:0:0:0:
329,192,49039,128,0,49104:0:0:0:0:
109,192,49104,128,0,49169:0:0:0:0:
36,192,49169,128,0,49299:0:0:0:0:
475,192,49234,128,0,49299:0:0:0:0:
402,192,49299,128,0,49364:0:0:0:0:
109,192,49299,128,0,49364:0:0:0:0:
182,192,49299,1,0,0:0:0:0:
256,192,49299,1,0,0:0:0:0:
329,192,49299,1,0,0:0:0:0:
36,192,49364,128,0,49429:0:0:0:0:
475,192,49429,128,0,49494:0:0:0:0:
109,192,49429,128,0,49494:0:0:0:0:
182,192,49429,128,0,49494:0:0:0:0:
402,192,49494,128,0,49559:0:0:0:0:
329,192,49559,128,0,49624:0:0:0:0:
36,192,49559,128,0,49689:0:0:0:0:
182,192,49559,128,0,49624:0:0:0:0:
256,192,49559,128,0,49624:0:0:0:0:
109,192,49559,1,0,0:0:0:0:
402,192,49624,128,0,49689:0:0:0:0:
475,192,49689,128,0,49754:0:0:0:0:
36,192,49754,128,0,49819:0:0:0:0:
109,192,49819,128,0,49884:0:0:0:0:
402,192,49819,128,0,49884:0:0:0:0:
475,192,49819,128,0,49949:0:0:0:0:
182,192,49819,1,0,0:0:0:0:
256,192,49819,1,0,0:0:0:0:
329,192,49819,1,0,0:0:0:0:
329,192,49949,1,0,0:0:0:0:
256,192,49949,1,0,0:0:0:0:
182,192,49949,1,0,0:0:0:0:
36,192,49949,1,0,0:0:0:0:
109,192,49949,1,0,0:0:0:0:
402,192,49949,1,0,0:0:0:0:
475,192,50013,1,0,0:0:0:0:
256,192,50143,1,0,0:0:0:0:
329,192,50143,1,0,0:0:0:0:
182,192,50143,1,0,0:0:0:0:
109,192,50143,1,0,0:0:0:0:
36,192,50143,1,0,0:0:0:0:
402,192,50208,1,0,0:0:0:0:
475,192,50208,1,0,0:0:0:0:
256,192,50338,1,0,0:0:0:0:
182,192,50338,1,0,0:0:0:0:
109,192,50338,1,0,0:0:0:0:
36,192,50338,1,0,0:0:0:0:
329,192,50338,1,0,0:0:0:0:
402,192,50468,1,0,0:0:0:0:
475,192,50468,1,0,0:0:0:0:
329,192,50468,1,0,0:0:0:0:
182,192,50533,1,0,0:0:0:0:
109,192,50533,1,0,0:0:0:0:
36,192,50533,1,0,0:0:0:0:
475,192,50598,1,0,0:0:0:0:
402,192,50598,1,0,0:0:0:0:
329,192,50598,1,0,0:0:0:0:
182,192,50663,1,0,0:0:0:0:
109,192,50663,1,0,0:0:0:0:
36,192,50663,1,0,0:0:0:0:
329,192,50728,1,0,0:0:0:0:
402,192,50728,1,0,0:0:0:0:
475,192,50728,1,0,0:0:0:0:
36,192,50793,1,0,0:0:0:0:
109,192,50793,1,0,0:0:0:0:
256,192,50793,1,0,0:0:0:0:
182,192,50858,1,0,0:0:0:0:
329,192,50858,1,0,0:0:0:0:
475,192,50858,1,0,0:0:0:0:
256,192,50923,1,0,0:0:0:0:
402,192,50923,1,0,0:0:0:0:
329,192,50988,128,0,51117:0:0:0:0:
182,192,51117,128,0,51247:0:0:0:0:
109,192,51117,1,0,0:0:0:0:
36,192,51117,1,0,0:0:0:0:
402,192,51247,128,0,51377:0:0:0:0:
329,192,51247,1,0,0:0:0:0:
475,192,51247,1,0,0:0:0:0:
109,192,51377,128,0,51507:0:0:0:0:
36,192,51377,1,0,0:0:0:0:
256,192,51377,1,0,0:0:0:0:
182,192,51507,1,0,0:0:0:0:
329,192,51507,1,0,0:0:0:0:
475,192,51507,128,0,51637:0:0:0:0:
402,192,51637,1,0,0:0:0:0:
109,192,51637,1,0,0:0:0:0:
36,192,51637,128,0,51767:0:0:0:0:
182,192,51767,1,0,0:0:0:0:
329,192,51767,1,0,0:0:0:0:
256,192,51767,128,0,51897:0:0:0:0:
475,192,51897,128,0,52156:0:0:0:0:
109,192,51897,1,0,0:0:0:0:
402,192,51897,1,0,0:0:0:0:
329,192,52026,128,0,52351:0:0:0:0:
36,192,52026,1,0,0:0:0:0:
182,192,52026,1,0,0:0:0:0:
109,192,52091,1,0,0:0:0:0:
256,192,52091,1,0,0:0:0:0:
182,192,52156,128,0,52286:0:0:0:0:
36,192,52156,1,0,0:0:0:0:
402,192,52156,1,0,0:0:0:0:
402,192,52286,128,0,52416:0:0:0:0:
256,192,52286,1,0,0:0:0:0:
109,192,52286,1,0,0:0:0:0:
329,192,52416,128,0,52546:0:0:0:0:
182,192,52416,1,0,0:0:0:0:
475,192,52416,1,0,0:0:0:0:
256,192,52546,128,0,52676:0:0:0:0:
109,192,52546,1,0,0:0:0:0:
402,192,52546,1,0,0:0:0:0:
475,192,52676,128,0,52806:0:0:0:0:
182,192,52676,1,0,0:0:0:0:
402,192,52676,1,0,0:0:0:0:
36,192,52676,1,0,0:0:0:0:
329,192,52741,1,0,0:0:0:0:
402,192,52806,1,0,0:0:0:0:
109,192,52806,1,0,0:0:0:0:
329,192,52871,1,0,0:0:0:0:
182,192,52936,128,0,53130:0:0:0:0:
256,192,52936,1,0,0:0:0:0:
36,192,52936,1,0,0:0:0:0:
475,192,52936,1,0,0:0:0:0:
329,192,53065,128,0,53098:0:0:0:0:
402,192,53130,128,0,53163:0:0:0:0:
182,192,53195,128,0,53390:0:0:0:0:
475,192,53195,1,0,0:0:0:0:
256,192,53195,1,0,0:0:0:0:
109,192,53195,1,0,0:0:0:0:
36,192,53195,1,0,0:0:0:0:
36,192,53325,128,0,53845:0:0:0:0:
329,192,53325,1,0,0:0:0:0:
182,192,53455,128,0,53585:0:0:0:0:
402,192,53455,1,0,0:0:0:0:
475,192,53455,1,0,0:0:0:0:
256,192,53455,1,0,0:0:0:0:
329,192,53585,128,0,53715:0:0:0:0:
109,192,53585,1,0,0:0:0:0:
256,192,53715,128,0,53845:0:0:0:0:
475,192,53715,1,0,0:0:0:0:
182,192,53715,1,0,0:0:0:0:
182,192,53845,128,0,53975:0:0:0:0:
402,192,53845,1,0,0:0:0:0:
109,192,53975,128,0,54104:0:0:0:0:
36,192,53975,128,0,54104:0:0:0:0:
329,192,53975,1,0,0:0:0:0:
402,192,54104,128,0,54234:0:0:0:0:
475,192,54104,128,0,54234:0:0:0:0:
182,192,54104,1,0,0:0:0:0:
109,192,54234,128,0,54364:0:0:0:0:
36,192,54234,128,0,54364:0:0:0:0:
329,192,54234,1,0,0:0:0:0:
402,192,54364,128,0,54494:0:0:0:0:
475,192,54364,128,0,54494:0:0:0:0:
256,192,54364,1,0,0:0:0:0:
182,192,54494,128,0,54624:0:0:0:0:
109,192,54494,128,0,54624:0:0:0:0:
329,192,54494,1,0,0:0:0:0:
36,192,54559,1,0,0:0:0:0:
256,192,54559,1,0,0:0:0:0:
329,192,54624,128,0,54754:0:0:0:0:
402,192,54624,128,0,54754:0:0:0:0:
109,192,54689,1,0,0:0:0:0:
182,192,54689,1,0,0:0:0:0:
475,192,54689,1,0,0:0:0:0:
36,192,54754,1,0,0:0:0:0:
256,192,54754,1,0,0:0:0:0:
402,192,54819,1,0,0:0:0:0:
329,192,54819,1,0,0:0:0:0:
109,192,54819,1,0,0:0:0:0:
182,192,54884,1,0,0:0:0:0:
475,192,54884,1,0,0:0:0:0:
256,192,54949,1,0,0:0:0:0:
36,192,54949,1,0,0:0:0:0:
329,192,55013,1,0,0:0:0:0:
109,192,55013,1,0,0:0:0:0:
182,192,55013,1,0,0:0:0:0:
402,192,55078,1,0,0:0:0:0:
475,192,55078,1,0,0:0:0:0:
109,192,55143,1,0,0:0:0:0:
36,192,55143,1,0,0:0:0:0:
256,192,55143,1,0,0:0:0:0:
329,192,55143,1,0,0:0:0:0:
182,192,55273,1,0,0:0:0:0:
109,192,55273,1,0,0:0:0:0:
329,192,55273,1,0,0:0:0:0:
402,192,55338,1,0,0:0:0:0:
36,192,55403,1,0,0:0:0:0:
475,192,55403,1,0,0:0:0:0:
109,192,55403,1,0,0:0:0:0:
182,192,55468,1,0,0:0:0:0:
256,192,55468,1,0,0:0:0:0:
109,192,55533,1,0,0:0:0:0:
36,192,55533,1,0,0:0:0:0:
475,192,55533,1,0,0:0:0:0:
402,192,55663,1,0,0:0:0:0:
329,192,55663,1,0,0:0:0:0:
475,192,55663,1,0,0:0:0:0:
182,192,55728,1,0,0:0:0:0:
256,192,55728,1,0,0:0:0:0:
329,192,55793,1,0,0:0:0:0:
109,192,55793,1,0,0:0:0:0:
402,192,55793,1,0,0:0:0:0:
475,192,55793,1,0,0:0:0:0:
36,192,55793,1,0,0:0:0:0:
182,192,55923,1,0,0:0:0:0:
36,192,55923,1,0,0:0:0:0:
109,192,55923,1,0,0:0:0:0:
402,192,55988,1,0,0:0:0:0:
475,192,55988,1,0,0:0:0:0:
182,192,56052,1,0,0:0:0:0:
256,192,56052,1,0,0:0:0:0:
329,192,56052,1,0,0:0:0:0:
36,192,56117,1,0,0:0:0:0:
109,192,56117,1,0,0:0:0:0:
329,192,56182,1,0,0:0:0:0:
402,192,56182,1,0,0:0:0:0:
475,192,56182,1,0,0:0:0:0:
182,192,56247,1,0,0:0:0:0:
256,192,56247,1,0,0:0:0:0:
109,192,56312,1,0,0:0:0:0:
36,192,56312,1,0,0:0:0:0:
475,192,56312,1,0,0:0:0:0:
402,192,56377,1,0,0:0:0:0:
329,192,56377,1,0,0:0:0:0:
256,192,56442,1,0,0:0:0:0:
182,192,56442,1,0,0:0:0:0:
329,192,56507,1,0,0:0:0:0:
402,192,56572,1,0,0:0:0:0:
109,192,56572,1,0,0:0:0:0:
36,192,56572,1,0,0:0:0:0:
475,192,56572,1,0,0:0:0:0:
329,192,56702,1,0,0:0:0:0:
182,192,56702,1,0,0:0:0:0:
402,192,56832,1,0,0:0:0:0:
475,192,56832,1,0,0:0:0:0:
109,192,56832,1,0,0:0:0:0:
36,192,56832,1,0,0:0:0:0:
256,192,56897,1,0,0:0:0:0:
182,192,56962,1,0,0:0:0:0:
329,192,56962,1,0,0:0:0:0:
256,192,57026,1,0,0:0:0:0:
36,192,57091,1,0,0:0:0:0:
475,192,57091,1,0,0:0:0:0:
402,192,57091,1,0,0:0:0:0:
109,192,57091,1,0,0:0:0:0:
256,192,57221,1,0,0:0:0:0:
329,192,57286,1,0,0:0:0:0:
182,192,57286,1,0,0:0:0:0:
402,192,57351,1,0,0:0:0:0:
475,192,57351,1,0,0:0:0:0:
109,192,57351,1,0,0:0:0:0:
36,192,57351,1,0,0:0:0:0:
256,192,57351,1,0,0:0:0:0:
402,192,57481,1,0,0:0:0:0:
109,192,57481,1,0,0:0:0:0:
182,192,57546,1,0,0:0:0:0:
329,192,57546,1,0,0:0:0:0:
109,192,57611,1,0,0:0:0:0:
36,192,57611,1,0,0:0:0:0:
475,192,57611,1,0,0:0:0:0:
402,192,57611,1,0,0:0:0:0:
182,192,57741,1,0,0:0:0:0:
329,192,57741,1,0,0:0:0:0:
109,192,57806,1,0,0:0:0:0:
402,192,57806,1,0,0:0:0:0:
256,192,57806,1,0,0:0:0:0:
182,192,57871,1,0,0:0:0:0:
329,192,57871,1,0,0:0:0:0:
475,192,57871,1,0,0:0:0:0:
36,192,57871,1,0,0:0:0:0:
109,192,58000,1,0,0:0:0:0:
256,192,58000,1,0,0:0:0:0:
402,192,58000,1,0,0:0:0:0:
329,192,58130,1,0,0:0:0:0:
182,192,58130,1,0,0:0:0:0:
475,192,58130,1,0,0:0:0:0:
256,192,58195,1,0,0:0:0:0:
109,192,58195,1,0,0:0:0:0:
182,192,58260,1,0,0:0:0:0:
36,192,58260,1,0,0:0:0:0:
475,192,58260,1,0,0:0:0:0:
109,192,58325,1,0,0:0:0:0:
256,192,58325,1,0,0:0:0:0:
182,192,58390,1,0,0:0:0:0:
329,192,58390,1,0,0:0:0:0:
475,192,58390,1,0,0:0:0:0:
402,192,58455,1,0,0:0:0:0:
256,192,58455,1,0,0:0:0:0:
329,192,58520,1,0,0:0:0:0:
182,192,58520,1,0,0:0:0:0:
256,192,58585,1,0,0:0:0:0:
109,192,58585,1,0,0:0:0:0:
36,192,58650,1,0,0:0:0:0:
475,192,58650,1,0,0:0:0:0:
402,192,58650,1,0,0:0:0:0:
329,192,58650,1,0,0:0:0:0:
182,192,58650,1,0,0:0:0:0:
182,192,58780,1,0,0:0:0:0:
36,192,58780,1,0,0:0:0:0:
402,192,58845,1,0,0:0:0:0:
475,192,58845,1,0,0:0:0:0:
329,192,58845,1,0,0:0:0:0:
109,192,58845,1,0,0:0:0:0:
256,192,58845,1,0,0:0:0:0:
109,192,58975,1,0,0:0:0:0:
36,192,58975,1,0,0:0:0:0:
182,192,59039,1,0,0:0:0:0:
256,192,59039,1,0,0:0:0:0:
329,192,59039,1,0,0:0:0:0:
402,192,59039,1,0,0:0:0:0:
475,192,59039,1,0,0:0:0:0:
475,192,59169,1,0,0:0:0:0:
402,192,59169,1,0,0:0:0:0:
329,192,59169,1,0,0:0:0:0:
256,192,59169,1,0,0:0:0:0:
109,192,59169,1,0,0:0:0:0:
182,192,59234,1,0,0:0:0:0:
36,192,59234,1,0,0:0:0:0:
475,192,59299,1,0,0:0:0:0:
329,192,59299,1,0,0:0:0:0:
256,192,59364,1,0,0:0:0:0:
402,192,59364,1,0,0:0:0:0:
475,192,59429,1,0,0:0:0:0:
182,192,59429,128,0,59884:0:0:0:0:
109,192,59429,1,0,0:0:0:0:
329,192,59429,1,0,0:0:0:0:
36,192,59429,1,0,0:0:0:0:
36,192,59559,128,0,59624:0:0:0:0:
329,192,59689,128,0,60078:0:0:0:0:
109,192,59689,1,0,0:0:0:0:
256,192,59689,1,0,0:0:0:0:
402,192,59689,1,0,0:0:0:0:
36,192,59689,1,0,0:0:0:0:
475,192,59689,1,0,0:0:0:0:
475,192,59819,128,0,59884:0:0:0:0:
475,192,59949,1,0,0:0:0:0:
402,192,59949,1,0,0:0:0:0:
109,192,59949,1,0,0:0:0:0:
36,192,59949,1,0,0:0:0:0:
182,192,59949,128,0,60273:0:0:0:0:
256,192,60013,1,0,0:0:0:0:
36,192,60078,128,0,60143:0:0:0:0:
329,192,60143,128,0,60468:0:0:0:0:
36,192,60208,1,0,0:0:0:0:
109,192,60208,1,0,0:0:0:0:
475,192,60208,1,0,0:0:0:0:
402,192,60208,1,0,0:0:0:0:
256,192,60208,1,0,0:0:0:0:
475,192,60338,128,0,60403:0:0:0:0:
182,192,60338,128,0,60533:0:0:0:0:
36,192,60468,128,0,60533:0:0:0:0:
475,192,60468,1,0,0:0:0:0:
402,192,60468,1,0,0:0:0:0:
256,192,60468,1,0,0:0:0:0:
109,192,60468,1,0,0:0:0:0:
329,192,60598,1,0,0:0:0:0:
256,192,60598,1,0,0:0:0:0:
182,192,60598,1,0,0:0:0:0:
329,192,60728,128,0,60793:0:0:0:0:
475,192,60728,128,0,60858:0:0:0:0:
109,192,60728,1,0,0:0:0:0:
402,192,60728,1,0,0:0:0:0:
36,192,60728,1,0,0:0:0:0:
182,192,60858,128,0,60923:0:0:0:0:
36,192,60858,128,0,60988:0:0:0:0:
256,192,60858,1,0,0:0:0:0:
329,192,60988,128,0,61052:0:0:0:0:
475,192,60988,128,0,61117:0:0:0:0:
109,192,60988,1,0,0:0:0:0:
402,192,60988,1,0,0:0:0:0:
182,192,61117,128,0,61182:0:0:0:0:
36,192,61117,128,0,61247:0:0:0:0:
256,192,61117,1,0,0:0:0:0:
402,192,61247,128,0,61377:0:0:0:0:
329,192,61247,128,0,61507:0:0:0:0:
182,192,61247,1,0,0:0:0:0:
109,192,61247,1,0,0:0:0:0:
475,192,61247,1,0,0:0:0:0:
256,192,61377,128,0,61507:0:0:0:0:
182,192,61377,128,0,61767:0:0:0:0:
109,192,61377,1,0,0:0:0:0:
36,192,61377,1,0,0:0:0:0:
109,192,61507,128,0,61637:0:0:0:0:
475,192,61507,1,0,0:0:0:0:
402,192,61507,1,0,0:0:0:0:
256,192,61637,128,0,61767:0:0:0:0:
329,192,61637,1,0,0:0:0:0:
402,192,61637,1,0,0:0:0:0:
36,192,61637,1,0,0:0:0:0:
329,192,61767,128,0,61897:0:0:0:0:
402,192,61767,128,0,62026:0:0:0:0:
36,192,61767,1,0,0:0:0:0:
109,192,61767,1,0,0:0:0:0:
109,192,61897,128,0,62026:0:0:0:0:
182,192,61897,128,0,62156:0:0:0:0:
475,192,61897,1,0,0:0:0:0:
36,192,61897,1,0,0:0:0:0:
256,192,62026,128,0,62156:0:0:0:0:
329,192,62026,128,0,62416:0:0:0:0:
36,192,62026,1,0,0:0:0:0:
475,192,62026,1,0,0:0:0:0:
402,192,62156,128,0,62286:0:0:0:0:
109,192,62156,1,0,0:0:0:0:
36,192,62156,1,0,0:0:0:0:
256,192,62286,128,0,62416:0:0:0:0:
109,192,62286,1,0,0:0:0:0:
182,192,62286,1,0,0:0:0:0:
182,192,62416,128,0,62546:0:0:0:0:
109,192,62416,128,0,62676:0:0:0:0:
402,192,62416,1,0,0:0:0:0:
475,192,62416,1,0,0:0:0:0:
329,192,62546,128,0,62806:0:0:0:0:
402,192,62546,128,0,62676:0:0:0:0:
36,192,62546,1,0,0:0:0:0:
475,192,62546,1,0,0:0:0:0:
182,192,62676,128,0,63065:0:0:0:0:
256,192,62676,128,0,62806:0:0:0:0:
36,192,62676,1,0,0:0:0:0:
475,192,62676,1,0,0:0:0:0:
109,192,62806,128,0,62936:0:0:0:0:
402,192,62806,1,0,0:0:0:0:
475,192,62806,1,0,0:0:0:0:
256,192,62936,128,0,63065:0:0:0:0:
402,192,62936,1,0,0:0:0:0:
329,192,62936,1,0,0:0:0:0:
402,192,63065,128,0,63325:0:0:0:0:
329,192,63065,128,0,63195:0:0:0:0:
109,192,63065,1,0,0:0:0:0:
36,192,63065,1,0,0:0:0:0:
256,192,63130,1,0,0:0:0:0:
182,192,63195,1,0,0:0:0:0:
109,192,63195,1,0,0:0:0:0:
329,192,63260,1,0,0:0:0:0:
475,192,63325,1,0,0:0:0:0:
256,192,63325,1,0,0:0:0:0:
36,192,63325,1,0,0:0:0:0:
182,192,63325,128,0,63542:0:0:0:0:
109,192,63390,128,0,63477:0:0:0:0:
256,192,63455,1,0,0:0:0:0:
329,192,63455,1,0,0:0:0:0:
36,192,63455,128,0,63671:0:0:0:0:
402,192,63455,128,0,63520:0:0:0:0:
109,192,63520,128,0,63607:0:0:0:0:
329,192,63585,1,0,0:0:0:0:
402,192,63585,1,0,0:0:0:0:
182,192,63585,128,0,63801:0:0:0:0:
475,192,63585,128,0,63650:0:0:0:0:
109,192,63650,128,0,63736:0:0:0:0:
402,192,63715,1,0,0:0:0:0:
475,192,63715,1,0,0:0:0:0:
36,192,63715,1,0,0:0:0:0:
329,192,63715,128,0,63780:0:0:0:0:
109,192,63780,1,0,0:0:0:0:
182,192,63845,1,0,0:0:0:0:
256,192,63845,1,0,0:0:0:0:
36,192,63845,1,0,0:0:0:0:
475,192,63845,1,0,0:0:0:0:
329,192,63845,128,0,64061:0:0:0:0:
402,192,63910,128,0,63996:0:0:0:0:
182,192,63975,1,0,0:0:0:0:
256,192,63975,1,0,0:0:0:0:
475,192,63975,128,0,64191:0:0:0:0:
109,192,63975,128,0,64039:0:0:0:0:
402,192,64039,128,0,64126:0:0:0:0:
109,192,64104,1,0,0:0:0:0:
182,192,64104,1,0,0:0:0:0:
329,192,64104,128,0,64321:0:0:0:0:
36,192,64104,128,0,64169:0:0:0:0:
402,192,64169,128,0,64256:0:0:0:0:
475,192,64234,1,0,0:0:0:0:
109,192,64234,1,0,0:0:0:0:
36,192,64234,1,0,0:0:0:0:
182,192,64234,128,0,64299:0:0:0:0:
402,192,64299,1,0,0:0:0:0:
329,192,64364,1,0,0:0:0:0:
475,192,64364,1,0,0:0:0:0:
36,192,64364,1,0,0:0:0:0:
182,192,64364,128,0,64581:0:0:0:0:
256,192,64364,128,0,64429:0:0:0:0:
109,192,64429,128,0,64516:0:0:0:0:
36,192,64494,128,0,64710:0:0:0:0:
402,192,64494,128,0,64559:0:0:0:0:
329,192,64494,128,0,64559:0:0:0:0:
256,192,64494,128,0,64559:0:0:0:0:
109,192,64559,128,0,64646:0:0:0:0:
182,192,64624,128,0,64840:0:0:0:0:
475,192,64624,128,0,64689:0:0:0:0:
329,192,64624,128,0,64689:0:0:0:0:
402,192,64624,128,0,64689:0:0:0:0:
109,192,64689,128,0,64775:0:0:0:0:
36,192,64754,1,0,0:0:0:0:
402,192,64754,128,0,64819:0:0:0:0:
475,192,64754,128,0,64819:0:0:0:0:
329,192,64754,1,0,0:0:0:0:
109,192,64819,1,0,0:0:0:0:
182,192,64884,1,0,0:0:0:0:
36,192,64884,1,0,0:0:0:0:
329,192,64884,128,0,65100:0:0:0:0:
475,192,64884,128,0,64949:0:0:0:0:
256,192,64884,128,0,64949:0:0:0:0:
402,192,64949,128,0,65035:0:0:0:0:
475,192,65013,128,0,65230:0:0:0:0:
109,192,65013,128,0,65078:0:0:0:0:
256,192,65013,128,0,65078:0:0:0:0:
182,192,65013,128,0,65078:0:0:0:0:
402,192,65078,128,0,65165:0:0:0:0:
329,192,65143,128,0,65360:0:0:0:0:
36,192,65143,128,0,65208:0:0:0:0:
182,192,65143,128,0,65208:0:0:0:0:
109,192,65143,128,0,65208:0:0:0:0:
402,192,65208,128,0,65295:0:0:0:0:
475,192,65273,1,0,0:0:0:0:
109,192,65273,128,0,65338:0:0:0:0:
36,192,65273,128,0,65338:0:0:0:0:
182,192,65273,1,0,0:0:0:0:
402,192,65338,1,0,0:0:0:0:
329,192,65403,1,0,0:0:0:0:
36,192,65403,128,0,65749:0:0:0:0:
475,192,65403,1,0,0:0:0:0:
256,192,65403,1,0,0:0:0:0:
109,192,65446,128,0,65490:0:0:0:0:
182,192,65490,128,0,65533:0:0:0:0:
256,192,65533,128,0,65576:0:0:0:0:
329,192,65576,128,0,65620:0:0:0:0:
402,192,65620,128,0,65663:0:0:0:0:
475,192,65663,128,0,65879:0:0:0:0:
329,192,65663,128,0,66009:0:0:0:0:
182,192,65663,1,0,0:0:0:0:
109,192,65663,1,0,0:0:0:0:
256,192,65706,128,0,65749:0:0:0:0:
182,192,65749,128,0,65793:0:0:0:0:
109,192,65793,128,0,66139:0:0:0:0:
36,192,65836,128,0,65879:0:0:0:0:
182,192,65879,128,0,65923:0:0:0:0:
256,192,65923,128,0,65966:0:0:0:0:
475,192,65923,1,0,0:0:0:0:
36,192,65923,1,0,0:0:0:0:
402,192,65966,128,0,66009:0:0:0:0:
475,192,66009,128,0,66052:0:0:0:0:
256,192,66052,128,0,66269:0:0:0:0:
329,192,66096,128,0,66139:0:0:0:0:
402,192,66139,128,0,66182:0:0:0:0:
475,192,66182,128,0,66399:0:0:0:0:
329,192,66182,128,0,66226:0:0:0:0:
36,192,66182,1,0,0:0:0:0:
109,192,66182,1,0,0:0:0:0:
182,192,66226,128,0,66269:0:0:0:0:
109,192,66269,128,0,66312:0:0:0:0:
36,192,66312,128,0,66529:0:0:0:0:
109,192,66355,128,0,66399:0:0:0:0:
182,192,66399,128,0,66442:0:0:0:0:
256,192,66442,128,0,66658:0:0:0:0:
402,192,66442,1,0,0:0:0:0:
475,192,66442,1,0,0:0:0:0:
329,192,66485,128,0,66529:0:0:0:0:
402,192,66529,128,0,66572:0:0:0:0:
475,192,66572,128,0,66788:0:0:0:0:
36,192,66572,128,0,66788:0:0:0:0:
182,192,66572,1,0,0:0:0:0:
109,192,66615,128,0,66658:0:0:0:0:
182,192,66658,128,0,66702:0:0:0:0:
256,192,66702,128,0,66745:0:0:0:0:
329,192,66745,128,0,66788:0:0:0:0:
402,192,66788,128,0,66832:0:0:0:0:
475,192,66832,128,0,67048:0:0:0:0:
36,192,66832,128,0,67048:0:0:0:0:
256,192,66832,1,0,0:0:0:0:
109,192,66875,128,0,66918:0:0:0:0:
182,192,66918,128,0,66962:0:0:0:0:
256,192,66962,128,0,67178:0:0:0:0:
329,192,67005,128,0,67048:0:0:0:0:
402,192,67048,128,0,67091:0:0:0:0:
475,192,67091,128,0,67308:0:0:0:0:
36,192,67091,128,0,67308:0:0:0:0:
329,192,67091,1,0,0:0:0:0:
109,192,67135,128,0,67178:0:0:0:0:
182,192,67178,128,0,67221:0:0:0:0:
256,192,67221,128,0,67438:0:0:0:0:
329,192,67265,128,0,67308:0:0:0:0:
402,192,67308,128,0,67351:0:0:0:0:
475,192,67351,128,0,67394:0:0:0:0:
36,192,67351,128,0,67416:0:0:0:0:
109,192,67373,128,0,67416:0:0:0:0:
182,192,67394,1,0,0:0:0:0:
329,192,67416,128,0,67481:0:0:0:0:
402,192,67438,128,0,67481:0:0:0:0:
475,192,67459,1,0,0:0:0:0:
109,192,67481,128,0,67697:0:0:0:0:
182,192,67481,1,0,0:0:0:0:
402,192,67611,1,0,0:0:0:0:
109,192,67741,128,0,67957:0:0:0:0:
329,192,67741,1,0,0:0:0:0:
402,192,67871,1,0,0:0:0:0:
109,192,68000,128,0,68217:0:0:0:0:
182,192,68000,1,0,0:0:0:0:
329,192,68065,1,0,0:0:0:0:
402,192,68130,1,0,0:0:0:0:
109,192,68260,128,0,68477:0:0:0:0:
329,192,68260,1,0,0:0:0:0:
402,192,68390,1,0,0:0:0:0:
329,192,68433,1,0,0:0:0:0:
256,192,68477,1,0,0:0:0:0:
109,192,68520,128,0,68736:0:0:0:0:
182,192,68520,1,0,0:0:0:0:
402,192,68650,1,0,0:0:0:0:
109,192,68780,128,0,68996:0:0:0:0:
329,192,68780,1,0,0:0:0:0:
475,192,68845,1,0,0:0:0:0:
402,192,68910,1,0,0:0:0:0:
109,192,69039,128,0,69256:0:0:0:0:
182,192,69039,1,0,0:0:0:0:
402,192,69169,1,0,0:0:0:0:
109,192,69299,128,0,69516:0:0:0:0:
329,192,69299,1,0,0:0:0:0:
36,192,69299,128,0,69364:0:0:0:0:
182,192,69299,128,0,69364:0:0:0:0:
475,192,69364,1,0,0:0:0:0:
402,192,69429,1,0,0:0:0:0:
109,192,69559,128,0,69775:0:0:0:0:
182,192,69559,1,0,0:0:0:0:
402,192,69689,1,0,0:0:0:0:
109,192,69819,128,0,70035:0:0:0:0:
329,192,69819,1,0,0:0:0:0:
36,192,69819,128,0,69884:0:0:0:0:
182,192,69819,128,0,69884:0:0:0:0:
402,192,69949,1,0,0:0:0:0:
109,192,70078,128,0,70295:0:0:0:0:
182,192,70078,1,0,0:0:0:0:
329,192,70143,1,0,0:0:0:0:
402,192,70208,1,0,0:0:0:0:
109,192,70338,128,0,70555:0:0:0:0:
329,192,70338,1,0,0:0:0:0:
402,192,70468,1,0,0:0:0:0:
109,192,70598,128,0,70641:0:0:0:0:
182,192,70598,128,0,70814:0:0:0:0:
256,192,70598,1,0,0:0:0:0:
402,192,70728,1,0,0:0:0:0:
182,192,70858,128,0,71074:0:0:0:0:
475,192,70858,1,0,0:0:0:0:
329,192,70923,1,0,0:0:0:0:
402,192,70988,1,0,0:0:0:0:
36,192,70988,128,0,71031:0:0:0:0:
182,192,71117,128,0,71334:0:0:0:0:
256,192,71117,1,0,0:0:0:0:
402,192,71247,1,0,0:0:0:0:
475,192,71377,1,0,0:0:0:0:
182,192,71377,128,0,71594:0:0:0:0:
109,192,71377,128,0,71442:0:0:0:0:
256,192,71377,128,0,71442:0:0:0:0:
36,192,71377,128,0,71420:0:0:0:0:
329,192,71442,1,0,0:0:0:0:
402,192,71507,1,0,0:0:0:0:
182,192,71637,128,0,71853:0:0:0:0:
109,192,71637,128,0,71680:0:0:0:0:
256,192,71637,128,0,71680:0:0:0:0:
36,192,71637,128,0,71702:0:0:0:0:
329,192,71637,128,0,71702:0:0:0:0:
402,192,71767,1,0,0:0:0:0:
182,192,71897,128,0,72113:0:0:0:0:
475,192,71897,1,0,0:0:0:0:
402,192,72026,1,0,0:0:0:0:
256,192,72156,1,0,0:0:0:0:
182,192,72156,128,0,72373:0:0:0:0:
329,192,72221,1,0,0:0:0:0:
109,192,72286,1,0,0:0:0:0:
402,192,72286,1,0,0:0:0:0:
182,192,72416,128,0,72633:0:0:0:0:
36,192,72416,1,0,0:0:0:0:
109,192,72546,1,0,0:0:0:0:
182,192,72676,128,0,72892:0:0:0:0:
256,192,72676,1,0,0:0:0:0:
402,192,72806,1,0,0:0:0:0:
182,192,72936,128,0,73152:0:0:0:0:
475,192,72936,1,0,0:0:0:0:
329,192,73000,1,0,0:0:0:0:
402,192,73065,1,0,0:0:0:0:
182,192,73195,128,0,73412:0:0:0:0:
256,192,73195,1,0,0:0:0:0:
109,192,73325,1,0,0:0:0:0:
182,192,73455,128,0,73671:0:0:0:0:
36,192,73455,1,0,0:0:0:0:
475,192,73455,128,0,73520:0:0:0:0:
402,192,73455,128,0,73520:0:0:0:0:
256,192,73498,1,0,0:0:0:0:
329,192,73542,1,0,0:0:0:0:
402,192,73585,1,0,0:0:0:0:
475,192,73628,1,0,0:0:0:0:
256,192,73671,1,0,0:0:0:0:
329,192,73715,128,0,73931:0:0:0:0:
109,192,73715,128,0,73780:0:0:0:0:
36,192,73715,128,0,73780:0:0:0:0:
182,192,73715,128,0,73758:0:0:0:0:
256,192,73845,1,0,0:0:0:0:
329,192,73975,128,0,74191:0:0:0:0:
402,192,73975,1,0,0:0:0:0:
475,192,74104,1,0,0:0:0:0:
329,192,74234,128,0,74451:0:0:0:0:
402,192,74234,1,0,0:0:0:0:
182,192,74299,1,0,0:0:0:0:
256,192,74364,1,0,0:0:0:0:
329,192,74494,128,0,74710:0:0:0:0:
109,192,74494,1,0,0:0:0:0:
36,192,74494,1,0,0:0:0:0:
402,192,74494,1,0,0:0:0:0:
475,192,74494,1,0,0:0:0:0:
256,192,74559,1,0,0:0:0:0:
182,192,74559,1,0,0:0:0:0:
475,192,74624,1,0,0:0:0:0:
402,192,74624,1,0,0:0:0:0:
36,192,74689,1,0,0:0:0:0:
109,192,74689,1,0,0:0:0:0:
402,192,74754,128,0,74970:0:0:0:0:
182,192,74754,1,0,0:0:0:0:
256,192,74754,1,0,0:0:0:0:
329,192,74754,1,0,0:0:0:0:
475,192,74754,1,0,0:0:0:0:
329,192,74884,1,0,0:0:0:0:
182,192,74884,1,0,0:0:0:0:
256,192,74884,1,0,0:0:0:0:
475,192,74884,1,0,0:0:0:0:
109,192,74949,1,0,0:0:0:0:
36,192,74949,1,0,0:0:0:0:
329,192,75013,128,0,75230:0:0:0:0:
402,192,75013,1,0,0:0:0:0:
182,192,75013,1,0,0:0:0:0:
256,192,75013,1,0,0:0:0:0:
109,192,75143,1,0,0:0:0:0:
182,192,75143,1,0,0:0:0:0:
256,192,75143,1,0,0:0:0:0:
475,192,75208,1,0,0:0:0:0:
402,192,75208,1,0,0:0:0:0:
256,192,75273,128,0,75490:0:0:0:0:
109,192,75273,1,0,0:0:0:0:
182,192,75273,1,0,0:0:0:0:
36,192,75273,1,0,0:0:0:0:
329,192,75273,1,0,0:0:0:0:
329,192,75403,1,0,0:0:0:0:
402,192,75403,1,0,0:0:0:0:
475,192,75403,1,0,0:0:0:0:
182,192,75403,1,0,0:0:0:0:
182,192,75533,128,0,75749:0:0:0:0:
256,192,75533,1,0,0:0:0:0:
329,192,75533,1,0,0:0:0:0:
402,192,75533,1,0,0:0:0:0:
36,192,75533,1,0,0:0:0:0:
109,192,75663,1,0,0:0:0:0:
329,192,75663,1,0,0:0:0:0:
402,192,75663,1,0,0:0:0:0:
475,192,75663,1,0,0:0:0:0:
109,192,75793,128,0,76009:0:0:0:0:
182,192,75793,1,0,0:0:0:0:
329,192,75793,128,0,75836:0:0:0:0:
402,192,75793,128,0,75836:0:0:0:0:
475,192,75793,128,0,75836:0:0:0:0:
256,192,75923,1,0,0:0:0:0:
109,192,76052,128,0,76269:0:0:0:0:
182,192,76052,1,0,0:0:0:0:
256,192,76182,1,0,0:0:0:0:
109,192,76312,128,0,76529:0:0:0:0:
182,192,76312,1,0,0:0:0:0:
402,192,76377,1,0,0:0:0:0:
256,192,76442,1,0,0:0:0:0:
475,192,76442,1,0,0:0:0:0:
109,192,76572,128,0,76788:0:0:0:0:
182,192,76572,1,0,0:0:0:0:
256,192,76702,1,0,0:0:0:0:
402,192,76745,1,0,0:0:0:0:
475,192,76788,1,0,0:0:0:0:
109,192,76832,128,0,77048:0:0:0:0:
182,192,76832,1,0,0:0:0:0:
256,192,76962,1,0,0:0:0:0:
402,192,76962,128,0,77005:0:0:0:0:
109,192,77091,128,0,77308:0:0:0:0:
182,192,77091,1,0,0:0:0:0:
402,192,77221,128,0,77265:0:0:0:0:
256,192,77221,1,0,0:0:0:0:
109,192,77351,128,0,77568:0:0:0:0:
182,192,77351,1,0,0:0:0:0:
402,192,77481,1,0,0:0:0:0:
475,192,77481,128,0,77611:0:0:0:0:
109,192,77611,128,0,77827:0:0:0:0:
256,192,77611,1,0,0:0:0:0:
329,192,77611,128,0,77741:0:0:0:0:
182,192,77611,128,0,77676:0:0:0:0:
36,192,77611,128,0,77676:0:0:0:0:
182,192,77741,1,0,0:0:0:0:
109,192,77871,128,0,78087:0:0:0:0:
256,192,77871,1,0,0:0:0:0:
182,192,78000,1,0,0:0:0:0:
109,192,78130,128,0,78347:0:0:0:0:
256,192,78130,1,0,0:0:0:0:
329,192,78130,128,0,78195:0:0:0:0:
475,192,78130,128,0,78195:0:0:0:0:
402,192,78130,1,0,0:0:0:0:
182,192,78260,1,0,0:0:0:0:
109,192,78390,128,0,78607:0:0:0:0:
256,192,78390,1,0,0:0:0:0:
475,192,78390,1,0,0:0:0:0:
402,192,78455,1,0,0:0:0:0:
182,192,78520,1,0,0:0:0:0:
329,192,78520,1,0,0:0:0:0:
109,192,78650,128,0,78866:0:0:0:0:
256,192,78650,1,0,0:0:0:0:
475,192,78650,128,0,78845:0:0:0:0:
402,192,78650,1,0,0:0:0:0:
182,192,78780,1,0,0:0:0:0:
182,192,78910,128,0,79126:0:0:0:0:
475,192,78910,128,0,79299:0:0:0:0:
329,192,78910,1,0,0:0:0:0:
109,192,78910,1,0,0:0:0:0:
256,192,79039,1,0,0:0:0:0:
182,192,79169,128,0,79386:0:0:0:0:
36,192,79169,1,0,0:0:0:0:
329,192,79234,1,0,0:0:0:0:
402,192,79299,128,0,79689:0:0:0:0:
109,192,79299,1,0,0:0:0:0:
182,192,79429,128,0,79646:0:0:0:0:
36,192,79429,1,0,0:0:0:0:
256,192,79559,1,0,0:0:0:0:
182,192,79689,128,0,79905:0:0:0:0:
329,192,79689,128,0,79905:0:0:0:0:
475,192,79689,1,0,0:0:0:0:
109,192,79689,1,0,0:0:0:0:
36,192,79689,1,0,0:0:0:0:
256,192,79819,1,0,0:0:0:0:
329,192,79949,128,0,80165:0:0:0:0:
182,192,79949,128,0,80988:0:0:0:0:
109,192,79949,1,0,0:0:0:0:
36,192,79949,1,0,0:0:0:0:
402,192,79949,1,0,0:0:0:0:
475,192,79949,1,0,0:0:0:0:
256,192,80078,1,0,0:0:0:0:
329,192,80208,128,0,80425:0:0:0:0:
36,192,80208,1,0,0:0:0:0:
109,192,80338,1,0,0:0:0:0:
329,192,80468,128,0,80684:0:0:0:0:
256,192,80468,1,0,0:0:0:0:
475,192,80468,1,0,0:0:0:0:
402,192,80533,1,0,0:0:0:0:
109,192,80598,1,0,0:0:0:0:
475,192,80598,1,0,0:0:0:0:
329,192,80728,128,0,80944:0:0:0:0:
36,192,80728,1,0,0:0:0:0:
109,192,80858,1,0,0:0:0:0:
402,192,80988,128,0,81204:0:0:0:0:
256,192,80988,1,0,0:0:0:0:
329,192,80988,1,0,0:0:0:0:
475,192,80988,1,0,0:0:0:0:
36,192,80988,1,0,0:0:0:0:
109,192,81117,1,0,0:0:0:0:
402,192,81247,128,0,81464:0:0:0:0:
182,192,81247,1,0,0:0:0:0:
329,192,81247,1,0,0:0:0:0:
475,192,81312,1,0,0:0:0:0:
109,192,81377,1,0,0:0:0:0:
329,192,81377,1,0,0:0:0:0:
402,192,81507,128,0,81723:0:0:0:0:
256,192,81507,128,0,81702:0:0:0:0:
182,192,81507,1,0,0:0:0:0:
475,192,81507,1,0,0:0:0:0:
109,192,81637,1,0,0:0:0:0:
36,192,81702,128,0,81897:0:0:0:0:
402,192,81767,128,0,81983:0:0:0:0:
256,192,81767,1,0,0:0:0:0:
109,192,81897,128,0,82026:0:0:0:0:
182,192,81897,1,0,0:0:0:0:
329,192,81962,1,0,0:0:0:0:
256,192,82026,128,0,82243:0:0:0:0:
402,192,82026,1,0,0:0:0:0:
475,192,82026,1,0,0:0:0:0:
36,192,82026,1,0,0:0:0:0:
329,192,82156,1,0,0:0:0:0:
256,192,82286,128,0,82503:0:0:0:0:
182,192,82286,1,0,0:0:0:0:
475,192,82416,128,0,82546:0:0:0:0:
109,192,82416,1,0,0:0:0:0:
256,192,82546,128,0,82762:0:0:0:0:
329,192,82546,1,0,0:0:0:0:
402,192,82546,1,0,0:0:0:0:
36,192,82546,1,0,0:0:0:0:
182,192,82546,1,0,0:0:0:0:
109,192,82676,1,0,0:0:0:0:
256,192,82806,128,0,83022:0:0:0:0:
182,192,82806,1,0,0:0:0:0:
329,192,82806,1,0,0:0:0:0:
402,192,82871,1,0,0:0:0:0:
109,192,82871,1,0,0:0:0:0:
36,192,82936,128,0,83065:0:0:0:0:
182,192,82936,1,0,0:0:0:0:
329,192,82936,1,0,0:0:0:0:
109,192,83000,1,0,0:0:0:0:
402,192,83000,1,0,0:0:0:0:
256,192,83065,128,0,83109:0:0:0:0:
475,192,83065,128,0,83109:0:0:0:0:
182,192,83130,128,0,83174:0:0:0:0:
402,192,83130,128,0,83174:0:0:0:0:
256,192,83195,128,0,83239:0:0:0:0:
475,192,83195,128,0,83239:0:0:0:0:
182,192,83260,128,0,83304:0:0:0:0:
402,192,83260,128,0,83304:0:0:0:0:
329,192,83325,1,0,0:0:0:0:
36,192,83325,1,0,0:0:0:0:
109,192,83325,128,0,83390:0:0:0:0:
256,192,83325,128,0,83390:0:0:0:0:
475,192,83325,128,0,83455:0:0:0:0:
402,192,83455,1,0,0:0:0:0:
109,192,83455,128,0,83585:0:0:0:0:
329,192,83455,128,0,83520:0:0:0:0:
182,192,83455,128,0,83520:0:0:0:0:
182,192,83585,1,0,0:0:0:0:
475,192,83585,128,0,83715:0:0:0:0:
256,192,83585,128,0,83650:0:0:0:0:
402,192,83585,128,0,83650:0:0:0:0:
36,192,83585,128,0,83715:0:0:0:0:
109,192,83715,1,0,0:0:0:0:
402,192,83715,1,0,0:0:0:0:
256,192,83715,128,0,83845:0:0:0:0:
182,192,83715,128,0,83845:0:0:0:0:
329,192,83715,128,0,83845:0:0:0:0:
109,192,83845,128,0,83910:0:0:0:0:
36,192,83845,128,0,83910:0:0:0:0:
402,192,83845,128,0,83910:0:0:0:0:
475,192,83845,128,0,83910:0:0:0:0:
182,192,83910,128,0,83975:0:0:0:0:
256,192,83910,128,0,83975:0:0:0:0:
329,192,83910,128,0,83975:0:0:0:0:
475,192,83975,128,0,84039:0:0:0:0:
402,192,83975,128,0,84039:0:0:0:0:
109,192,83975,128,0,84039:0:0:0:0:
36,192,83975,128,0,84039:0:0:0:0:
329,192,84039,128,0,84104:0:0:0:0:
256,192,84039,128,0,84104:0:0:0:0:
182,192,84039,128,0,84104:0:0:0:0:
402,192,84104,1,0,0:0:0:0:
109,192,84104,1,0,0:0:0:0:
36,192,84104,1,0,0:0:0:0:
475,192,84104,128,0,84321:0:0:0:0:
329,192,84234,128,0,84494:0:0:0:0:
182,192,84234,1,0,0:0:0:0:
36,192,84364,128,0,84581:0:0:0:0:
256,192,84364,128,0,84624:0:0:0:0:
109,192,84364,1,0,0:0:0:0:
475,192,84364,1,0,0:0:0:0:
182,192,84494,128,0,84754:0:0:0:0:
402,192,84494,1,0,0:0:0:0:
475,192,84624,128,0,84840:0:0:0:0:
109,192,84624,128,0,84884:0:0:0:0:
329,192,84624,1,0,0:0:0:0:
36,192,84624,1,0,0:0:0:0:
402,192,84754,128,0,85013:0:0:0:0:
256,192,84754,1,0,0:0:0:0:
36,192,84884,128,0,85100:0:0:0:0:
329,192,84884,128,0,85143:0:0:0:0:
182,192,84884,1,0,0:0:0:0:
475,192,84884,1,0,0:0:0:0:
256,192,85013,128,0,85273:0:0:0:0:
109,192,85013,1,0,0:0:0:0:
475,192,85143,128,0,85360:0:0:0:0:
182,192,85143,128,0,85403:0:0:0:0:
36,192,85143,1,0,0:0:0:0:
402,192,85143,1,0,0:0:0:0:
329,192,85273,128,0,85533:0:0:0:0:
109,192,85273,1,0,0:0:0:0:
402,192,85273,1,0,0:0:0:0:
36,192,85403,128,0,85620:0:0:0:0:
109,192,85403,128,0,85663:0:0:0:0:
475,192,85403,1,0,0:0:0:0:
256,192,85403,1,0,0:0:0:0:
402,192,85533,128,0,85793:0:0:0:0:
182,192,85533,1,0,0:0:0:0:
475,192,85663,128,0,85879:0:0:0:0:
256,192,85663,128,0,85923:0:0:0:0:
329,192,85663,1,0,0:0:0:0:
36,192,85663,1,0,0:0:0:0:
329,192,85793,128,0,86052:0:0:0:0:
109,192,85793,1,0,0:0:0:0:
36,192,85923,128,0,86139:0:0:0:0:
182,192,85923,128,0,86117:0:0:0:0:
402,192,85923,1,0,0:0:0:0:
475,192,85923,1,0,0:0:0:0:
109,192,85988,1,0,0:0:0:0:
402,192,86052,128,0,86312:0:0:0:0:
256,192,86052,1,0,0:0:0:0:
329,192,86117,1,0,0:0:0:0:
256,192,86182,128,0,86399:0:0:0:0:
109,192,86182,128,0,86442:0:0:0:0:
36,192,86182,1,0,0:0:0:0:
182,192,86182,1,0,0:0:0:0:
475,192,86182,1,0,0:0:0:0:
329,192,86312,1,0,0:0:0:0:
182,192,86312,1,0,0:0:0:0:
475,192,86442,128,0,86658:0:0:0:0:
329,192,86442,128,0,86572:0:0:0:0:
256,192,86442,1,0,0:0:0:0:
402,192,86442,1,0,0:0:0:0:
36,192,86442,1,0,0:0:0:0:
182,192,86572,128,0,86702:0:0:0:0:
256,192,86572,1,0,0:0:0:0:
109,192,86572,1,0,0:0:0:0:
109,192,86702,128,0,86788:0:0:0:0:
402,192,86702,128,0,86788:0:0:0:0:
36,192,86702,1,0,0:0:0:0:
329,192,86702,1,0,0:0:0:0:
475,192,86702,1,0,0:0:0:0:
329,192,86832,128,0,86918:0:0:0:0:
36,192,86832,128,0,86918:0:0:0:0:
256,192,86832,1,0,0:0:0:0:
182,192,86962,128,0,87048:0:0:0:0:
475,192,86962,128,0,87048:0:0:0:0:
109,192,86962,1,0,0:0:0:0:
402,192,86962,1,0,0:0:0:0:
36,192,86962,128,0,87026:0:0:0:0:
402,192,87091,128,0,87178:0:0:0:0:
109,192,87091,128,0,87178:0:0:0:0:
256,192,87091,1,0,0:0:0:0:
36,192,87091,128,0,87156:0:0:0:0:
256,192,87221,128,0,87308:0:0:0:0:
475,192,87221,128,0,87308:0:0:0:0:
182,192,87221,1,0,0:0:0:0:
402,192,87221,1,0,0:0:0:0:
36,192,87221,128,0,87481:0:0:0:0:
182,192,87351,128,0,87438:0:0:0:0:
402,192,87351,128,0,87438:0:0:0:0:
329,192,87351,1,0,0:0:0:0:
109,192,87481,128,0,87568:0:0:0:0:
329,192,87481,128,0,87568:0:0:0:0:
256,192,87481,1,0,0:0:0:0:
475,192,87481,128,0,87546:0:0:0:0:
182,192,87611,128,0,87697:0:0:0:0:
402,192,87611,128,0,87697:0:0:0:0:
475,192,87611,1,0,0:0:0:0:
329,192,87611,1,0,0:0:0:0:
36,192,87611,128,0,87676:0:0:0:0:
256,192,87741,128,0,87827:0:0:0:0:
475,192,87741,128,0,87827:0:0:0:0:
109,192,87741,1,0,0:0:0:0:
36,192,87741,128,0,88000:0:0:0:0:
109,192,87871,128,0,87957:0:0:0:0:
329,192,87871,128,0,87957:0:0:0:0:
182,192,87871,1,0,0:0:0:0:
402,192,87871,1,0,0:0:0:0:
182,192,88000,128,0,88087:0:0:0:0:
402,192,88000,128,0,88087:0:0:0:0:
256,192,88000,1,0,0:0:0:0:
475,192,88000,128,0,88065:0:0:0:0:
256,192,88130,128,0,88217:0:0:0:0:
36,192,88130,128,0,88217:0:0:0:0:
109,192,88130,1,0,0:0:0:0:
329,192,88130,1,0,0:0:0:0:
475,192,88130,128,0,88195:0:0:0:0:
109,192,88260,128,0,88347:0:0:0:0:
329,192,88260,128,0,88347:0:0:0:0:
182,192,88260,1,0,0:0:0:0:
475,192,88260,1,0,0:0:0:0:
402,192,88260,128,0,88304:0:0:0:0:
256,192,88390,128,0,88477:0:0:0:0:
36,192,88390,128,0,88477:0:0:0:0:
475,192,88390,128,0,88477:0:0:0:0:
329,192,88390,1,0,0:0:0:0:
109,192,88390,1,0,0:0:0:0:
182,192,88520,128,0,88607:0:0:0:0:
402,192,88520,128,0,88607:0:0:0:0:
36,192,88520,1,0,0:0:0:0:
475,192,88520,1,0,0:0:0:0:
109,192,88520,128,0,88563:0:0:0:0:
256,192,88650,128,0,88736:0:0:0:0:
36,192,88650,128,0,88736:0:0:0:0:
475,192,88650,128,0,88736:0:0:0:0:
402,192,88650,1,0,0:0:0:0:
182,192,88650,1,0,0:0:0:0:
402,192,88780,128,0,88866:0:0:0:0:
182,192,88780,128,0,88866:0:0:0:0:
109,192,88780,1,0,0:0:0:0:
475,192,88780,1,0,0:0:0:0:
329,192,88780,128,0,88823:0:0:0:0:
256,192,88910,128,0,88996:0:0:0:0:
36,192,88910,128,0,88996:0:0:0:0:
475,192,88910,128,0,88996:0:0:0:0:
182,192,88910,1,0,0:0:0:0:
402,192,88910,1,0,0:0:0:0:
109,192,89039,128,0,89126:0:0:0:0:
329,192,89039,128,0,89126:0:0:0:0:
256,192,89039,1,0,0:0:0:0:
36,192,89039,1,0,0:0:0:0:
182,192,89039,128,0,89083:0:0:0:0:
256,192,89169,128,0,89256:0:0:0:0:
36,192,89169,128,0,89256:0:0:0:0:
475,192,89169,128,0,89256:0:0:0:0:
109,192,89169,1,0,0:0:0:0:
329,192,89169,1,0,0:0:0:0:
109,192,89299,128,0,89386:0:0:0:0:
329,192,89299,128,0,89386:0:0:0:0:
182,192,89299,1,0,0:0:0:0:
475,192,89299,1,0,0:0:0:0:
402,192,89299,128,0,89342:0:0:0:0:
256,192,89429,128,0,89516:0:0:0:0:
36,192,89429,128,0,89516:0:0:0:0:
475,192,89429,128,0,89516:0:0:0:0:
329,192,89429,1,0,0:0:0:0:
109,192,89429,1,0,0:0:0:0:
182,192,89559,128,0,89646:0:0:0:0:
402,192,89559,128,0,89646:0:0:0:0:
36,192,89559,1,0,0:0:0:0:
475,192,89559,1,0,0:0:0:0:
109,192,89559,128,0,89602:0:0:0:0:
256,192,89689,128,0,89775:0:0:0:0:
36,192,89689,128,0,89775:0:0:0:0:
475,192,89689,128,0,89775:0:0:0:0:
402,192,89689,1,0,0:0:0:0:
182,192,89689,1,0,0:0:0:0:
402,192,89819,128,0,89905:0:0:0:0:
182,192,89819,128,0,89905:0:0:0:0:
109,192,89819,1,0,0:0:0:0:
475,192,89819,1,0,0:0:0:0:
329,192,89819,128,0,89862:0:0:0:0:
256,192,89949,128,0,90035:0:0:0:0:
36,192,89949,128,0,90035:0:0:0:0:
475,192,89949,128,0,90035:0:0:0:0:
182,192,89949,1,0,0:0:0:0:
402,192,89949,1,0,0:0:0:0:
109,192,90078,128,0,90165:0:0:0:0:
329,192,90078,128,0,90165:0:0:0:0:
256,192,90078,1,0,0:0:0:0:
36,192,90078,1,0,0:0:0:0:
182,192,90078,128,0,90122:0:0:0:0:
256,192,90208,128,0,90295:0:0:0:0:
36,192,90208,128,0,90295:0:0:0:0:
475,192,90208,128,0,90295:0:0:0:0:
109,192,90208,1,0,0:0:0:0:
329,192,90208,1,0,0:0:0:0:
329,192,90338,1,0,0:0:0:0:
36,192,90338,1,0,0:0:0:0:
402,192,90338,128,0,90425:0:0:0:0:
182,192,90338,128,0,90425:0:0:0:0:
109,192,90338,128,0,90381:0:0:0:0:
182,192,90468,1,0,0:0:0:0:
402,192,90468,1,0,0:0:0:0:
36,192,90468,128,0,90555:0:0:0:0:
256,192,90468,128,0,90555:0:0:0:0:
475,192,90468,128,0,90555:0:0:0:0:
475,192,90598,1,0,0:0:0:0:
36,192,90598,1,0,0:0:0:0:
329,192,90598,128,0,90684:0:0:0:0:
109,192,90598,128,0,90684:0:0:0:0:
402,192,90598,128,0,90641:0:0:0:0:
109,192,90728,1,0,0:0:0:0:
329,192,90728,1,0,0:0:0:0:
36,192,90728,128,0,90814:0:0:0:0:
256,192,90728,128,0,90814:0:0:0:0:
475,192,90728,128,0,90814:0:0:0:0:
402,192,90858,1,0,0:0:0:0:
36,192,90858,1,0,0:0:0:0:
329,192,90858,128,0,90944:0:0:0:0:
109,192,90858,128,0,90944:0:0:0:0:
182,192,90858,128,0,90901:0:0:0:0:
329,192,90988,1,0,0:0:0:0:
109,192,90988,1,0,0:0:0:0:
36,192,90988,128,0,91074:0:0:0:0:
256,192,90988,128,0,91074:0:0:0:0:
475,192,90988,128,0,91074:0:0:0:0:
256,192,91117,1,0,0:0:0:0:
475,192,91117,1,0,0:0:0:0:
182,192,91117,128,0,91204:0:0:0:0:
402,192,91117,128,0,91204:0:0:0:0:
329,192,91117,128,0,91161:0:0:0:0:
402,192,91247,1,0,0:0:0:0:
182,192,91247,1,0,0:0:0:0:
36,192,91247,128,0,91334:0:0:0:0:
256,192,91247,128,0,91334:0:0:0:0:
475,192,91247,128,0,91334:0:0:0:0:
402,192,91377,128,0,91464:0:0:0:0:
182,192,91377,128,0,91464:0:0:0:0:
109,192,91377,1,0,0:0:0:0:
475,192,91377,1,0,0:0:0:0:
329,192,91377,128,0,91420:0:0:0:0:
256,192,91507,128,0,91594:0:0:0:0:
36,192,91507,128,0,91594:0:0:0:0:
182,192,91507,1,0,0:0:0:0:
402,192,91507,1,0,0:0:0:0:
475,192,91507,128,0,91594:0:0:0:0:
256,192,91637,1,0,0:0:0:0:
109,192,91637,128,0,91723:0:0:0:0:
329,192,91637,128,0,91723:0:0:0:0:
36,192,91637,1,0,0:0:0:0:
182,192,91637,128,0,91680:0:0:0:0:
109,192,91767,1,0,0:0:0:0:
329,192,91767,1,0,0:0:0:0:
36,192,91767,128,0,91853:0:0:0:0:
256,192,91767,128,0,91853:0:0:0:0:
475,192,91767,128,0,91853:0:0:0:0:
109,192,91897,128,0,91983:0:0:0:0:
329,192,91897,128,0,91983:0:0:0:0:
182,192,91897,1,0,0:0:0:0:
475,192,91897,1,0,0:0:0:0:
402,192,91897,128,0,91940:0:0:0:0:
475,192,92026,128,0,92113:0:0:0:0:
256,192,92026,128,0,92113:0:0:0:0:
36,192,92026,128,0,92113:0:0:0:0:
329,192,92026,1,0,0:0:0:0:
109,192,92026,1,0,0:0:0:0:
182,192,92156,128,0,92243:0:0:0:0:
402,192,92156,128,0,92243:0:0:0:0:
36,192,92156,1,0,0:0:0:0:
475,192,92156,1,0,0:0:0:0:
109,192,92156,128,0,92200:0:0:0:0:
329,192,92221,128,0,92286:0:0:0:0:
475,192,92286,128,0,92373:0:0:0:0:
256,192,92286,128,0,92373:0:0:0:0:
36,192,92286,128,0,92373:0:0:0:0:
182,192,92286,1,0,0:0:0:0:
402,192,92351,128,0,92416:0:0:0:0:
256,192,92416,1,0,0:0:0:0:
329,192,92416,1,0,0:0:0:0:
109,192,92416,1,0,0:0:0:0:
36,192,92416,1,0,0:0:0:0:
475,192,92416,1,0,0:0:0:0:
182,192,92416,1,0,0:0:0:0:
256,192,92546,128,0,92633:0:0:0:0:
329,192,92546,128,0,92633:0:0:0:0:
109,192,92546,128,0,92633:0:0:0:0:
36,192,92546,128,0,92633:0:0:0:0:
402,192,92546,128,0,92589:0:0:0:0:
36,192,92676,1,0,0:0:0:0:
109,192,92676,1,0,0:0:0:0:
256,192,92676,1,0,0:0:0:0:
329,192,92676,1,0,0:0:0:0:
475,192,92676,1,0,0:0:0:0:
402,192,92676,1,0,0:0:0:0:
182,192,92676,128,0,92719:0:0:0:0:
109,192,92806,128,0,92892:0:0:0:0:
36,192,92806,128,0,92892:0:0:0:0:
256,192,92806,128,0,92892:0:0:0:0:
329,192,92806,128,0,92892:0:0:0:0:
402,192,92806,128,0,92849:0:0:0:0:
329,192,92936,1,0,0:0:0:0:
402,192,92936,1,0,0:0:0:0:
109,192,92936,1,0,0:0:0:0:
475,192,92936,1,0,0:0:0:0:
182,192,92936,1,0,0:0:0:0:
256,192,92936,128,0,92979:0:0:0:0:
36,192,92936,1,0,0:0:0:0:
182,192,93065,128,0,93152:0:0:0:0:
329,192,93065,128,0,93152:0:0:0:0:
402,192,93065,128,0,93152:0:0:0:0:
109,192,93065,128,0,93152:0:0:0:0:
36,192,93065,128,0,93109:0:0:0:0:
329,192,93195,1,0,0:0:0:0:
109,192,93195,1,0,0:0:0:0:
402,192,93195,1,0,0:0:0:0:
182,192,93195,1,0,0:0:0:0:
475,192,93195,1,0,0:0:0:0:
256,192,93195,128,0,93239:0:0:0:0:
36,192,93195,1,0,0:0:0:0:
329,192,93325,128,0,93412:0:0:0:0:
182,192,93325,128,0,93412:0:0:0:0:
109,192,93325,128,0,93412:0:0:0:0:
402,192,93325,128,0,93412:0:0:0:0:
36,192,93325,128,0,93390:0:0:0:0:
475,192,93455,1,0,0:0:0:0:
256,192,93455,1,0,0:0:0:0:
402,192,93455,1,0,0:0:0:0:
36,192,93455,1,0,0:0:0:0:
329,192,93455,128,0,93498:0:0:0:0:
182,192,93477,1,0,0:0:0:0:
109,192,93498,1,0,0:0:0:0:
402,192,93585,128,0,93671:0:0:0:0:
475,192,93585,128,0,93671:0:0:0:0:
256,192,93585,128,0,93671:0:0:0:0:
182,192,93585,128,0,93671:0:0:0:0:
182,192,93715,1,0,0:0:0:0:
256,192,93715,1,0,0:0:0:0:
475,192,93715,1,0,0:0:0:0:
402,192,93715,1,0,0:0:0:0:
36,192,93715,1,0,0:0:0:0:
329,192,93715,128,0,93758:0:0:0:0:
109,192,93715,1,0,0:0:0:0:
256,192,93845,128,0,93931:0:0:0:0:
182,192,93845,128,0,93931:0:0:0:0:
402,192,93845,128,0,93931:0:0:0:0:
475,192,93845,128,0,93931:0:0:0:0:
109,192,93845,128,0,93910:0:0:0:0:
329,192,93975,1,0,0:0:0:0:
402,192,93975,1,0,0:0:0:0:
109,192,93975,1,0,0:0:0:0:
182,192,93975,1,0,0:0:0:0:
36,192,93975,1,0,0:0:0:0:
256,192,93975,128,0,94018:0:0:0:0:
475,192,93975,1,0,0:0:0:0:
109,192,94104,128,0,94191:0:0:0:0:
402,192,94104,128,0,94191:0:0:0:0:
329,192,94104,128,0,94191:0:0:0:0:
182,192,94104,128,0,94191:0:0:0:0:
475,192,94104,128,0,94148:0:0:0:0:
109,192,94234,1,0,0:0:0:0:
329,192,94234,1,0,0:0:0:0:
402,192,94234,1,0,0:0:0:0:
182,192,94234,1,0,0:0:0:0:
36,192,94234,1,0,0:0:0:0:
475,192,94234,1,0,0:0:0:0:
256,192,94234,128,0,94278:0:0:0:0:
402,192,94364,128,0,94451:0:0:0:0:
109,192,94364,128,0,94451:0:0:0:0:
182,192,94364,128,0,94451:0:0:0:0:
329,192,94364,128,0,94451:0:0:0:0:
475,192,94364,128,0,94429:0:0:0:0:
36,192,94494,1,0,0:0:0:0:
256,192,94494,1,0,0:0:0:0:
329,192,94494,1,0,0:0:0:0:
109,192,94494,1,0,0:0:0:0:
402,192,94494,1,0,0:0:0:0:
475,192,94494,1,0,0:0:0:0:
182,192,94494,128,0,94537:0:0:0:0:
36,192,94624,128,0,94710:0:0:0:0:
109,192,94624,128,0,94710:0:0:0:0:
256,192,94624,128,0,94710:0:0:0:0:
329,192,94624,128,0,94710:0:0:0:0:
402,192,94624,128,0,94689:0:0:0:0:
329,192,94754,1,0,0:0:0:0:
256,192,94754,1,0,0:0:0:0:
36,192,94754,1,0,0:0:0:0:
109,192,94754,1,0,0:0:0:0:
475,192,94754,1,0,0:0:0:0:
182,192,94754,128,0,94797:0:0:0:0:
402,192,94754,128,0,94797:0:0:0:0:
329,192,94884,128,0,94970:0:0:0:0:
256,192,94884,128,0,94970:0:0:0:0:
109,192,94884,128,0,94970:0:0:0:0:
36,192,94884,128,0,94970:0:0:0:0:
182,192,95013,1,0,0:0:0:0:
109,192,95013,1,0,0:0:0:0:
402,192,95013,1,0,0:0:0:0:
329,192,95013,1,0,0:0:0:0:
36,192,95013,1,0,0:0:0:0:
475,192,95013,1,0,0:0:0:0:
256,192,95013,128,0,95057:0:0:0:0:
402,192,95143,128,0,95230:0:0:0:0:
109,192,95143,128,0,95230:0:0:0:0:
329,192,95143,128,0,95230:0:0:0:0:
182,192,95143,128,0,95230:0:0:0:0:
36,192,95143,128,0,95208:0:0:0:0:
402,192,95273,1,0,0:0:0:0:
182,192,95273,1,0,0:0:0:0:
109,192,95273,1,0,0:0:0:0:
329,192,95273,1,0,0:0:0:0:
475,192,95273,1,0,0:0:0:0:
256,192,95295,128,0,95468:0:0:0:0:
36,192,95295,128,0,95468:0:0:0:0:
402,192,95403,128,0,95490:0:0:0:0:
109,192,95403,128,0,95490:0:0:0:0:
329,192,95403,128,0,95490:0:0:0:0:
182,192,95403,128,0,95490:0:0:0:0:
256,192,95533,1,0,0:0:0:0:
329,192,95533,128,0,95728:0:0:0:0:
475,192,95533,1,0,0:0:0:0:
36,192,95533,1,0,0:0:0:0:
182,192,95549,1,0,0:0:0:0:
402,192,95549,1,0,0:0:0:0:
109,192,95565,1,0,0:0:0:0:
256,192,95663,128,0,95749:0:0:0:0:
182,192,95663,128,0,95749:0:0:0:0:
402,192,95663,128,0,95749:0:0:0:0:
475,192,95663,128,0,95749:0:0:0:0:
475,192,95793,1,0,0:0:0:0:
402,192,95793,1,0,0:0:0:0:
256,192,95793,1,0,0:0:0:0:
182,192,95793,1,0,0:0:0:0:
109,192,95793,128,0,95879:0:0:0:0:
329,192,95793,128,0,95879:0:0:0:0:
36,192,95793,1,0,0:0:0:0:
182,192,95923,128,0,95966:0:0:0:0:
256,192,95923,128,0,95966:0:0:0:0:
402,192,95923,128,0,95966:0:0:0:0:
475,192,95923,128,0,95966:0:0:0:0:
109,192,95923,128,0,95966:0:0:0:0:
182,192,96052,1,0,0:0:0:0:
109,192,96052,1,0,0:0:0:0:
329,192,96052,1,0,0:0:0:0:
402,192,96052,1,0,0:0:0:0:
256,192,96052,128,0,96139:0:0:0:0:
475,192,96052,128,0,96139:0:0:0:0:
36,192,96052,1,0,0:0:0:0:
329,192,96182,128,0,96226:0:0:0:0:
402,192,96182,128,0,96226:0:0:0:0:
475,192,96182,128,0,96226:0:0:0:0:
182,192,96182,128,0,96226:0:0:0:0:
109,192,96182,128,0,96226:0:0:0:0:
402,192,96312,1,0,0:0:0:0:
182,192,96312,1,0,0:0:0:0:
475,192,96312,1,0,0:0:0:0:
256,192,96312,1,0,0:0:0:0:
329,192,96312,128,0,96399:0:0:0:0:
109,192,96312,128,0,96399:0:0:0:0:
36,192,96312,1,0,0:0:0:0:
182,192,96442,128,0,96485:0:0:0:0:
109,192,96442,128,0,96485:0:0:0:0:
256,192,96442,128,0,96485:0:0:0:0:
402,192,96442,128,0,96485:0:0:0:0:
475,192,96442,128,0,96485:0:0:0:0:
329,192,96572,1,0,0:0:0:0:
402,192,96572,1,0,0:0:0:0:
475,192,96572,1,0,0:0:0:0:
36,192,96572,128,0,96637:0:0:0:0:
256,192,96572,128,0,96615:0:0:0:0:
182,192,96572,128,0,96745:0:0:0:0:
109,192,96572,128,0,96875:0:0:0:0:
256,192,96702,1,0,0:0:0:0:
329,192,96702,1,0,0:0:0:0:
402,192,96702,1,0,0:0:0:0:
36,192,96702,128,0,96767:0:0:0:0:
329,192,96832,1,0,0:0:0:0:
256,192,96832,1,0,0:0:0:0:
182,192,96832,1,0,0:0:0:0:
36,192,96832,128,0,96897:0:0:0:0:
256,192,96962,1,0,0:0:0:0:
182,192,96962,1,0,0:0:0:0:
109,192,96962,1,0,0:0:0:0:
36,192,96962,128,0,97026:0:0:0:0:
109,192,97091,1,0,0:0:0:0:
36,192,97091,1,0,0:0:0:0:
182,192,97091,1,0,0:0:0:0:
475,192,97091,128,0,97156:0:0:0:0:
256,192,97091,128,0,97135:0:0:0:0:
329,192,97091,128,0,97265:0:0:0:0:
402,192,97091,128,0,97394:0:0:0:0:
109,192,97221,1,0,0:0:0:0:
182,192,97221,1,0,0:0:0:0:
256,192,97221,1,0,0:0:0:0:
475,192,97221,128,0,97286:0:0:0:0:
182,192,97351,1,0,0:0:0:0:
256,192,97351,1,0,0:0:0:0:
329,192,97351,1,0,0:0:0:0:
475,192,97351,128,0,97416:0:0:0:0:
256,192,97481,1,0,0:0:0:0:
329,192,97481,1,0,0:0:0:0:
402,192,97481,1,0,0:0:0:0:
475,192,97481,128,0,97546:0:0:0:0:
329,192,97611,1,0,0:0:0:0:
402,192,97611,1,0,0:0:0:0:
475,192,97611,1,0,0:0:0:0:
36,192,97611,128,0,97806:0:0:0:0:
109,192,97611,128,0,97806:0:0:0:0:
182,192,97676,128,0,97871:0:0:0:0:
256,192,97741,128,0,97936:0:0:0:0:
329,192,97806,128,0,98000:0:0:0:0:
109,192,97871,1,0,0:0:0:0:
475,192,97871,128,0,98065:0:0:0:0:
36,192,97871,128,0,98130:0:0:0:0:
402,192,97871,128,0,98065:0:0:0:0:
182,192,97936,1,0,0:0:0:0:
109,192,97936,128,0,98260:0:0:0:0:
256,192,98000,1,0,0:0:0:0:
182,192,98000,128,0,98195:0:0:0:0:
329,192,98065,1,0,0:0:0:0:
256,192,98065,128,0,98130:0:0:0:0:
329,192,98130,1,0,0:0:0:0:
402,192,98130,1,0,0:0:0:0:
475,192,98130,1,0,0:0:0:0:
256,192,98195,1,0,0:0:0:0:
182,192,98260,1,0,0:0:0:0:
329,192,98260,128,0,98390:0:0:0:0:
109,192,98325,1,0,0:0:0:0:
402,192,98390,1,0,0:0:0:0:
36,192,98390,128,0,98650:0:0:0:0:
475,192,98390,128,0,98650:0:0:0:0:
182,192,98390,1,0,0:0:0:0:
329,192,98455,1,0,0:0:0:0:
256,192,98520,1,0,0:0:0:0:
182,192,98585,1,0,0:0:0:0:
329,192,98650,1,0,0:0:0:0:
109,192,98650,128,0,98715:0:0:0:0:
402,192,98715,1,0,0:0:0:0:
182,192,98715,128,0,98780:0:0:0:0:
475,192,98780,1,0,0:0:0:0:
256,192,98780,128,0,98845:0:0:0:0:
329,192,98845,128,0,98910:0:0:0:0:
36,192,98845,1,0,0:0:0:0:
109,192,98910,1,0,0:0:0:0:
402,192,98910,128,0,98975:0:0:0:0:
36,192,98910,128,0,99169:0:0:0:0:
182,192,98975,1,0,0:0:0:0:
329,192,98975,128,0,99039:0:0:0:0:
256,192,99039,128,0,99104:0:0:0:0:
475,192,99039,1,0,0:0:0:0:
182,192,99104,128,0,99169:0:0:0:0:
402,192,99104,1,0,0:0:0:0:
109,192,99169,128,0,99234:0:0:0:0:
329,192,99169,1,0,0:0:0:0:
475,192,99169,128,0,99429:0:0:0:0:
182,192,99234,128,0,99299:0:0:0:0:
36,192,99234,1,0,0:0:0:0:
256,192,99299,128,0,99364:0:0:0:0:
109,192,99299,1,0,0:0:0:0:
329,192,99364,128,0,99429:0:0:0:0:
182,192,99364,1,0,0:0:0:0:
402,192,99429,128,0,99494:0:0:0:0:
256,192,99429,1,0,0:0:0:0:
36,192,99429,128,0,99624:0:0:0:0:
329,192,99494,1,0,0:0:0:0:
475,192,99494,128,0,99559:0:0:0:0:
109,192,99494,128,0,99624:0:0:0:0:
402,192,99559,1,0,0:0:0:0:
182,192,99559,128,0,99689:0:0:0:0:
329,192,99624,1,0,0:0:0:0:
256,192,99624,128,0,99689:0:0:0:0:
402,192,99689,128,0,99819:0:0:0:0:
475,192,99689,128,0,99754:0:0:0:0:
36,192,99689,1,0,0:0:0:0:
109,192,99689,128,0,99754:0:0:0:0:
329,192,99754,128,0,99884:0:0:0:0:
182,192,99754,128,0,99819:0:0:0:0:
36,192,99819,128,0,100013:0:0:0:0:
256,192,99819,128,0,99884:0:0:0:0:
109,192,99884,128,0,100078:0:0:0:0:
475,192,99884,128,0,99949:0:0:0:0:
182,192,99949,128,0,100143:0:0:0:0:
402,192,99949,128,0,100013:0:0:0:0:
256,192,100013,128,0,100208:0:0:0:0:
329,192,100013,128,0,100078:0:0:0:0:
475,192,100078,128,0,100208:0:0:0:0:
36,192,100078,128,0,100403:0:0:0:0:
402,192,100143,128,0,100273:0:0:0:0:
109,192,100143,128,0,100273:0:0:0:0:
329,192,100208,128,0,100338:0:0:0:0:
182,192,100208,128,0,100338:0:0:0:0:
256,192,100273,128,0,100403:0:0:0:0:
475,192,100273,128,0,100598:0:0:0:0:
109,192,100338,128,0,100468:0:0:0:0:
402,192,100338,128,0,100533:0:0:0:0:
182,192,100403,128,0,100533:0:0:0:0:
329,192,100403,128,0,100468:0:0:0:0:
256,192,100468,128,0,100598:0:0:0:0:
36,192,100468,1,0,0:0:0:0:
109,192,100533,1,0,0:0:0:0:
329,192,100533,128,0,100663:0:0:0:0:
402,192,100598,128,0,100728:0:0:0:0:
182,192,100598,1,0,0:0:0:0:
475,192,100663,128,0,100728:0:0:0:0:
256,192,100663,1,0,0:0:0:0:
329,192,100728,1,0,0:0:0:0:
36,192,100728,1,0,0:0:0:0:
109,192,100760,1,0,0:0:0:0:
329,192,100793,1,0,0:0:0:0:
182,192,100793,1,0,0:0:0:0:
256,192,100825,1,0,0:0:0:0:
329,192,100858,1,0,0:0:0:0:
329,192,100988,1,0,0:0:0:0:
329,192,101117,1,0,0:0:0:0:
329,192,101247,1,0,0:0:0:0:
182,192,101312,1,0,0:0:0:0:
329,192,101377,1,0,0:0:0:0:
109,192,101377,1,0,0:0:0:0:
36,192,101377,1,0,0:0:0:0:
256,192,101377,1,0,0:0:0:0:
402,192,101377,1,0,0:0:0:0:
475,192,101377,1,0,0:0:0:0:
329,192,101507,1,0,0:0:0:0:
329,192,101637,1,0,0:0:0:0:
36,192,101637,128,0,101702:0:0:0:0:
475,192,101680,1,0,0:0:0:0:
182,192,101723,1,0,0:0:0:0:
329,192,101767,1,0,0:0:0:0:
109,192,101767,128,0,101832:0:0:0:0:
329,192,101897,1,0,0:0:0:0:
182,192,101897,128,0,101962:0:0:0:0:
329,192,102026,1,0,0:0:0:0:
109,192,102026,128,0,102091:0:0:0:0:
475,192,102070,1,0,0:0:0:0:
182,192,102113,1,0,0:0:0:0:
329,192,102156,1,0,0:0:0:0:
36,192,102156,128,0,102221:0:0:0:0:
329,192,102286,1,0,0:0:0:0:
109,192,102286,1,0,0:0:0:0:
182,192,102286,1,0,0:0:0:0:
256,192,102286,1,0,0:0:0:0:
36,192,102286,1,0,0:0:0:0:
402,192,102286,1,0,0:0:0:0:
475,192,102286,1,0,0:0:0:0:
329,192,102416,1,0,0:0:0:0:
329,192,102546,1,0,0:0:0:0:
329,192,102676,1,0,0:0:0:0:
475,192,102741,1,0,0:0:0:0:
182,192,102806,1,0,0:0:0:0:
329,192,102936,1,0,0:0:0:0:
36,192,102936,1,0,0:0:0:0:
109,192,102936,1,0,0:0:0:0:
256,192,102936,1,0,0:0:0:0:
182,192,102936,1,0,0:0:0:0:
402,192,102936,1,0,0:0:0:0:
475,192,102936,1,0,0:0:0:0:
329,192,103065,1,0,0:0:0:0:
109,192,103065,128,0,103130:0:0:0:0:
329,192,103195,1,0,0:0:0:0:
182,192,103195,128,0,103260:0:0:0:0:
329,192,103325,1,0,0:0:0:0:
109,192,103325,128,0,103390:0:0:0:0:
475,192,103390,1,0,0:0:0:0:
329,192,103455,1,0,0:0:0:0:
36,192,103455,128,0,103520:0:0:0:0:
329,192,103585,1,0,0:0:0:0:
36,192,103585,1,0,0:0:0:0:
109,192,103585,1,0,0:0:0:0:
182,192,103585,1,0,0:0:0:0:
256,192,103585,1,0,0:0:0:0:
475,192,103585,1,0,0:0:0:0:
402,192,103585,1,0,0:0:0:0:
329,192,103715,1,0,0:0:0:0:
109,192,103715,128,0,103780:0:0:0:0:
329,192,103845,1,0,0:0:0:0:
182,192,103845,128,0,103910:0:0:0:0:
329,192,103975,1,0,0:0:0:0:
256,192,103975,1,0,0:0:0:0:
182,192,103975,1,0,0:0:0:0:
36,192,103975,1,0,0:0:0:0:
109,192,103975,1,0,0:0:0:0:
402,192,103975,1,0,0:0:0:0:
475,192,103975,1,0,0:0:0:0:
329,192,104104,1,0,0:0:0:0:
256,192,104104,128,0,104169:0:0:0:0:
329,192,104234,1,0,0:0:0:0:
182,192,104234,128,0,104299:0:0:0:0:
329,192,104364,1,0,0:0:0:0:
109,192,104364,128,0,104429:0:0:0:0:
329,192,104494,1,0,0:0:0:0:
36,192,104494,1,0,0:0:0:0:
109,192,104494,1,0,0:0:0:0:
182,192,104494,1,0,0:0:0:0:
256,192,104494,1,0,0:0:0:0:
402,192,104494,1,0,0:0:0:0:
475,192,104494,1,0,0:0:0:0:
329,192,104624,1,0,0:0:0:0:
256,192,104689,1,0,0:0:0:0:
329,192,104754,1,0,0:0:0:0:
475,192,104797,1,0,0:0:0:0:
182,192,104840,1,0,0:0:0:0:
329,192,104884,1,0,0:0:0:0:
36,192,104884,128,0,104949:0:0:0:0:
329,192,105013,1,0,0:0:0:0:
109,192,105013,128,0,105078:0:0:0:0:
329,192,105143,1,0,0:0:0:0:
182,192,105143,128,0,105208:0:0:0:0:
329,192,105273,1,0,0:0:0:0:
109,192,105273,128,0,105338:0:0:0:0:
329,192,105403,1,0,0:0:0:0:
36,192,105403,128,0,105468:0:0:0:0:
329,192,105533,1,0,0:0:0:0:
256,192,105533,1,0,0:0:0:0:
182,192,105533,1,0,0:0:0:0:
109,192,105533,1,0,0:0:0:0:
36,192,105533,1,0,0:0:0:0:
402,192,105533,1,0,0:0:0:0:
475,192,105598,1,0,0:0:0:0:
182,192,105663,1,0,0:0:0:0:
329,192,105728,1,0,0:0:0:0:
475,192,105793,1,0,0:0:0:0:
329,192,105858,1,0,0:0:0:0:
182,192,105923,1,0,0:0:0:0:
329,192,106052,1,0,0:0:0:0:
256,192,106085,1,0,0:0:0:0:
475,192,106182,1,0,0:0:0:0:
256,192,106247,1,0,0:0:0:0:
329,192,106312,1,0,0:0:0:0:
402,192,106345,1,0,0:0:0:0:
182,192,106442,1,0,0:0:0:0:
109,192,106442,1,0,0:0:0:0:
36,192,106442,1,0,0:0:0:0:
256,192,106442,1,0,0:0:0:0:
329,192,106442,1,0,0:0:0:0:
402,192,106442,1,0,0:0:0:0:
475,192,106442,1,0,0:0:0:0:
329,192,106572,1,0,0:0:0:0:
475,192,106615,1,0,0:0:0:0:
329,192,106702,1,0,0:0:0:0:
329,192,106832,1,0,0:0:0:0:
256,192,106897,1,0,0:0:0:0:
329,192,106962,1,0,0:0:0:0:
475,192,106978,1,0,0:0:0:0:
329,192,107091,1,0,0:0:0:0:
109,192,107091,1,0,0:0:0:0:
36,192,107091,1,0,0:0:0:0:
256,192,107091,1,0,0:0:0:0:
402,192,107091,1,0,0:0:0:0:
182,192,107108,1,0,0:0:0:0:
329,192,107221,1,0,0:0:0:0:
475,192,107238,1,0,0:0:0:0:
329,192,107351,1,0,0:0:0:0:
182,192,107367,1,0,0:0:0:0:
329,192,107481,1,0,0:0:0:0:
475,192,107481,1,0,0:0:0:0:
182,192,107546,1,0,0:0:0:0:
329,192,107611,1,0,0:0:0:0:
329,192,107741,1,0,0:0:0:0:
475,192,107741,1,0,0:0:0:0:
109,192,107741,1,0,0:0:0:0:
36,192,107741,1,0,0:0:0:0:
182,192,107741,1,0,0:0:0:0:
329,192,107871,1,0,0:0:0:0:
182,192,107871,1,0,0:0:0:0:
182,192,108000,1,0,0:0:0:0:
36,192,108000,1,0,0:0:0:0:
182,192,108130,1,0,0:0:0:0:
329,192,108130,1,0,0:0:0:0:
402,192,108130,1,0,0:0:0:0:
475,192,108130,1,0,0:0:0:0:
182,192,108260,1,0,0:0:0:0:
256,192,108325,1,0,0:0:0:0:
182,192,108390,1,0,0:0:0:0:
329,192,108390,128,0,108617:0:0:0:0:
402,192,108390,128,0,108617:0:0:0:0:
475,192,108390,128,0,108617:0:0:0:0:
182,192,108520,1,0,0:0:0:0:
182,192,108650,1,0,0:0:0:0:
402,192,108650,1,0,0:0:0:0:
475,192,108650,1,0,0:0:0:0:
329,192,108650,1,0,0:0:0:0:
256,192,108650,1,0,0:0:0:0:
36,192,108650,1,0,0:0:0:0:
182,192,108780,1,0,0:0:0:0:
182,192,108910,1,0,0:0:0:0:
109,192,108975,1,0,0:0:0:0:
182,192,109039,1,0,0:0:0:0:
36,192,109039,1,0,0:0:0:0:
256,192,109039,1,0,0:0:0:0:
329,192,109039,1,0,0:0:0:0:
402,192,109039,1,0,0:0:0:0:
475,192,109039,1,0,0:0:0:0:
182,192,109169,1,0,0:0:0:0:
36,192,109169,1,0,0:0:0:0:
329,192,109299,1,0,0:0:0:0:
182,192,109299,1,0,0:0:0:0:
329,192,109429,1,0,0:0:0:0:
475,192,109429,1,0,0:0:0:0:
329,192,109559,1,0,0:0:0:0:
402,192,109624,1,0,0:0:0:0:
475,192,109689,1,0,0:0:0:0:
329,192,109689,1,0,0:0:0:0:
182,192,109689,1,0,0:0:0:0:
36,192,109689,1,0,0:0:0:0:
256,192,109689,1,0,0:0:0:0:
475,192,109819,1,0,0:0:0:0:
329,192,109884,1,0,0:0:0:0:
182,192,109949,1,0,0:0:0:0:
36,192,110013,1,0,0:0:0:0:
36,192,110078,1,0,0:0:0:0:
475,192,110208,1,0,0:0:0:0:
36,192,110338,1,0,0:0:0:0:
256,192,110403,1,0,0:0:0:0:
402,192,110468,1,0,0:0:0:0:
36,192,110598,1,0,0:0:0:0:
329,192,110598,1,0,0:0:0:0:
256,192,110598,1,0,0:0:0:0:
182,192,110598,1,0,0:0:0:0:
475,192,110598,1,0,0:0:0:0:
182,192,110728,1,0,0:0:0:0:
36,192,110728,1,0,0:0:0:0:
402,192,110728,128,0,110760:0:0:0:0:
182,192,110858,1,0,0:0:0:0:
182,192,110988,1,0,0:0:0:0:
36,192,110988,1,0,0:0:0:0:
329,192,110988,128,0,111020:0:0:0:0:
475,192,110988,128,0,111020:0:0:0:0:
256,192,111052,1,0,0:0:0:0:
182,192,111117,1,0,0:0:0:0:
36,192,111117,1,0,0:0:0:0:
329,192,111117,128,0,111150:0:0:0:0:
475,192,111117,128,0,111150:0:0:0:0:
182,192,111247,1,0,0:0:0:0:
329,192,111247,1,0,0:0:0:0:
402,192,111247,1,0,0:0:0:0:
475,192,111247,1,0,0:0:0:0:
182,192,111377,1,0,0:0:0:0:
329,192,111442,128,0,111475:0:0:0:0:
475,192,111442,128,0,111475:0:0:0:0:
182,192,111507,1,0,0:0:0:0:
402,192,111507,1,0,0:0:0:0:
182,192,111637,1,0,0:0:0:0:
402,192,111702,1,0,0:0:0:0:
182,192,111767,1,0,0:0:0:0:
329,192,111767,128,0,111799:0:0:0:0:
475,192,111767,128,0,111799:0:0:0:0:
182,192,111897,1,0,0:0:0:0:
109,192,111897,1,0,0:0:0:0:
36,192,111897,1,0,0:0:0:0:
329,192,111897,1,0,0:0:0:0:
475,192,111897,1,0,0:0:0:0:
182,192,112026,1,0,0:0:0:0:
182,192,112156,1,0,0:0:0:0:
475,192,112286,1,0,0:0:0:0:
182,192,112286,1,0,0:0:0:0:
329,192,112286,1,0,0:0:0:0:
402,192,112286,1,0,0:0:0:0:
36,192,112286,1,0,0:0:0:0:
182,192,112416,1,0,0:0:0:0:
329,192,112416,1,0,0:0:0:0:
256,192,112481,1,0,0:0:0:0:
329,192,112546,1,0,0:0:0:0:
256,192,112643,1,0,0:0:0:0:
329,192,112676,1,0,0:0:0:0:
182,192,112676,1,0,0:0:0:0:
109,192,112708,1,0,0:0:0:0:
402,192,112708,1,0,0:0:0:0:
329,192,112806,1,0,0:0:0:0:
182,192,112806,1,0,0:0:0:0:
109,192,112806,1,0,0:0:0:0:
36,192,112806,1,0,0:0:0:0:
402,192,112903,1,0,0:0:0:0:
109,192,112903,1,0,0:0:0:0:
329,192,112936,1,0,0:0:0:0:
182,192,112936,1,0,0:0:0:0:
256,192,112968,1,0,0:0:0:0:
329,192,113065,1,0,0:0:0:0:
402,192,113130,1,0,0:0:0:0:
329,192,113195,1,0,0:0:0:0:
475,192,113195,1,0,0:0:0:0:
36,192,113195,1,0,0:0:0:0:
256,192,113195,1,0,0:0:0:0:
182,192,113212,1,0,0:0:0:0:
475,192,113325,1,0,0:0:0:0:
475,192,113455,1,0,0:0:0:0:
475,192,113585,1,0,0:0:0:0:
329,192,113585,1,0,0:0:0:0:
475,192,113715,1,0,0:0:0:0:
182,192,113715,1,0,0:0:0:0:
36,192,113715,128,0,113845:0:0:0:0:
475,192,113845,1,0,0:0:0:0:
329,192,113845,1,0,0:0:0:0:
182,192,113845,128,0,113975:0:0:0:0:
475,192,113975,1,0,0:0:0:0:
329,192,113975,128,0,114104:0:0:0:0:
475,192,114104,1,0,0:0:0:0:
109,192,114104,1,0,0:0:0:0:
256,192,114104,128,0,114234:0:0:0:0:
329,192,114234,1,0,0:0:0:0:
475,192,114234,128,0,114364:0:0:0:0:
182,192,114364,1,0,0:0:0:0:
329,192,114364,128,0,114494:0:0:0:0:
36,192,114494,1,0,0:0:0:0:
182,192,114494,128,0,114624:0:0:0:0:
109,192,114624,128,0,114721:0:0:0:0:
109,192,114754,1,0,0:0:0:0:
36,192,114754,1,0,0:0:0:0:
182,192,114754,1,0,0:0:0:0:
256,192,114754,1,0,0:0:0:0:
329,192,114754,1,0,0:0:0:0:
475,192,114754,1,0,0:0:0:0:
402,192,114754,1,0,0:0:0:0:
109,192,114884,1,0,0:0:0:0:
256,192,114884,1,0,0:0:0:0:
475,192,114884,128,0,115013:0:0:0:0:
256,192,115013,1,0,0:0:0:0:
402,192,115013,128,0,115143:0:0:0:0:
256,192,115143,1,0,0:0:0:0:
36,192,115143,128,0,115273:0:0:0:0:
256,192,115273,1,0,0:0:0:0:
109,192,115273,128,0,115403:0:0:0:0:
256,192,115403,1,0,0:0:0:0:
402,192,115403,1,0,0:0:0:0:
475,192,115403,1,0,0:0:0:0:
36,192,115403,1,0,0:0:0:0:
402,192,115533,1,0,0:0:0:0:
402,192,115663,1,0,0:0:0:0:
256,192,115663,1,0,0:0:0:0:
109,192,115663,1,0,0:0:0:0:
36,192,115663,1,0,0:0:0:0:
475,192,115663,1,0,0:0:0:0:
329,192,115663,1,0,0:0:0:0:
182,192,115728,1,0,0:0:0:0:
402,192,115793,1,0,0:0:0:0:
109,192,115793,1,0,0:0:0:0:
36,192,115793,1,0,0:0:0:0:
256,192,115793,1,0,0:0:0:0:
329,192,115793,1,0,0:0:0:0:
475,192,115793,1,0,0:0:0:0:
256,192,115923,1,0,0:0:0:0:
182,192,115923,1,0,0:0:0:0:
109,192,115923,1,0,0:0:0:0:
36,192,115923,1,0,0:0:0:0:
402,192,115923,1,0,0:0:0:0:
475,192,115923,1,0,0:0:0:0:
36,192,116052,1,0,0:0:0:0:
109,192,116052,1,0,0:0:0:0:
182,192,116052,1,0,0:0:0:0:
256,192,116052,1,0,0:0:0:0:
329,192,116052,1,0,0:0:0:0:
475,192,116052,1,0,0:0:0:0:
402,192,116052,1,0,0:0:0:0:
109,192,116182,1,0,0:0:0:0:
182,192,116182,1,0,0:0:0:0:
36,192,116182,1,0,0:0:0:0:
256,192,116182,1,0,0:0:0:0:
402,192,116182,1,0,0:0:0:0:
475,192,116182,1,0,0:0:0:0:
329,192,116247,1,0,0:0:0:0:
402,192,116312,1,0,0:0:0:0:
475,192,116312,1,0,0:0:0:0:
182,192,116312,1,0,0:0:0:0:
256,192,116312,1,0,0:0:0:0:
109,192,116312,1,0,0:0:0:0:
36,192,116312,1,0,0:0:0:0:
329,192,116377,1,0,0:0:0:0:
182,192,116442,1,0,0:0:0:0:
109,192,116442,1,0,0:0:0:0:
36,192,116442,1,0,0:0:0:0:
256,192,116442,1,0,0:0:0:0:
329,192,116507,1,0,0:0:0:0:
402,192,116507,1,0,0:0:0:0:
475,192,116507,1,0,0:0:0:0:
109,192,116572,1,0,0:0:0:0:
36,192,116572,1,0,0:0:0:0:
182,192,116572,1,0,0:0:0:0:
475,192,116572,1,0,0:0:0:0:
402,192,116572,1,0,0:0:0:0:
329,192,116572,1,0,0:0:0:0:
109,192,116832,1,0,0:0:0:0:
182,192,116832,1,0,0:0:0:0:
256,192,116832,1,0,0:0:0:0:
329,192,116832,1,0,0:0:0:0:
402,192,116832,1,0,0:0:0:0:
475,192,117091,1,0,0:0:0:0:
402,192,117091,1,0,0:0:0:0:
329,192,117091,1,0,0:0:0:0:
182,192,117091,1,0,0:0:0:0:
109,192,117091,1,0,0:0:0:0:
36,192,117091,1,0,0:0:0:0:
256,192,117221,1,0,0:0:0:0:
402,192,117351,128,0,117480:0:0:0:0:
475,192,117351,128,0,117480:0:0:0:0:
182,192,117351,128,0,117740:0:0:0:0:
109,192,117351,128,0,117675:0:0:0:0:
36,192,117351,128,0,117675:0:0:0:0:
256,192,117351,1,0,0:0:0:0:
329,192,117351,1,0,0:0:0:0:
256,192,117480,128,0,117740:0:0:0:0:
329,192,117480,128,0,117675:0:0:0:0:
402,192,117610,128,0,117675:0:0:0:0:
475,192,117610,128,0,117675:0:0:0:0:
109,192,117740,128,0,118000:0:0:0:0:
36,192,117740,128,0,118000:0:0:0:0:
329,192,117740,128,0,117870:0:0:0:0:
402,192,117740,128,0,117870:0:0:0:0:
475,192,117740,128,0,118065:0:0:0:0:
182,192,117870,128,0,118000:0:0:0:0:
256,192,117870,128,0,118130:0:0:0:0:
402,192,118000,128,0,118065:0:0:0:0:
329,192,118000,128,0,118130:0:0:0:0:
402,192,118130,128,0,118260:0:0:0:0:
475,192,118130,128,0,118260:0:0:0:0:
182,192,118130,128,0,118714:0:0:0:0:
109,192,118130,128,0,118779:0:0:0:0:
36,192,118130,128,0,119039:0:0:0:0:
329,192,118260,128,0,118454:0:0:0:0:
256,192,118260,128,0,118519:0:0:0:0:
402,192,118389,128,0,118454:0:0:0:0:
475,192,118389,128,0,118454:0:0:0:0:
329,192,118519,128,0,118584:0:0:0:0:
402,192,118519,128,0,118779:0:0:0:0:
475,192,118519,128,0,118779:0:0:0:0:
256,192,118649,128,0,118714:0:0:0:0:
329,192,118649,128,0,118779:0:0:0:0:
182,192,118779,128,0,118844:0:0:0:0:
256,192,118779,128,0,118909:0:0:0:0:
329,192,118909,128,0,119428:0:0:0:0:
402,192,118909,128,0,119623:0:0:0:0:
475,192,118909,128,0,119623:0:0:0:0:
109,192,118909,128,0,119039:0:0:0:0:
182,192,118909,128,0,118974:0:0:0:0:
256,192,119039,128,0,119299:0:0:0:0:
182,192,119039,128,0,119169:0:0:0:0:
109,192,119169,128,0,119234:0:0:0:0:
36,192,119169,128,0,119234:0:0:0:0:
109,192,119299,128,0,119558:0:0:0:0:
182,192,119299,128,0,119363:0:0:0:0:
36,192,119299,128,0,119558:0:0:0:0:
182,192,119428,128,0,119688:0:0:0:0:
256,192,119428,128,0,119493:0:0:0:0:
256,192,119558,128,0,119688:0:0:0:0:
329,192,119558,128,0,119623:0:0:0:0:
329,192,119688,1,0,0:0:0:0:
402,192,119688,128,0,119883:0:0:0:0:
475,192,119688,128,0,119883:0:0:0:0:
109,192,119688,128,0,119818:0:0:0:0:
36,192,119688,128,0,119818:0:0:0:0:
329,192,119818,1,0,0:0:0:0:
256,192,119818,128,0,119948:0:0:0:0:
182,192,119818,128,0,119883:0:0:0:0:
329,192,119948,1,0,0:0:0:0:
36,192,119948,1,0,0:0:0:0:
182,192,119948,128,0,120078:0:0:0:0:
109,192,119948,128,0,120013:0:0:0:0:
402,192,119948,128,0,120013:0:0:0:0:
402,192,120078,1,0,0:0:0:0:
329,192,120078,128,0,120208:0:0:0:0:
256,192,120078,128,0,120143:0:0:0:0:
475,192,120078,128,0,120208:0:0:0:0:
36,192,120078,128,0,120273:0:0:0:0:
109,192,120078,128,0,120273:0:0:0:0:
256,192,120208,128,0,120338:0:0:0:0:
402,192,120208,1,0,0:0:0:0:
182,192,120208,128,0,120273:0:0:0:0:
182,192,120338,128,0,120467:0:0:0:0:
402,192,120338,1,0,0:0:0:0:
109,192,120338,128,0,120467:0:0:0:0:
36,192,120338,128,0,120467:0:0:0:0:
329,192,120338,128,0,120467:0:0:0:0:
475,192,120338,128,0,120467:0:0:0:0:
256,192,120467,128,0,120792:0:0:0:0:
402,192,120467,128,0,120792:0:0:0:0:
182,192,120760,1,0,0:0:0:0:
109,192,120760,1,0,0:0:0:0:
36,192,120760,1,0,0:0:0:0:
402,192,120857,128,0,121182:0:0:0:0:
256,192,120857,128,0,121182:0:0:0:0:
256,192,121247,128,0,121312:0:0:0:0:
402,192,121247,128,0,121312:0:0:0:0:
182,192,121247,1,0,0:0:0:0:
109,192,121247,1,0,0:0:0:0:
36,192,121247,1,0,0:0:0:0:
256,192,121376,128,0,121441:0:0:0:0:
402,192,121376,128,0,121441:0:0:0:0:
256,192,121506,128,0,121571:0:0:0:0:
402,192,121506,128,0,121571:0:0:0:0:
402,192,121636,128,0,121701:0:0:0:0:
256,192,121636,128,0,121701:0:0:0:0:
109,192,121636,1,0,0:0:0:0:
182,192,121636,1,0,0:0:0:0:
36,192,121636,1,0,0:0:0:0:
256,192,121766,128,0,121831:0:0:0:0:
402,192,121766,128,0,121831:0:0:0:0:
256,192,121896,128,0,121961:0:0:0:0:
402,192,121896,128,0,121961:0:0:0:0:
256,192,122026,128,0,122058:0:0:0:0:
402,192,122026,128,0,122058:0:0:0:0:
36,192,122050,1,0,0:0:0:0:
109,192,122050,1,0,0:0:0:0:
182,192,122050,1,0,0:0:0:0:
329,192,122050,1,0,0:0:0:0:
475,192,122050,1,0,0:0:0:0:
256,192,122415,128,0,122448:0:0:0:0:
109,192,122415,128,0,122448:0:0:0:0:
475,192,122440,1,0,0:0:0:0:
329,192,122440,1,0,0:0:0:0:
36,192,122440,1,0,0:0:0:0:
182,192,122440,1,0,0:0:0:0:
402,192,122440,1,0,0:0:0:0:
402,192,122805,128,0,122838:0:0:0:0:
256,192,122805,128,0,122838:0:0:0:0:
329,192,122829,1,0,0:0:0:0:
109,192,122829,1,0,0:0:0:0:
475,192,122829,1,0,0:0:0:0:
36,192,122829,1,0,0:0:0:0:
182,192,122829,1,0,0:0:0:0:
256,192,122935,128,0,122967:0:0:0:0:
109,192,122935,128,0,122967:0:0:0:0:
182,192,122959,1,0,0:0:0:0:
36,192,122959,1,0,0:0:0:0:
329,192,122959,1,0,0:0:0:0:
475,192,122959,1,0,0:0:0:0:
402,192,122959,1,0,0:0:0:0:
402,192,123065,128,0,123097:0:0:0:0:
256,192,123065,128,0,123097:0:0:0:0:
329,192,123089,1,0,0:0:0:0:
475,192,123089,1,0,0:0:0:0:
182,192,123089,1,0,0:0:0:0:
109,192,123089,1,0,0:0:0:0:
36,192,123089,1,0,0:0:0:0:
256,192,123195,128,0,123227:0:0:0:0:
109,192,123195,128,0,123227:0:0:0:0:
182,192,123219,1,0,0:0:0:0:
402,192,123219,1,0,0:0:0:0:
329,192,123219,1,0,0:0:0:0:
36,192,123219,1,0,0:0:0:0:
475,192,123219,1,0,0:0:0:0:
256,192,123325,128,0,123357:0:0:0:0:
402,192,123325,128,0,123357:0:0:0:0:
109,192,123349,1,0,0:0:0:0:
36,192,123349,1,0,0:0:0:0:
182,192,123349,1,0,0:0:0:0:
329,192,123349,1,0,0:0:0:0:
475,192,123349,1,0,0:0:0:0:
109,192,123454,128,0,123487:0:0:0:0:
256,192,123454,128,0,123487:0:0:0:0:
36,192,123479,1,0,0:0:0:0:
475,192,123479,1,0,0:0:0:0:
329,192,123479,1,0,0:0:0:0:
182,192,123479,1,0,0:0:0:0:
402,192,123479,1,0,0:0:0:0:
182,192,123584,128,0,123617:0:0:0:0:
329,192,123584,128,0,123617:0:0:0:0:
36,192,123609,1,0,0:0:0:0:
256,192,123682,128,0,123714:0:0:0:0:
402,192,123682,128,0,123714:0:0:0:0:
109,192,123682,1,0,0:0:0:0:
329,192,123779,128,0,123812:0:0:0:0:
475,192,123779,128,0,123812:0:0:0:0:
182,192,123779,1,0,0:0:0:0:
109,192,123876,128,0,123909:0:0:0:0:
256,192,123876,128,0,123909:0:0:0:0:
402,192,123901,1,0,0:0:0:0:
182,192,123974,128,0,124006:0:0:0:0:
329,192,123974,128,0,124006:0:0:0:0:
475,192,123998,1,0,0:0:0:0:
256,192,124071,128,0,124104:0:0:0:0:
402,192,124071,128,0,124104:0:0:0:0:
109,192,124096,1,0,0:0:0:0:
182,192,124169,128,0,124201:0:0:0:0:
36,192,124169,128,0,124201:0:0:0:0:
329,192,124193,1,0,0:0:0:0:
256,192,124266,128,0,124299:0:0:0:0:
109,192,124266,128,0,124299:0:0:0:0:
402,192,124290,1,0,0:0:0:0:
329,192,124363,128,0,124396:0:0:0:0:
182,192,124363,128,0,124396:0:0:0:0:
36,192,124363,128,0,124623:0:0:0:0:
475,192,124388,1,0,0:0:0:0:
256,192,124461,128,0,124493:0:0:0:0:
402,192,124461,128,0,124493:0:0:0:0:
109,192,124493,128,0,124753:0:0:0:0:
329,192,124558,128,0,124591:0:0:0:0:
475,192,124558,128,0,124591:0:0:0:0:
182,192,124623,128,0,124883:0:0:0:0:
329,192,124656,1,0,0:0:0:0:
475,192,124656,1,0,0:0:0:0:
36,192,124753,128,0,125013:0:0:0:0:
256,192,124753,128,0,124883:0:0:0:0:
402,192,124753,128,0,124883:0:0:0:0:
109,192,124883,128,0,125013:0:0:0:0:
329,192,124883,128,0,125013:0:0:0:0:
475,192,124883,128,0,125013:0:0:0:0:
182,192,125013,128,0,125143:0:0:0:0:
256,192,125013,128,0,125143:0:0:0:0:
402,192,125013,128,0,125143:0:0:0:0:
329,192,125143,1,0,0:0:0:0:
475,192,125143,1,0,0:0:0:0:
109,192,125143,1,0,0:0:0:0:
36,192,125143,1,0,0:0:0:0:
329,192,125273,1,0,0:0:0:0:
475,192,125273,1,0,0:0:0:0:
182,192,125273,1,0,0:0:0:0:
109,192,125273,1,0,0:0:0:0:
329,192,125402,1,0,0:0:0:0:
475,192,125402,1,0,0:0:0:0:
182,192,125402,1,0,0:0:0:0:
256,192,125402,1,0,0:0:0:0:
329,192,125532,1,0,0:0:0:0:
475,192,125532,1,0,0:0:0:0:
182,192,125532,1,0,0:0:0:0:
109,192,125532,1,0,0:0:0:0:
109,192,125662,1,0,0:0:0:0:
36,192,125662,1,0,0:0:0:0:
256,192,125662,1,0,0:0:0:0:
402,192,125662,1,0,0:0:0:0:
402,192,125792,1,0,0:0:0:0:
475,192,125792,1,0,0:0:0:0:
256,192,125792,1,0,0:0:0:0:
109,192,125792,1,0,0:0:0:0:
182,192,125922,1,0,0:0:0:0:
36,192,125922,1,0,0:0:0:0:
329,192,125922,1,0,0:0:0:0:
402,192,125922,1,0,0:0:0:0:
182,192,126052,1,0,0:0:0:0:
36,192,126052,1,0,0:0:0:0:
329,192,126052,1,0,0:0:0:0:
402,192,126052,1,0,0:0:0:0:
402,192,126182,1,0,0:0:0:0:
329,192,126182,1,0,0:0:0:0:
182,192,126182,1,0,0:0:0:0:
36,192,126182,1,0,0:0:0:0:
36,192,126312,1,0,0:0:0:0:
182,192,126312,1,0,0:0:0:0:
329,192,126312,1,0,0:0:0:0:
402,192,126312,1,0,0:0:0:0:
256,192,126441,1,0,0:0:0:0:
109,192,126441,1,0,0:0:0:0:
402,192,126441,1,0,0:0:0:0:
475,192,126441,1,0,0:0:0:0:
402,192,126571,1,0,0:0:0:0:
329,192,126571,1,0,0:0:0:0:
182,192,126571,1,0,0:0:0:0:
36,192,126571,1,0,0:0:0:0:
402,192,126701,1,0,0:0:0:0:
475,192,126701,1,0,0:0:0:0:
256,192,126701,128,0,127026:0:0:0:0:
109,192,126701,128,0,127026:0:0:0:0:
329,192,126701,1,0,0:0:0:0:
329,192,126993,1,0,0:0:0:0:
402,192,126993,1,0,0:0:0:0:
475,192,126993,1,0,0:0:0:0:
109,192,127091,128,0,127415:0:0:0:0:
256,192,127091,128,0,127415:0:0:0:0:
402,192,127091,1,0,0:0:0:0:
475,192,127091,1,0,0:0:0:0:
329,192,127091,1,0,0:0:0:0:
256,192,127480,128,0,127545:0:0:0:0:
109,192,127480,128,0,127545:0:0:0:0:
402,192,127480,1,0,0:0:0:0:
475,192,127480,1,0,0:0:0:0:
329,192,127480,1,0,0:0:0:0:
256,192,127610,128,0,127675:0:0:0:0:
109,192,127610,128,0,127675:0:0:0:0:
402,192,127610,1,0,0:0:0:0:
475,192,127610,1,0,0:0:0:0:
329,192,127610,1,0,0:0:0:0:
109,192,127740,128,0,127805:0:0:0:0:
256,192,127740,128,0,127805:0:0:0:0:
402,192,127740,1,0,0:0:0:0:
475,192,127740,1,0,0:0:0:0:
329,192,127740,1,0,0:0:0:0:
256,192,127870,128,0,127935:0:0:0:0:
109,192,127870,128,0,127935:0:0:0:0:
329,192,127935,1,0,0:0:0:0:
475,192,127935,1,0,0:0:0:0:
109,192,128000,128,0,128065:0:0:0:0:
256,192,128000,128,0,128065:0:0:0:0:
329,192,128065,1,0,0:0:0:0:
475,192,128065,1,0,0:0:0:0:
256,192,128130,128,0,128195:0:0:0:0:
109,192,128130,128,0,128195:0:0:0:0:
329,192,128195,1,0,0:0:0:0:
475,192,128195,1,0,0:0:0:0:
109,192,128260,128,0,128292:0:0:0:0:
256,192,128260,128,0,128292:0:0:0:0:
402,192,128284,1,0,0:0:0:0:
182,192,128284,1,0,0:0:0:0:
36,192,128284,1,0,0:0:0:0:
329,192,128284,128,0,128625:0:0:0:0:
475,192,128284,128,0,128625:0:0:0:0:
402,192,128649,128,0,128682:0:0:0:0:
256,192,128649,128,0,128682:0:0:0:0:
109,192,128674,1,0,0:0:0:0:
475,192,128674,1,0,0:0:0:0:
329,192,128674,1,0,0:0:0:0:
182,192,128674,128,0,129014:0:0:0:0:
36,192,128674,128,0,129014:0:0:0:0:
256,192,129039,128,0,129071:0:0:0:0:
109,192,129039,128,0,129071:0:0:0:0:
36,192,129063,1,0,0:0:0:0:
329,192,129063,1,0,0:0:0:0:
182,192,129063,1,0,0:0:0:0:
402,192,129063,1,0,0:0:0:0:
475,192,129063,1,0,0:0:0:0:
256,192,129169,128,0,129201:0:0:0:0:
402,192,129169,128,0,129201:0:0:0:0:
109,192,129185,1,0,0:0:0:0:
182,192,129185,1,0,0:0:0:0:
36,192,129185,1,0,0:0:0:0:
329,192,129185,128,0,129404:0:0:0:0:
475,192,129185,128,0,129404:0:0:0:0:
256,192,129428,128,0,129461:0:0:0:0:
109,192,129428,128,0,129461:0:0:0:0:
329,192,129453,1,0,0:0:0:0:
475,192,129453,1,0,0:0:0:0:
402,192,129453,1,0,0:0:0:0:
182,192,129453,128,0,129769:0:0:0:0:
36,192,129453,128,0,129769:0:0:0:0:
329,192,129550,1,0,0:0:0:0:
475,192,129550,1,0,0:0:0:0:
402,192,129550,1,0,0:0:0:0:
402,192,129648,1,0,0:0:0:0:
475,192,129648,1,0,0:0:0:0:
329,192,129648,1,0,0:0:0:0:
329,192,129721,1,0,0:0:0:0:
475,192,129721,1,0,0:0:0:0:
402,192,129721,1,0,0:0:0:0:
36,192,129818,128,0,129867:0:0:0:0:
182,192,129818,128,0,129867:0:0:0:0:
475,192,129818,128,0,129883:0:0:0:0:
109,192,129851,128,0,130045:0:0:0:0:
256,192,129851,128,0,130045:0:0:0:0:
402,192,129948,128,0,130013:0:0:0:0:
36,192,130062,128,0,130110:0:0:0:0:
182,192,130062,128,0,130110:0:0:0:0:
329,192,130078,128,0,130143:0:0:0:0:
109,192,130078,1,0,0:0:0:0:
256,192,130078,1,0,0:0:0:0:
475,192,130208,128,0,130273:0:0:0:0:
36,192,130208,128,0,130256:0:0:0:0:
182,192,130208,128,0,130256:0:0:0:0:
256,192,130240,128,0,130435:0:0:0:0:
109,192,130240,128,0,130435:0:0:0:0:
402,192,130338,128,0,130402:0:0:0:0:
36,192,130451,128,0,130500:0:0:0:0:
182,192,130451,128,0,130500:0:0:0:0:
329,192,130467,128,0,130532:0:0:0:0:
256,192,130467,1,0,0:0:0:0:
109,192,130467,1,0,0:0:0:0:
256,192,130597,128,0,130646:0:0:0:0:
402,192,130597,128,0,130646:0:0:0:0:
36,192,130597,128,0,130662:0:0:0:0:
329,192,130630,128,0,130825:0:0:0:0:
182,192,130630,128,0,130825:0:0:0:0:
109,192,130727,128,0,130792:0:0:0:0:
256,192,130841,128,0,130889:0:0:0:0:
402,192,130841,128,0,130889:0:0:0:0:
329,192,130857,1,0,0:0:0:0:
182,192,130857,1,0,0:0:0:0:
36,192,130857,128,0,130922:0:0:0:0:
256,192,130987,128,0,131036:0:0:0:0:
109,192,130987,128,0,131036:0:0:0:0:
475,192,130987,128,0,131052:0:0:0:0:
329,192,131019,128,0,131214:0:0:0:0:
182,192,131019,128,0,131214:0:0:0:0:
402,192,131117,128,0,131182:0:0:0:0:
256,192,131230,128,0,131279:0:0:0:0:
109,192,131230,128,0,131279:0:0:0:0:
329,192,131247,1,0,0:0:0:0:
182,192,131247,1,0,0:0:0:0:
475,192,131247,128,0,131312:0:0:0:0:
475,192,131376,128,0,131425:0:0:0:0:
329,192,131376,128,0,131425:0:0:0:0:
36,192,131376,128,0,131441:0:0:0:0:
402,192,131409,128,0,131604:0:0:0:0:
256,192,131409,128,0,131604:0:0:0:0:
109,192,131506,128,0,131571:0:0:0:0:
475,192,131620,128,0,131669:0:0:0:0:
329,192,131620,128,0,131669:0:0:0:0:
182,192,131636,128,0,131701:0:0:0:0:
402,192,131636,1,0,0:0:0:0:
256,192,131636,1,0,0:0:0:0:
36,192,131766,128,0,131831:0:0:0:0:
475,192,131766,128,0,131815:0:0:0:0:
329,192,131766,128,0,131815:0:0:0:0:
256,192,131799,128,0,131993:0:0:0:0:
402,192,131799,128,0,131993:0:0:0:0:
109,192,131896,128,0,131961:0:0:0:0:
475,192,132010,128,0,132058:0:0:0:0:
329,192,132010,128,0,132058:0:0:0:0:
182,192,132026,128,0,132091:0:0:0:0:
256,192,132026,1,0,0:0:0:0:
402,192,132026,1,0,0:0:0:0:
109,192,132156,128,0,132253:0:0:0:0:
36,192,132156,1,0,0:0:0:0:
475,192,132156,128,0,132253:0:0:0:0:
402,192,132156,1,0,0:0:0:0:
36,192,132286,128,0,132383:0:0:0:0:
402,192,132286,128,0,132383:0:0:0:0:
475,192,132286,1,0,0:0:0:0:
109,192,132286,1,0,0:0:0:0:
36,192,132415,1,0,0:0:0:0:
402,192,132415,1,0,0:0:0:0:
475,192,132415,128,0,132513:0:0:0:0:
109,192,132415,128,0,132513:0:0:0:0:
36,192,132545,128,0,132643:0:0:0:0:
402,192,132545,128,0,132643:0:0:0:0:
475,192,132545,1,0,0:0:0:0:
109,192,132545,1,0,0:0:0:0:
402,192,132675,1,0,0:0:0:0:
329,192,132675,128,0,132773:0:0:0:0:
109,192,132675,128,0,132773:0:0:0:0:
182,192,132675,1,0,0:0:0:0:
182,192,132805,128,0,132902:0:0:0:0:
329,192,132805,1,0,0:0:0:0:
256,192,132935,128,0,133260:0:0:0:0:
109,192,132935,128,0,133260:0:0:0:0:
182,192,132935,1,0,0:0:0:0:
36,192,132935,1,0,0:0:0:0:
329,192,133227,1,0,0:0:0:0:
402,192,133227,1,0,0:0:0:0:
475,192,133227,1,0,0:0:0:0:
109,192,133325,128,0,133649:0:0:0:0:
256,192,133325,128,0,133649:0:0:0:0:
182,192,133325,1,0,0:0:0:0:
36,192,133325,1,0,0:0:0:0:
256,192,133714,128,0,133779:0:0:0:0:
109,192,133714,128,0,133779:0:0:0:0:
329,192,133714,1,0,0:0:0:0:
402,192,133714,1,0,0:0:0:0:
475,192,133714,1,0,0:0:0:0:
182,192,133714,1,0,0:0:0:0:
36,192,133714,1,0,0:0:0:0:
256,192,133844,128,0,133909:0:0:0:0:
109,192,133844,128,0,133909:0:0:0:0:
109,192,133974,128,0,134039:0:0:0:0:
256,192,133974,128,0,134039:0:0:0:0:
36,192,133982,1,0,0:0:0:0:
182,192,133982,1,0,0:0:0:0:
109,192,134104,128,0,134169:0:0:0:0:
256,192,134104,128,0,134169:0:0:0:0:
402,192,134104,1,0,0:0:0:0:
329,192,134104,1,0,0:0:0:0:
475,192,134104,1,0,0:0:0:0:
256,192,134234,128,0,134299:0:0:0:0:
109,192,134234,128,0,134299:0:0:0:0:
256,192,134363,128,0,134428:0:0:0:0:
109,192,134363,128,0,134428:0:0:0:0:
256,192,134493,128,0,134526:0:0:0:0:
109,192,134493,128,0,134526:0:0:0:0:
475,192,134518,1,0,0:0:0:0:
329,192,134518,1,0,0:0:0:0:
182,192,134518,1,0,0:0:0:0:
36,192,134518,1,0,0:0:0:0:
402,192,134518,128,0,134542:0:0:0:0:
256,192,134883,128,0,134915:0:0:0:0:
402,192,134883,128,0,134915:0:0:0:0:
36,192,134907,1,0,0:0:0:0:
182,192,134907,1,0,0:0:0:0:
475,192,134907,1,0,0:0:0:0:
329,192,134907,1,0,0:0:0:0:
109,192,134907,128,0,134932:0:0:0:0:
109,192,135273,128,0,135305:0:0:0:0:
256,192,135273,128,0,135305:0:0:0:0:
182,192,135297,1,0,0:0:0:0:
402,192,135297,1,0,0:0:0:0:
36,192,135297,1,0,0:0:0:0:
475,192,135297,1,0,0:0:0:0:
329,192,135297,1,0,0:0:0:0:
256,192,135402,128,0,135435:0:0:0:0:
402,192,135402,128,0,135435:0:0:0:0:
329,192,135427,1,0,0:0:0:0:
475,192,135427,1,0,0:0:0:0:
182,192,135427,1,0,0:0:0:0:
36,192,135427,1,0,0:0:0:0:
109,192,135427,1,0,0:0:0:0:
109,192,135532,128,0,135565:0:0:0:0:
256,192,135532,128,0,135565:0:0:0:0:
182,192,135557,1,0,0:0:0:0:
36,192,135557,1,0,0:0:0:0:
329,192,135557,1,0,0:0:0:0:
402,192,135557,1,0,0:0:0:0:
475,192,135557,1,0,0:0:0:0:
256,192,135662,128,0,135695:0:0:0:0:
402,192,135662,128,0,135695:0:0:0:0:
329,192,135687,1,0,0:0:0:0:
109,192,135687,1,0,0:0:0:0:
182,192,135687,1,0,0:0:0:0:
475,192,135687,1,0,0:0:0:0:
36,192,135687,1,0,0:0:0:0:
256,192,135792,128,0,135825:0:0:0:0:
109,192,135792,128,0,135825:0:0:0:0:
402,192,135817,1,0,0:0:0:0:
475,192,135817,1,0,0:0:0:0:
329,192,135817,1,0,0:0:0:0:
182,192,135817,1,0,0:0:0:0:
36,192,135817,1,0,0:0:0:0:
402,192,135922,128,0,135954:0:0:0:0:
256,192,135922,128,0,135954:0:0:0:0:
475,192,135947,1,0,0:0:0:0:
36,192,135947,1,0,0:0:0:0:
182,192,135947,1,0,0:0:0:0:
329,192,135947,1,0,0:0:0:0:
109,192,135947,1,0,0:0:0:0:
402,192,136052,1,0,0:0:0:0:
109,192,136052,1,0,0:0:0:0:
36,192,136052,1,0,0:0:0:0:
329,192,136052,128,0,136117:0:0:0:0:
109,192,136182,1,0,0:0:0:0:
182,192,136182,1,0,0:0:0:0:
329,192,136182,1,0,0:0:0:0:
402,192,136182,128,0,136247:0:0:0:0:
182,192,136312,1,0,0:0:0:0:
256,192,136312,1,0,0:0:0:0:
402,192,136312,1,0,0:0:0:0:
475,192,136312,128,0,136376:0:0:0:0:
475,192,136441,1,0,0:0:0:0:
182,192,136441,1,0,0:0:0:0:
36,192,136441,1,0,0:0:0:0:
402,192,136441,128,0,136506:0:0:0:0:
109,192,136571,1,0,0:0:0:0:
256,192,136571,1,0,0:0:0:0:
402,192,136571,1,0,0:0:0:0:
329,192,136571,128,0,136636:0:0:0:0:
182,192,136701,1,0,0:0:0:0:
329,192,136701,1,0,0:0:0:0:
402,192,136701,1,0,0:0:0:0:
256,192,136701,128,0,136766:0:0:0:0:
109,192,136831,1,0,0:0:0:0:
402,192,136831,1,0,0:0:0:0:
475,192,136831,1,0,0:0:0:0:
182,192,136831,128,0,136896:0:0:0:0:
36,192,136961,1,0,0:0:0:0:
402,192,136961,1,0,0:0:0:0:
475,192,136961,1,0,0:0:0:0:
109,192,136961,128,0,137026:0:0:0:0:
329,192,137091,1,0,0:0:0:0:
402,192,137091,1,0,0:0:0:0:
109,192,137091,1,0,0:0:0:0:
182,192,137091,128,0,137156:0:0:0:0:
182,192,137221,1,0,0:0:0:0:
402,192,137221,1,0,0:0:0:0:
475,192,137221,1,0,0:0:0:0:
109,192,137221,128,0,137286:0:0:0:0:
402,192,137351,1,0,0:0:0:0:
329,192,137351,1,0,0:0:0:0:
109,192,137351,1,0,0:0:0:0:
182,192,137351,128,0,137415:0:0:0:0:
329,192,137480,1,0,0:0:0:0:
256,192,137480,1,0,0:0:0:0:
36,192,137480,1,0,0:0:0:0:
109,192,137480,128,0,137545:0:0:0:0:
109,192,137610,1,0,0:0:0:0:
329,192,137610,1,0,0:0:0:0:
475,192,137610,1,0,0:0:0:0:
36,192,137610,128,0,137675:0:0:0:0:
402,192,137740,1,0,0:0:0:0:
256,192,137740,1,0,0:0:0:0:
182,192,137740,1,0,0:0:0:0:
109,192,137740,128,0,137805:0:0:0:0:
329,192,137870,1,0,0:0:0:0:
256,192,137870,1,0,0:0:0:0:
109,192,137870,1,0,0:0:0:0:
182,192,137870,128,0,137935:0:0:0:0:
329,192,138000,1,0,0:0:0:0:
402,192,138000,1,0,0:0:0:0:
36,192,138000,1,0,0:0:0:0:
109,192,138000,128,0,138065:0:0:0:0:
402,192,138130,1,0,0:0:0:0:
475,192,138130,1,0,0:0:0:0:
109,192,138130,1,0,0:0:0:0:
36,192,138130,128,0,138195:0:0:0:0:
182,192,138260,1,0,0:0:0:0:
402,192,138260,1,0,0:0:0:0:
329,192,138260,1,0,0:0:0:0:
109,192,138260,128,0,138325:0:0:0:0:
109,192,138389,1,0,0:0:0:0:
329,192,138389,1,0,0:0:0:0:
402,192,138389,1,0,0:0:0:0:
475,192,138389,1,0,0:0:0:0:
36,192,138389,128,0,138454:0:0:0:0:
329,192,138519,1,0,0:0:0:0:
402,192,138519,1,0,0:0:0:0:
182,192,138519,1,0,0:0:0:0:
475,192,138519,1,0,0:0:0:0:
109,192,138519,128,0,138584:0:0:0:0:
402,192,138649,1,0,0:0:0:0:
475,192,138649,1,0,0:0:0:0:
256,192,138649,1,0,0:0:0:0:
329,192,138649,1,0,0:0:0:0:
182,192,138649,128,0,138714:0:0:0:0:
402,192,138779,1,0,0:0:0:0:
475,192,138779,1,0,0:0:0:0:
329,192,138779,1,0,0:0:0:0:
182,192,138779,128,0,138844:0:0:0:0:
36,192,138779,128,0,138844:0:0:0:0:
109,192,138909,128,0,138974:0:0:0:0:
256,192,138909,128,0,138974:0:0:0:0:
182,192,139039,128,0,139104:0:0:0:0:
329,192,139039,128,0,139104:0:0:0:0:
475,192,139169,1,0,0:0:0:0:
182,192,139169,1,0,0:0:0:0:
109,192,139169,1,0,0:0:0:0:
36,192,139169,1,0,0:0:0:0:
402,192,139234,1,0,0:0:0:0:
182,192,139299,1,0,0:0:0:0:
109,192,139299,1,0,0:0:0:0:
329,192,139299,1,0,0:0:0:0:
36,192,139299,1,0,0:0:0:0:
256,192,139363,1,0,0:0:0:0:
109,192,139428,1,0,0:0:0:0:
36,192,139428,1,0,0:0:0:0:
329,192,139428,1,0,0:0:0:0:
182,192,139428,1,0,0:0:0:0:
402,192,139493,1,0,0:0:0:0:
329,192,139558,1,0,0:0:0:0:
475,192,139558,1,0,0:0:0:0:
109,192,139558,1,0,0:0:0:0:
36,192,139558,1,0,0:0:0:0:
182,192,139558,1,0,0:0:0:0:
256,192,139623,1,0,0:0:0:0:
402,192,139623,1,0,0:0:0:0:
329,192,139688,1,0,0:0:0:0:
182,192,139688,1,0,0:0:0:0:
256,192,139753,1,0,0:0:0:0:
109,192,139753,1,0,0:0:0:0:
182,192,139818,1,0,0:0:0:0:
36,192,139818,1,0,0:0:0:0:
109,192,139883,1,0,0:0:0:0:
256,192,139883,1,0,0:0:0:0:
182,192,139948,1,0,0:0:0:0:
329,192,139948,1,0,0:0:0:0:
402,192,139948,1,0,0:0:0:0:
475,192,139948,1,0,0:0:0:0:
36,192,139948,1,0,0:0:0:0:
109,192,140013,1,0,0:0:0:0:
182,192,140078,1,0,0:0:0:0:
329,192,140078,1,0,0:0:0:0:
402,192,140078,1,0,0:0:0:0:
475,192,140078,1,0,0:0:0:0:
256,192,140143,1,0,0:0:0:0:
182,192,140208,1,0,0:0:0:0:
475,192,140208,1,0,0:0:0:0:
402,192,140208,1,0,0:0:0:0:
329,192,140208,1,0,0:0:0:0:
109,192,140273,1,0,0:0:0:0:
36,192,140338,1,0,0:0:0:0:
329,192,140338,1,0,0:0:0:0:
402,192,140338,1,0,0:0:0:0:
475,192,140338,1,0,0:0:0:0:
256,192,140435,1,0,0:0:0:0:
329,192,140467,1,0,0:0:0:0:
402,192,140467,1,0,0:0:0:0:
475,192,140467,1,0,0:0:0:0:
182,192,140467,1,0,0:0:0:0:
36,192,140467,1,0,0:0:0:0:
109,192,140467,1,0,0:0:0:0:
256,192,140532,1,0,0:0:0:0:
109,192,140597,1,0,0:0:0:0:
182,192,140597,1,0,0:0:0:0:
36,192,140597,1,0,0:0:0:0:
402,192,140597,1,0,0:0:0:0:
329,192,140597,1,0,0:0:0:0:
475,192,140597,1,0,0:0:0:0:
256,192,140630,1,0,0:0:0:0:
182,192,140727,1,0,0:0:0:0:
109,192,140727,1,0,0:0:0:0:
36,192,140727,1,0,0:0:0:0:
475,192,140727,1,0,0:0:0:0:
329,192,140727,1,0,0:0:0:0:
402,192,140727,1,0,0:0:0:0:
256,192,140776,1,0,0:0:0:0:
182,192,140825,1,0,0:0:0:0:
329,192,140825,1,0,0:0:0:0:
109,192,140873,1,0,0:0:0:0:
402,192,140873,1,0,0:0:0:0:
36,192,140922,1,0,0:0:0:0:
475,192,140922,1,0,0:0:0:0:
109,192,140971,1,0,0:0:0:0:
402,192,140971,1,0,0:0:0:0:
182,192,141019,1,0,0:0:0:0:
329,192,141019,1,0,0:0:0:0:
256,192,141068,1,0,0:0:0:0:
182,192,141117,1,0,0:0:0:0:
329,192,141117,1,0,0:0:0:0:
402,192,141165,1,0,0:0:0:0:
109,192,141165,1,0,0:0:0:0:
36,192,141214,1,0,0:0:0:0:
475,192,141214,1,0,0:0:0:0:
109,192,141263,1,0,0:0:0:0:
402,192,141263,1,0,0:0:0:0:
182,192,141312,1,0,0:0:0:0:
329,192,141312,1,0,0:0:0:0:
256,192,141360,1,0,0:0:0:0:
182,192,141409,1,0,0:0:0:0:
329,192,141409,1,0,0:0:0:0:
109,192,141458,1,0,0:0:0:0:
402,192,141458,1,0,0:0:0:0:
36,192,141506,1,0,0:0:0:0:
475,192,141506,1,0,0:0:0:0:
109,192,141555,1,0,0:0:0:0:
402,192,141555,1,0,0:0:0:0:
182,192,141604,1,0,0:0:0:0:
329,192,141604,1,0,0:0:0:0:
256,192,141652,1,0,0:0:0:0:
36,192,141701,1,0,0:0:0:0:
475,192,141701,1,0,0:0:0:0:
109,192,141734,1,0,0:0:0:0:
402,192,141734,1,0,0:0:0:0:
182,192,141766,1,0,0:0:0:0:
329,192,141766,1,0,0:0:0:0:
256,192,141799,1,0,0:0:0:0:
182,192,141831,1,0,0:0:0:0:
329,192,141831,1,0,0:0:0:0:
109,192,141863,1,0,0:0:0:0:
402,192,141863,1,0,0:0:0:0:
36,192,141896,1,0,0:0:0:0:
475,192,141896,1,0,0:0:0:0:
109,192,141928,1,0,0:0:0:0:
402,192,141928,1,0,0:0:0:0:
182,192,141961,1,0,0:0:0:0:
329,192,141961,1,0,0:0:0:0:
256,192,141993,1,0,0:0:0:0:
36,192,141993,1,0,0:0:0:0:
475,192,141993,1,0,0:0:0:0:
109,192,142026,1,0,0:0:0:0:
402,192,142026,1,0,0:0:0:0:
182,192,142058,1,0,0:0:0:0:
329,192,142058,1,0,0:0:0:0:
256,192,142091,1,0,0:0:0:0:
182,192,142123,1,0,0:0:0:0:
329,192,142123,1,0,0:0:0:0:
109,192,142156,1,0,0:0:0:0:
402,192,142156,1,0,0:0:0:0:
475,192,142188,1,0,0:0:0:0:
36,192,142188,1,0,0:0:0:0:
402,192,142221,1,0,0:0:0:0:
109,192,142221,1,0,0:0:0:0:
182,192,142253,1,0,0:0:0:0:
329,192,142253,1,0,0:0:0:0:
256,192,142286,1,0,0:0:0:0:
256,192,142415,1,0,0:0:0:0:
256,192,142545,1,0,0:0:0:0:
256,192,142675,1,0,0:0:0:0:
256,192,142805,1,0,0:0:0:0:
256,192,142935,1,0,0:0:0:0:
256,192,143065,1,0,0:0:0:0:
256,192,143195,1,0,0:0:0:0:
256,192,143324,1,0,0:0:0:0:
256,192,143454,1,0,0:0:0:0:
256,192,143584,1,0,0:0:0:0:
256,192,143714,1,0,0:0:0:0:
256,192,143844,1,0,0:0:0:0:
256,192,143974,1,0,0:0:0:0:
256,192,144104,1,0,0:0:0:0:
256,192,144234,1,0,0:0:0:0:
256,192,144363,1,0,0:0:0:0:
256,192,144493,1,0,0:0:0:0:
256,192,144623,1,0,0:0:0:0:
256,192,144753,1,0,0:0:0:0:
256,192,144883,1,0,0:0:0:0:
256,192,145013,1,0,0:0:0:0:
256,192,145143,1,0,0:0:0:0:
256,192,145273,1,0,0:0:0:0:
36,192,145273,1,0,0:0:0:0:
182,192,145273,1,0,0:0:0:0:
109,192,145273,1,0,0:0:0:0:
402,192,145273,1,0,0:0:0:0:
329,192,145273,1,0,0:0:0:0:
475,192,145273,1,0,0:0:0:0:
256,192,145402,1,0,0:0:0:0:
475,192,145402,1,0,0:0:0:0:
329,192,145402,1,0,0:0:0:0:
402,192,145402,1,0,0:0:0:0:
182,192,145402,1,0,0:0:0:0:
109,192,145402,1,0,0:0:0:0:
36,192,145402,1,0,0:0:0:0:
256,192,145527,1,0,0:0:0:0:
256,192,145653,1,0,0:0:0:0:
256,192,145779,1,0,0:0:0:0:
256,192,145905,1,0,0:0:0:0:
256,192,146030,1,0,0:0:0:0:
256,192,146156,1,0,0:0:0:0:
256,192,146282,1,0,0:0:0:0:
256,192,146408,1,0,0:0:0:0:
256,192,146534,1,0,0:0:0:0:
256,192,146659,1,0,0:0:0:0:
256,192,146785,1,0,0:0:0:0:
256,192,146911,1,0,0:0:0:0:
256,192,147037,1,0,0:0:0:0:
256,192,147163,1,0,0:0:0:0:
256,192,147288,1,0,0:0:0:0:
256,192,147414,1,0,0:0:0:0:
256,192,147540,1,0,0:0:0:0:
256,192,147666,1,0,0:0:0:0:
256,192,147791,1,0,0:0:0:0:
256,192,147917,1,0,0:0:0:0:
256,192,148043,1,0,0:0:0:0:
256,192,148169,1,0,0:0:0:0:
256,192,148295,1,0,0:0:0:0:
182,192,148295,1,0,0:0:0:0:
109,192,148295,1,0,0:0:0:0:
36,192,148295,1,0,0:0:0:0:
329,192,148295,1,0,0:0:0:0:
475,192,148295,1,0,0:0:0:0:
402,192,148295,1,0,0:0:0:0:
256,192,148420,1,0,0:0:0:0:
36,192,148420,1,0,0:0:0:0:
109,192,148420,1,0,0:0:0:0:
182,192,148420,1,0,0:0:0:0:
329,192,148420,1,0,0:0:0:0:
402,192,148420,1,0,0:0:0:0:
475,192,148420,1,0,0:0:0:0:
256,192,148541,1,0,0:0:0:0:
256,192,148663,1,0,0:0:0:0:
256,192,148785,1,0,0:0:0:0:
256,192,148907,1,0,0:0:0:0:
256,192,149029,1,0,0:0:0:0:
256,192,149151,1,0,0:0:0:0:
256,192,149273,1,0,0:0:0:0:
256,192,149395,1,0,0:0:0:0:
256,192,149517,1,0,0:0:0:0:
256,192,149639,1,0,0:0:0:0:
256,192,149761,1,0,0:0:0:0:
256,192,149883,1,0,0:0:0:0:
256,192,150005,1,0,0:0:0:0:
256,192,150127,1,0,0:0:0:0:
256,192,150249,1,0,0:0:0:0:
256,192,150371,1,0,0:0:0:0:
256,192,150493,1,0,0:0:0:0:
256,192,150615,1,0,0:0:0:0:
256,192,150737,1,0,0:0:0:0:
256,192,150859,1,0,0:0:0:0:
256,192,150980,1,0,0:0:0:0:
256,192,151102,1,0,0:0:0:0:
36,192,151224,1,0,0:0:0:0:
109,192,151224,1,0,0:0:0:0:
256,192,151224,1,0,0:0:0:0:
182,192,151224,1,0,0:0:0:0:
329,192,151224,1,0,0:0:0:0:
402,192,151224,1,0,0:0:0:0:
475,192,151224,1,0,0:0:0:0:
256,192,151346,1,0,0:0:0:0:
182,192,151346,1,0,0:0:0:0:
109,192,151346,1,0,0:0:0:0:
36,192,151346,1,0,0:0:0:0:
475,192,151346,1,0,0:0:0:0:
402,192,151346,1,0,0:0:0:0:
329,192,151346,1,0,0:0:0:0:
256,192,151464,1,0,0:0:0:0:
256,192,151582,1,0,0:0:0:0:
256,192,151701,1,0,0:0:0:0:
256,192,151819,1,0,0:0:0:0:
256,192,151937,1,0,0:0:0:0:
256,192,152056,1,0,0:0:0:0:
256,192,152174,1,0,0:0:0:0:
256,192,152292,1,0,0:0:0:0:
256,192,152411,1,0,0:0:0:0:
256,192,152529,1,0,0:0:0:0:
256,192,152647,1,0,0:0:0:0:
256,192,152766,1,0,0:0:0:0:
256,192,152884,1,0,0:0:0:0:
256,192,153002,1,0,0:0:0:0:
256,192,153121,1,0,0:0:0:0:
256,192,153239,1,0,0:0:0:0:
256,192,153357,1,0,0:0:0:0:
256,192,153476,1,0,0:0:0:0:
256,192,153594,1,0,0:0:0:0:
256,192,153712,1,0,0:0:0:0:
256,192,153831,1,0,0:0:0:0:
256,192,153949,1,0,0:0:0:0:
256,192,154067,1,0,0:0:0:0:
36,192,154067,1,0,0:0:0:0:
109,192,154067,1,0,0:0:0:0:
182,192,154067,1,0,0:0:0:0:
329,192,154067,1,0,0:0:0:0:
475,192,154067,1,0,0:0:0:0:
402,192,154067,1,0,0:0:0:0:
182,192,154186,1,0,0:0:0:0:
109,192,154186,1,0,0:0:0:0:
36,192,154186,1,0,0:0:0:0:
256,192,154186,1,0,0:0:0:0:
329,192,154186,1,0,0:0:0:0:
402,192,154186,1,0,0:0:0:0:
475,192,154186,1,0,0:0:0:0:
256,192,154300,1,0,0:0:0:0:
256,192,154415,1,0,0:0:0:0:
256,192,154530,1,0,0:0:0:0:
256,192,154645,1,0,0:0:0:0:
256,192,154760,1,0,0:0:0:0:
256,192,154875,1,0,0:0:0:0:
256,192,154990,1,0,0:0:0:0:
256,192,155105,1,0,0:0:0:0:
256,192,155220,1,0,0:0:0:0:
256,192,155335,1,0,0:0:0:0:
256,192,155450,1,0,0:0:0:0:
36,192,155565,1,0,0:0:0:0:
109,192,155565,1,0,0:0:0:0:
182,192,155565,1,0,0:0:0:0:
256,192,155565,1,0,0:0:0:0:
329,192,155565,1,0,0:0:0:0:
475,192,155565,1,0,0:0:0:0:
402,192,155565,1,0,0:0:0:0:
256,192,155673,1,0,0:0:0:0:
256,192,155782,1,0,0:0:0:0:
256,192,155891,1,0,0:0:0:0:
256,192,155999,1,0,0:0:0:0:
256,192,156108,1,0,0:0:0:0:
256,192,156217,1,0,0:0:0:0:
256,192,156325,1,0,0:0:0:0:
256,192,156434,1,0,0:0:0:0:
256,192,156543,1,0,0:0:0:0:
256,192,156651,1,0,0:0:0:0:
256,192,156760,1,0,0:0:0:0:
182,192,156869,1,0,0:0:0:0:
109,192,156869,1,0,0:0:0:0:
36,192,156869,1,0,0:0:0:0:
256,192,156869,1,0,0:0:0:0:
329,192,156869,1,0,0:0:0:0:
475,192,156869,1,0,0:0:0:0:
402,192,156869,1,0,0:0:0:0:
256,192,156972,1,0,0:0:0:0:
256,192,157075,1,0,0:0:0:0:
256,192,157178,1,0,0:0:0:0:
256,192,157281,1,0,0:0:0:0:
256,192,157384,1,0,0:0:0:0:
256,192,157487,1,0,0:0:0:0:
256,192,157590,1,0,0:0:0:0:
256,192,157693,1,0,0:0:0:0:
256,192,157796,1,0,0:0:0:0:
256,192,157899,1,0,0:0:0:0:
256,192,158003,1,0,0:0:0:0:
256,192,158106,1,0,0:0:0:0:
182,192,158106,1,0,0:0:0:0:
109,192,158106,1,0,0:0:0:0:
36,192,158106,1,0,0:0:0:0:
329,192,158106,1,0,0:0:0:0:
402,192,158106,1,0,0:0:0:0:
475,192,158106,1,0,0:0:0:0:
256,192,158204,1,0,0:0:0:0:
256,192,158302,1,0,0:0:0:0:
256,192,158400,1,0,0:0:0:0:
256,192,158498,1,0,0:0:0:0:
256,192,158596,1,0,0:0:0:0:
256,192,158694,1,0,0:0:0:0:
256,192,158792,1,0,0:0:0:0:
256,192,158890,1,0,0:0:0:0:
256,192,158988,1,0,0:0:0:0:
256,192,159086,1,0,0:0:0:0:
256,192,159184,1,0,0:0:0:0:
256,192,159282,1,0,0:0:0:0:
182,192,159282,1,0,0:0:0:0:
109,192,159282,1,0,0:0:0:0:
36,192,159282,1,0,0:0:0:0:
329,192,159282,1,0,0:0:0:0:
402,192,159282,1,0,0:0:0:0:
475,192,159282,1,0,0:0:0:0:
256,192,159375,1,0,0:0:0:0:
256,192,159469,1,0,0:0:0:0:
256,192,159563,1,0,0:0:0:0:
256,192,159657,1,0,0:0:0:0:
256,192,159751,1,0,0:0:0:0:
402,192,159845,1,0,0:0:0:0:
329,192,159845,1,0,0:0:0:0:
182,192,159845,1,0,0:0:0:0:
109,192,159845,1,0,0:0:0:0:
36,192,159845,1,0,0:0:0:0:
256,192,159845,1,0,0:0:0:0:
475,192,159845,1,0,0:0:0:0:
256,192,159939,1,0,0:0:0:0:
256,192,160033,1,0,0:0:0:0:
256,192,160127,1,0,0:0:0:0:
256,192,160220,1,0,0:0:0:0:
256,192,160314,1,0,0:0:0:0:
329,192,160408,1,0,0:0:0:0:
402,192,160408,1,0,0:0:0:0:
475,192,160408,1,0,0:0:0:0:
182,192,160408,1,0,0:0:0:0:
109,192,160408,1,0,0:0:0:0:
36,192,160408,1,0,0:0:0:0:
256,192,160498,1,0,0:0:0:0:
256,192,160588,1,0,0:0:0:0:
256,192,160678,1,0,0:0:0:0:
256,192,160768,1,0,0:0:0:0:
256,192,160858,1,0,0:0:0:0:
182,192,160948,1,0,0:0:0:0:
109,192,160948,1,0,0:0:0:0:
36,192,160948,1,0,0:0:0:0:
402,192,160948,1,0,0:0:0:0:
475,192,160948,1,0,0:0:0:0:
329,192,160948,1,0,0:0:0:0:
256,192,161038,1,0,0:0:0:0:
256,192,161128,1,0,0:0:0:0:
256,192,161218,1,0,0:0:0:0:
256,192,161308,1,0,0:0:0:0:
256,192,161398,1,0,0:0:0:0:
182,192,161489,1,0,0:0:0:0:
109,192,161489,1,0,0:0:0:0:
36,192,161489,1,0,0:0:0:0:
329,192,161489,1,0,0:0:0:0:
402,192,161489,1,0,0:0:0:0:
475,192,161489,1,0,0:0:0:0:
256,192,161575,1,0,0:0:0:0:
256,192,161662,1,0,0:0:0:0:
182,192,161748,1,0,0:0:0:0:
109,192,161748,1,0,0:0:0:0:
36,192,161748,1,0,0:0:0:0:
329,192,161748,1,0,0:0:0:0:
402,192,161748,1,0,0:0:0:0:
475,192,161748,1,0,0:0:0:0:
256,192,161835,1,0,0:0:0:0:
256,192,161921,1,0,0:0:0:0:
182,192,162008,1,0,0:0:0:0:
109,192,162008,1,0,0:0:0:0:
36,192,162008,1,0,0:0:0:0:
402,192,162008,1,0,0:0:0:0:
329,192,162008,1,0,0:0:0:0:
475,192,162008,1,0,0:0:0:0:
256,192,162051,1,0,0:0:0:0:
256,192,162138,1,0,0:0:0:0:
256,192,162224,1,0,0:0:0:0:
182,192,162268,1,0,0:0:0:0:
109,192,162268,1,0,0:0:0:0:
36,192,162268,1,0,0:0:0:0:
402,192,162268,1,0,0:0:0:0:
329,192,162268,1,0,0:0:0:0:
475,192,162268,1,0,0:0:0:0:
256,192,162311,1,0,0:0:0:0:
256,192,162398,1,0,0:0:0:0:
256,192,162484,1,0,0:0:0:0:
36,192,162527,1,0,0:0:0:0:
182,192,162614,1,0,0:0:0:0:
329,192,162701,1,0,0:0:0:0:
475,192,162787,1,0,0:0:0:0:
109,192,162787,1,0,0:0:0:0:
256,192,162874,1,0,0:0:0:0:
402,192,162960,1,0,0:0:0:0:
329,192,163047,1,0,0:0:0:0:
475,192,163134,1,0,0:0:0:0:
256,192,163220,1,0,0:0:0:0:
402,192,163307,1,0,0:0:0:0:
182,192,163393,1,0,0:0:0:0:
329,192,163480,1,0,0:0:0:0:
109,192,163566,1,0,0:0:0:0:
182,192,163631,1,0,0:0:0:0:
256,192,163653,1,0,0:0:0:0:
329,192,163696,1,0,0:0:0:0:
402,192,163740,1,0,0:0:0:0:
36,192,163826,1,0,0:0:0:0:
475,192,163826,1,0,0:0:0:0:
109,192,163891,1,0,0:0:0:0:
182,192,163913,1,0,0:0:0:0:
256,192,163956,1,0,0:0:0:0:
329,192,163999,1,0,0:0:0:0:
402,192,164021,1,0,0:0:0:0:
475,192,164086,1,0,0:0:0:0:
36,192,164086,1,0,0:0:0:0:
109,192,164086,1,0,0:0:0:0:
182,192,164086,1,0,0:0:0:0:
329,192,164151,1,0,0:0:0:0:
402,192,164151,1,0,0:0:0:0:
475,192,164151,1,0,0:0:0:0:
182,192,164216,1,0,0:0:0:0:
109,192,164216,1,0,0:0:0:0:
36,192,164216,1,0,0:0:0:0:
329,192,164281,1,0,0:0:0:0:
402,192,164281,1,0,0:0:0:0:
475,192,164281,1,0,0:0:0:0:
182,192,164346,1,0,0:0:0:0:
109,192,164346,1,0,0:0:0:0:
36,192,164346,1,0,0:0:0:0:
475,192,164346,1,0,0:0:0:0:
402,192,164411,1,0,0:0:0:0:
329,192,164476,1,0,0:0:0:0:
256,192,164540,1,0,0:0:0:0:
36,192,164605,1,0,0:0:0:0:
475,192,164605,128,0,165190:0:0:0:0:
109,192,164605,128,0,164670:0:0:0:0:
182,192,164605,128,0,164670:0:0:0:0:
402,192,164670,1,0,0:0:0:0:
329,192,164670,128,0,164735:0:0:0:0:
36,192,164735,1,0,0:0:0:0:
109,192,164735,128,0,164800:0:0:0:0:
182,192,164735,128,0,164800:0:0:0:0:
402,192,164800,1,0,0:0:0:0:
329,192,164800,128,0,164865:0:0:0:0:
256,192,164865,1,0,0:0:0:0:
182,192,164865,128,0,164930:0:0:0:0:
109,192,164865,128,0,164930:0:0:0:0:
329,192,164930,1,0,0:0:0:0:
402,192,164930,128,0,164995:0:0:0:0:
36,192,164995,1,0,0:0:0:0:
109,192,164995,128,0,165060:0:0:0:0:
182,192,164995,128,0,165060:0:0:0:0:
329,192,165060,1,0,0:0:0:0:
402,192,165060,128,0,165125:0:0:0:0:
36,192,165125,128,0,165255:0:0:0:0:
109,192,165125,128,0,165190:0:0:0:0:
182,192,165125,128,0,165190:0:0:0:0:
256,192,165190,128,0,165255:0:0:0:0:
329,192,165255,128,0,165320:0:0:0:0:
402,192,165255,128,0,165320:0:0:0:0:
475,192,165255,128,0,165385:0:0:0:0:
182,192,165320,128,0,165385:0:0:0:0:
109,192,165320,128,0,165385:0:0:0:0:
256,192,165385,128,0,165644:0:0:0:0:
329,192,165385,128,0,165450:0:0:0:0:
402,192,165385,128,0,165450:0:0:0:0:
109,192,165450,128,0,165514:0:0:0:0:
36,192,165450,128,0,165514:0:0:0:0:
329,192,165514,128,0,165579:0:0:0:0:
402,192,165514,128,0,165579:0:0:0:0:
475,192,165514,128,0,165579:0:0:0:0:
182,192,165579,128,0,165644:0:0:0:0:
109,192,165579,128,0,165644:0:0:0:0:
475,192,165644,1,0,0:0:0:0:
36,192,165644,128,0,166229:0:0:0:0:
402,192,165644,128,0,165709:0:0:0:0:
329,192,165644,128,0,165709:0:0:0:0:
109,192,165709,1,0,0:0:0:0:
182,192,165709,128,0,165774:0:0:0:0:
475,192,165774,1,0,0:0:0:0:
402,192,165774,128,0,165839:0:0:0:0:
329,192,165774,128,0,165839:0:0:0:0:
109,192,165839,1,0,0:0:0:0:
182,192,165839,128,0,165904:0:0:0:0:
256,192,165904,1,0,0:0:0:0:
329,192,165904,128,0,165969:0:0:0:0:
402,192,165904,128,0,165969:0:0:0:0:
182,192,165969,1,0,0:0:0:0:
109,192,165969,128,0,166034:0:0:0:0:
475,192,166034,1,0,0:0:0:0:
402,192,166034,128,0,166099:0:0:0:0:
329,192,166034,128,0,166099:0:0:0:0:
256,192,166034,128,0,166164:0:0:0:0:
182,192,166099,1,0,0:0:0:0:
109,192,166099,128,0,166164:0:0:0:0:
475,192,166164,128,0,166294:0:0:0:0:
402,192,166164,128,0,166229:0:0:0:0:
329,192,166164,128,0,166229:0:0:0:0:
256,192,166229,128,0,166294:0:0:0:0:
182,192,166294,128,0,166359:0:0:0:0:
109,192,166294,128,0,166359:0:0:0:0:
36,192,166294,128,0,166424:0:0:0:0:
329,192,166359,128,0,166424:0:0:0:0:
402,192,166359,128,0,166424:0:0:0:0:
256,192,166424,128,0,166553:0:0:0:0:
182,192,166424,128,0,166489:0:0:0:0:
109,192,166424,128,0,166489:0:0:0:0:
402,192,166489,128,0,166553:0:0:0:0:
475,192,166489,128,0,166553:0:0:0:0:
109,192,166553,128,0,166618:0:0:0:0:
36,192,166553,128,0,166618:0:0:0:0:
182,192,166553,128,0,166618:0:0:0:0:
329,192,166618,128,0,166683:0:0:0:0:
402,192,166618,128,0,166683:0:0:0:0:
36,192,166683,128,0,166705:0:0:0:0:
109,192,166683,128,0,166727:0:0:0:0:
182,192,166683,128,0,166770:0:0:0:0:
475,192,166683,128,0,166878:0:0:0:0:
256,192,166683,1,0,0:0:0:0:
329,192,166748,1,0,0:0:0:0:
182,192,166813,128,0,166835:0:0:0:0:
109,192,166813,128,0,166856:0:0:0:0:
36,192,166813,128,0,166900:0:0:0:0:
402,192,166813,1,0,0:0:0:0:
329,192,166878,1,0,0:0:0:0:
36,192,166943,128,0,166965:0:0:0:0:
109,192,166943,128,0,166986:0:0:0:0:
182,192,166943,128,0,167030:0:0:0:0:
475,192,166943,1,0,0:0:0:0:
256,192,166943,128,0,167138:0:0:0:0:
402,192,167008,1,0,0:0:0:0:
109,192,167073,128,0,167116:0:0:0:0:
36,192,167073,128,0,167159:0:0:0:0:
182,192,167073,128,0,167095:0:0:0:0:
329,192,167073,1,0,0:0:0:0:
402,192,167138,1,0,0:0:0:0:
36,192,167203,128,0,167224:0:0:0:0:
256,192,167203,1,0,0:0:0:0:
109,192,167203,128,0,167246:0:0:0:0:
475,192,167203,128,0,167398:0:0:0:0:
182,192,167203,128,0,167289:0:0:0:0:
329,192,167268,1,0,0:0:0:0:
182,192,167333,128,0,167354:0:0:0:0:
36,192,167333,128,0,167419:0:0:0:0:
109,192,167333,128,0,167376:0:0:0:0:
402,192,167333,1,0,0:0:0:0:
329,192,167398,1,0,0:0:0:0:
475,192,167463,1,0,0:0:0:0:
182,192,167463,128,0,167549:0:0:0:0:
256,192,167463,128,0,167657:0:0:0:0:
109,192,167463,128,0,167506:0:0:0:0:
36,192,167463,128,0,167484:0:0:0:0:
402,192,167527,1,0,0:0:0:0:
36,192,167592,128,0,167679:0:0:0:0:
109,192,167592,128,0,167636:0:0:0:0:
182,192,167592,128,0,167614:0:0:0:0:
329,192,167592,1,0,0:0:0:0:
402,192,167657,1,0,0:0:0:0:
36,192,167722,128,0,167917:0:0:0:0:
256,192,167722,1,0,0:0:0:0:
329,192,167722,128,0,167809:0:0:0:0:
475,192,167722,128,0,167744:0:0:0:0:
402,192,167722,128,0,167766:0:0:0:0:
182,192,167787,1,0,0:0:0:0:
475,192,167852,128,0,167939:0:0:0:0:
109,192,167852,1,0,0:0:0:0:
329,192,167852,128,0,167874:0:0:0:0:
402,192,167852,128,0,167895:0:0:0:0:
182,192,167917,1,0,0:0:0:0:
36,192,167982,1,0,0:0:0:0:
256,192,167982,128,0,168177:0:0:0:0:
329,192,167982,128,0,168069:0:0:0:0:
475,192,167982,128,0,168004:0:0:0:0:
402,192,167982,128,0,168025:0:0:0:0:
109,192,168047,1,0,0:0:0:0:
329,192,168112,128,0,168134:0:0:0:0:
182,192,168112,1,0,0:0:0:0:
402,192,168112,128,0,168155:0:0:0:0:
475,192,168112,128,0,168198:0:0:0:0:
109,192,168177,1,0,0:0:0:0:
36,192,168242,128,0,168437:0:0:0:0:
329,192,168242,128,0,168328:0:0:0:0:
402,192,168242,128,0,168285:0:0:0:0:
475,192,168242,128,0,168263:0:0:0:0:
256,192,168242,1,0,0:0:0:0:
182,192,168307,1,0,0:0:0:0:
402,192,168372,128,0,168415:0:0:0:0:
109,192,168372,1,0,0:0:0:0:
329,192,168372,128,0,168393:0:0:0:0:
475,192,168372,128,0,168458:0:0:0:0:
182,192,168437,1,0,0:0:0:0:
402,192,168501,128,0,168545:0:0:0:0:
475,192,168501,128,0,168523:0:0:0:0:
256,192,168501,128,0,168696:0:0:0:0:
36,192,168501,1,0,0:0:0:0:
329,192,168501,128,0,168588:0:0:0:0:
109,192,168566,1,0,0:0:0:0:
329,192,168631,128,0,168653:0:0:0:0:
182,192,168631,1,0,0:0:0:0:
475,192,168631,128,0,168718:0:0:0:0:
402,192,168631,128,0,168675:0:0:0:0:
109,192,168696,1,0,0:0:0:0:
256,192,168761,1,0,0:0:0:0:
36,192,168761,128,0,168956:0:0:0:0:
109,192,168826,128,0,169021:0:0:0:0:
329,192,168826,1,0,0:0:0:0:
402,192,168891,1,0,0:0:0:0:
182,192,168891,128,0,169086:0:0:0:0:
475,192,168956,1,0,0:0:0:0:
256,192,168956,128,0,169151:0:0:0:0:
475,192,169021,128,0,169216:0:0:0:0:
36,192,169021,1,0,0:0:0:0:
402,192,169021,1,0,0:0:0:0:
402,192,169086,128,0,169281:0:0:0:0:
109,192,169086,1,0,0:0:0:0:
329,192,169086,1,0,0:0:0:0:
329,192,169151,128,0,169346:0:0:0:0:
182,192,169151,1,0,0:0:0:0:
256,192,169216,128,0,169411:0:0:0:0:
109,192,169216,1,0,0:0:0:0:
36,192,169281,128,0,169476:0:0:0:0:
475,192,169281,1,0,0:0:0:0:
109,192,169346,128,0,169540:0:0:0:0:
402,192,169346,1,0,0:0:0:0:
182,192,169411,128,0,169605:0:0:0:0:
329,192,169411,1,0,0:0:0:0:
256,192,169476,128,0,169670:0:0:0:0:
402,192,169476,1,0,0:0:0:0:
36,192,169540,128,0,169605:0:0:0:0:
475,192,169540,1,0,0:0:0:0:
109,192,169605,128,0,169670:0:0:0:0:
402,192,169605,1,0,0:0:0:0:
182,192,169670,128,0,169735:0:0:0:0:
329,192,169670,1,0,0:0:0:0:
256,192,169735,128,0,169800:0:0:0:0:
402,192,169735,1,0,0:0:0:0:
329,192,169800,1,0,0:0:0:0:
475,192,169800,128,0,169995:0:0:0:0:
36,192,169800,1,0,0:0:0:0:
109,192,169800,1,0,0:0:0:0:
182,192,169800,1,0,0:0:0:0:
402,192,169865,128,0,170060:0:0:0:0:
256,192,169865,1,0,0:0:0:0:
182,192,169930,1,0,0:0:0:0:
329,192,169930,128,0,170125:0:0:0:0:
109,192,169995,1,0,0:0:0:0:
256,192,169995,128,0,170190:0:0:0:0:
36,192,170060,128,0,170255:0:0:0:0:
475,192,170060,1,0,0:0:0:0:
109,192,170125,128,0,170320:0:0:0:0:
402,192,170125,1,0,0:0:0:0:
182,192,170190,128,0,170385:0:0:0:0:
329,192,170190,1,0,0:0:0:0:
256,192,170255,128,0,170450:0:0:0:0:
402,192,170255,1,0,0:0:0:0:
475,192,170320,128,0,170514:0:0:0:0:
36,192,170320,1,0,0:0:0:0:
402,192,170385,128,0,170579:0:0:0:0:
109,192,170385,1,0,0:0:0:0:
329,192,170450,128,0,170644:0:0:0:0:
182,192,170450,1,0,0:0:0:0:
256,192,170514,128,0,170709:0:0:0:0:
109,192,170514,1,0,0:0:0:0:
36,192,170579,1,0,0:0:0:0:
475,192,170579,1,0,0:0:0:0:
109,192,170644,1,0,0:0:0:0:
402,192,170644,1,0,0:0:0:0:
182,192,170709,1,0,0:0:0:0:
329,192,170709,1,0,0:0:0:0:
109,192,170774,1,0,0:0:0:0:
256,192,170774,1,0,0:0:0:0:
36,192,170839,1,0,0:0:0:0:
402,192,170839,1,0,0:0:0:0:
475,192,170839,1,0,0:0:0:0:
182,192,170839,1,0,0:0:0:0:
256,192,170969,1,0,0:0:0:0:
329,192,170969,1,0,0:0:0:0:
109,192,170969,1,0,0:0:0:0:
402,192,170969,1,0,0:0:0:0:
475,192,170969,1,0,0:0:0:0:
36,192,171099,1,0,0:0:0:0:
109,192,171229,1,0,0:0:0:0:
256,192,171229,1,0,0:0:0:0:
402,192,171229,1,0,0:0:0:0:
475,192,171229,1,0,0:0:0:0:
475,192,171359,1,0,0:0:0:0:
329,192,171359,1,0,0:0:0:0:
402,192,171359,1,0,0:0:0:0:
256,192,171359,1,0,0:0:0:0:
182,192,171359,1,0,0:0:0:0:
109,192,171489,1,0,0:0:0:0:
256,192,171618,1,0,0:0:0:0:
329,192,171618,1,0,0:0:0:0:
402,192,171618,1,0,0:0:0:0:
475,192,171618,1,0,0:0:0:0:
402,192,171748,1,0,0:0:0:0:
329,192,171748,1,0,0:0:0:0:
182,192,171748,1,0,0:0:0:0:
256,192,171748,1,0,0:0:0:0:
475,192,171748,1,0,0:0:0:0:
109,192,171878,1,0,0:0:0:0:
256,192,172008,1,0,0:0:0:0:
329,192,172008,1,0,0:0:0:0:
402,192,172008,1,0,0:0:0:0:
475,192,172008,1,0,0:0:0:0:
182,192,172138,128,0,172203:0:0:0:0:
256,192,172138,128,0,172203:0:0:0:0:
329,192,172138,128,0,172203:0:0:0:0:
402,192,172138,128,0,172203:0:0:0:0:
475,192,172138,128,0,172203:0:0:0:0:
329,192,172268,128,0,172333:0:0:0:0:
402,192,172268,128,0,172333:0:0:0:0:
256,192,172268,128,0,172333:0:0:0:0:
182,192,172268,128,0,172333:0:0:0:0:
109,192,172268,128,0,172333:0:0:0:0:
36,192,172398,128,0,172441:0:0:0:0:
109,192,172398,128,0,172441:0:0:0:0:
182,192,172398,128,0,172441:0:0:0:0:
256,192,172398,128,0,172441:0:0:0:0:
329,192,172398,128,0,172441:0:0:0:0:
329,192,172484,128,0,172527:0:0:0:0:
256,192,172484,128,0,172527:0:0:0:0:
182,192,172484,128,0,172527:0:0:0:0:
109,192,172484,128,0,172527:0:0:0:0:
36,192,172484,128,0,172527:0:0:0:0:
36,192,172571,128,0,172614:0:0:0:0:
109,192,172571,128,0,172614:0:0:0:0:
182,192,172571,128,0,172614:0:0:0:0:
256,192,172571,128,0,172614:0:0:0:0:
329,192,172571,128,0,172614:0:0:0:0:
109,192,172657,128,0,172701:0:0:0:0:
182,192,172657,128,0,172701:0:0:0:0:
256,192,172657,128,0,172701:0:0:0:0:
329,192,172657,128,0,172701:0:0:0:0:
402,192,172657,128,0,172701:0:0:0:0:
402,192,172744,128,0,172787:0:0:0:0:
329,192,172744,128,0,172787:0:0:0:0:
256,192,172744,128,0,172787:0:0:0:0:
182,192,172744,128,0,172787:0:0:0:0:
109,192,172744,128,0,172787:0:0:0:0:
182,192,172830,128,0,172874:0:0:0:0:
256,192,172830,128,0,172874:0:0:0:0:
329,192,172830,128,0,172874:0:0:0:0:
402,192,172830,128,0,172874:0:0:0:0:
475,192,172830,128,0,172874:0:0:0:0:
36,192,172917,1,0,0:0:0:0:
182,192,172982,1,0,0:0:0:0:
475,192,173014,1,0,0:0:0:0:
329,192,173047,1,0,0:0:0:0:
256,192,173112,1,0,0:0:0:0:
36,192,173177,128,0,173372:0:0:0:0:
109,192,173177,128,0,173242:0:0:0:0:
182,192,173177,1,0,0:0:0:0:
329,192,173177,128,0,173242:0:0:0:0:
402,192,173177,128,0,173242:0:0:0:0:
475,192,173177,128,0,173242:0:0:0:0:
109,192,173307,1,0,0:0:0:0:
182,192,173307,128,0,173501:0:0:0:0:
329,192,173307,128,0,173372:0:0:0:0:
402,192,173307,128,0,173372:0:0:0:0:
475,192,173307,128,0,173372:0:0:0:0:
36,192,173437,128,0,173631:0:0:0:0:
109,192,173437,1,0,0:0:0:0:
475,192,173437,128,0,173501:0:0:0:0:
402,192,173437,128,0,173501:0:0:0:0:
329,192,173437,128,0,173501:0:0:0:0:
256,192,173437,128,0,173501:0:0:0:0:
182,192,173566,128,0,173761:0:0:0:0:
109,192,173566,1,0,0:0:0:0:
329,192,173566,128,0,173631:0:0:0:0:
402,192,173566,128,0,173631:0:0:0:0:
475,192,173566,128,0,173631:0:0:0:0:
109,192,173696,128,0,173891:0:0:0:0:
36,192,173696,1,0,0:0:0:0:
402,192,173696,128,0,173761:0:0:0:0:
329,192,173696,128,0,173761:0:0:0:0:
256,192,173696,128,0,173761:0:0:0:0:
36,192,173826,128,0,174021:0:0:0:0:
182,192,173826,1,0,0:0:0:0:
329,192,173826,128,0,173891:0:0:0:0:
402,192,173826,128,0,173891:0:0:0:0:
475,192,173826,128,0,173891:0:0:0:0:
109,192,173956,1,0,0:0:0:0:
329,192,173956,128,0,174021:0:0:0:0:
402,192,173956,128,0,174021:0:0:0:0:
475,192,173956,128,0,174021:0:0:0:0:
256,192,173956,128,0,174021:0:0:0:0:
256,192,174086,1,0,0:0:0:0:
329,192,174086,128,0,174281:0:0:0:0:
36,192,174086,1,0,0:0:0:0:
402,192,174086,128,0,174151:0:0:0:0:
475,192,174086,128,0,174151:0:0:0:0:
109,192,174086,1,0,0:0:0:0:
256,192,174216,1,0,0:0:0:0:
182,192,174216,128,0,174411:0:0:0:0:
109,192,174216,128,0,174281:0:0:0:0:
36,192,174216,128,0,174281:0:0:0:0:
475,192,174216,1,0,0:0:0:0:
402,192,174216,1,0,0:0:0:0:
329,192,174346,128,0,174540:0:0:0:0:
256,192,174346,1,0,0:0:0:0:
402,192,174346,128,0,174411:0:0:0:0:
475,192,174346,128,0,174411:0:0:0:0:
109,192,174346,1,0,0:0:0:0:
36,192,174346,1,0,0:0:0:0:
182,192,174476,128,0,174670:0:0:0:0:
256,192,174476,1,0,0:0:0:0:
109,192,174476,128,0,174540:0:0:0:0:
36,192,174476,128,0,174540:0:0:0:0:
402,192,174476,1,0,0:0:0:0:
475,192,174476,1,0,0:0:0:0:
256,192,174605,128,0,174800:0:0:0:0:
329,192,174605,1,0,0:0:0:0:
402,192,174605,128,0,174670:0:0:0:0:
475,192,174605,128,0,174670:0:0:0:0:
109,192,174605,1,0,0:0:0:0:
36,192,174605,1,0,0:0:0:0:
329,192,174735,128,0,174930:0:0:0:0:
182,192,174735,1,0,0:0:0:0:
109,192,174735,128,0,174800:0:0:0:0:
36,192,174735,128,0,174800:0:0:0:0:
402,192,174735,1,0,0:0:0:0:
475,192,174735,1,0,0:0:0:0:
256,192,174865,1,0,0:0:0:0:
402,192,174865,128,0,174930:0:0:0:0:
475,192,174865,128,0,174930:0:0:0:0:
109,192,174865,1,0,0:0:0:0:
36,192,174865,1,0,0:0:0:0:
402,192,174995,1,0,0:0:0:0:
329,192,174995,128,0,175190:0:0:0:0:
182,192,174995,128,0,175060:0:0:0:0:
109,192,174995,128,0,175060:0:0:0:0:
36,192,174995,128,0,175060:0:0:0:0:
402,192,175125,1,0,0:0:0:0:
475,192,175125,128,0,175320:0:0:0:0:
36,192,175125,128,0,175190:0:0:0:0:
109,192,175125,128,0,175190:0:0:0:0:
182,192,175125,128,0,175190:0:0:0:0:
329,192,175255,128,0,175450:0:0:0:0:
402,192,175255,1,0,0:0:0:0:
256,192,175255,128,0,175320:0:0:0:0:
109,192,175255,128,0,175320:0:0:0:0:
182,192,175255,128,0,175320:0:0:0:0:
36,192,175255,128,0,175320:0:0:0:0:
475,192,175385,128,0,175579:0:0:0:0:
402,192,175385,1,0,0:0:0:0:
36,192,175385,128,0,175450:0:0:0:0:
109,192,175385,128,0,175450:0:0:0:0:
182,192,175385,128,0,175450:0:0:0:0:
402,192,175514,128,0,175709:0:0:0:0:
329,192,175514,1,0,0:0:0:0:
182,192,175514,128,0,175579:0:0:0:0:
256,192,175514,128,0,175579:0:0:0:0:
109,192,175514,128,0,175579:0:0:0:0:
329,192,175644,128,0,175839:0:0:0:0:
475,192,175644,1,0,0:0:0:0:
182,192,175644,128,0,175709:0:0:0:0:
109,192,175644,128,0,175709:0:0:0:0:
36,192,175644,128,0,175709:0:0:0:0:
402,192,175774,1,0,0:0:0:0:
256,192,175774,128,0,175969:0:0:0:0:
36,192,175774,128,0,175839:0:0:0:0:
109,192,175774,128,0,175839:0:0:0:0:
182,192,175774,128,0,175839:0:0:0:0:
329,192,175904,1,0,0:0:0:0:
109,192,175904,128,0,175969:0:0:0:0:
36,192,175904,128,0,175969:0:0:0:0:
402,192,175904,128,0,175969:0:0:0:0:
475,192,175904,128,0,175969:0:0:0:0:
109,192,176034,1,0,0:0:0:0:
182,192,176034,128,0,176229:0:0:0:0:
256,192,176034,1,0,0:0:0:0:
329,192,176034,128,0,176099:0:0:0:0:
402,192,176034,128,0,176099:0:0:0:0:
475,192,176034,128,0,176099:0:0:0:0:
109,192,176164,1,0,0:0:0:0:
36,192,176164,128,0,176359:0:0:0:0:
329,192,176164,128,0,176229:0:0:0:0:
402,192,176164,128,0,176229:0:0:0:0:
475,192,176164,128,0,176229:0:0:0:0:
182,192,176294,128,0,176489:0:0:0:0:
109,192,176294,1,0,0:0:0:0:
256,192,176294,128,0,176359:0:0:0:0:
329,192,176294,128,0,176359:0:0:0:0:
402,192,176294,128,0,176359:0:0:0:0:
475,192,176294,128,0,176359:0:0:0:0:
36,192,176424,128,0,176618:0:0:0:0:
109,192,176424,1,0,0:0:0:0:
329,192,176424,128,0,176489:0:0:0:0:
402,192,176424,128,0,176489:0:0:0:0:
475,192,176424,128,0,176489:0:0:0:0:
109,192,176553,128,0,176748:0:0:0:0:
182,192,176553,1,0,0:0:0:0:
402,192,176553,128,0,176618:0:0:0:0:
475,192,176553,128,0,176618:0:0:0:0:
329,192,176618,1,0,0:0:0:0:
256,192,176618,128,0,176683:0:0:0:0:
182,192,176683,128,0,176878:0:0:0:0:
36,192,176683,1,0,0:0:0:0:
475,192,176683,128,0,176748:0:0:0:0:
402,192,176748,1,0,0:0:0:0:
329,192,176748,128,0,176813:0:0:0:0:
109,192,176813,1,0,0:0:0:0:
256,192,176813,128,0,177008:0:0:0:0:
475,192,176878,1,0,0:0:0:0:
402,192,176878,128,0,176943:0:0:0:0:
182,192,176943,1,0,0:0:0:0:
329,192,176943,1,0,0:0:0:0:
109,192,177008,1,0,0:0:0:0:
402,192,177008,1,0,0:0:0:0:
36,192,177073,1,0,0:0:0:0:
256,192,177073,1,0,0:0:0:0:
475,192,177073,1,0,0:0:0:0:
402,192,177138,1,0,0:0:0:0:
475,192,177138,128,0,177333:0:0:0:0:
109,192,177138,1,0,0:0:0:0:
182,192,177203,1,0,0:0:0:0:
329,192,177203,1,0,0:0:0:0:
402,192,177203,128,0,177333:0:0:0:0:
36,192,177203,1,0,0:0:0:0:
256,192,177203,1,0,0:0:0:0:
329,192,177268,128,0,177333:0:0:0:0:
109,192,177268,1,0,0:0:0:0:
182,192,177333,1,0,0:0:0:0:
256,192,177333,1,0,0:0:0:0:
36,192,177333,1,0,0:0:0:0:
109,192,177398,1,0,0:0:0:0:
182,192,177398,128,0,177592:0:0:0:0:
402,192,177398,1,0,0:0:0:0:
36,192,177463,1,0,0:0:0:0:
109,192,177463,128,0,177592:0:0:0:0:
329,192,177463,1,0,0:0:0:0:
475,192,177463,1,0,0:0:0:0:
256,192,177463,1,0,0:0:0:0:
36,192,177527,128,0,177592:0:0:0:0:
402,192,177527,1,0,0:0:0:0:
475,192,177592,1,0,0:0:0:0:
256,192,177592,1,0,0:0:0:0:
329,192,177592,1,0,0:0:0:0:
329,192,177657,128,0,177787:0:0:0:0:
402,192,177657,1,0,0:0:0:0:
36,192,177657,1,0,0:0:0:0:
402,192,177722,128,0,177852:0:0:0:0:
475,192,177722,1,0,0:0:0:0:
109,192,177722,1,0,0:0:0:0:
256,192,177722,1,0,0:0:0:0:
36,192,177722,128,0,177917:0:0:0:0:
182,192,177722,1,0,0:0:0:0:
475,192,177787,128,0,177852:0:0:0:0:
109,192,177787,128,0,177852:0:0:0:0:
182,192,177852,1,0,0:0:0:0:
329,192,177852,1,0,0:0:0:0:
256,192,177852,1,0,0:0:0:0:
109,192,177917,1,0,0:0:0:0:
182,192,177917,128,0,178047:0:0:0:0:
475,192,177917,1,0,0:0:0:0:
36,192,177982,1,0,0:0:0:0:
109,192,177982,128,0,178112:0:0:0:0:
475,192,177982,128,0,178177:0:0:0:0:
402,192,177982,1,0,0:0:0:0:
256,192,177982,1,0,0:0:0:0:
329,192,177982,1,0,0:0:0:0:
36,192,178047,128,0,178112:0:0:0:0:
402,192,178047,128,0,178112:0:0:0:0:
329,192,178112,1,0,0:0:0:0:
182,192,178112,128,0,178177:0:0:0:0:
256,192,178112,128,0,178177:0:0:0:0:
402,192,178177,1,0,0:0:0:0:
475,192,178242,1,0,0:0:0:0:
109,192,178242,128,0,178372:0:0:0:0:
36,192,178242,128,0,178372:0:0:0:0:
182,192,178242,1,0,0:0:0:0:
256,192,178242,1,0,0:0:0:0:
402,192,178307,128,0,178437:0:0:0:0:
182,192,178372,1,0,0:0:0:0:
256,192,178372,128,0,178437:0:0:0:0:
329,192,178372,128,0,178437:0:0:0:0:
109,192,178437,1,0,0:0:0:0:
36,192,178501,1,0,0:0:0:0:
402,192,178501,128,0,178631:0:0:0:0:
475,192,178501,128,0,178631:0:0:0:0:
109,192,178566,128,0,178696:0:0:0:0:
329,192,178631,1,0,0:0:0:0:
182,192,178631,128,0,178696:0:0:0:0:
256,192,178631,128,0,178696:0:0:0:0:
402,192,178696,1,0,0:0:0:0:
475,192,178761,1,0,0:0:0:0:
109,192,178761,128,0,178891:0:0:0:0:
36,192,178761,128,0,178891:0:0:0:0:
182,192,178761,1,0,0:0:0:0:
256,192,178761,1,0,0:0:0:0:
402,192,178826,128,0,178956:0:0:0:0:
182,192,178891,1,0,0:0:0:0:
256,192,178891,128,0,178956:0:0:0:0:
329,192,178891,128,0,178956:0:0:0:0:
109,192,178956,1,0,0:0:0:0:
36,192,179021,1,0,0:0:0:0:
402,192,179021,128,0,179151:0:0:0:0:
475,192,179021,128,0,179151:0:0:0:0:
109,192,179086,128,0,179216:0:0:0:0:
182,192,179151,128,0,179216:0:0:0:0:
256,192,179151,128,0,179216:0:0:0:0:
329,192,179151,1,0,0:0:0:0:
36,192,179151,1,0,0:0:0:0:
329,192,179216,128,0,179346:0:0:0:0:
402,192,179281,128,0,179346:0:0:0:0:
475,192,179281,128,0,179346:0:0:0:0:
109,192,179281,1,0,0:0:0:0:
182,192,179281,1,0,0:0:0:0:
256,192,179281,1,0,0:0:0:0:
36,192,179346,128,0,179476:0:0:0:0:
109,192,179411,128,0,179476:0:0:0:0:
182,192,179411,128,0,179476:0:0:0:0:
329,192,179411,1,0,0:0:0:0:
402,192,179411,1,0,0:0:0:0:
475,192,179411,1,0,0:0:0:0:
256,192,179476,128,0,179605:0:0:0:0:
329,192,179540,128,0,179605:0:0:0:0:
402,192,179540,128,0,179605:0:0:0:0:
109,192,179540,1,0,0:0:0:0:
36,192,179540,1,0,0:0:0:0:
182,192,179605,128,0,179735:0:0:0:0:
109,192,179670,128,0,179735:0:0:0:0:
36,192,179670,128,0,179735:0:0:0:0:
329,192,179670,1,0,0:0:0:0:
475,192,179670,1,0,0:0:0:0:
402,192,179670,1,0,0:0:0:0:
329,192,179735,128,0,179865:0:0:0:0:
256,192,179800,128,0,179865:0:0:0:0:
182,192,179800,128,0,179865:0:0:0:0:
109,192,179800,1,0,0:0:0:0:
36,192,179800,1,0,0:0:0:0:
475,192,179865,128,0,179995:0:0:0:0:
402,192,179930,128,0,179995:0:0:0:0:
329,192,179930,128,0,179995:0:0:0:0:
182,192,179930,1,0,0:0:0:0:
109,192,179930,1,0,0:0:0:0:
36,192,179930,1,0,0:0:0:0:
256,192,179995,128,0,180125:0:0:0:0:
182,192,180060,128,0,180125:0:0:0:0:
109,192,180060,128,0,180125:0:0:0:0:
329,192,180060,1,0,0:0:0:0:
475,192,180060,1,0,0:0:0:0:
402,192,180060,1,0,0:0:0:0:
36,192,180125,128,0,180320:0:0:0:0:
109,192,180190,128,0,180255:0:0:0:0:
182,192,180190,128,0,180255:0:0:0:0:
402,192,180190,1,0,0:0:0:0:
475,192,180190,1,0,0:0:0:0:
256,192,180255,128,0,180320:0:0:0:0:
329,192,180255,128,0,180320:0:0:0:0:
402,192,180320,128,0,180385:0:0:0:0:
475,192,180320,128,0,180385:0:0:0:0:
109,192,180385,128,0,180450:0:0:0:0:
182,192,180385,128,0,180450:0:0:0:0:
256,192,180450,128,0,180514:0:0:0:0:
329,192,180450,128,0,180514:0:0:0:0:
36,192,180450,128,0,180514:0:0:0:0:
402,192,180450,1,0,0:0:0:0:
475,192,180450,1,0,0:0:0:0:
402,192,180514,128,0,180579:0:0:0:0:
475,192,180514,128,0,180579:0:0:0:0:
36,192,180579,128,0,180709:0:0:0:0:
109,192,180579,128,0,180709:0:0:0:0:
182,192,180579,128,0,180709:0:0:0:0:
329,192,180579,1,0,0:0:0:0:
256,192,180579,1,0,0:0:0:0:
402,192,180644,128,0,180709:0:0:0:0:
475,192,180644,128,0,180709:0:0:0:0:
329,192,180709,1,0,0:0:0:0:
256,192,180709,1,0,0:0:0:0:
109,192,180774,1,0,0:0:0:0:
36,192,180774,1,0,0:0:0:0:
329,192,180839,128,0,180969:0:0:0:0:
402,192,180839,128,0,180969:0:0:0:0:
475,192,180839,128,0,180969:0:0:0:0:
256,192,180839,1,0,0:0:0:0:
182,192,180839,1,0,0:0:0:0:
109,192,180904,128,0,180969:0:0:0:0:
36,192,180904,128,0,180969:0:0:0:0:
256,192,180969,1,0,0:0:0:0:
182,192,180969,1,0,0:0:0:0:
182,192,181229,128,0,181315:0:0:0:0:
256,192,181229,128,0,181315:0:0:0:0:
329,192,181229,128,0,181315:0:0:0:0:
402,192,181229,1,0,0:0:0:0:
475,192,181229,1,0,0:0:0:0:
36,192,181272,128,0,181359:0:0:0:0:
109,192,181272,128,0,181359:0:0:0:0:
329,192,181359,128,0,181445:0:0:0:0:
402,192,181359,128,0,181445:0:0:0:0:
256,192,181359,128,0,181445:0:0:0:0:
475,192,181359,1,0,0:0:0:0:
109,192,181402,128,0,181489:0:0:0:0:
182,192,181402,128,0,181489:0:0:0:0:
329,192,181489,128,0,181575:0:0:0:0:
402,192,181489,128,0,181575:0:0:0:0:
256,192,181489,128,0,181575:0:0:0:0:
475,192,181489,1,0,0:0:0:0:
36,192,181489,1,0,0:0:0:0:
182,192,181532,128,0,181618:0:0:0:0:
109,192,181532,128,0,181618:0:0:0:0:
475,192,181618,128,0,181705:0:0:0:0:
402,192,181618,128,0,181705:0:0:0:0:
329,192,181618,128,0,181705:0:0:0:0:
36,192,181618,1,0,0:0:0:0:
256,192,181662,128,0,181748:0:0:0:0:
182,192,181662,128,0,181748:0:0:0:0:
329,192,181748,128,0,181835:0:0:0:0:
402,192,181748,128,0,181835:0:0:0:0:
475,192,181748,128,0,181835:0:0:0:0:
109,192,181748,1,0,0:0:0:0:
36,192,181748,1,0,0:0:0:0:
182,192,181792,128,0,181878:0:0:0:0:
256,192,181792,128,0,181878:0:0:0:0:
109,192,181878,128,0,181965:0:0:0:0:
36,192,181878,128,0,181965:0:0:0:0:
475,192,181878,128,0,181965:0:0:0:0:
256,192,181894,1,0,0:0:0:0:
182,192,181894,1,0,0:0:0:0:
329,192,181921,128,0,182008:0:0:0:0:
402,192,181921,128,0,182008:0:0:0:0:
109,192,182008,128,0,182095:0:0:0:0:
36,192,182008,128,0,182095:0:0:0:0:
475,192,182008,128,0,182095:0:0:0:0:
329,192,182024,1,0,0:0:0:0:
402,192,182024,1,0,0:0:0:0:
256,192,182051,128,0,182138:0:0:0:0:
182,192,182051,128,0,182138:0:0:0:0:
109,192,182138,128,0,182224:0:0:0:0:
475,192,182138,128,0,182224:0:0:0:0:
36,192,182138,128,0,182224:0:0:0:0:
256,192,182154,1,0,0:0:0:0:
182,192,182154,1,0,0:0:0:0:
402,192,182181,128,0,182268:0:0:0:0:
329,192,182181,128,0,182268:0:0:0:0:
109,192,182268,128,0,182354:0:0:0:0:
475,192,182268,128,0,182354:0:0:0:0:
36,192,182268,128,0,182354:0:0:0:0:
329,192,182284,1,0,0:0:0:0:
402,192,182284,1,0,0:0:0:0:
256,192,182311,128,0,182398:0:0:0:0:
182,192,182311,128,0,182398:0:0:0:0:
36,192,182398,1,0,0:0:0:0:
109,192,182398,1,0,0:0:0:0:
329,192,182398,128,0,182484:0:0:0:0:
402,192,182398,128,0,182484:0:0:0:0:
475,192,182398,128,0,182484:0:0:0:0:
182,192,182441,128,0,182527:0:0:0:0:
256,192,182441,128,0,182527:0:0:0:0:
402,192,182527,128,0,182614:0:0:0:0:
475,192,182527,128,0,182614:0:0:0:0:
329,192,182527,128,0,182614:0:0:0:0:
109,192,182527,1,0,0:0:0:0:
36,192,182527,1,0,0:0:0:0:
182,192,182571,128,0,182657:0:0:0:0:
256,192,182571,128,0,182657:0:0:0:0:
109,192,182657,128,0,182744:0:0:0:0:
36,192,182657,128,0,182744:0:0:0:0:
182,192,182674,1,0,0:0:0:0:
256,192,182674,1,0,0:0:0:0:
475,192,182701,128,0,182787:0:0:0:0:
402,192,182701,128,0,182787:0:0:0:0:
329,192,182701,128,0,182787:0:0:0:0:
36,192,182787,128,0,182874:0:0:0:0:
109,192,182787,128,0,182874:0:0:0:0:
182,192,182787,128,0,182874:0:0:0:0:
402,192,182803,1,0,0:0:0:0:
475,192,182803,1,0,0:0:0:0:
256,192,182830,128,0,182917:0:0:0:0:
329,192,182830,128,0,182917:0:0:0:0:
182,192,182917,128,0,183004:0:0:0:0:
109,192,182917,128,0,183004:0:0:0:0:
36,192,182917,128,0,183004:0:0:0:0:
402,192,182933,1,0,0:0:0:0:
475,192,182933,1,0,0:0:0:0:
329,192,182960,128,0,183047:0:0:0:0:
256,192,182960,128,0,183047:0:0:0:0:
402,192,183047,128,0,183134:0:0:0:0:
475,192,183047,128,0,183134:0:0:0:0:
329,192,183063,1,0,0:0:0:0:
256,192,183063,1,0,0:0:0:0:
182,192,183090,128,0,183177:0:0:0:0:
109,192,183090,128,0,183177:0:0:0:0:
36,192,183090,128,0,183177:0:0:0:0:
329,192,183177,128,0,183263:0:0:0:0:
402,192,183177,128,0,183263:0:0:0:0:
475,192,183177,128,0,183263:0:0:0:0:
182,192,183193,1,0,0:0:0:0:
256,192,183193,1,0,0:0:0:0:
109,192,183220,128,0,183307:0:0:0:0:
36,192,183220,128,0,183307:0:0:0:0:
329,192,183307,128,0,183404:0:0:0:0:
475,192,183307,128,0,183404:0:0:0:0:
402,192,183339,1,0,0:0:0:0:
256,192,183372,128,0,183404:0:0:0:0:
109,192,183372,128,0,183404:0:0:0:0:
182,192,183404,1,0,0:0:0:0:
36,192,183437,1,0,0:0:0:0:
329,192,183437,128,0,183534:0:0:0:0:
475,192,183437,128,0,183534:0:0:0:0:
402,192,183469,1,0,0:0:0:0:
256,192,183501,128,0,183534:0:0:0:0:
109,192,183501,128,0,183534:0:0:0:0:
182,192,183534,1,0,0:0:0:0:
36,192,183566,1,0,0:0:0:0:
329,192,183566,128,0,183664:0:0:0:0:
475,192,183566,128,0,183664:0:0:0:0:
402,192,183599,1,0,0:0:0:0:
256,192,183631,128,0,183664:0:0:0:0:
109,192,183631,128,0,183664:0:0:0:0:
182,192,183664,1,0,0:0:0:0:
329,192,183696,128,0,183794:0:0:0:0:
36,192,183696,1,0,0:0:0:0:
475,192,183696,128,0,183794:0:0:0:0:
402,192,183729,1,0,0:0:0:0:
109,192,183761,128,0,183794:0:0:0:0:
256,192,183761,128,0,183794:0:0:0:0:
182,192,183794,1,0,0:0:0:0:
36,192,183826,1,0,0:0:0:0:
329,192,183826,1,0,0:0:0:0:
475,192,183826,1,0,0:0:0:0:
402,192,183826,128,0,183999:0:0:0:0:
256,192,183913,1,0,0:0:0:0:
109,192,183913,1,0,0:0:0:0:
329,192,183999,1,0,0:0:0:0:
475,192,183999,1,0,0:0:0:0:
182,192,184086,1,0,0:0:0:0:
36,192,184086,1,0,0:0:0:0:
109,192,184086,128,0,184259:0:0:0:0:
256,192,184172,1,0,0:0:0:0:
402,192,184172,1,0,0:0:0:0:
182,192,184259,1,0,0:0:0:0:
36,192,184259,1,0,0:0:0:0:
329,192,184346,128,0,184432:0:0:0:0:
475,192,184346,128,0,184432:0:0:0:0:
402,192,184346,128,0,184605:0:0:0:0:
256,192,184346,1,0,0:0:0:0:
109,192,184346,1,0,0:0:0:0:
182,192,184432,1,0,0:0:0:0:
36,192,184432,1,0,0:0:0:0:
329,192,184519,128,0,184605:0:0:0:0:
475,192,184519,128,0,184605:0:0:0:0:
256,192,184519,1,0,0:0:0:0:
109,192,184519,1,0,0:0:0:0:
182,192,184605,128,0,184692:0:0:0:0:
36,192,184605,128,0,184692:0:0:0:0:
109,192,184605,128,0,184865:0:0:0:0:
256,192,184692,1,0,0:0:0:0:
402,192,184692,1,0,0:0:0:0:
36,192,184779,128,0,184865:0:0:0:0:
182,192,184779,128,0,184865:0:0:0:0:
329,192,184779,1,0,0:0:0:0:
475,192,184779,1,0,0:0:0:0:
402,192,184865,1,0,0:0:0:0:
256,192,184865,1,0,0:0:0:0:
329,192,184930,1,0,0:0:0:0:
182,192,184952,1,0,0:0:0:0:
36,192,184952,1,0,0:0:0:0:
402,192,184995,1,0,0:0:0:0:
109,192,185038,1,0,0:0:0:0:
256,192,185038,1,0,0:0:0:0:
475,192,185060,1,0,0:0:0:0:
402,192,185125,1,0,0:0:0:0:
182,192,185125,1,0,0:0:0:0:
329,192,185125,1,0,0:0:0:0:
475,192,185190,1,0,0:0:0:0:
256,192,185211,1,0,0:0:0:0:
109,192,185211,1,0,0:0:0:0:
402,192,185255,1,0,0:0:0:0:
182,192,185298,1,0,0:0:0:0:
36,192,185298,1,0,0:0:0:0:
329,192,185320,1,0,0:0:0:0:
256,192,185385,1,0,0:0:0:0:
402,192,185385,1,0,0:0:0:0:
475,192,185385,128,0,185644:0:0:0:0:
109,192,185385,128,0,185450:0:0:0:0:
329,192,185450,1,0,0:0:0:0:
182,192,185450,128,0,185514:0:0:0:0:
402,192,185514,1,0,0:0:0:0:
256,192,185514,128,0,185579:0:0:0:0:
329,192,185579,128,0,185644:0:0:0:0:
402,192,185644,128,0,185904:0:0:0:0:
256,192,185644,1,0,0:0:0:0:
182,192,185644,1,0,0:0:0:0:
36,192,185644,128,0,185709:0:0:0:0:
329,192,185709,1,0,0:0:0:0:
109,192,185709,128,0,185774:0:0:0:0:
475,192,185774,1,0,0:0:0:0:
36,192,185774,1,0,0:0:0:0:
182,192,185774,128,0,185839:0:0:0:0:
109,192,185839,1,0,0:0:0:0:
256,192,185839,128,0,185904:0:0:0:0:
182,192,185904,1,0,0:0:0:0:
329,192,185904,128,0,186164:0:0:0:0:
475,192,185904,1,0,0:0:0:0:
36,192,185904,128,0,185969:0:0:0:0:
256,192,185969,1,0,0:0:0:0:
109,192,185969,128,0,186034:0:0:0:0:
402,192,186034,1,0,0:0:0:0:
182,192,186034,128,0,186099:0:0:0:0:
475,192,186099,1,0,0:0:0:0:
109,192,186099,128,0,186164:0:0:0:0:
36,192,186164,128,0,186424:0:0:0:0:
256,192,186164,1,0,0:0:0:0:
402,192,186164,128,0,186229:0:0:0:0:
182,192,186229,1,0,0:0:0:0:
329,192,186229,128,0,186294:0:0:0:0:
109,192,186294,1,0,0:0:0:0:
256,192,186294,128,0,186359:0:0:0:0:
182,192,186359,128,0,186424:0:0:0:0:
109,192,186424,128,0,186683:0:0:0:0:
256,192,186424,1,0,0:0:0:0:
329,192,186424,1,0,0:0:0:0:
475,192,186424,128,0,186489:0:0:0:0:
182,192,186489,1,0,0:0:0:0:
402,192,186489,128,0,186553:0:0:0:0:
36,192,186553,1,0,0:0:0:0:
475,192,186553,1,0,0:0:0:0:
329,192,186553,128,0,186618:0:0:0:0:
402,192,186618,1,0,0:0:0:0:
256,192,186618,128,0,186683:0:0:0:0:
182,192,186683,128,0,186943:0:0:0:0:
36,192,186683,1,0,0:0:0:0:
475,192,186683,1,0,0:0:0:0:
329,192,186683,128,0,186748:0:0:0:0:
109,192,186748,1,0,0:0:0:0:
402,192,186748,128,0,186813:0:0:0:0:
256,192,186813,1,0,0:0:0:0:
475,192,186813,128,0,186878:0:0:0:0:
329,192,186878,1,0,0:0:0:0:
36,192,186878,128,0,186943:0:0:0:0:
256,192,186943,128,0,187203:0:0:0:0:
402,192,186943,1,0,0:0:0:0:
475,192,186943,1,0,0:0:0:0:
109,192,186943,128,0,187008:0:0:0:0:
329,192,187008,128,0,187073:0:0:0:0:
36,192,187073,1,0,0:0:0:0:
475,192,187073,1,0,0:0:0:0:
402,192,187073,128,0,187138:0:0:0:0:
109,192,187073,128,0,187138:0:0:0:0:
182,192,187138,128,0,187203:0:0:0:0:
329,192,187203,128,0,187398:0:0:0:0:
109,192,187203,1,0,0:0:0:0:
36,192,187203,1,0,0:0:0:0:
402,192,187203,128,0,187268:0:0:0:0:
256,192,187268,1,0,0:0:0:0:
475,192,187268,128,0,187333:0:0:0:0:
182,192,187268,128,0,187333:0:0:0:0:
402,192,187333,1,0,0:0:0:0:
109,192,187333,1,0,0:0:0:0:
36,192,187333,128,0,187398:0:0:0:0:
256,192,187398,1,0,0:0:0:0:
182,192,187398,1,0,0:0:0:0:
475,192,187398,128,0,187463:0:0:0:0:
402,192,187463,1,0,0:0:0:0:
329,192,187463,128,0,187560:0:0:0:0:
109,192,187463,128,0,187657:0:0:0:0:
36,192,187463,128,0,187657:0:0:0:0:
329,192,187592,1,0,0:0:0:0:
402,192,187592,128,0,187690:0:0:0:0:
182,192,187592,128,0,187657:0:0:0:0:
256,192,187592,128,0,187657:0:0:0:0:
402,192,187722,1,0,0:0:0:0:
329,192,187722,128,0,187820:0:0:0:0:
36,192,187722,128,0,187982:0:0:0:0:
109,192,187722,128,0,187982:0:0:0:0:
182,192,187852,1,0,0:0:0:0:
256,192,187852,128,0,187950:0:0:0:0:
402,192,187852,128,0,187917:0:0:0:0:
475,192,187852,128,0,187917:0:0:0:0:
329,192,187852,1,0,0:0:0:0:
182,192,187982,128,0,188079:0:0:0:0:
256,192,187982,1,0,0:0:0:0:
402,192,187982,128,0,188177:0:0:0:0:
475,192,187982,128,0,188177:0:0:0:0:
182,192,188112,1,0,0:0:0:0:
256,192,188112,128,0,188209:0:0:0:0:
109,192,188112,128,0,188177:0:0:0:0:
36,192,188112,128,0,188177:0:0:0:0:
109,192,188242,128,0,188339:0:0:0:0:
36,192,188242,1,0,0:0:0:0:
402,192,188242,128,0,188501:0:0:0:0:
475,192,188242,128,0,188501:0:0:0:0:
256,192,188242,1,0,0:0:0:0:
109,192,188372,1,0,0:0:0:0:
36,192,188372,128,0,188469:0:0:0:0:
256,192,188372,128,0,188437:0:0:0:0:
329,192,188372,128,0,188437:0:0:0:0:
36,192,188501,1,0,0:0:0:0:
109,192,188501,128,0,188599:0:0:0:0:
329,192,188501,1,0,0:0:0:0:
256,192,188501,1,0,0:0:0:0:
182,192,188631,1,0,0:0:0:0:
256,192,188631,128,0,188729:0:0:0:0:
109,192,188631,1,0,0:0:0:0:
329,192,188631,1,0,0:0:0:0:
329,192,188696,128,0,188794:0:0:0:0:
36,192,188696,1,0,0:0:0:0:
402,192,188696,1,0,0:0:0:0:
402,192,188761,128,0,188859:0:0:0:0:
256,192,188761,1,0,0:0:0:0:
109,192,188761,1,0,0:0:0:0:
475,192,188761,1,0,0:0:0:0:
475,192,188826,128,0,188924:0:0:0:0:
329,192,188826,1,0,0:0:0:0:
36,192,188826,1,0,0:0:0:0:
402,192,188891,1,0,0:0:0:0:
109,192,188891,1,0,0:0:0:0:
475,192,188956,1,0,0:0:0:0:
256,192,188956,128,0,189053:0:0:0:0:
329,192,188956,1,0,0:0:0:0:
182,192,188956,1,0,0:0:0:0:
182,192,189021,128,0,189118:0:0:0:0:
109,192,189021,1,0,0:0:0:0:
402,192,189021,1,0,0:0:0:0:
256,192,189086,1,0,0:0:0:0:
109,192,189086,128,0,189183:0:0:0:0:
36,192,189086,1,0,0:0:0:0:
475,192,189086,1,0,0:0:0:0:
36,192,189151,128,0,189248:0:0:0:0:
182,192,189151,1,0,0:0:0:0:
402,192,189151,1,0,0:0:0:0:
109,192,189216,1,0,0:0:0:0:
402,192,189216,128,0,189313:0:0:0:0:
329,192,189216,1,0,0:0:0:0:
36,192,189281,1,0,0:0:0:0:
329,192,189281,128,0,189378:0:0:0:0:
475,192,189281,1,0,0:0:0:0:
256,192,189281,1,0,0:0:0:0:
256,192,189346,128,0,189443:0:0:0:0:
402,192,189346,1,0,0:0:0:0:
182,192,189346,1,0,0:0:0:0:
182,192,189411,128,0,189508:0:0:0:0:
329,192,189411,1,0,0:0:0:0:
109,192,189411,1,0,0:0:0:0:
109,192,189476,128,0,189573:0:0:0:0:
256,192,189476,1,0,0:0:0:0:
182,192,189540,1,0,0:0:0:0:
36,192,189540,128,0,189768:0:0:0:0:
475,192,189540,1,0,0:0:0:0:
329,192,189540,1,0,0:0:0:0:
109,192,189605,1,0,0:0:0:0:
402,192,189605,128,0,189670:0:0:0:0:
256,192,189627,1,0,0:0:0:0:
329,192,189670,128,0,189735:0:0:0:0:
475,192,189714,1,0,0:0:0:0:
109,192,189735,128,0,189833:0:0:0:0:
256,192,189735,128,0,189800:0:0:0:0:
182,192,189800,128,0,190027:0:0:0:0:
36,192,189800,1,0,0:0:0:0:
329,192,189800,1,0,0:0:0:0:
475,192,189800,128,0,189865:0:0:0:0:
109,192,189865,1,0,0:0:0:0:
402,192,189865,128,0,189930:0:0:0:0:
256,192,189887,1,0,0:0:0:0:
329,192,189930,128,0,189995:0:0:0:0:
475,192,189973,1,0,0:0:0:0:
256,192,189995,128,0,190092:0:0:0:0:
402,192,190060,1,0,0:0:0:0:
329,192,190060,128,0,190287:0:0:0:0:
182,192,190060,1,0,0:0:0:0:
36,192,190060,128,0,190125:0:0:0:0:
256,192,190125,1,0,0:0:0:0:
109,192,190125,128,0,190190:0:0:0:0:
475,192,190147,1,0,0:0:0:0:
182,192,190190,128,0,190255:0:0:0:0:
36,192,190233,1,0,0:0:0:0:
256,192,190233,1,0,0:0:0:0:
402,192,190255,128,0,190352:0:0:0:0:
109,192,190255,128,0,190320:0:0:0:0:
475,192,190320,128,0,190547:0:0:0:0:
329,192,190320,1,0,0:0:0:0:
182,192,190320,1,0,0:0:0:0:
36,192,190320,128,0,190385:0:0:0:0:
402,192,190385,1,0,0:0:0:0:
109,192,190385,128,0,190450:0:0:0:0:
256,192,190406,1,0,0:0:0:0:
182,192,190450,128,0,190514:0:0:0:0:
36,192,190493,1,0,0:0:0:0:
402,192,190493,128,0,190601:0:0:0:0:
256,192,190514,128,0,190579:0:0:0:0:
475,192,190579,128,0,190807:0:0:0:0:
36,192,190579,1,0,0:0:0:0:
182,192,190579,1,0,0:0:0:0:
329,192,190579,1,0,0:0:0:0:
402,192,190644,1,0,0:0:0:0:
109,192,190644,128,0,190709:0:0:0:0:
256,192,190666,1,0,0:0:0:0:
182,192,190709,128,0,190774:0:0:0:0:
36,192,190753,1,0,0:0:0:0:
402,192,190774,128,0,190872:0:0:0:0:
256,192,190774,128,0,190839:0:0:0:0:
329,192,190839,128,0,191066:0:0:0:0:
475,192,190839,1,0,0:0:0:0:
36,192,190839,128,0,190904:0:0:0:0:
182,192,190839,1,0,0:0:0:0:
402,192,190904,1,0,0:0:0:0:
109,192,190904,128,0,190969:0:0:0:0:
256,192,190926,1,0,0:0:0:0:
182,192,190969,128,0,191034:0:0:0:0:
36,192,191012,1,0,0:0:0:0:
256,192,191034,128,0,191131:0:0:0:0:
182,192,191099,128,0,191326:0:0:0:0:
329,192,191099,1,0,0:0:0:0:
475,192,191099,128,0,191164:0:0:0:0:
109,192,191099,1,0,0:0:0:0:
402,192,191164,128,0,191229:0:0:0:0:
256,192,191164,1,0,0:0:0:0:
36,192,191185,1,0,0:0:0:0:
329,192,191229,128,0,191294:0:0:0:0:
475,192,191272,1,0,0:0:0:0:
256,192,191272,1,0,0:0:0:0:
402,192,191294,128,0,191359:0:0:0:0:
109,192,191294,128,0,191391:0:0:0:0:
182,192,191359,1,0,0:0:0:0:
329,192,191359,1,0,0:0:0:0:
475,192,191359,128,0,191424:0:0:0:0:
36,192,191359,128,0,191586:0:0:0:0:
402,192,191424,128,0,191489:0:0:0:0:
109,192,191424,1,0,0:0:0:0:
256,192,191445,1,0,0:0:0:0:
329,192,191489,128,0,191553:0:0:0:0:
182,192,191532,1,0,0:0:0:0:
475,192,191532,1,0,0:0:0:0:
109,192,191553,128,0,191651:0:0:0:0:
256,192,191553,128,0,191618:0:0:0:0:
36,192,191618,128,0,191705:0:0:0:0:
182,192,191618,128,0,191705:0:0:0:0:
329,192,191618,128,0,191705:0:0:0:0:
475,192,191618,128,0,191705:0:0:0:0:
109,192,191683,128,0,191835:0:0:0:0:
402,192,191705,1,0,0:0:0:0:
256,192,191705,1,0,0:0:0:0:
256,192,191792,128,0,191878:0:0:0:0:
329,192,191792,1,0,0:0:0:0:
182,192,191792,1,0,0:0:0:0:
36,192,191792,128,0,191835:0:0:0:0:
475,192,191792,128,0,191835:0:0:0:0:
402,192,191878,1,0,0:0:0:0:
109,192,191878,1,0,0:0:0:0:
36,192,191878,128,0,191965:0:0:0:0:
329,192,191878,128,0,191965:0:0:0:0:
182,192,191878,128,0,192051:0:0:0:0:
475,192,191878,128,0,191965:0:0:0:0:
402,192,191943,128,0,192138:0:0:0:0:
256,192,191965,1,0,0:0:0:0:
109,192,191965,1,0,0:0:0:0:
109,192,192051,128,0,192138:0:0:0:0:
256,192,192051,128,0,192138:0:0:0:0:
329,192,192051,1,0,0:0:0:0:
36,192,192051,1,0,0:0:0:0:
36,192,192138,128,0,192224:0:0:0:0:
182,192,192138,128,0,192224:0:0:0:0:
329,192,192138,128,0,192224:0:0:0:0:
475,192,192138,128,0,192224:0:0:0:0:
109,192,192203,128,0,192354:0:0:0:0:
256,192,192224,1,0,0:0:0:0:
402,192,192224,1,0,0:0:0:0:
256,192,192311,128,0,192398:0:0:0:0:
329,192,192311,1,0,0:0:0:0:
36,192,192311,128,0,192354:0:0:0:0:
475,192,192311,128,0,192354:0:0:0:0:
182,192,192311,1,0,0:0:0:0:
329,192,192398,128,0,192484:0:0:0:0:
402,192,192398,1,0,0:0:0:0:
475,192,192398,128,0,192484:0:0:0:0:
36,192,192398,128,0,192484:0:0:0:0:
109,192,192398,1,0,0:0:0:0:
182,192,192398,128,0,192571:0:0:0:0:
402,192,192484,128,0,192830:0:0:0:0:
109,192,192484,1,0,0:0:0:0:
256,192,192484,1,0,0:0:0:0:
109,192,192571,128,0,192830:0:0:0:0:
256,192,192571,128,0,192830:0:0:0:0:
36,192,192571,1,0,0:0:0:0:
329,192,192571,1,0,0:0:0:0:
475,192,192657,128,0,192830:0:0:0:0:
182,192,192657,128,0,192744:0:0:0:0:
36,192,192657,128,0,192744:0:0:0:0:
329,192,192657,1,0,0:0:0:0:
329,192,192744,128,0,192830:0:0:0:0:
182,192,192830,128,0,192895:0:0:0:0:
36,192,192830,128,0,192895:0:0:0:0:
329,192,192917,1,0,0:0:0:0:
475,192,192917,1,0,0:0:0:0:
182,192,192917,1,0,0:0:0:0:
36,192,192917,1,0,0:0:0:0:
109,192,192917,128,0,193090:0:0:0:0:
256,192,192917,128,0,193090:0:0:0:0:
402,192,192917,128,0,193090:0:0:0:0:
329,192,193004,128,0,193090:0:0:0:0:
36,192,193090,128,0,193155:0:0:0:0:
182,192,193090,128,0,193155:0:0:0:0:
329,192,193177,1,0,0:0:0:0:
109,192,193177,1,0,0:0:0:0:
182,192,193177,1,0,0:0:0:0:
475,192,193177,1,0,0:0:0:0:
256,192,193177,128,0,193242:0:0:0:0:
402,192,193177,128,0,193242:0:0:0:0:
36,192,193177,128,0,193566:0:0:0:0:
182,192,193242,128,0,193307:0:0:0:0:
329,192,193307,128,0,193372:0:0:0:0:
475,192,193307,128,0,193372:0:0:0:0:
402,192,193307,1,0,0:0:0:0:
256,192,193307,1,0,0:0:0:0:
109,192,193307,128,0,193372:0:0:0:0:
182,192,193372,128,0,193437:0:0:0:0:
256,192,193437,128,0,193501:0:0:0:0:
402,192,193437,128,0,193501:0:0:0:0:
329,192,193437,1,0,0:0:0:0:
475,192,193437,1,0,0:0:0:0:
109,192,193437,1,0,0:0:0:0:
182,192,193501,128,0,193566:0:0:0:0:
329,192,193501,128,0,193566:0:0:0:0:
109,192,193566,128,0,193631:0:0:0:0:
402,192,193566,128,0,193631:0:0:0:0:
36,192,193631,128,0,193696:0:0:0:0:
475,192,193631,128,0,193696:0:0:0:0:
109,192,193696,1,0,0:0:0:0:
182,192,193696,1,0,0:0:0:0:
256,192,193696,1,0,0:0:0:0:
329,192,193696,1,0,0:0:0:0:
402,192,193696,1,0,0:0:0:0:
402,192,193761,1,0,0:0:0:0:
329,192,193761,1,0,0:0:0:0:
256,192,193761,1,0,0:0:0:0:
182,192,193761,1,0,0:0:0:0:
109,192,193761,1,0,0:0:0:0:
109,192,193826,1,0,0:0:0:0:
182,192,193826,1,0,0:0:0:0:
256,192,193826,1,0,0:0:0:0:
329,192,193826,1,0,0:0:0:0:
402,192,193826,1,0,0:0:0:0:
402,192,193891,1,0,0:0:0:0:
329,192,193891,1,0,0:0:0:0:
182,192,193891,1,0,0:0:0:0:
109,192,193891,1,0,0:0:0:0:
256,192,193891,1,0,0:0:0:0:
109,192,193956,128,0,193999:0:0:0:0:
182,192,193956,128,0,193999:0:0:0:0:
256,192,193956,128,0,193999:0:0:0:0:
329,192,193956,128,0,193999:0:0:0:0:
402,192,193956,128,0,193999:0:0:0:0:
256,192,194086,1,0,0:0:0:0:
256,192,194216,1,0,0:0:0:0:
256,192,194346,1,0,0:0:0:0:
329,192,194346,1,0,0:0:0:0:
402,192,194346,1,0,0:0:0:0:
475,192,194346,1,0,0:0:0:0:
182,192,194346,1,0,0:0:0:0:
109,192,194346,1,0,0:0:0:0:
36,192,194346,1,0,0:0:0:0:
256,192,194476,1,0,0:0:0:0:
36,192,194476,1,0,0:0:0:0:
109,192,194476,1,0,0:0:0:0:
182,192,194476,1,0,0:0:0:0:
402,192,194476,1,0,0:0:0:0:
475,192,194476,1,0,0:0:0:0:
329,192,194476,1,0,0:0:0:0:
256,192,194605,1,0,0:0:0:0:
475,192,194605,1,0,0:0:0:0:
402,192,194605,1,0,0:0:0:0:
329,192,194605,1,0,0:0:0:0:
182,192,194605,1,0,0:0:0:0:
109,192,194605,1,0,0:0:0:0:
36,192,194605,1,0,0:0:0:0:
329,192,194735,1,0,0:0:0:0:
182,192,194735,1,0,0:0:0:0:
402,192,194735,1,0,0:0:0:0:
109,192,194735,1,0,0:0:0:0:
256,192,194735,1,0,0:0:0:0:
109,192,194800,1,0,0:0:0:0:
402,192,194800,1,0,0:0:0:0:
256,192,194800,1,0,0:0:0:0:
182,192,194800,1,0,0:0:0:0:
329,192,194800,1,0,0:0:0:0:
109,192,194865,1,0,0:0:0:0:
256,192,194865,1,0,0:0:0:0:
402,192,194865,1,0,0:0:0:0:
329,192,194865,1,0,0:0:0:0:
182,192,194865,1,0,0:0:0:0:
256,192,194930,1,0,0:0:0:0:
182,192,194930,1,0,0:0:0:0:
109,192,194930,1,0,0:0:0:0:
402,192,194930,1,0,0:0:0:0:
329,192,194930,1,0,0:0:0:0:
182,192,194995,128,0,195038:0:0:0:0:
329,192,194995,128,0,195038:0:0:0:0:
402,192,194995,128,0,195038:0:0:0:0:
256,192,194995,128,0,195038:0:0:0:0:
109,192,194995,128,0,195038:0:0:0:0:
256,192,195125,1,0,0:0:0:0:
36,192,195255,1,0,0:0:0:0:
109,192,195255,1,0,0:0:0:0:
182,192,195255,1,0,0:0:0:0:
402,192,195255,1,0,0:0:0:0:
475,192,195255,1,0,0:0:0:0:
329,192,195255,1,0,0:0:0:0:
36,192,195320,1,0,0:0:0:0:
475,192,195320,1,0,0:0:0:0:
109,192,195320,1,0,0:0:0:0:
402,192,195320,1,0,0:0:0:0:
36,192,195385,1,0,0:0:0:0:
475,192,195385,1,0,0:0:0:0:
475,192,195514,1,0,0:0:0:0:
36,192,195514,1,0,0:0:0:0:
402,192,195514,1,0,0:0:0:0:
109,192,195514,1,0,0:0:0:0:
182,192,195514,128,0,195709:0:0:0:0:
329,192,195514,128,0,195709:0:0:0:0:
475,192,195579,1,0,0:0:0:0:
36,192,195579,1,0,0:0:0:0:
109,192,195579,128,0,195709:0:0:0:0:
402,192,195579,128,0,195709:0:0:0:0:
475,192,195644,128,0,195709:0:0:0:0:
36,192,195644,128,0,195709:0:0:0:0:
256,192,195774,128,0,195839:0:0:0:0:
109,192,195774,1,0,0:0:0:0:
36,192,195774,1,0,0:0:0:0:
475,192,195774,1,0,0:0:0:0:
402,192,195774,1,0,0:0:0:0:
182,192,195839,128,0,196034:0:0:0:0:
329,192,195839,128,0,196034:0:0:0:0:
109,192,195904,128,0,195969:0:0:0:0:
36,192,195904,128,0,195969:0:0:0:0:
402,192,195904,128,0,195969:0:0:0:0:
475,192,195904,128,0,195969:0:0:0:0:
256,192,195969,1,0,0:0:0:0:
109,192,196034,1,0,0:0:0:0:
36,192,196034,1,0,0:0:0:0:
402,192,196034,1,0,0:0:0:0:
475,192,196034,1,0,0:0:0:0:
329,192,196099,1,0,0:0:0:0:
182,192,196099,1,0,0:0:0:0:
256,192,196164,1,0,0:0:0:0:
36,192,196164,128,0,196229:0:0:0:0:
109,192,196164,128,0,196229:0:0:0:0:
402,192,196164,128,0,196229:0:0:0:0:
475,192,196164,128,0,196229:0:0:0:0:
329,192,196229,1,0,0:0:0:0:
182,192,196229,1,0,0:0:0:0:
402,192,196294,1,0,0:0:0:0:
475,192,196294,1,0,0:0:0:0:
109,192,196294,1,0,0:0:0:0:
36,192,196294,1,0,0:0:0:0:
256,192,196294,128,0,196424:0:0:0:0:
329,192,196359,128,0,196489:0:0:0:0:
182,192,196359,128,0,196489:0:0:0:0:
402,192,196424,128,0,196489:0:0:0:0:
475,192,196424,128,0,196489:0:0:0:0:
109,192,196424,128,0,196489:0:0:0:0:
36,192,196424,128,0,196489:0:0:0:0:
256,192,196489,1,0,0:0:0:0:
109,192,196553,1,0,0:0:0:0:
475,192,196553,1,0,0:0:0:0:
402,192,196553,1,0,0:0:0:0:
36,192,196553,1,0,0:0:0:0:
329,192,196618,1,0,0:0:0:0:
182,192,196618,1,0,0:0:0:0:
109,192,196683,128,0,196748:0:0:0:0:
36,192,196683,128,0,196748:0:0:0:0:
402,192,196683,128,0,196748:0:0:0:0:
475,192,196683,128,0,196748:0:0:0:0:
256,192,196683,128,0,196943:0:0:0:0:
329,192,196748,128,0,197073:0:0:0:0:
182,192,196748,128,0,196813:0:0:0:0:
109,192,196813,128,0,196911:0:0:0:0:
36,192,196813,128,0,196911:0:0:0:0:
402,192,196813,128,0,196911:0:0:0:0:
475,192,196813,128,0,196911:0:0:0:0:
182,192,196878,128,0,197203:0:0:0:0:
36,192,196943,128,0,197030:0:0:0:0:
109,192,196943,128,0,197030:0:0:0:0:
402,192,196943,128,0,197030:0:0:0:0:
475,192,196943,128,0,197030:0:0:0:0:
256,192,197008,128,0,197333:0:0:0:0:
109,192,197073,128,0,197138:0:0:0:0:
36,192,197073,128,0,197138:0:0:0:0:
402,192,197073,128,0,197138:0:0:0:0:
475,192,197073,128,0,197138:0:0:0:0:
329,192,197138,128,0,197463:0:0:0:0:
109,192,197203,128,0,197268:0:0:0:0:
36,192,197203,128,0,197268:0:0:0:0:
402,192,197203,128,0,197268:0:0:0:0:
475,192,197203,128,0,197268:0:0:0:0:
182,192,197268,128,0,197365:0:0:0:0:
36,192,197333,128,0,197376:0:0:0:0:
109,192,197333,128,0,197376:0:0:0:0:
402,192,197333,128,0,197376:0:0:0:0:
475,192,197333,128,0,197376:0:0:0:0:
182,192,197398,128,0,197463:0:0:0:0:
256,192,197398,128,0,197495:0:0:0:0:
109,192,197463,128,0,197495:0:0:0:0:
36,192,197463,128,0,197495:0:0:0:0:
402,192,197463,128,0,197495:0:0:0:0:
475,192,197463,128,0,197495:0:0:0:0:
256,192,197527,128,0,197592:0:0:0:0:
329,192,197527,128,0,197625:0:0:0:0:
182,192,197527,128,0,198112:0:0:0:0:
109,192,197592,128,0,197614:0:0:0:0:
36,192,197592,128,0,197614:0:0:0:0:
402,192,197592,128,0,197614:0:0:0:0:
475,192,197592,128,0,197614:0:0:0:0:
256,192,197657,128,0,197982:0:0:0:0:
329,192,197657,128,0,197722:0:0:0:0:
109,192,197722,128,0,197755:0:0:0:0:
36,192,197722,128,0,197755:0:0:0:0:
402,192,197722,128,0,197755:0:0:0:0:
475,192,197722,128,0,197755:0:0:0:0:
329,192,197787,128,0,197852:0:0:0:0:
402,192,197852,128,0,197950:0:0:0:0:
475,192,197852,128,0,197950:0:0:0:0:
109,192,197852,128,0,197950:0:0:0:0:
36,192,197852,128,0,197950:0:0:0:0:
329,192,197917,128,0,198242:0:0:0:0:
475,192,197982,128,0,198069:0:0:0:0:
402,192,197982,128,0,198069:0:0:0:0:
109,192,197982,128,0,198069:0:0:0:0:
36,192,197982,128,0,198069:0:0:0:0:
256,192,198047,128,0,198372:0:0:0:0:
402,192,198112,128,0,198177:0:0:0:0:
475,192,198112,128,0,198177:0:0:0:0:
109,192,198112,128,0,198177:0:0:0:0:
36,192,198112,128,0,198177:0:0:0:0:
182,192,198177,128,0,198501:0:0:0:0:
402,192,198242,128,0,198307:0:0:0:0:
475,192,198242,128,0,198307:0:0:0:0:
109,192,198242,128,0,198307:0:0:0:0:
36,192,198242,128,0,198307:0:0:0:0:
329,192,198307,128,0,198404:0:0:0:0:
475,192,198372,128,0,198415:0:0:0:0:
402,192,198372,128,0,198415:0:0:0:0:
109,192,198372,128,0,198415:0:0:0:0:
36,192,198372,128,0,198415:0:0:0:0:
329,192,198437,128,0,198501:0:0:0:0:
256,192,198437,128,0,198534:0:0:0:0:
402,192,198501,128,0,198534:0:0:0:0:
475,192,198501,128,0,198534:0:0:0:0:
109,192,198501,128,0,198534:0:0:0:0:
36,192,198501,128,0,198534:0:0:0:0:
256,192,198566,128,0,198631:0:0:0:0:
182,192,198566,128,0,198664:0:0:0:0:
329,192,198566,128,0,198826:0:0:0:0:
402,192,198631,128,0,198653:0:0:0:0:
475,192,198631,128,0,198653:0:0:0:0:
109,192,198631,128,0,198653:0:0:0:0:
36,192,198631,128,0,198653:0:0:0:0:
256,192,198696,128,0,198956:0:0:0:0:
182,192,198696,128,0,198761:0:0:0:0:
402,192,198761,128,0,198794:0:0:0:0:
475,192,198761,128,0,198794:0:0:0:0:
109,192,198761,128,0,198794:0:0:0:0:
36,192,198761,128,0,198794:0:0:0:0:
182,192,198826,128,0,199086:0:0:0:0:
329,192,198891,1,0,0:0:0:0:
475,192,198891,128,0,199887:0:0:0:0:
402,192,198891,128,0,199887:0:0:0:0:
36,192,198891,128,0,199887:0:0:0:0:
109,192,198891,128,0,199887:0:0:0:0:
256,192,199021,1,0,0:0:0:0:
182,192,199151,1,0,0:0:0:0:
329,192,199281,1,0,0:0:0:0:
182,192,199411,1,0,0:0:0:0:
329,192,199540,1,0,0:0:0:0:
256,192,199670,1,0,0:0:0:0:
182,192,199800,1,0,0:0:0:0:
36,192,199930,1,0,0:0:0:0:
475,192,199930,1,0,0:0:0:0:
256,192,199930,1,0,0:0:0:0:
182,192,199930,1,0,0:0:0:0:
329,192,199930,1,0,0:0:0:0:
109,192,199946,1,0,0:0:0:0:
402,192,199946,1,0,0:0:0:0:
182,192,200060,1,0,0:0:0:0:
256,192,200190,1,0,0:0:0:0:
329,192,200320,1,0,0:0:0:0:
256,192,200450,1,0,0:0:0:0:
329,192,200579,1,0,0:0:0:0:
109,192,200709,1,0,0:0:0:0:
182,192,200839,1,0,0:0:0:0:
256,192,200969,1,0,0:0:0:0:
182,192,201099,1,0,0:0:0:0:
256,192,201229,1,0,0:0:0:0:
329,192,201359,1,0,0:0:0:0:
109,192,201489,1,0,0:0:0:0:
182,192,201618,1,0,0:0:0:0:
256,192,201748,1,0,0:0:0:0:
329,192,201878,1,0,0:0:0:0:
475,192,201878,1,0,0:0:0:0:
475,192,202008,1,0,0:0:0:0:
182,192,202008,1,0,0:0:0:0:
36,192,202008,1,0,0:0:0:0:
402,192,202024,1,0,0:0:0:0:
109,192,202138,1,0,0:0:0:0:
182,192,202268,1,0,0:0:0:0:
256,192,202398,1,0,0:0:0:0:
182,192,202527,1,0,0:0:0:0:
256,192,202657,1,0,0:0:0:0:
182,192,202787,1,0,0:0:0:0:
109,192,202917,1,0,0:0:0:0:
36,192,203047,1,0,0:0:0:0:
109,192,203177,1,0,0:0:0:0:
182,192,203307,1,0,0:0:0:0:
256,192,203437,1,0,0:0:0:0:
109,192,203566,1,0,0:0:0:0:
36,192,203696,1,0,0:0:0:0:
109,192,203826,1,0,0:0:0:0:
402,192,203956,1,0,0:0:0:0:
182,192,203956,1,0,0:0:0:0:
256,192,204086,1,0,0:0:0:0:
475,192,204086,1,0,0:0:0:0:
36,192,204086,1,0,0:0:0:0:
109,192,204086,1,0,0:0:0:0:
402,192,204102,1,0,0:0:0:0:
182,192,204216,1,0,0:0:0:0:
109,192,204346,1,0,0:0:0:0:
182,192,204476,1,0,0:0:0:0:
256,192,204605,1,0,0:0:0:0:
329,192,204735,1,0,0:0:0:0:
256,192,204865,1,0,0:0:0:0:
182,192,204995,1,0,0:0:0:0:
109,192,205125,1,0,0:0:0:0:
182,192,205255,1,0,0:0:0:0:
256,192,205385,1,0,0:0:0:0:
329,192,205514,1,0,0:0:0:0:
256,192,205644,1,0,0:0:0:0:
182,192,205774,1,0,0:0:0:0:
109,192,205904,1,0,0:0:0:0:
182,192,206034,1,0,0:0:0:0:
36,192,206034,1,0,0:0:0:0:
402,192,206034,1,0,0:0:0:0:
256,192,206164,1,0,0:0:0:0:
36,192,206164,1,0,0:0:0:0:
109,192,206164,1,0,0:0:0:0:
475,192,206164,1,0,0:0:0:0:
402,192,206180,1,0,0:0:0:0:
182,192,206294,1,0,0:0:0:0:
256,192,206424,1,0,0:0:0:0:
182,192,206553,1,0,0:0:0:0:
256,192,206683,1,0,0:0:0:0:
329,192,206813,1,0,0:0:0:0:
256,192,206943,1,0,0:0:0:0:
182,192,207073,1,0,0:0:0:0:
256,192,207203,1,0,0:0:0:0:
182,192,207333,1,0,0:0:0:0:
256,192,207463,1,0,0:0:0:0:
329,192,207592,1,0,0:0:0:0:
256,192,207722,1,0,0:0:0:0:
182,192,207852,1,0,0:0:0:0:
256,192,207982,1,0,0:0:0:0:
329,192,208112,1,0,0:0:0:0:
475,192,208112,1,0,0:0:0:0:
256,192,208242,1,0,0:0:0:0:
475,192,208242,1,0,0:0:0:0:
36,192,208242,1,0,0:0:0:0:
109,192,208242,128,0,210320:0:0:0:0:
402,192,208242,128,0,210320:0:0:0:0:
329,192,208258,1,0,0:0:0:0:
182,192,208372,1,0,0:0:0:0:
329,192,208501,1,0,0:0:0:0:
256,192,208631,1,0,0:0:0:0:
182,192,208761,1,0,0:0:0:0:
256,192,208891,1,0,0:0:0:0:
329,192,209021,1,0,0:0:0:0:
256,192,209151,1,0,0:0:0:0:
182,192,209281,1,0,0:0:0:0:
329,192,209411,1,0,0:0:0:0:
256,192,209540,1,0,0:0:0:0:
182,192,209670,1,0,0:0:0:0:
329,192,209800,1,0,0:0:0:0:
256,192,209930,1,0,0:0:0:0:
182,192,210060,1,0,0:0:0:0:
256,192,210190,1,0,0:0:0:0:
36,192,210190,1,0,0:0:0:0:
475,192,210190,1,0,0:0:0:0:
329,192,210320,1,0,0:0:0:0:
182,192,210320,1,0,0:0:0:0:
36,192,210320,128,0,211359:0:0:0:0:
475,192,210320,128,0,211359:0:0:0:0:
256,192,210336,1,0,0:0:0:0:
109,192,210450,1,0,0:0:0:0:
182,192,210579,1,0,0:0:0:0:
256,192,210709,1,0,0:0:0:0:
329,192,210839,1,0,0:0:0:0:
402,192,210969,1,0,0:0:0:0:
182,192,211099,1,0,0:0:0:0:
109,192,211229,1,0,0:0:0:0:
182,192,211359,1,0,0:0:0:0:
256,192,211489,1,0,0:0:0:0:
329,192,211618,1,0,0:0:0:0:
402,192,211748,1,0,0:0:0:0:
182,192,211878,1,0,0:0:0:0:
256,192,212008,1,0,0:0:0:0:
329,192,212138,1,0,0:0:0:0:
402,192,212268,1,0,0:0:0:0:
475,192,212398,1,0,0:0:0:0:
182,192,212398,1,0,0:0:0:0:
109,192,212398,1,0,0:0:0:0:
36,192,212398,1,0,0:0:0:0:
256,192,212398,128,0,212917:0:0:0:0:
329,192,212398,1,0,0:0:0:0:
402,192,212414,1,0,0:0:0:0:
109,192,212527,1,0,0:0:0:0:
182,192,212657,1,0,0:0:0:0:
329,192,212787,1,0,0:0:0:0:
402,192,212917,1,0,0:0:0:0:
109,192,212917,1,0,0:0:0:0:
329,192,212982,1,0,0:0:0:0:
182,192,213047,1,0,0:0:0:0:
36,192,213047,1,0,0:0:0:0:
475,192,213047,1,0,0:0:0:0:
329,192,213112,1,0,0:0:0:0:
182,192,213177,1,0,0:0:0:0:
109,192,213177,1,0,0:0:0:0:
402,192,213177,1,0,0:0:0:0:
329,192,213242,1,0,0:0:0:0:
182,192,213307,1,0,0:0:0:0:
256,192,213307,1,0,0:0:0:0:
329,192,213372,1,0,0:0:0:0:
109,192,213437,1,0,0:0:0:0:
182,192,213437,1,0,0:0:0:0:
329,192,213501,1,0,0:0:0:0:
256,192,213566,1,0,0:0:0:0:
182,192,213566,1,0,0:0:0:0:
329,192,213631,1,0,0:0:0:0:
402,192,213696,1,0,0:0:0:0:
182,192,213696,1,0,0:0:0:0:
329,192,213761,1,0,0:0:0:0:
182,192,213826,1,0,0:0:0:0:
256,192,213826,1,0,0:0:0:0:
329,192,213891,1,0,0:0:0:0:
182,192,213956,1,0,0:0:0:0:
109,192,213956,1,0,0:0:0:0:
36,192,213956,1,0,0:0:0:0:
329,192,214021,1,0,0:0:0:0:
402,192,214021,1,0,0:0:0:0:
182,192,214086,1,0,0:0:0:0:
109,192,214086,1,0,0:0:0:0:
256,192,214086,1,0,0:0:0:0:
329,192,214151,1,0,0:0:0:0:
402,192,214151,1,0,0:0:0:0:
182,192,214216,1,0,0:0:0:0:
109,192,214216,1,0,0:0:0:0:
475,192,214216,1,0,0:0:0:0:
329,192,214281,1,0,0:0:0:0:
402,192,214281,1,0,0:0:0:0:
182,192,214346,1,0,0:0:0:0:
109,192,214346,1,0,0:0:0:0:
256,192,214346,1,0,0:0:0:0:
329,192,214411,1,0,0:0:0:0:
402,192,214411,1,0,0:0:0:0:
109,192,214476,1,0,0:0:0:0:
36,192,214476,1,0,0:0:0:0:
182,192,214476,128,0,214540:0:0:0:0:
475,192,214476,1,0,0:0:0:0:
256,192,214492,1,0,0:0:0:0:
329,192,214540,1,0,0:0:0:0:
402,192,214540,1,0,0:0:0:0:
182,192,214605,1,0,0:0:0:0:
109,192,214605,128,0,214670:0:0:0:0:
329,192,214670,1,0,0:0:0:0:
402,192,214670,1,0,0:0:0:0:
109,192,214735,1,0,0:0:0:0:
182,192,214735,128,0,214800:0:0:0:0:
329,192,214800,1,0,0:0:0:0:
402,192,214800,1,0,0:0:0:0:
182,192,214865,1,0,0:0:0:0:
109,192,214865,128,0,214930:0:0:0:0:
329,192,214930,1,0,0:0:0:0:
402,192,214930,1,0,0:0:0:0:
182,192,214995,1,0,0:0:0:0:
109,192,214995,1,0,0:0:0:0:
36,192,214995,128,0,215060:0:0:0:0:
329,192,215060,1,0,0:0:0:0:
402,192,215060,1,0,0:0:0:0:
475,192,215060,1,0,0:0:0:0:
182,192,215125,1,0,0:0:0:0:
36,192,215125,1,0,0:0:0:0:
109,192,215125,128,0,215190:0:0:0:0:
329,192,215190,1,0,0:0:0:0:
475,192,215190,1,0,0:0:0:0:
402,192,215190,1,0,0:0:0:0:
36,192,215255,1,0,0:0:0:0:
109,192,215255,1,0,0:0:0:0:
182,192,215255,128,0,215320:0:0:0:0:
329,192,215320,1,0,0:0:0:0:
402,192,215320,1,0,0:0:0:0:
475,192,215320,1,0,0:0:0:0:
182,192,215385,1,0,0:0:0:0:
36,192,215385,1,0,0:0:0:0:
109,192,215385,128,0,215450:0:0:0:0:
329,192,215450,1,0,0:0:0:0:
402,192,215450,1,0,0:0:0:0:
475,192,215450,1,0,0:0:0:0:
109,192,215514,1,0,0:0:0:0:
36,192,215514,1,0,0:0:0:0:
182,192,215514,128,0,215579:0:0:0:0:
329,192,215579,1,0,0:0:0:0:
402,192,215579,1,0,0:0:0:0:
475,192,215579,1,0,0:0:0:0:
36,192,215644,1,0,0:0:0:0:
182,192,215644,1,0,0:0:0:0:
109,192,215644,128,0,215709:0:0:0:0:
475,192,215709,1,0,0:0:0:0:
402,192,215709,1,0,0:0:0:0:
329,192,215709,1,0,0:0:0:0:
182,192,215774,1,0,0:0:0:0:
109,192,215774,1,0,0:0:0:0:
36,192,215774,128,0,215839:0:0:0:0:
329,192,215839,1,0,0:0:0:0:
475,192,215839,1,0,0:0:0:0:
402,192,215839,1,0,0:0:0:0:
182,192,215904,1,0,0:0:0:0:
36,192,215904,1,0,0:0:0:0:
109,192,215904,128,0,215969:0:0:0:0:
329,192,215969,1,0,0:0:0:0:
402,192,215969,1,0,0:0:0:0:
475,192,215969,1,0,0:0:0:0:
109,192,216034,1,0,0:0:0:0:
36,192,216034,1,0,0:0:0:0:
182,192,216034,128,0,216099:0:0:0:0:
329,192,216099,1,0,0:0:0:0:
402,192,216099,1,0,0:0:0:0:
475,192,216099,1,0,0:0:0:0:
182,192,216164,1,0,0:0:0:0:
36,192,216164,1,0,0:0:0:0:
109,192,216164,1,0,0:0:0:0:
256,192,216164,128,0,216229:0:0:0:0:
329,192,216229,1,0,0:0:0:0:
402,192,216229,1,0,0:0:0:0:
475,192,216229,1,0,0:0:0:0:
109,192,216294,1,0,0:0:0:0:
36,192,216294,1,0,0:0:0:0:
182,192,216294,128,0,216359:0:0:0:0:
256,192,216359,1,0,0:0:0:0:
329,192,216359,1,0,0:0:0:0:
402,192,216359,1,0,0:0:0:0:
475,192,216359,1,0,0:0:0:0:
182,192,216424,128,0,216440:0:0:0:0:
109,192,216424,128,0,216440:0:0:0:0:
36,192,216424,128,0,216440:0:0:0:0:
402,192,216489,1,0,0:0:0:0:
329,192,216489,1,0,0:0:0:0:
475,192,216489,1,0,0:0:0:0:
256,192,216489,1,0,0:0:0:0:
