osu file format v14

[General]
AudioFilename: audio.mp3
AudioLeadIn: 0
PreviewTime: 77198
Countdown: 0
SampleSet: Soft
StackLeniency: 0.7
Mode: 3
LetterboxInBreaks: 0
SpecialStyle: 0
WidescreenStoryboard: 0

[Editor]
DistanceSpacing: 1
BeatDivisor: 4
GridSize: 8
TimelineZoom: 2

[Metadata]
Title:ULTiMATE INFLATiON
TitleUnicode:ULTiMATE INFLATiON
Artist:cosMo@Bousou Genocider
ArtistUnicode:cosMo@暴走Genocider
Creator:Chibitania
Version:HEAVENLY
Source:SOUND VOLTEX IV HEAVENLY HAVEN
Tags:sdvx sdvx4 speedcore
BeatmapID:1427311
BeatmapSetID:674580

[Difficulty]
HPDrainRate:8.5
CircleSize:4
OverallDifficulty:9
ApproachRate:5
SliderMultiplier:1.50000000596046
SliderTickRate:1

[Events]
//Background and Video events
0,0,"wallhaven-372660_1920x1080.png",0,0
//Break Periods
//Storyboard Layer 0 (Background)
//Storyboard Layer 1 (Fail)
//Storyboard Layer 2 (Pass)
//Storyboard Layer 3 (Foreground)
//Storyboard Sound Samples

[TimingPoints]
601.596638655462,133.037694013304,4,2,0,40,1,0
16033,-10000,4,2,0,40,0,0
16300,-1000,4,2,0,40,0,0
16566,-500,4,2,0,40,0,0
16699,-400,4,2,0,40,0,0
16832,-333.333333333333,4,2,0,40,0,0
16965,-285.714285714286,4,2,0,40,0,0
17098,-250,4,2,0,40,0,0
17231,-181.818181818182,4,2,0,40,0,0
17364,-142.857142857143,4,2,0,40,0,0
17497,-117.647058823529,4,2,0,40,0,0
17630,-100,4,2,0,40,0,0
77231,-100,4,2,0,40,0,1
94260,-100,4,2,0,40,0,0

[HitObjects]
192,192,601,5,0,0:0:0:0:
64,192,601,1,0,0:0:0:0:
448,192,601,1,0,0:0:0:0:
320,192,867,1,0,0:0:0:0:
64,192,1133,1,0,0:0:0:0:
192,192,1399,1,0,0:0:0:0:
448,192,1665,1,0,0:0:0:0:
192,192,1931,1,0,0:0:0:0:
320,192,2198,1,0,0:0:0:0:
192,192,2464,1,0,0:0:0:0:
64,192,2730,1,0,0:0:0:0:
448,192,2863,1,0,0:0:0:0:
320,192,2929,1,0,0:0:0:0:
192,192,2996,1,0,0:0:0:0:
64,192,3129,1,0,0:0:0:0:
192,192,3262,1,0,0:0:0:0:
448,192,3395,1,0,0:0:0:0:
320,192,3528,1,0,0:0:0:0:
64,192,3661,1,0,0:0:0:0:
320,192,3794,1,0,0:0:0:0:
192,192,3927,1,0,0:0:0:0:
64,192,4060,1,0,0:0:0:0:
320,192,4193,1,0,0:0:0:0:
448,192,4326,1,0,0:0:0:0:
64,192,4393,1,0,0:0:0:0:
192,192,4459,1,0,0:0:0:0:
320,192,4526,1,0,0:0:0:0:
448,192,4592,1,0,0:0:0:0:
320,192,4725,1,0,0:0:0:0:
64,192,4858,1,0,0:0:0:0:
192,192,4858,1,0,0:0:0:0:
320,192,5124,1,0,0:0:0:0:
448,192,5390,1,0,0:0:0:0:
320,192,5657,1,0,0:0:0:0:
64,192,5923,1,0,0:0:0:0:
448,192,6189,1,0,0:0:0:0:
192,192,6455,1,0,0:0:0:0:
320,192,6721,1,0,0:0:0:0:
64,192,6987,1,0,0:0:0:0:
448,192,7120,1,0,0:0:0:0:
320,192,7186,1,0,0:0:0:0:
192,192,7253,1,0,0:0:0:0:
448,192,7386,1,0,0:0:0:0:
64,192,7519,1,0,0:0:0:0:
320,192,7652,1,0,0:0:0:0:
192,192,7785,1,0,0:0:0:0:
320,192,7918,1,0,0:0:0:0:
64,192,8051,1,0,0:0:0:0:
192,192,8184,1,0,0:0:0:0:
320,192,8317,1,0,0:0:0:0:
448,192,8450,1,0,0:0:0:0:
64,192,8583,1,0,0:0:0:0:
320,192,8650,1,0,0:0:0:0:
64,192,8716,1,0,0:0:0:0:
320,192,8783,1,0,0:0:0:0:
448,192,8849,128,0,9116:0:0:0:0:
320,192,9116,1,0,0:0:0:0:
192,192,9116,1,0,0:0:0:0:
64,192,9116,1,0,0:0:0:0:
320,192,9249,1,0,0:0:0:0:
448,192,9382,1,0,0:0:0:0:
192,192,9382,1,0,0:0:0:0:
64,192,9515,1,0,0:0:0:0:
192,192,9648,1,0,0:0:0:0:
320,192,9648,1,0,0:0:0:0:
448,192,9781,1,0,0:0:0:0:
320,192,9914,1,0,0:0:0:0:
64,192,9914,1,0,0:0:0:0:
192,192,10014,1,0,0:0:0:0:
448,192,10180,1,0,0:0:0:0:
320,192,10180,1,0,0:0:0:0:
64,192,10313,1,0,0:0:0:0:
192,192,10379,1,0,0:0:0:0:
320,192,10446,1,0,0:0:0:0:
448,192,10446,1,0,0:0:0:0:
64,192,10512,1,0,0:0:0:0:
192,192,10579,1,0,0:0:0:0:
320,192,10645,1,0,0:0:0:0:
448,192,10712,1,0,0:0:0:0:
64,192,10712,1,0,0:0:0:0:
320,192,10778,1,0,0:0:0:0:
192,192,10845,1,0,0:0:0:0:
448,192,10912,1,0,0:0:0:0:
192,192,10978,1,0,0:0:0:0:
64,192,10978,1,0,0:0:0:0:
192,192,11111,1,0,0:0:0:0:
320,192,11111,1,0,0:0:0:0:
320,192,11244,1,0,0:0:0:0:
448,192,11244,1,0,0:0:0:0:
192,192,11377,1,0,0:0:0:0:
64,192,11510,1,0,0:0:0:0:
320,192,11510,1,0,0:0:0:0:
448,192,11643,1,0,0:0:0:0:
320,192,11776,1,0,0:0:0:0:
192,192,11776,1,0,0:0:0:0:
64,192,11876,1,0,0:0:0:0:
192,192,12042,1,0,0:0:0:0:
448,192,12042,1,0,0:0:0:0:
320,192,12175,1,0,0:0:0:0:
448,192,12308,1,0,0:0:0:0:
64,192,12308,1,0,0:0:0:0:
192,192,12441,1,0,0:0:0:0:
320,192,12508,1,0,0:0:0:0:
448,192,12574,1,0,0:0:0:0:
192,192,12574,1,0,0:0:0:0:
64,192,12641,1,0,0:0:0:0:
192,192,12708,1,0,0:0:0:0:
320,192,12774,1,0,0:0:0:0:
448,192,12841,1,0,0:0:0:0:
192,192,12841,1,0,0:0:0:0:
64,192,12907,1,0,0:0:0:0:
320,192,12974,1,0,0:0:0:0:
192,192,13040,1,0,0:0:0:0:
64,192,13107,1,0,0:0:0:0:
448,192,13107,1,0,0:0:0:0:
320,192,13240,1,0,0:0:0:0:
192,192,13240,1,0,0:0:0:0:
64,192,13373,1,0,0:0:0:0:
448,192,13373,1,0,0:0:0:0:
192,192,13439,1,0,0:0:0:0:
320,192,13506,1,0,0:0:0:0:
448,192,13506,1,0,0:0:0:0:
192,192,13572,1,0,0:0:0:0:
64,192,13639,1,0,0:0:0:0:
320,192,13639,1,0,0:0:0:0:
448,192,13705,1,0,0:0:0:0:
320,192,13772,1,0,0:0:0:0:
192,192,13772,1,0,0:0:0:0:
64,192,13838,1,0,0:0:0:0:
448,192,13905,1,0,0:0:0:0:
320,192,13905,1,0,0:0:0:0:
192,192,13971,1,0,0:0:0:0:
64,192,14038,1,0,0:0:0:0:
448,192,14038,1,0,0:0:0:0:
192,192,14104,1,0,0:0:0:0:
320,192,14171,1,0,0:0:0:0:
448,192,14171,1,0,0:0:0:0:
64,192,14237,1,0,0:0:0:0:
192,192,14304,1,0,0:0:0:0:
448,192,14304,1,0,0:0:0:0:
320,192,14370,1,0,0:0:0:0:
192,192,14437,1,0,0:0:0:0:
64,192,14437,1,0,0:0:0:0:
320,192,14504,1,0,0:0:0:0:
448,192,14504,1,0,0:0:0:0:
192,192,14570,1,0,0:0:0:0:
64,192,14570,1,0,0:0:0:0:
320,192,14637,1,0,0:0:0:0:
448,192,14637,1,0,0:0:0:0:
192,192,14703,1,0,0:0:0:0:
64,192,14703,1,0,0:0:0:0:
320,192,14770,1,0,0:0:0:0:
448,192,14770,1,0,0:0:0:0:
192,192,14836,1,0,0:0:0:0:
64,192,14836,1,0,0:0:0:0:
320,192,14903,1,0,0:0:0:0:
448,192,14903,1,0,0:0:0:0:
192,192,14969,1,0,0:0:0:0:
64,192,14969,1,0,0:0:0:0:
320,192,15036,1,0,0:0:0:0:
448,192,15036,1,0,0:0:0:0:
192,192,15102,1,0,0:0:0:0:
64,192,15102,1,0,0:0:0:0:
320,192,15169,1,0,0:0:0:0:
448,192,15169,1,0,0:0:0:0:
192,192,15235,1,0,0:0:0:0:
64,192,15235,1,0,0:0:0:0:
320,192,15302,1,0,0:0:0:0:
448,192,15302,1,0,0:0:0:0:
192,192,15368,1,0,0:0:0:0:
64,192,15368,1,0,0:0:0:0:
320,192,15435,1,0,0:0:0:0:
448,192,15435,1,0,0:0:0:0:
64,192,15501,128,0,16033:0:0:0:0:
192,192,17630,1,0,0:0:0:0:
64,192,17630,1,0,0:0:0:0:
448,192,17630,1,0,0:0:0:0:
320,192,17763,1,0,0:0:0:0:
448,192,17763,1,0,0:0:0:0:
192,192,17896,1,0,0:0:0:0:
64,192,17896,1,0,0:0:0:0:
320,192,18029,1,0,0:0:0:0:
448,192,18029,1,0,0:0:0:0:
448,192,18162,1,0,0:0:0:0:
192,192,18162,1,0,0:0:0:0:
64,192,18295,1,0,0:0:0:0:
320,192,18295,1,0,0:0:0:0:
192,192,18428,1,0,0:0:0:0:
320,192,18428,1,0,0:0:0:0:
448,192,18561,1,0,0:0:0:0:
192,192,18561,1,0,0:0:0:0:
320,192,18694,1,0,0:0:0:0:
64,192,18694,1,0,0:0:0:0:
192,192,18827,1,0,0:0:0:0:
320,192,18960,1,0,0:0:0:0:
448,192,18960,1,0,0:0:0:0:
192,192,19027,1,0,0:0:0:0:
64,192,19027,1,0,0:0:0:0:
320,192,19093,1,0,0:0:0:0:
448,192,19093,1,0,0:0:0:0:
64,192,19160,1,0,0:0:0:0:
192,192,19160,1,0,0:0:0:0:
320,192,19226,1,0,0:0:0:0:
448,192,19226,1,0,0:0:0:0:
192,192,19359,128,0,19492:0:0:0:0:
64,192,19359,1,0,0:0:0:0:
320,192,19492,1,0,0:0:0:0:
448,192,19492,1,0,0:0:0:0:
320,192,19625,128,0,19759:0:0:0:0:
192,192,19625,1,0,0:0:0:0:
64,192,19759,1,0,0:0:0:0:
448,192,19759,1,0,0:0:0:0:
192,192,19825,1,0,0:0:0:0:
448,192,19892,1,0,0:0:0:0:
320,192,19892,1,0,0:0:0:0:
64,192,20025,1,0,0:0:0:0:
192,192,20025,1,0,0:0:0:0:
192,192,20158,1,0,0:0:0:0:
448,192,20158,1,0,0:0:0:0:
64,192,20291,1,0,0:0:0:0:
320,192,20357,1,0,0:0:0:0:
192,192,20424,1,0,0:0:0:0:
320,192,20424,1,0,0:0:0:0:
448,192,20557,1,0,0:0:0:0:
64,192,20557,1,0,0:0:0:0:
192,192,20690,1,0,0:0:0:0:
448,192,20690,1,0,0:0:0:0:
64,192,20823,1,0,0:0:0:0:
320,192,20823,1,0,0:0:0:0:
320,192,20956,1,0,0:0:0:0:
192,192,20956,1,0,0:0:0:0:
64,192,21089,1,0,0:0:0:0:
448,192,21089,1,0,0:0:0:0:
192,192,21122,1,0,0:0:0:0:
320,192,21155,1,0,0:0:0:0:
448,192,21189,1,0,0:0:0:0:
192,192,21222,1,0,0:0:0:0:
320,192,21288,1,0,0:0:0:0:
64,192,21355,1,0,0:0:0:0:
448,192,21355,1,0,0:0:0:0:
192,192,21421,1,0,0:0:0:0:
320,192,21488,128,0,21621:0:0:0:0:
448,192,21488,1,0,0:0:0:0:
64,192,21621,1,0,0:0:0:0:
192,192,21621,1,0,0:0:0:0:
448,192,21754,128,0,21887:0:0:0:0:
64,192,21754,1,0,0:0:0:0:
192,192,21787,1,0,0:0:0:0:
320,192,21821,1,0,0:0:0:0:
64,192,21854,1,0,0:0:0:0:
192,192,21887,1,0,0:0:0:0:
320,192,21887,1,0,0:0:0:0:
64,192,22020,1,0,0:0:0:0:
320,192,22020,1,0,0:0:0:0:
192,192,22153,1,0,0:0:0:0:
448,192,22153,1,0,0:0:0:0:
320,192,22286,1,0,0:0:0:0:
448,192,22286,1,0,0:0:0:0:
192,192,22353,1,0,0:0:0:0:
64,192,22419,1,0,0:0:0:0:
320,192,22419,1,0,0:0:0:0:
448,192,22486,1,0,0:0:0:0:
320,192,22552,1,0,0:0:0:0:
64,192,22552,1,0,0:0:0:0:
192,192,22619,1,0,0:0:0:0:
64,192,22685,1,0,0:0:0:0:
448,192,22685,1,0,0:0:0:0:
192,192,22818,1,0,0:0:0:0:
320,192,22818,1,0,0:0:0:0:
320,192,22951,1,0,0:0:0:0:
448,192,22951,1,0,0:0:0:0:
64,192,23084,1,0,0:0:0:0:
192,192,23084,1,0,0:0:0:0:
448,192,23218,1,0,0:0:0:0:
64,192,23218,1,0,0:0:0:0:
192,192,23284,1,0,0:0:0:0:
320,192,23284,1,0,0:0:0:0:
64,192,23351,1,0,0:0:0:0:
448,192,23351,1,0,0:0:0:0:
192,192,23417,1,0,0:0:0:0:
448,192,23484,1,0,0:0:0:0:
320,192,23484,1,0,0:0:0:0:
64,192,23550,1,0,0:0:0:0:
192,192,23550,1,0,0:0:0:0:
448,192,23617,1,0,0:0:0:0:
320,192,23617,1,0,0:0:0:0:
64,192,23683,1,0,0:0:0:0:
192,192,23683,1,0,0:0:0:0:
320,192,23750,1,0,0:0:0:0:
448,192,23750,128,0,23883:0:0:0:0:
192,192,23816,1,0,0:0:0:0:
320,192,23883,1,0,0:0:0:0:
64,192,23883,128,0,24016:0:0:0:0:
192,192,23949,1,0,0:0:0:0:
320,192,24016,1,0,0:0:0:0:
192,192,24282,1,0,0:0:0:0:
320,192,24415,1,0,0:0:0:0:
64,192,24681,1,0,0:0:0:0:
192,192,24814,1,0,0:0:0:0:
320,192,24947,1,0,0:0:0:0:
448,192,25080,1,0,0:0:0:0:
320,192,25479,1,0,0:0:0:0:
192,192,25878,1,0,0:0:0:0:
64,192,25878,1,0,0:0:0:0:
448,192,25912,1,0,0:0:0:0:
320,192,25945,1,0,0:0:0:0:
192,192,25978,1,0,0:0:0:0:
64,192,26011,1,0,0:0:0:0:
448,192,26045,1,0,0:0:0:0:
320,192,26078,1,0,0:0:0:0:
192,192,26111,1,0,0:0:0:0:
64,192,26144,1,0,0:0:0:0:
448,192,26144,1,0,0:0:0:0:
320,192,26211,1,0,0:0:0:0:
192,192,26277,1,0,0:0:0:0:
64,192,26344,1,0,0:0:0:0:
448,192,26410,1,0,0:0:0:0:
320,192,26410,1,0,0:0:0:0:
192,192,26477,1,0,0:0:0:0:
64,192,26543,1,0,0:0:0:0:
448,192,26543,1,0,0:0:0:0:
320,192,26610,1,0,0:0:0:0:
64,192,26676,1,0,0:0:0:0:
192,192,26676,1,0,0:0:0:0:
448,192,26743,1,0,0:0:0:0:
320,192,26810,1,0,0:0:0:0:
192,192,26810,1,0,0:0:0:0:
64,192,26876,1,0,0:0:0:0:
192,192,26943,1,0,0:0:0:0:
448,192,26943,1,0,0:0:0:0:
320,192,27009,1,0,0:0:0:0:
192,192,27076,1,0,0:0:0:0:
64,192,27142,1,0,0:0:0:0:
448,192,27142,1,0,0:0:0:0:
192,192,27209,1,0,0:0:0:0:
320,192,27209,1,0,0:0:0:0:
448,192,27275,1,0,0:0:0:0:
64,192,27342,1,0,0:0:0:0:
320,192,27408,1,0,0:0:0:0:
448,192,27408,1,0,0:0:0:0:
192,192,27475,1,0,0:0:0:0:
64,192,27475,1,0,0:0:0:0:
448,192,27541,1,0,0:0:0:0:
192,192,27608,1,0,0:0:0:0:
64,192,27608,1,0,0:0:0:0:
320,192,27674,1,0,0:0:0:0:
448,192,27674,1,0,0:0:0:0:
192,192,27741,1,0,0:0:0:0:
64,192,27741,1,0,0:0:0:0:
320,192,27807,1,0,0:0:0:0:
192,192,27874,1,0,0:0:0:0:
448,192,27874,1,0,0:0:0:0:
64,192,27940,1,0,0:0:0:0:
320,192,27940,1,0,0:0:0:0:
192,192,28007,1,0,0:0:0:0:
448,192,28007,1,0,0:0:0:0:
320,192,28073,1,0,0:0:0:0:
192,192,28140,1,0,0:0:0:0:
64,192,28140,1,0,0:0:0:0:
448,192,28273,1,0,0:0:0:0:
64,192,28273,1,0,0:0:0:0:
320,192,28339,1,0,0:0:0:0:
192,192,28339,1,0,0:0:0:0:
448,192,28406,1,0,0:0:0:0:
64,192,28406,1,0,0:0:0:0:
320,192,28472,1,0,0:0:0:0:
192,192,28472,1,0,0:0:0:0:
64,192,28539,1,0,0:0:0:0:
448,192,28539,1,0,0:0:0:0:
192,192,28606,1,0,0:0:0:0:
320,192,28672,1,0,0:0:0:0:
448,192,28672,1,0,0:0:0:0:
192,192,28739,1,0,0:0:0:0:
64,192,28739,1,0,0:0:0:0:
320,192,28805,1,0,0:0:0:0:
448,192,28805,1,0,0:0:0:0:
192,192,28872,1,0,0:0:0:0:
64,192,28938,1,0,0:0:0:0:
192,192,29005,1,0,0:0:0:0:
448,192,29071,1,0,0:0:0:0:
320,192,29071,1,0,0:0:0:0:
64,192,29138,1,0,0:0:0:0:
320,192,29204,1,0,0:0:0:0:
192,192,29271,1,0,0:0:0:0:
64,192,29337,1,0,0:0:0:0:
448,192,29337,1,0,0:0:0:0:
320,192,29404,1,0,0:0:0:0:
192,192,29404,1,0,0:0:0:0:
64,192,29470,1,0,0:0:0:0:
448,192,29470,1,0,0:0:0:0:
192,192,29537,1,0,0:0:0:0:
320,192,29537,1,0,0:0:0:0:
64,192,29603,1,0,0:0:0:0:
448,192,29603,1,0,0:0:0:0:
192,192,29670,1,0,0:0:0:0:
320,192,29703,1,0,0:0:0:0:
448,192,29736,1,0,0:0:0:0:
64,192,29803,1,0,0:0:0:0:
192,192,29869,1,0,0:0:0:0:
320,192,29936,1,0,0:0:0:0:
448,192,29936,1,0,0:0:0:0:
64,192,30002,1,0,0:0:0:0:
192,192,30069,1,0,0:0:0:0:
320,192,30135,1,0,0:0:0:0:
448,192,30135,1,0,0:0:0:0:
192,192,30202,1,0,0:0:0:0:
64,192,30202,1,0,0:0:0:0:
320,192,30269,1,0,0:0:0:0:
448,192,30269,1,0,0:0:0:0:
192,192,30335,1,0,0:0:0:0:
64,192,30335,1,0,0:0:0:0:
320,192,30402,1,0,0:0:0:0:
448,192,30402,1,0,0:0:0:0:
320,192,30490,1,0,0:0:0:0:
192,192,30490,1,0,0:0:0:0:
64,192,30579,1,0,0:0:0:0:
192,192,30579,1,0,0:0:0:0:
320,192,30668,1,0,0:0:0:0:
448,192,30668,1,0,0:0:0:0:
192,192,30756,1,0,0:0:0:0:
320,192,30756,1,0,0:0:0:0:
192,192,30845,1,0,0:0:0:0:
64,192,30845,1,0,0:0:0:0:
320,192,30934,1,0,0:0:0:0:
192,192,30934,1,0,0:0:0:0:
64,192,31000,1,0,0:0:0:0:
448,192,31000,1,0,0:0:0:0:
320,192,31067,1,0,0:0:0:0:
192,192,31067,1,0,0:0:0:0:
64,192,31133,1,0,0:0:0:0:
192,192,31200,1,0,0:0:0:0:
448,192,31200,1,0,0:0:0:0:
320,192,31266,1,0,0:0:0:0:
64,192,31333,1,0,0:0:0:0:
448,192,31333,1,0,0:0:0:0:
192,192,31366,1,0,0:0:0:0:
320,192,31399,1,0,0:0:0:0:
448,192,31433,1,0,0:0:0:0:
64,192,31466,1,0,0:0:0:0:
192,192,31466,1,0,0:0:0:0:
320,192,31532,1,0,0:0:0:0:
448,192,31532,1,0,0:0:0:0:
192,192,31599,1,0,0:0:0:0:
64,192,31599,1,0,0:0:0:0:
320,192,31665,1,0,0:0:0:0:
448,192,31665,1,0,0:0:0:0:
192,192,31732,1,0,0:0:0:0:
64,192,31732,1,0,0:0:0:0:
320,192,31798,1,0,0:0:0:0:
448,192,31865,1,0,0:0:0:0:
192,192,31865,1,0,0:0:0:0:
64,192,31931,1,0,0:0:0:0:
320,192,31931,1,0,0:0:0:0:
192,192,31998,1,0,0:0:0:0:
64,192,32065,1,0,0:0:0:0:
320,192,32065,1,0,0:0:0:0:
448,192,32131,1,0,0:0:0:0:
320,192,32164,1,0,0:0:0:0:
192,192,32198,1,0,0:0:0:0:
64,192,32231,1,0,0:0:0:0:
320,192,32264,1,0,0:0:0:0:
448,192,32264,1,0,0:0:0:0:
64,192,32397,1,0,0:0:0:0:
192,192,32430,1,0,0:0:0:0:
320,192,32464,1,0,0:0:0:0:
448,192,32497,1,0,0:0:0:0:
192,192,32530,1,0,0:0:0:0:
64,192,32530,1,0,0:0:0:0:
320,192,32597,1,0,0:0:0:0:
448,192,32597,1,0,0:0:0:0:
192,192,32663,1,0,0:0:0:0:
64,192,32663,1,0,0:0:0:0:
320,192,32730,1,0,0:0:0:0:
448,192,32730,1,0,0:0:0:0:
192,192,32796,1,0,0:0:0:0:
64,192,32796,1,0,0:0:0:0:
448,192,32929,1,0,0:0:0:0:
192,192,32929,1,0,0:0:0:0:
320,192,32996,1,0,0:0:0:0:
192,192,33062,1,0,0:0:0:0:
64,192,33062,1,0,0:0:0:0:
320,192,33195,1,0,0:0:0:0:
64,192,33195,1,0,0:0:0:0:
320,192,33328,1,0,0:0:0:0:
448,192,33328,1,0,0:0:0:0:
192,192,33461,1,0,0:0:0:0:
448,192,33461,1,0,0:0:0:0:
64,192,33594,1,0,0:0:0:0:
320,192,33594,1,0,0:0:0:0:
64,192,33727,1,0,0:0:0:0:
448,192,33727,1,0,0:0:0:0:
448,192,33861,1,0,0:0:0:0:
320,192,33861,1,0,0:0:0:0:
64,192,33894,1,0,0:0:0:0:
192,192,33927,1,0,0:0:0:0:
320,192,33960,1,0,0:0:0:0:
448,192,33994,1,0,0:0:0:0:
64,192,33994,1,0,0:0:0:0:
192,192,34060,1,0,0:0:0:0:
320,192,34060,1,0,0:0:0:0:
64,192,34193,1,0,0:0:0:0:
192,192,34193,1,0,0:0:0:0:
320,192,34260,1,0,0:0:0:0:
448,192,34260,1,0,0:0:0:0:
192,192,34393,128,0,34459:0:0:0:0:
64,192,34526,1,0,0:0:0:0:
192,192,34559,1,0,0:0:0:0:
320,192,34592,1,0,0:0:0:0:
448,192,34625,1,0,0:0:0:0:
64,192,34659,1,0,0:0:0:0:
192,192,34659,1,0,0:0:0:0:
320,192,34725,1,0,0:0:0:0:
448,192,34792,1,0,0:0:0:0:
64,192,34792,1,0,0:0:0:0:
192,192,34858,1,0,0:0:0:0:
320,192,34925,1,0,0:0:0:0:
448,192,34925,1,0,0:0:0:0:
64,192,34991,1,0,0:0:0:0:
192,192,35058,1,0,0:0:0:0:
320,192,35058,1,0,0:0:0:0:
448,192,35124,1,0,0:0:0:0:
320,192,35191,1,0,0:0:0:0:
64,192,35191,1,0,0:0:0:0:
192,192,35257,1,0,0:0:0:0:
320,192,35324,1,0,0:0:0:0:
448,192,35324,1,0,0:0:0:0:
64,192,35390,1,0,0:0:0:0:
192,192,35457,1,0,0:0:0:0:
448,192,35457,1,0,0:0:0:0:
320,192,35523,1,0,0:0:0:0:
192,192,35590,1,0,0:0:0:0:
64,192,35590,1,0,0:0:0:0:
320,192,35657,1,0,0:0:0:0:
448,192,35657,1,0,0:0:0:0:
192,192,35723,1,0,0:0:0:0:
64,192,35723,1,0,0:0:0:0:
320,192,35790,1,0,0:0:0:0:
448,192,35856,1,0,0:0:0:0:
192,192,35856,1,0,0:0:0:0:
64,192,35923,1,0,0:0:0:0:
320,192,35923,1,0,0:0:0:0:
448,192,35989,1,0,0:0:0:0:
192,192,35989,1,0,0:0:0:0:
320,192,36056,1,0,0:0:0:0:
64,192,36122,1,0,0:0:0:0:
448,192,36122,1,0,0:0:0:0:
320,192,36189,1,0,0:0:0:0:
192,192,36189,1,0,0:0:0:0:
64,192,36255,1,0,0:0:0:0:
448,192,36322,1,0,0:0:0:0:
192,192,36388,1,0,0:0:0:0:
64,192,36388,1,0,0:0:0:0:
320,192,36455,1,0,0:0:0:0:
448,192,36455,1,0,0:0:0:0:
192,192,36521,1,0,0:0:0:0:
64,192,36521,1,0,0:0:0:0:
448,192,36588,1,0,0:0:0:0:
320,192,36654,1,0,0:0:0:0:
192,192,36721,1,0,0:0:0:0:
64,192,36787,1,0,0:0:0:0:
448,192,36787,1,0,0:0:0:0:
192,192,36854,1,0,0:0:0:0:
320,192,36854,1,0,0:0:0:0:
448,192,36920,1,0,0:0:0:0:
64,192,36920,1,0,0:0:0:0:
192,192,36987,1,0,0:0:0:0:
320,192,37053,1,0,0:0:0:0:
448,192,37053,1,0,0:0:0:0:
64,192,37120,1,0,0:0:0:0:
192,192,37186,1,0,0:0:0:0:
320,192,37186,1,0,0:0:0:0:
448,192,37253,1,0,0:0:0:0:
192,192,37320,1,0,0:0:0:0:
64,192,37320,1,0,0:0:0:0:
320,192,37386,1,0,0:0:0:0:
448,192,37453,1,0,0:0:0:0:
192,192,37453,1,0,0:0:0:0:
64,192,37519,1,0,0:0:0:0:
192,192,37586,1,0,0:0:0:0:
320,192,37586,1,0,0:0:0:0:
448,192,37652,1,0,0:0:0:0:
192,192,37719,1,0,0:0:0:0:
64,192,37719,1,0,0:0:0:0:
320,192,37785,1,0,0:0:0:0:
448,192,37852,1,0,0:0:0:0:
64,192,37885,1,0,0:0:0:0:
320,192,37918,1,0,0:0:0:0:
192,192,37951,1,0,0:0:0:0:
448,192,37985,1,0,0:0:0:0:
64,192,38018,1,0,0:0:0:0:
320,192,38051,1,0,0:0:0:0:
192,192,38084,1,0,0:0:0:0:
448,192,38118,1,0,0:0:0:0:
64,192,38118,1,0,0:0:0:0:
64,192,38251,1,0,0:0:0:0:
192,192,38284,1,0,0:0:0:0:
320,192,38317,1,0,0:0:0:0:
448,192,38351,1,0,0:0:0:0:
64,192,38384,1,0,0:0:0:0:
192,192,38417,1,0,0:0:0:0:
320,192,38450,1,0,0:0:0:0:
448,192,38484,1,0,0:0:0:0:
64,192,38517,1,0,0:0:0:0:
192,192,38517,1,0,0:0:0:0:
192,192,38583,1,0,0:0:0:0:
320,192,38650,1,0,0:0:0:0:
448,192,38650,1,0,0:0:0:0:
192,192,38716,1,0,0:0:0:0:
64,192,38716,1,0,0:0:0:0:
320,192,38783,1,0,0:0:0:0:
448,192,38783,1,0,0:0:0:0:
192,192,38849,1,0,0:0:0:0:
64,192,38849,1,0,0:0:0:0:
320,192,38916,1,0,0:0:0:0:
448,192,38916,1,0,0:0:0:0:
192,192,39005,1,0,0:0:0:0:
64,192,39005,1,0,0:0:0:0:
320,192,39093,1,0,0:0:0:0:
448,192,39093,1,0,0:0:0:0:
192,192,39182,1,0,0:0:0:0:
64,192,39182,1,0,0:0:0:0:
320,192,39271,1,0,0:0:0:0:
448,192,39271,1,0,0:0:0:0:
192,192,39359,1,0,0:0:0:0:
64,192,39359,1,0,0:0:0:0:
448,192,39448,1,0,0:0:0:0:
320,192,39448,1,0,0:0:0:0:
192,192,39492,1,0,0:0:0:0:
64,192,39537,1,0,0:0:0:0:
320,192,39581,1,0,0:0:0:0:
448,192,39714,1,0,0:0:0:0:
192,192,39714,1,0,0:0:0:0:
64,192,39847,1,0,0:0:0:0:
192,192,39847,1,0,0:0:0:0:
448,192,39880,1,0,0:0:0:0:
320,192,39914,1,0,0:0:0:0:
192,192,39947,1,0,0:0:0:0:
448,192,39980,1,0,0:0:0:0:
64,192,39980,1,0,0:0:0:0:
320,192,40047,1,0,0:0:0:0:
192,192,40047,1,0,0:0:0:0:
64,192,40113,1,0,0:0:0:0:
448,192,40113,1,0,0:0:0:0:
320,192,40180,1,0,0:0:0:0:
192,192,40180,1,0,0:0:0:0:
448,192,40246,1,0,0:0:0:0:
64,192,40246,1,0,0:0:0:0:
320,192,40379,1,0,0:0:0:0:
448,192,40379,1,0,0:0:0:0:
192,192,40446,1,0,0:0:0:0:
64,192,40446,1,0,0:0:0:0:
192,192,40579,1,0,0:0:0:0:
64,192,40579,1,0,0:0:0:0:
448,192,40579,1,0,0:0:0:0:
448,192,40645,1,0,0:0:0:0:
320,192,40645,1,0,0:0:0:0:
64,192,40679,1,0,0:0:0:0:
192,192,40712,1,0,0:0:0:0:
320,192,40745,1,0,0:0:0:0:
448,192,40778,1,0,0:0:0:0:
64,192,40778,1,0,0:0:0:0:
192,192,40912,1,0,0:0:0:0:
64,192,40912,1,0,0:0:0:0:
448,192,40945,1,0,0:0:0:0:
320,192,40978,1,0,0:0:0:0:
192,192,41011,1,0,0:0:0:0:
64,192,41045,1,0,0:0:0:0:
448,192,41045,1,0,0:0:0:0:
320,192,41111,1,0,0:0:0:0:
192,192,41111,1,0,0:0:0:0:
64,192,41178,1,0,0:0:0:0:
448,192,41178,1,0,0:0:0:0:
320,192,41244,1,0,0:0:0:0:
192,192,41244,1,0,0:0:0:0:
64,192,41311,1,0,0:0:0:0:
448,192,41311,1,0,0:0:0:0:
320,192,41399,1,0,0:0:0:0:
192,192,41399,1,0,0:0:0:0:
64,192,41488,1,0,0:0:0:0:
448,192,41488,1,0,0:0:0:0:
320,192,41577,1,0,0:0:0:0:
192,192,41577,1,0,0:0:0:0:
192,192,41710,1,0,0:0:0:0:
64,192,41710,1,0,0:0:0:0:
192,192,41843,1,0,0:0:0:0:
320,192,41843,1,0,0:0:0:0:
320,192,41976,1,0,0:0:0:0:
448,192,41976,1,0,0:0:0:0:
192,192,42109,1,0,0:0:0:0:
64,192,42109,1,0,0:0:0:0:
320,192,42242,1,0,0:0:0:0:
448,192,42242,1,0,0:0:0:0:
64,192,42375,1,0,0:0:0:0:
192,192,42375,1,0,0:0:0:0:
448,192,42408,1,0,0:0:0:0:
320,192,42441,1,0,0:0:0:0:
192,192,42475,1,0,0:0:0:0:
64,192,42508,1,0,0:0:0:0:
448,192,42508,1,0,0:0:0:0:
192,192,42574,1,0,0:0:0:0:
448,192,42708,1,0,0:0:0:0:
64,192,42708,1,0,0:0:0:0:
192,192,42708,1,0,0:0:0:0:
320,192,42774,1,0,0:0:0:0:
192,192,42841,1,0,0:0:0:0:
64,192,42841,1,0,0:0:0:0:
192,192,42974,1,0,0:0:0:0:
320,192,43040,1,0,0:0:0:0:
448,192,43040,1,0,0:0:0:0:
64,192,43073,1,0,0:0:0:0:
192,192,43107,1,0,0:0:0:0:
320,192,43140,1,0,0:0:0:0:
448,192,43173,1,0,0:0:0:0:
448,192,43439,1,0,0:0:0:0:
192,192,43639,1,0,0:0:0:0:
320,192,43838,1,0,0:0:0:0:
64,192,44038,1,0,0:0:0:0:
192,192,44104,1,0,0:0:0:0:
320,192,44171,1,0,0:0:0:0:
448,192,44237,1,0,0:0:0:0:
64,192,44304,1,0,0:0:0:0:
320,192,44370,1,0,0:0:0:0:
192,192,44437,1,0,0:0:0:0:
64,192,44504,1,0,0:0:0:0:
192,192,44570,1,0,0:0:0:0:
320,192,44637,1,0,0:0:0:0:
64,192,44703,1,0,0:0:0:0:
448,192,44770,1,0,0:0:0:0:
192,192,44836,1,0,0:0:0:0:
320,192,44903,1,0,0:0:0:0:
448,192,44969,1,0,0:0:0:0:
64,192,45036,1,0,0:0:0:0:
192,192,45102,1,0,0:0:0:0:
320,192,45169,1,0,0:0:0:0:
192,192,45235,1,0,0:0:0:0:
64,192,45302,1,0,0:0:0:0:
448,192,45368,1,0,0:0:0:0:
192,192,45435,1,0,0:0:0:0:
448,192,45501,1,0,0:0:0:0:
320,192,45568,1,0,0:0:0:0:
192,192,45634,1,0,0:0:0:0:
64,192,45701,1,0,0:0:0:0:
448,192,45767,1,0,0:0:0:0:
192,192,45834,1,0,0:0:0:0:
320,192,45900,1,0,0:0:0:0:
192,192,45967,1,0,0:0:0:0:
64,192,46033,1,0,0:0:0:0:
448,192,46100,1,0,0:0:0:0:
192,192,46167,1,0,0:0:0:0:
320,192,46233,1,0,0:0:0:0:
448,192,46300,1,0,0:0:0:0:
64,192,46366,1,0,0:0:0:0:
192,192,46433,1,0,0:0:0:0:
320,192,46499,1,0,0:0:0:0:
64,192,46566,1,0,0:0:0:0:
192,192,46632,1,0,0:0:0:0:
448,192,46699,1,0,0:0:0:0:
320,192,46765,1,0,0:0:0:0:
192,192,46832,1,0,0:0:0:0:
64,192,46898,1,0,0:0:0:0:
320,192,46898,1,0,0:0:0:0:
448,192,46965,1,0,0:0:0:0:
64,192,47031,1,0,0:0:0:0:
320,192,47098,1,0,0:0:0:0:
192,192,47164,1,0,0:0:0:0:
448,192,47164,1,0,0:0:0:0:
64,192,47231,1,0,0:0:0:0:
448,192,47297,1,0,0:0:0:0:
320,192,47364,1,0,0:0:0:0:
192,192,47430,1,0,0:0:0:0:
64,192,47430,1,0,0:0:0:0:
448,192,47497,1,0,0:0:0:0:
320,192,47563,1,0,0:0:0:0:
192,192,47630,1,0,0:0:0:0:
64,192,47696,1,0,0:0:0:0:
320,192,47763,1,0,0:0:0:0:
192,192,47829,1,0,0:0:0:0:
320,192,47896,1,0,0:0:0:0:
448,192,47963,1,0,0:0:0:0:
64,192,48029,1,0,0:0:0:0:
320,192,48096,1,0,0:0:0:0:
192,192,48162,1,0,0:0:0:0:
64,192,48229,1,0,0:0:0:0:
192,192,48295,1,0,0:0:0:0:
320,192,48362,1,0,0:0:0:0:
448,192,48428,1,0,0:0:0:0:
64,192,48495,1,0,0:0:0:0:
192,192,48561,1,0,0:0:0:0:
320,192,48628,1,0,0:0:0:0:
64,192,48694,1,0,0:0:0:0:
448,192,48761,1,0,0:0:0:0:
320,192,48827,1,0,0:0:0:0:
448,192,48894,1,0,0:0:0:0:
192,192,48960,1,0,0:0:0:0:
64,192,49027,1,0,0:0:0:0:
320,192,49027,1,0,0:0:0:0:
448,192,49093,1,0,0:0:0:0:
192,192,49160,1,0,0:0:0:0:
320,192,49226,1,0,0:0:0:0:
448,192,49293,1,0,0:0:0:0:
64,192,49293,1,0,0:0:0:0:
320,192,49359,1,0,0:0:0:0:
192,192,49426,1,0,0:0:0:0:
64,192,49426,1,0,0:0:0:0:
448,192,49492,1,0,0:0:0:0:
320,192,49559,1,0,0:0:0:0:
192,192,49625,1,0,0:0:0:0:
64,192,49692,1,0,0:0:0:0:
320,192,49759,1,0,0:0:0:0:
64,192,49825,1,0,0:0:0:0:
192,192,49892,1,0,0:0:0:0:
320,192,49958,1,0,0:0:0:0:
448,192,50025,1,0,0:0:0:0:
64,192,50091,1,0,0:0:0:0:
192,192,50158,1,0,0:0:0:0:
320,192,50224,1,0,0:0:0:0:
64,192,50291,1,0,0:0:0:0:
448,192,50357,1,0,0:0:0:0:
320,192,50357,1,0,0:0:0:0:
192,192,50424,1,0,0:0:0:0:
320,192,50490,1,0,0:0:0:0:
64,192,50490,1,0,0:0:0:0:
448,192,50557,1,0,0:0:0:0:
64,192,50623,1,0,0:0:0:0:
192,192,50623,1,0,0:0:0:0:
320,192,50690,1,0,0:0:0:0:
192,192,50756,1,0,0:0:0:0:
64,192,50756,1,0,0:0:0:0:
320,192,50889,1,0,0:0:0:0:
448,192,50889,1,0,0:0:0:0:
192,192,51022,1,0,0:0:0:0:
64,192,51155,1,0,0:0:0:0:
320,192,51155,1,0,0:0:0:0:
192,192,51288,1,0,0:0:0:0:
320,192,51355,1,0,0:0:0:0:
448,192,51355,1,0,0:0:0:0:
64,192,51421,1,0,0:0:0:0:
320,192,51488,1,0,0:0:0:0:
448,192,51488,1,0,0:0:0:0:
192,192,51555,1,0,0:0:0:0:
64,192,51555,1,0,0:0:0:0:
320,192,51621,1,0,0:0:0:0:
192,192,51688,1,0,0:0:0:0:
64,192,51688,1,0,0:0:0:0:
448,192,51688,1,0,0:0:0:0:
320,192,51754,1,0,0:0:0:0:
448,192,51821,1,0,0:0:0:0:
64,192,51887,1,0,0:0:0:0:
192,192,51954,1,0,0:0:0:0:
320,192,51954,1,0,0:0:0:0:
448,192,52020,1,0,0:0:0:0:
64,192,52087,1,0,0:0:0:0:
192,192,52153,1,0,0:0:0:0:
320,192,52220,1,0,0:0:0:0:
448,192,52220,1,0,0:0:0:0:
64,192,52286,1,0,0:0:0:0:
320,192,52353,1,0,0:0:0:0:
192,192,52419,1,0,0:0:0:0:
64,192,52486,1,0,0:0:0:0:
448,192,52486,1,0,0:0:0:0:
320,192,52552,1,0,0:0:0:0:
192,192,52619,1,0,0:0:0:0:
320,192,52685,1,0,0:0:0:0:
448,192,52752,1,0,0:0:0:0:
64,192,52752,1,0,0:0:0:0:
192,192,52818,1,0,0:0:0:0:
448,192,52885,1,0,0:0:0:0:
320,192,52951,1,0,0:0:0:0:
192,192,53018,1,0,0:0:0:0:
448,192,53018,1,0,0:0:0:0:
64,192,53084,1,0,0:0:0:0:
320,192,53151,1,0,0:0:0:0:
192,192,53218,1,0,0:0:0:0:
64,192,53284,1,0,0:0:0:0:
320,192,53284,1,0,0:0:0:0:
448,192,53351,1,0,0:0:0:0:
192,192,53417,1,0,0:0:0:0:
320,192,53484,1,0,0:0:0:0:
192,192,53550,1,0,0:0:0:0:
448,192,53550,1,0,0:0:0:0:
64,192,53617,1,0,0:0:0:0:
320,192,53683,1,0,0:0:0:0:
192,192,53750,1,0,0:0:0:0:
64,192,53816,1,0,0:0:0:0:
320,192,53816,1,0,0:0:0:0:
448,192,53816,1,0,0:0:0:0:
192,192,53883,1,0,0:0:0:0:
448,192,53949,1,0,0:0:0:0:
320,192,54016,1,0,0:0:0:0:
192,192,54082,1,0,0:0:0:0:
64,192,54082,1,0,0:0:0:0:
448,192,54149,1,0,0:0:0:0:
192,192,54215,1,0,0:0:0:0:
320,192,54282,1,0,0:0:0:0:
448,192,54348,1,0,0:0:0:0:
64,192,54348,1,0,0:0:0:0:
192,192,54415,1,0,0:0:0:0:
320,192,54481,1,0,0:0:0:0:
448,192,54548,1,0,0:0:0:0:
192,192,54614,1,0,0:0:0:0:
64,192,54614,1,0,0:0:0:0:
448,192,54681,1,0,0:0:0:0:
320,192,54747,1,0,0:0:0:0:
192,192,54814,1,0,0:0:0:0:
64,192,54880,1,0,0:0:0:0:
320,192,54880,1,0,0:0:0:0:
448,192,54947,1,0,0:0:0:0:
192,192,55014,1,0,0:0:0:0:
320,192,55080,1,0,0:0:0:0:
448,192,55147,1,0,0:0:0:0:
64,192,55147,1,0,0:0:0:0:
192,192,55213,1,0,0:0:0:0:
320,192,55280,1,0,0:0:0:0:
192,192,55346,1,0,0:0:0:0:
64,192,55413,1,0,0:0:0:0:
320,192,55413,1,0,0:0:0:0:
192,192,55479,1,0,0:0:0:0:
320,192,55546,1,0,0:0:0:0:
448,192,55546,1,0,0:0:0:0:
192,192,55612,1,0,0:0:0:0:
64,192,55679,1,0,0:0:0:0:
320,192,55679,1,0,0:0:0:0:
448,192,55745,1,0,0:0:0:0:
64,192,55812,1,0,0:0:0:0:
192,192,55812,1,0,0:0:0:0:
448,192,55845,1,0,0:0:0:0:
320,192,55878,1,0,0:0:0:0:
192,192,55912,1,0,0:0:0:0:
64,192,55945,1,0,0:0:0:0:
448,192,55945,1,0,0:0:0:0:
64,192,56078,1,0,0:0:0:0:
192,192,56078,1,0,0:0:0:0:
320,192,56211,1,0,0:0:0:0:
448,192,56211,1,0,0:0:0:0:
64,192,56344,1,0,0:0:0:0:
320,192,56344,1,0,0:0:0:0:
192,192,56477,1,0,0:0:0:0:
448,192,56477,1,0,0:0:0:0:
320,192,56610,1,0,0:0:0:0:
192,192,56610,1,0,0:0:0:0:
320,192,56743,1,0,0:0:0:0:
64,192,56743,1,0,0:0:0:0:
192,192,56876,1,0,0:0:0:0:
448,192,56876,1,0,0:0:0:0:
192,192,57009,1,0,0:0:0:0:
64,192,57009,1,0,0:0:0:0:
320,192,57076,1,0,0:0:0:0:
448,192,57076,1,0,0:0:0:0:
192,192,57142,1,0,0:0:0:0:
64,192,57142,1,0,0:0:0:0:
320,192,57209,1,0,0:0:0:0:
448,192,57209,1,0,0:0:0:0:
64,192,57275,1,0,0:0:0:0:
192,192,57275,1,0,0:0:0:0:
320,192,57342,1,0,0:0:0:0:
448,192,57342,1,0,0:0:0:0:
192,192,57408,1,0,0:0:0:0:
64,192,57408,1,0,0:0:0:0:
320,192,57475,1,0,0:0:0:0:
448,192,57475,1,0,0:0:0:0:
192,192,57541,1,0,0:0:0:0:
64,192,57541,1,0,0:0:0:0:
320,192,57608,1,0,0:0:0:0:
448,192,57608,1,0,0:0:0:0:
192,192,57674,1,0,0:0:0:0:
64,192,57674,1,0,0:0:0:0:
320,192,57741,1,0,0:0:0:0:
448,192,57741,1,0,0:0:0:0:
192,192,57807,1,0,0:0:0:0:
64,192,57807,1,0,0:0:0:0:
320,192,57874,1,0,0:0:0:0:
448,192,57874,1,0,0:0:0:0:
192,192,57940,1,0,0:0:0:0:
64,192,57940,1,0,0:0:0:0:
320,192,58007,1,0,0:0:0:0:
448,192,58007,1,0,0:0:0:0:
192,192,58073,128,0,58606:0:0:0:0:
64,192,58872,1,0,0:0:0:0:
320,192,59005,1,0,0:0:0:0:
192,192,59670,128,0,59869:0:0:0:0:
64,192,59670,128,0,59869:0:0:0:0:
320,192,59936,128,0,60135:0:0:0:0:
448,192,59936,128,0,60135:0:0:0:0:
64,192,60202,128,0,60468:0:0:0:0:
192,192,60202,128,0,60468:0:0:0:0:
448,192,60468,1,0,0:0:0:0:
320,192,60557,1,0,0:0:0:0:
192,192,60645,1,0,0:0:0:0:
64,192,60734,1,0,0:0:0:0:
192,192,60823,1,0,0:0:0:0:
320,192,60912,1,0,0:0:0:0:
448,192,61000,1,0,0:0:0:0:
192,192,61089,1,0,0:0:0:0:
64,192,61133,1,0,0:0:0:0:
320,192,61178,1,0,0:0:0:0:
448,192,61200,1,0,0:0:0:0:
64,192,61266,1,0,0:0:0:0:
192,192,61266,1,0,0:0:0:0:
320,192,61333,1,0,0:0:0:0:
448,192,61399,1,0,0:0:0:0:
64,192,61399,1,0,0:0:0:0:
192,192,61466,1,0,0:0:0:0:
448,192,61532,128,0,61798:0:0:0:0:
320,192,61532,128,0,61798:0:0:0:0:
64,192,61665,1,0,0:0:0:0:
192,192,61798,1,0,0:0:0:0:
64,192,61798,1,0,0:0:0:0:
448,192,61898,1,0,0:0:0:0:
192,192,61998,1,0,0:0:0:0:
320,192,61998,1,0,0:0:0:0:
64,192,62098,1,0,0:0:0:0:
320,192,62198,1,0,0:0:0:0:
448,192,62198,1,0,0:0:0:0:
64,192,62331,128,0,62597:0:0:0:0:
192,192,62331,1,0,0:0:0:0:
320,192,62530,1,0,0:0:0:0:
192,192,62530,1,0,0:0:0:0:
448,192,62597,128,0,62863:0:0:0:0:
192,192,62730,1,0,0:0:0:0:
64,192,62730,1,0,0:0:0:0:
320,192,62863,128,0,62996:0:0:0:0:
64,192,62996,128,0,63129:0:0:0:0:
320,192,63129,128,0,63262:0:0:0:0:
448,192,63262,128,0,63395:0:0:0:0:
64,192,63262,1,0,0:0:0:0:
192,192,63328,1,0,0:0:0:0:
320,192,63395,128,0,63528:0:0:0:0:
64,192,63395,1,0,0:0:0:0:
448,192,63661,128,0,63794:0:0:0:0:
192,192,63661,1,0,0:0:0:0:
64,192,63927,1,0,0:0:0:0:
320,192,63994,1,0,0:0:0:0:
64,192,64060,1,0,0:0:0:0:
320,192,64127,1,0,0:0:0:0:
192,192,64193,128,0,64326:0:0:0:0:
64,192,64459,1,0,0:0:0:0:
320,192,64459,1,0,0:0:0:0:
448,192,64459,1,0,0:0:0:0:
320,192,64592,1,0,0:0:0:0:
192,192,64592,1,0,0:0:0:0:
64,192,64725,1,0,0:0:0:0:
192,192,64725,1,0,0:0:0:0:
448,192,64858,1,0,0:0:0:0:
320,192,64858,1,0,0:0:0:0:
320,192,65124,1,0,0:0:0:0:
64,192,65124,1,0,0:0:0:0:
192,192,65390,1,0,0:0:0:0:
448,192,65390,1,0,0:0:0:0:
64,192,65523,1,0,0:0:0:0:
192,192,65557,1,0,0:0:0:0:
320,192,65590,1,0,0:0:0:0:
448,192,65623,1,0,0:0:0:0:
64,192,65657,1,0,0:0:0:0:
192,192,65690,1,0,0:0:0:0:
320,192,65723,1,0,0:0:0:0:
448,192,65756,1,0,0:0:0:0:
192,192,65790,1,0,0:0:0:0:
64,192,65790,1,0,0:0:0:0:
192,192,65923,1,0,0:0:0:0:
64,192,65923,1,0,0:0:0:0:
320,192,66056,1,0,0:0:0:0:
448,192,66056,1,0,0:0:0:0:
64,192,66122,1,0,0:0:0:0:
192,192,66189,1,0,0:0:0:0:
320,192,66189,1,0,0:0:0:0:
448,192,66255,1,0,0:0:0:0:
192,192,66322,1,0,0:0:0:0:
64,192,66322,1,0,0:0:0:0:
320,192,66388,1,0,0:0:0:0:
448,192,66455,1,0,0:0:0:0:
64,192,66455,1,0,0:0:0:0:
192,192,66521,1,0,0:0:0:0:
448,192,66588,1,0,0:0:0:0:
320,192,66588,128,0,66854:0:0:0:0:
64,192,66854,128,0,67120:0:0:0:0:
192,192,67120,1,0,0:0:0:0:
320,192,67209,1,0,0:0:0:0:
448,192,67297,1,0,0:0:0:0:
192,192,67386,1,0,0:0:0:0:
448,192,67475,1,0,0:0:0:0:
320,192,67563,5,0,0:0:0:0:
64,192,67652,1,0,0:0:0:0:
192,192,67785,1,0,0:0:0:0:
448,192,67918,1,0,0:0:0:0:
320,192,68051,1,0,0:0:0:0:
64,192,68184,1,0,0:0:0:0:
320,192,68317,128,0,68450:0:0:0:0:
192,192,68450,1,0,0:0:0:0:
320,192,68583,128,0,68716:0:0:0:0:
64,192,68716,5,0,0:0:0:0:
448,192,68716,1,0,0:0:0:0:
320,192,68949,1,0,0:0:0:0:
448,192,68982,1,0,0:0:0:0:
320,192,69249,1,0,0:0:0:0:
192,192,69382,1,0,0:0:0:0:
64,192,69515,1,0,0:0:0:0:
448,192,69648,1,0,0:0:0:0:
320,192,69714,1,0,0:0:0:0:
192,192,69781,1,0,0:0:0:0:
64,192,69914,1,0,0:0:0:0:
192,192,69980,1,0,0:0:0:0:
320,192,70047,1,0,0:0:0:0:
64,192,70180,1,0,0:0:0:0:
448,192,70246,1,0,0:0:0:0:
192,192,70313,1,0,0:0:0:0:
320,192,70446,1,0,0:0:0:0:
320,192,70579,128,0,70712:0:0:0:0:
192,192,70778,1,0,0:0:0:0:
64,192,70845,128,0,71244:0:0:0:0:
448,192,70845,1,0,0:0:0:0:
320,192,70978,1,0,0:0:0:0:
192,192,71111,1,0,0:0:0:0:
320,192,71244,1,0,0:0:0:0:
64,192,71377,1,0,0:0:0:0:
192,192,71510,1,0,0:0:0:0:
320,192,71743,1,0,0:0:0:0:
448,192,71776,1,0,0:0:0:0:
192,192,71843,1,0,0:0:0:0:
320,192,71909,1,0,0:0:0:0:
64,192,72042,1,0,0:0:0:0:
192,192,72109,1,0,0:0:0:0:
448,192,72175,1,0,0:0:0:0:
64,192,72308,1,0,0:0:0:0:
320,192,72441,1,0,0:0:0:0:
448,192,72574,1,0,0:0:0:0:
192,192,72708,1,0,0:0:0:0:
448,192,72774,1,0,0:0:0:0:
320,192,72841,1,0,0:0:0:0:
192,192,72907,1,0,0:0:0:0:
64,192,72974,1,0,0:0:0:0:
192,192,73107,1,0,0:0:0:0:
320,192,73206,1,0,0:0:0:0:
448,192,73240,1,0,0:0:0:0:
64,192,73373,1,0,0:0:0:0:
448,192,73506,1,0,0:0:0:0:
320,192,73639,1,0,0:0:0:0:
448,192,73772,1,0,0:0:0:0:
192,192,73905,1,0,0:0:0:0:
64,192,73971,1,0,0:0:0:0:
320,192,74038,1,0,0:0:0:0:
448,192,74171,1,0,0:0:0:0:
320,192,74237,1,0,0:0:0:0:
192,192,74304,1,0,0:0:0:0:
448,192,74370,1,0,0:0:0:0:
192,192,74437,1,0,0:0:0:0:
320,192,74504,1,0,0:0:0:0:
64,192,74570,1,0,0:0:0:0:
448,192,74570,1,0,0:0:0:0:
320,192,74637,1,0,0:0:0:0:
192,192,74703,1,0,0:0:0:0:
448,192,74770,1,0,0:0:0:0:
192,192,74836,1,0,0:0:0:0:
64,192,74903,1,0,0:0:0:0:
320,192,74969,1,0,0:0:0:0:
192,192,75036,1,0,0:0:0:0:
448,192,75102,1,0,0:0:0:0:
64,192,75169,1,0,0:0:0:0:
448,192,75235,1,0,0:0:0:0:
64,192,75302,1,0,0:0:0:0:
320,192,75368,1,0,0:0:0:0:
192,192,75435,1,0,0:0:0:0:
320,192,75501,1,0,0:0:0:0:
192,192,75568,1,0,0:0:0:0:
320,192,75634,1,0,0:0:0:0:
448,192,75634,1,0,0:0:0:0:
192,192,75701,1,0,0:0:0:0:
64,192,75701,1,0,0:0:0:0:
320,192,75767,1,0,0:0:0:0:
448,192,75767,1,0,0:0:0:0:
192,192,75834,1,0,0:0:0:0:
64,192,75834,1,0,0:0:0:0:
448,192,75900,1,0,0:0:0:0:
320,192,75900,1,0,0:0:0:0:
192,192,75967,1,0,0:0:0:0:
64,192,75967,1,0,0:0:0:0:
320,192,76033,1,0,0:0:0:0:
448,192,76033,1,0,0:0:0:0:
192,192,76100,1,0,0:0:0:0:
64,192,76100,1,0,0:0:0:0:
320,192,76167,128,0,76566:0:0:0:0:
448,192,76167,128,0,76566:0:0:0:0:
64,192,76699,1,0,0:0:0:0:
448,192,76699,128,0,76832:0:0:0:0:
320,192,76699,128,0,76832:0:0:0:0:
64,192,76898,1,0,0:0:0:0:
320,192,76898,128,0,77031:0:0:0:0:
192,192,76898,128,0,77031:0:0:0:0:
64,192,77098,1,0,0:0:0:0:
320,192,77098,128,0,77231:0:0:0:0:
448,192,77098,128,0,77231:0:0:0:0:
192,192,77231,1,0,0:0:0:0:
64,192,77231,1,0,0:0:0:0:
320,192,77297,1,0,0:0:0:0:
448,192,77364,1,0,0:0:0:0:
64,192,77364,1,0,0:0:0:0:
192,192,77430,1,0,0:0:0:0:
320,192,77497,1,0,0:0:0:0:
448,192,77497,1,0,0:0:0:0:
64,192,77563,1,0,0:0:0:0:
192,192,77630,1,0,0:0:0:0:
320,192,77630,1,0,0:0:0:0:
448,192,77696,1,0,0:0:0:0:
320,192,77763,1,0,0:0:0:0:
64,192,77763,1,0,0:0:0:0:
192,192,77829,1,0,0:0:0:0:
320,192,77896,1,0,0:0:0:0:
448,192,77896,1,0,0:0:0:0:
64,192,77963,1,0,0:0:0:0:
192,192,78029,1,0,0:0:0:0:
448,192,78029,1,0,0:0:0:0:
320,192,78096,1,0,0:0:0:0:
192,192,78162,1,0,0:0:0:0:
64,192,78162,1,0,0:0:0:0:
448,192,78229,1,0,0:0:0:0:
320,192,78295,1,0,0:0:0:0:
64,192,78295,1,0,0:0:0:0:
192,192,78362,1,0,0:0:0:0:
320,192,78428,1,0,0:0:0:0:
448,192,78428,1,0,0:0:0:0:
64,192,78495,1,0,0:0:0:0:
192,192,78561,1,0,0:0:0:0:
320,192,78561,1,0,0:0:0:0:
448,192,78628,1,0,0:0:0:0:
64,192,78694,1,0,0:0:0:0:
320,192,78694,1,0,0:0:0:0:
192,192,78761,1,0,0:0:0:0:
320,192,78827,1,0,0:0:0:0:
448,192,78827,1,0,0:0:0:0:
64,192,78894,1,0,0:0:0:0:
192,192,78960,1,0,0:0:0:0:
320,192,78960,1,0,0:0:0:0:
448,192,79027,1,0,0:0:0:0:
192,192,79093,1,0,0:0:0:0:
64,192,79093,1,0,0:0:0:0:
320,192,79160,1,0,0:0:0:0:
448,192,79160,1,0,0:0:0:0:
192,192,79226,1,0,0:0:0:0:
64,192,79226,1,0,0:0:0:0:
320,192,79293,1,0,0:0:0:0:
448,192,79293,1,0,0:0:0:0:
192,192,79359,1,0,0:0:0:0:
64,192,79359,1,0,0:0:0:0:
320,192,79426,1,0,0:0:0:0:
448,192,79492,1,0,0:0:0:0:
64,192,79492,1,0,0:0:0:0:
192,192,79559,1,0,0:0:0:0:
320,192,79625,1,0,0:0:0:0:
448,192,79625,1,0,0:0:0:0:
64,192,79692,1,0,0:0:0:0:
192,192,79759,1,0,0:0:0:0:
320,192,79759,1,0,0:0:0:0:
448,192,79825,1,0,0:0:0:0:
192,192,79892,1,0,0:0:0:0:
64,192,79892,1,0,0:0:0:0:
320,192,79958,1,0,0:0:0:0:
448,192,80025,1,0,0:0:0:0:
64,192,80025,1,0,0:0:0:0:
320,192,80091,1,0,0:0:0:0:
192,192,80158,1,0,0:0:0:0:
64,192,80158,1,0,0:0:0:0:
448,192,80224,1,0,0:0:0:0:
320,192,80291,1,0,0:0:0:0:
192,192,80291,1,0,0:0:0:0:
64,192,80357,1,0,0:0:0:0:
448,192,80424,1,0,0:0:0:0:
192,192,80424,1,0,0:0:0:0:
320,192,80490,1,0,0:0:0:0:
192,192,80557,1,0,0:0:0:0:
64,192,80557,1,0,0:0:0:0:
320,192,80623,1,0,0:0:0:0:
448,192,80690,1,0,0:0:0:0:
64,192,80690,1,0,0:0:0:0:
192,192,80756,1,0,0:0:0:0:
320,192,80823,1,0,0:0:0:0:
448,192,80823,1,0,0:0:0:0:
64,192,80889,1,0,0:0:0:0:
320,192,80956,1,0,0:0:0:0:
448,192,80956,1,0,0:0:0:0:
192,192,81022,1,0,0:0:0:0:
64,192,81022,1,0,0:0:0:0:
320,192,81089,1,0,0:0:0:0:
192,192,81155,1,0,0:0:0:0:
448,192,81155,1,0,0:0:0:0:
64,192,81222,1,0,0:0:0:0:
320,192,81288,1,0,0:0:0:0:
64,192,81355,1,0,0:0:0:0:
448,192,81355,1,0,0:0:0:0:
320,192,81421,1,0,0:0:0:0:
192,192,81421,1,0,0:0:0:0:
64,192,81488,1,0,0:0:0:0:
448,192,81488,1,0,0:0:0:0:
192,192,81555,1,0,0:0:0:0:
320,192,81621,1,0,0:0:0:0:
448,192,81621,1,0,0:0:0:0:
64,192,81688,1,0,0:0:0:0:
192,192,81754,1,0,0:0:0:0:
320,192,81754,1,0,0:0:0:0:
448,192,81821,1,0,0:0:0:0:
320,192,81887,1,0,0:0:0:0:
64,192,81887,1,0,0:0:0:0:
192,192,81954,1,0,0:0:0:0:
320,192,82020,1,0,0:0:0:0:
448,192,82020,1,0,0:0:0:0:
64,192,82087,1,0,0:0:0:0:
192,192,82153,1,0,0:0:0:0:
448,192,82153,1,0,0:0:0:0:
320,192,82220,1,0,0:0:0:0:
192,192,82286,1,0,0:0:0:0:
64,192,82286,1,0,0:0:0:0:
448,192,82353,1,0,0:0:0:0:
320,192,82353,1,0,0:0:0:0:
64,192,82419,1,0,0:0:0:0:
192,192,82419,1,0,0:0:0:0:
320,192,82486,1,0,0:0:0:0:
448,192,82486,1,0,0:0:0:0:
192,192,82552,1,0,0:0:0:0:
64,192,82552,1,0,0:0:0:0:
448,192,82619,1,0,0:0:0:0:
192,192,82685,1,0,0:0:0:0:
320,192,82685,1,0,0:0:0:0:
448,192,82752,1,0,0:0:0:0:
64,192,82818,1,0,0:0:0:0:
320,192,82818,1,0,0:0:0:0:
192,192,82885,1,0,0:0:0:0:
320,192,82951,1,0,0:0:0:0:
448,192,82951,1,0,0:0:0:0:
192,192,83018,1,0,0:0:0:0:
64,192,83084,1,0,0:0:0:0:
320,192,83084,1,0,0:0:0:0:
192,192,83151,1,0,0:0:0:0:
448,192,83218,1,0,0:0:0:0:
320,192,83218,1,0,0:0:0:0:
192,192,83284,1,0,0:0:0:0:
448,192,83351,1,0,0:0:0:0:
64,192,83351,1,0,0:0:0:0:
320,192,83417,1,0,0:0:0:0:
192,192,83417,1,0,0:0:0:0:
64,192,83484,1,0,0:0:0:0:
448,192,83484,1,0,0:0:0:0:
320,192,83550,1,0,0:0:0:0:
192,192,83550,1,0,0:0:0:0:
64,192,83617,1,0,0:0:0:0:
448,192,83617,1,0,0:0:0:0:
320,192,83683,1,0,0:0:0:0:
192,192,83750,1,0,0:0:0:0:
64,192,83750,1,0,0:0:0:0:
448,192,83816,1,0,0:0:0:0:
320,192,83883,1,0,0:0:0:0:
192,192,83883,1,0,0:0:0:0:
64,192,83949,1,0,0:0:0:0:
448,192,83949,1,0,0:0:0:0:
192,192,84016,1,0,0:0:0:0:
320,192,84016,1,0,0:0:0:0:
448,192,84082,1,0,0:0:0:0:
64,192,84082,1,0,0:0:0:0:
192,192,84149,1,0,0:0:0:0:
320,192,84149,1,0,0:0:0:0:
64,192,84215,1,0,0:0:0:0:
448,192,84282,1,0,0:0:0:0:
320,192,84282,1,0,0:0:0:0:
192,192,84348,1,0,0:0:0:0:
64,192,84415,1,0,0:0:0:0:
320,192,84415,1,0,0:0:0:0:
448,192,84481,1,0,0:0:0:0:
192,192,84481,1,0,0:0:0:0:
320,192,84548,1,0,0:0:0:0:
64,192,84548,1,0,0:0:0:0:
192,192,84614,1,0,0:0:0:0:
448,192,84614,1,0,0:0:0:0:
320,192,84681,128,0,84947:0:0:0:0:
64,192,84681,128,0,84814:0:0:0:0:
192,192,84814,128,0,84947:0:0:0:0:
448,192,84947,1,0,0:0:0:0:
448,192,85036,1,0,0:0:0:0:
448,192,85124,1,0,0:0:0:0:
64,192,85213,1,0,0:0:0:0:
192,192,85246,1,0,0:0:0:0:
320,192,85280,1,0,0:0:0:0:
448,192,85313,1,0,0:0:0:0:
64,192,85346,1,0,0:0:0:0:
192,192,85379,1,0,0:0:0:0:
320,192,85413,1,0,0:0:0:0:
448,192,85446,1,0,0:0:0:0:
64,192,85479,1,0,0:0:0:0:
192,192,85512,1,0,0:0:0:0:
320,192,85546,1,0,0:0:0:0:
448,192,85612,1,0,0:0:0:0:
320,192,85679,1,0,0:0:0:0:
192,192,85745,1,0,0:0:0:0:
64,192,85745,1,0,0:0:0:0:
320,192,85812,1,0,0:0:0:0:
448,192,85812,1,0,0:0:0:0:
192,192,85878,1,0,0:0:0:0:
64,192,85878,1,0,0:0:0:0:
320,192,85945,1,0,0:0:0:0:
448,192,85945,1,0,0:0:0:0:
192,192,86011,1,0,0:0:0:0:
64,192,86011,1,0,0:0:0:0:
320,192,86078,1,0,0:0:0:0:
448,192,86078,1,0,0:0:0:0:
192,192,86144,1,0,0:0:0:0:
64,192,86144,1,0,0:0:0:0:
320,192,86211,1,0,0:0:0:0:
448,192,86211,1,0,0:0:0:0:
192,192,86277,1,0,0:0:0:0:
64,192,86277,1,0,0:0:0:0:
320,192,86344,1,0,0:0:0:0:
448,192,86344,1,0,0:0:0:0:
192,192,86410,1,0,0:0:0:0:
64,192,86410,1,0,0:0:0:0:
320,192,86477,1,0,0:0:0:0:
448,192,86477,1,0,0:0:0:0:
192,192,86543,1,0,0:0:0:0:
64,192,86543,1,0,0:0:0:0:
320,192,86610,1,0,0:0:0:0:
448,192,86610,1,0,0:0:0:0:
192,192,86676,1,0,0:0:0:0:
64,192,86676,1,0,0:0:0:0:
320,192,86743,1,0,0:0:0:0:
448,192,86743,1,0,0:0:0:0:
192,192,86810,1,0,0:0:0:0:
64,192,86810,1,0,0:0:0:0:
320,192,86876,1,0,0:0:0:0:
448,192,86876,1,0,0:0:0:0:
192,192,86943,1,0,0:0:0:0:
64,192,86943,1,0,0:0:0:0:
320,192,87009,1,0,0:0:0:0:
448,192,87009,1,0,0:0:0:0:
192,192,87076,1,0,0:0:0:0:
64,192,87076,1,0,0:0:0:0:
320,192,87142,1,0,0:0:0:0:
448,192,87142,1,0,0:0:0:0:
192,192,87209,1,0,0:0:0:0:
64,192,87209,1,0,0:0:0:0:
448,192,87275,1,0,0:0:0:0:
320,192,87308,1,0,0:0:0:0:
64,192,87342,1,0,0:0:0:0:
192,192,87375,1,0,0:0:0:0:
320,192,87408,1,0,0:0:0:0:
448,192,87441,1,0,0:0:0:0:
64,192,87475,1,0,0:0:0:0:
192,192,87508,1,0,0:0:0:0:
320,192,87541,1,0,0:0:0:0:
448,192,87608,1,0,0:0:0:0:
320,192,87674,1,0,0:0:0:0:
192,192,87741,1,0,0:0:0:0:
320,192,87807,1,0,0:0:0:0:
192,192,87874,1,0,0:0:0:0:
64,192,87874,1,0,0:0:0:0:
320,192,87940,1,0,0:0:0:0:
448,192,87940,1,0,0:0:0:0:
192,192,88007,1,0,0:0:0:0:
64,192,88007,1,0,0:0:0:0:
320,192,88073,1,0,0:0:0:0:
448,192,88073,1,0,0:0:0:0:
192,192,88140,1,0,0:0:0:0:
64,192,88140,1,0,0:0:0:0:
320,192,88206,1,0,0:0:0:0:
448,192,88206,1,0,0:0:0:0:
192,192,88273,1,0,0:0:0:0:
64,192,88273,1,0,0:0:0:0:
320,192,88339,1,0,0:0:0:0:
448,192,88339,1,0,0:0:0:0:
192,192,88406,1,0,0:0:0:0:
64,192,88406,1,0,0:0:0:0:
320,192,88472,1,0,0:0:0:0:
448,192,88472,1,0,0:0:0:0:
192,192,88539,1,0,0:0:0:0:
64,192,88539,1,0,0:0:0:0:
448,192,88606,1,0,0:0:0:0:
320,192,88639,1,0,0:0:0:0:
64,192,88672,1,0,0:0:0:0:
192,192,88705,1,0,0:0:0:0:
320,192,88739,1,0,0:0:0:0:
448,192,88772,1,0,0:0:0:0:
64,192,88805,1,0,0:0:0:0:
192,192,88838,1,0,0:0:0:0:
320,192,88872,1,0,0:0:0:0:
448,192,88905,1,0,0:0:0:0:
64,192,88938,1,0,0:0:0:0:
192,192,89005,1,0,0:0:0:0:
448,192,89071,1,0,0:0:0:0:
320,192,89138,1,0,0:0:0:0:
64,192,89204,1,0,0:0:0:0:
192,192,89237,1,0,0:0:0:0:
448,192,89271,1,0,0:0:0:0:
320,192,89304,1,0,0:0:0:0:
64,192,89337,1,0,0:0:0:0:
192,192,89404,1,0,0:0:0:0:
320,192,89470,1,0,0:0:0:0:
448,192,89470,1,0,0:0:0:0:
64,192,89470,1,0,0:0:0:0:
192,192,89603,1,0,0:0:0:0:
64,192,89603,1,0,0:0:0:0:
448,192,89637,1,0,0:0:0:0:
320,192,89670,1,0,0:0:0:0:
192,192,89703,1,0,0:0:0:0:
64,192,89736,1,0,0:0:0:0:
448,192,89736,1,0,0:0:0:0:
320,192,89736,1,0,0:0:0:0:
320,192,89869,1,0,0:0:0:0:
448,192,89869,1,0,0:0:0:0:
192,192,90002,1,0,0:0:0:0:
64,192,90002,1,0,0:0:0:0:
320,192,90069,1,0,0:0:0:0:
448,192,90069,1,0,0:0:0:0:
192,192,90135,1,0,0:0:0:0:
64,192,90135,1,0,0:0:0:0:
320,192,90202,1,0,0:0:0:0:
448,192,90202,1,0,0:0:0:0:
192,192,90269,1,0,0:0:0:0:
64,192,90269,1,0,0:0:0:0:
320,192,90335,1,0,0:0:0:0:
448,192,90335,1,0,0:0:0:0:
192,192,90402,1,0,0:0:0:0:
64,192,90402,1,0,0:0:0:0:
320,192,90468,1,0,0:0:0:0:
448,192,90468,1,0,0:0:0:0:
64,192,90535,1,0,0:0:0:0:
192,192,90568,1,0,0:0:0:0:
320,192,90601,1,0,0:0:0:0:
448,192,90634,1,0,0:0:0:0:
192,192,90668,1,0,0:0:0:0:
320,192,90701,1,0,0:0:0:0:
192,192,90734,1,0,0:0:0:0:
64,192,90734,1,0,0:0:0:0:
320,192,90801,1,0,0:0:0:0:
448,192,90801,1,0,0:0:0:0:
192,192,90867,1,0,0:0:0:0:
64,192,90867,1,0,0:0:0:0:
320,192,90934,1,0,0:0:0:0:
448,192,90934,1,0,0:0:0:0:
192,192,91000,1,0,0:0:0:0:
64,192,91000,1,0,0:0:0:0:
320,192,91067,1,0,0:0:0:0:
448,192,91067,1,0,0:0:0:0:
192,192,91133,1,0,0:0:0:0:
64,192,91133,1,0,0:0:0:0:
320,192,91200,1,0,0:0:0:0:
448,192,91200,1,0,0:0:0:0:
192,192,91266,1,0,0:0:0:0:
64,192,91266,1,0,0:0:0:0:
320,192,91333,1,0,0:0:0:0:
448,192,91333,1,0,0:0:0:0:
192,192,91399,1,0,0:0:0:0:
64,192,91399,1,0,0:0:0:0:
320,192,91466,1,0,0:0:0:0:
448,192,91466,1,0,0:0:0:0:
192,192,91532,1,0,0:0:0:0:
64,192,91532,1,0,0:0:0:0:
320,192,91599,1,0,0:0:0:0:
448,192,91599,1,0,0:0:0:0:
64,192,91665,1,0,0:0:0:0:
192,192,91732,1,0,0:0:0:0:
320,192,91798,1,0,0:0:0:0:
448,192,91865,1,0,0:0:0:0:
64,192,91865,1,0,0:0:0:0:
192,192,91998,1,0,0:0:0:0:
320,192,91998,1,0,0:0:0:0:
448,192,92131,1,0,0:0:0:0:
320,192,92164,1,0,0:0:0:0:
64,192,92198,1,0,0:0:0:0:
192,192,92231,1,0,0:0:0:0:
448,192,92264,1,0,0:0:0:0:
320,192,92297,1,0,0:0:0:0:
192,192,92331,1,0,0:0:0:0:
64,192,92364,1,0,0:0:0:0:
448,192,92397,1,0,0:0:0:0:
320,192,92430,1,0,0:0:0:0:
64,192,92464,1,0,0:0:0:0:
192,192,92497,1,0,0:0:0:0:
448,192,92530,1,0,0:0:0:0:
320,192,92563,1,0,0:0:0:0:
192,192,92597,1,0,0:0:0:0:
64,192,92630,1,0,0:0:0:0:
448,192,92663,1,0,0:0:0:0:
320,192,92696,1,0,0:0:0:0:
64,192,92730,1,0,0:0:0:0:
192,192,92763,1,0,0:0:0:0:
448,192,92796,1,0,0:0:0:0:
320,192,92829,1,0,0:0:0:0:
64,192,92863,1,0,0:0:0:0:
192,192,92896,1,0,0:0:0:0:
448,192,92929,1,0,0:0:0:0:
320,192,92963,1,0,0:0:0:0:
192,192,92996,1,0,0:0:0:0:
64,192,93029,1,0,0:0:0:0:
448,192,93062,1,0,0:0:0:0:
320,192,93096,1,0,0:0:0:0:
64,192,93129,1,0,0:0:0:0:
192,192,93162,1,0,0:0:0:0:
448,192,93195,1,0,0:0:0:0:
320,192,93229,1,0,0:0:0:0:
64,192,93262,1,0,0:0:0:0:
192,192,93295,1,0,0:0:0:0:
448,192,93328,1,0,0:0:0:0:
320,192,93362,1,0,0:0:0:0:
192,192,93395,1,0,0:0:0:0:
64,192,93428,1,0,0:0:0:0:
448,192,93461,1,0,0:0:0:0:
320,192,93495,1,0,0:0:0:0:
192,192,93528,1,0,0:0:0:0:
64,192,93561,1,0,0:0:0:0:
448,192,93594,1,0,0:0:0:0:
320,192,93628,1,0,0:0:0:0:
64,192,93661,1,0,0:0:0:0:
192,192,93694,1,0,0:0:0:0:
448,192,93727,1,0,0:0:0:0:
320,192,93761,1,0,0:0:0:0:
64,192,93794,1,0,0:0:0:0:
192,192,93827,1,0,0:0:0:0:
448,192,93861,1,0,0:0:0:0:
320,192,93894,1,0,0:0:0:0:
64,192,93927,1,0,0:0:0:0:
192,192,93960,1,0,0:0:0:0:
320,192,93994,1,0,0:0:0:0:
448,192,94027,1,0,0:0:0:0:
192,192,94060,1,0,0:0:0:0:
64,192,94093,1,0,0:0:0:0:
448,192,94127,1,0,0:0:0:0:
320,192,94160,1,0,0:0:0:0:
192,192,94193,1,0,0:0:0:0:
64,192,94226,1,0,0:0:0:0:
320,192,94260,1,0,0:0:0:0:
448,192,94459,1,0,0:0:0:0:
192,192,94659,1,0,0:0:0:0:
64,192,95058,1,0,0:0:0:0:
192,192,95124,1,0,0:0:0:0:
320,192,95191,1,0,0:0:0:0:
448,192,95257,1,0,0:0:0:0:
192,192,95324,1,0,0:0:0:0:
320,192,95523,1,0,0:0:0:0:
448,192,95723,1,0,0:0:0:0:
448,192,95989,1,0,0:0:0:0:
320,192,96122,1,0,0:0:0:0:
64,192,96122,1,0,0:0:0:0:
192,192,96255,1,0,0:0:0:0:
448,192,96388,1,0,0:0:0:0:
320,192,96388,1,0,0:0:0:0:
64,192,96421,1,0,0:0:0:0:
192,192,96455,1,0,0:0:0:0:
320,192,96488,1,0,0:0:0:0:
448,192,96521,1,0,0:0:0:0:
64,192,96555,1,0,0:0:0:0:
192,192,96588,1,0,0:0:0:0:
320,192,96621,1,0,0:0:0:0:
448,192,96654,1,0,0:0:0:0:
64,192,96654,1,0,0:0:0:0:
320,192,96787,1,0,0:0:0:0:
448,192,96787,1,0,0:0:0:0:
192,192,96920,1,0,0:0:0:0:
64,192,96920,1,0,0:0:0:0:
448,192,96987,1,0,0:0:0:0:
320,192,97053,1,0,0:0:0:0:
64,192,97053,1,0,0:0:0:0:
192,192,97120,1,0,0:0:0:0:
320,192,97186,1,0,0:0:0:0:
448,192,97186,1,0,0:0:0:0:
64,192,97253,1,0,0:0:0:0:
192,192,97320,1,0,0:0:0:0:
320,192,97320,1,0,0:0:0:0:
448,192,97386,1,0,0:0:0:0:
64,192,97453,1,0,0:0:0:0:
192,192,97453,1,0,0:0:0:0:
320,192,97519,1,0,0:0:0:0:
448,192,97586,1,0,0:0:0:0:
64,192,97586,1,0,0:0:0:0:
192,192,97652,1,0,0:0:0:0:
320,192,97719,1,0,0:0:0:0:
448,192,97719,1,0,0:0:0:0:
64,192,97785,1,0,0:0:0:0:
192,192,97852,1,0,0:0:0:0:
320,192,97852,1,0,0:0:0:0:
448,192,97918,1,0,0:0:0:0:
64,192,97985,1,0,0:0:0:0:
192,192,97985,128,0,98118:0:0:0:0:
320,192,98051,1,0,0:0:0:0:
64,192,98118,1,0,0:0:0:0:
448,192,98118,1,0,0:0:0:0:
192,192,98184,1,0,0:0:0:0:
320,192,98184,1,0,0:0:0:0:
64,192,98251,128,0,98384:0:0:0:0:
448,192,98251,1,0,0:0:0:0:
320,192,98384,1,0,0:0:0:0:
192,192,98384,1,0,0:0:0:0:
448,192,98517,1,0,0:0:0:0:
320,192,98517,1,0,0:0:0:0:
64,192,98550,1,0,0:0:0:0:
192,192,98583,1,0,0:0:0:0:
320,192,98617,1,0,0:0:0:0:
448,192,98650,1,0,0:0:0:0:
64,192,98650,1,0,0:0:0:0:
192,192,98716,1,0,0:0:0:0:
320,192,98783,1,0,0:0:0:0:
448,192,98783,1,0,0:0:0:0:
64,192,98849,1,0,0:0:0:0:
192,192,98916,1,0,0:0:0:0:
320,192,98916,1,0,0:0:0:0:
448,192,98982,1,0,0:0:0:0:
320,192,99049,1,0,0:0:0:0:
64,192,99049,1,0,0:0:0:0:
192,192,99116,1,0,0:0:0:0:
448,192,99182,1,0,0:0:0:0:
64,192,99182,1,0,0:0:0:0:
320,192,99249,1,0,0:0:0:0:
192,192,99315,1,0,0:0:0:0:
64,192,99315,1,0,0:0:0:0:
448,192,99382,1,0,0:0:0:0:
192,192,99448,1,0,0:0:0:0:
64,192,99448,1,0,0:0:0:0:
320,192,99515,1,0,0:0:0:0:
448,192,99581,1,0,0:0:0:0:
64,192,99581,1,0,0:0:0:0:
192,192,99648,1,0,0:0:0:0:
320,192,99648,1,0,0:0:0:0:
448,192,99714,1,0,0:0:0:0:
64,192,99714,1,0,0:0:0:0:
192,192,99781,1,0,0:0:0:0:
320,192,99781,1,0,0:0:0:0:
448,192,99847,1,0,0:0:0:0:
64,192,99847,1,0,0:0:0:0:
192,192,99880,1,0,0:0:0:0:
320,192,99914,1,0,0:0:0:0:
448,192,99947,1,0,0:0:0:0:
64,192,99980,1,0,0:0:0:0:
192,192,100014,1,0,0:0:0:0:
320,192,100047,1,0,0:0:0:0:
448,192,100047,1,0,0:0:0:0:
64,192,100180,1,0,0:0:0:0:
320,192,100246,1,0,0:0:0:0:
448,192,100246,1,0,0:0:0:0:
64,192,100379,1,0,0:0:0:0:
192,192,100379,1,0,0:0:0:0:
320,192,100446,1,0,0:0:0:0:
448,192,100446,1,0,0:0:0:0:
192,192,100512,1,0,0:0:0:0:
64,192,100512,1,0,0:0:0:0:
320,192,100579,1,0,0:0:0:0:
448,192,100579,1,0,0:0:0:0:
192,192,100645,1,0,0:0:0:0:
64,192,100645,1,0,0:0:0:0:
64,192,100734,1,0,0:0:0:0:
320,192,100734,1,0,0:0:0:0:
192,192,100823,1,0,0:0:0:0:
448,192,100823,1,0,0:0:0:0:
320,192,100912,1,0,0:0:0:0:
192,192,100912,1,0,0:0:0:0:
64,192,101000,1,0,0:0:0:0:
448,192,101000,1,0,0:0:0:0:
320,192,101089,1,0,0:0:0:0:
192,192,101089,1,0,0:0:0:0:
448,192,101178,1,0,0:0:0:0:
64,192,101178,1,0,0:0:0:0:
192,192,101244,1,0,0:0:0:0:
320,192,101311,1,0,0:0:0:0:
448,192,101311,1,0,0:0:0:0:
64,192,101444,1,0,0:0:0:0:
192,192,101444,1,0,0:0:0:0:
320,192,101577,1,0,0:0:0:0:
448,192,101577,1,0,0:0:0:0:
64,192,101610,1,0,0:0:0:0:
192,192,101643,1,0,0:0:0:0:
320,192,101676,1,0,0:0:0:0:
448,192,101710,1,0,0:0:0:0:
64,192,101710,1,0,0:0:0:0:
192,192,101776,1,0,0:0:0:0:
320,192,101776,1,0,0:0:0:0:
448,192,101843,1,0,0:0:0:0:
64,192,101843,1,0,0:0:0:0:
192,192,101909,1,0,0:0:0:0:
320,192,101909,1,0,0:0:0:0:
64,192,102042,1,0,0:0:0:0:
448,192,102042,1,0,0:0:0:0:
192,192,102109,1,0,0:0:0:0:
320,192,102109,1,0,0:0:0:0:
192,192,102242,1,0,0:0:0:0:
64,192,102242,1,0,0:0:0:0:
448,192,102275,1,0,0:0:0:0:
320,192,102308,1,0,0:0:0:0:
192,192,102342,1,0,0:0:0:0:
64,192,102375,1,0,0:0:0:0:
448,192,102375,1,0,0:0:0:0:
320,192,102441,1,0,0:0:0:0:
192,192,102508,1,0,0:0:0:0:
64,192,102508,1,0,0:0:0:0:
448,192,102574,1,0,0:0:0:0:
320,192,102641,1,0,0:0:0:0:
192,192,102708,1,0,0:0:0:0:
64,192,102774,1,0,0:0:0:0:
448,192,102774,1,0,0:0:0:0:
320,192,102841,1,0,0:0:0:0:
192,192,102841,1,0,0:0:0:0:
64,192,102907,1,0,0:0:0:0:
448,192,102907,1,0,0:0:0:0:
192,192,102974,1,0,0:0:0:0:
320,192,102974,1,0,0:0:0:0:
448,192,103040,1,0,0:0:0:0:
64,192,103040,1,0,0:0:0:0:
192,192,103107,1,0,0:0:0:0:
320,192,103173,1,0,0:0:0:0:
448,192,103173,1,0,0:0:0:0:
192,192,103306,1,0,0:0:0:0:
64,192,103306,1,0,0:0:0:0:
320,192,103439,1,0,0:0:0:0:
448,192,103439,1,0,0:0:0:0:
320,192,103572,1,0,0:0:0:0:
192,192,103572,1,0,0:0:0:0:
64,192,103705,1,0,0:0:0:0:
192,192,103705,1,0,0:0:0:0:
320,192,103838,1,0,0:0:0:0:
448,192,103838,1,0,0:0:0:0:
320,192,103971,1,0,0:0:0:0:
64,192,103971,1,0,0:0:0:0:
192,192,104104,1,0,0:0:0:0:
448,192,104104,1,0,0:0:0:0:
320,192,104138,1,0,0:0:0:0:
64,192,104171,1,0,0:0:0:0:
192,192,104204,1,0,0:0:0:0:
320,192,104237,1,0,0:0:0:0:
448,192,104237,1,0,0:0:0:0:
192,192,104304,1,0,0:0:0:0:
64,192,104304,1,0,0:0:0:0:
448,192,104370,1,0,0:0:0:0:
192,192,104437,1,0,0:0:0:0:
64,192,104437,1,0,0:0:0:0:
320,192,104504,1,0,0:0:0:0:
448,192,104504,1,0,0:0:0:0:
64,192,104637,1,0,0:0:0:0:
192,192,104637,1,0,0:0:0:0:
320,192,104770,1,0,0:0:0:0:
448,192,104770,1,0,0:0:0:0:
192,192,104803,1,0,0:0:0:0:
448,192,104836,1,0,0:0:0:0:
320,192,104869,1,0,0:0:0:0:
192,192,104903,1,0,0:0:0:0:
64,192,104903,1,0,0:0:0:0:
448,192,104969,1,0,0:0:0:0:
192,192,105036,1,0,0:0:0:0:
320,192,105036,1,0,0:0:0:0:
448,192,105102,1,0,0:0:0:0:
320,192,105169,1,0,0:0:0:0:
64,192,105169,1,0,0:0:0:0:
192,192,105235,1,0,0:0:0:0:
320,192,105302,1,0,0:0:0:0:
448,192,105302,1,0,0:0:0:0:
64,192,105368,1,0,0:0:0:0:
192,192,105435,1,0,0:0:0:0:
320,192,105435,1,0,0:0:0:0:
448,192,105501,1,0,0:0:0:0:
320,192,105568,1,0,0:0:0:0:
64,192,105568,1,0,0:0:0:0:
192,192,105634,1,0,0:0:0:0:
64,192,105701,1,0,0:0:0:0:
448,192,105701,1,0,0:0:0:0:
320,192,105767,1,0,0:0:0:0:
448,192,105834,1,0,0:0:0:0:
64,192,105834,1,0,0:0:0:0:
192,192,105900,1,0,0:0:0:0:
320,192,105967,1,0,0:0:0:0:
448,192,105967,1,0,0:0:0:0:
64,192,106033,1,0,0:0:0:0:
192,192,106100,1,0,0:0:0:0:
320,192,106100,1,0,0:0:0:0:
448,192,106167,1,0,0:0:0:0:
192,192,106233,1,0,0:0:0:0:
64,192,106233,1,0,0:0:0:0:
448,192,106300,1,0,0:0:0:0:
320,192,106366,1,0,0:0:0:0:
64,192,106366,1,0,0:0:0:0:
192,192,106433,1,0,0:0:0:0:
448,192,106499,1,0,0:0:0:0:
320,192,106499,1,0,0:0:0:0:
64,192,106566,1,0,0:0:0:0:
192,192,106632,1,0,0:0:0:0:
448,192,106632,1,0,0:0:0:0:
320,192,106699,1,0,0:0:0:0:
64,192,106699,1,0,0:0:0:0:
192,192,106765,1,0,0:0:0:0:
448,192,106765,1,0,0:0:0:0:
320,192,106832,1,0,0:0:0:0:
448,192,106898,1,0,0:0:0:0:
64,192,106898,1,0,0:0:0:0:
192,192,106965,1,0,0:0:0:0:
320,192,107031,1,0,0:0:0:0:
448,192,107031,1,0,0:0:0:0:
64,192,107098,1,0,0:0:0:0:
192,192,107098,1,0,0:0:0:0:
320,192,107164,1,0,0:0:0:0:
448,192,107164,1,0,0:0:0:0:
192,192,107231,1,0,0:0:0:0:
64,192,107231,1,0,0:0:0:0:
320,192,107297,1,0,0:0:0:0:
448,192,107297,1,0,0:0:0:0:
64,192,107364,1,0,0:0:0:0:
448,192,107430,1,0,0:0:0:0:
320,192,107430,1,0,0:0:0:0:
192,192,107497,1,0,0:0:0:0:
64,192,107563,1,0,0:0:0:0:
320,192,107563,1,0,0:0:0:0:
448,192,107630,1,0,0:0:0:0:
192,192,107630,1,0,0:0:0:0:
64,192,107696,1,0,0:0:0:0:
320,192,107696,1,0,0:0:0:0:
192,192,107763,1,0,0:0:0:0:
320,192,107829,1,0,0:0:0:0:
448,192,107829,1,0,0:0:0:0:
192,192,107896,1,0,0:0:0:0:
64,192,107963,1,0,0:0:0:0:
448,192,107963,1,0,0:0:0:0:
192,192,108029,1,0,0:0:0:0:
320,192,108029,1,0,0:0:0:0:
64,192,108096,1,0,0:0:0:0:
448,192,108096,1,0,0:0:0:0:
192,192,108129,1,0,0:0:0:0:
320,192,108162,1,0,0:0:0:0:
448,192,108195,1,0,0:0:0:0:
64,192,108229,1,0,0:0:0:0:
192,192,108262,1,0,0:0:0:0:
320,192,108295,1,0,0:0:0:0:
448,192,108328,1,0,0:0:0:0:
192,192,108362,1,0,0:0:0:0:
64,192,108362,1,0,0:0:0:0:
320,192,108428,1,0,0:0:0:0:
448,192,108495,1,0,0:0:0:0:
64,192,108495,1,0,0:0:0:0:
192,192,108528,1,0,0:0:0:0:
320,192,108561,1,0,0:0:0:0:
448,192,108594,1,0,0:0:0:0:
192,192,108628,1,0,0:0:0:0:
64,192,108628,1,0,0:0:0:0:
320,192,108694,1,0,0:0:0:0:
448,192,108761,1,0,0:0:0:0:
192,192,108827,1,0,0:0:0:0:
64,192,108827,1,0,0:0:0:0:
320,192,108894,1,0,0:0:0:0:
448,192,108894,1,0,0:0:0:0:
192,192,108960,1,0,0:0:0:0:
64,192,108960,1,0,0:0:0:0:
320,192,109027,1,0,0:0:0:0:
448,192,109027,1,0,0:0:0:0:
192,192,109093,1,0,0:0:0:0:
64,192,109093,1,0,0:0:0:0:
320,192,109160,1,0,0:0:0:0:
448,192,109160,1,0,0:0:0:0:
64,192,109160,1,0,0:0:0:0:
64,192,109426,1,0,0:0:0:0:
192,192,109426,1,0,0:0:0:0:
448,192,109559,1,0,0:0:0:0:
320,192,109692,1,0,0:0:0:0:
64,192,109692,1,0,0:0:0:0:
192,192,109825,1,0,0:0:0:0:
448,192,109958,1,0,0:0:0:0:
64,192,109958,1,0,0:0:0:0:
192,192,110025,1,0,0:0:0:0:
320,192,110091,1,0,0:0:0:0:
448,192,110158,1,0,0:0:0:0:
64,192,110224,1,0,0:0:0:0:
192,192,110291,1,0,0:0:0:0:
320,192,110357,1,0,0:0:0:0:
448,192,110424,1,0,0:0:0:0:
64,192,110490,1,0,0:0:0:0:
192,192,110557,1,0,0:0:0:0:
320,192,110623,1,0,0:0:0:0:
448,192,110690,1,0,0:0:0:0:
64,192,110756,1,0,0:0:0:0:
192,192,110823,1,0,0:0:0:0:
448,192,110889,1,0,0:0:0:0:
320,192,110956,1,0,0:0:0:0:
192,192,111022,1,0,0:0:0:0:
64,192,111089,1,0,0:0:0:0:
448,192,111155,1,0,0:0:0:0:
320,192,111222,1,0,0:0:0:0:
192,192,111288,1,0,0:0:0:0:
64,192,111288,1,0,0:0:0:0:
320,192,111355,1,0,0:0:0:0:
448,192,111355,1,0,0:0:0:0:
192,192,111421,1,0,0:0:0:0:
64,192,111421,1,0,0:0:0:0:
320,192,111488,1,0,0:0:0:0:
448,192,111488,1,0,0:0:0:0:
192,192,111555,1,0,0:0:0:0:
64,192,111555,1,0,0:0:0:0:
320,192,111643,1,0,0:0:0:0:
448,192,111643,1,0,0:0:0:0:
192,192,111732,1,0,0:0:0:0:
64,192,111732,1,0,0:0:0:0:
320,192,111821,1,0,0:0:0:0:
448,192,111821,1,0,0:0:0:0:
320,192,111954,1,0,0:0:0:0:
192,192,111954,1,0,0:0:0:0:
192,192,112087,1,0,0:0:0:0:
64,192,112087,1,0,0:0:0:0:
192,192,112220,1,0,0:0:0:0:
320,192,112220,1,0,0:0:0:0:
320,192,112353,1,0,0:0:0:0:
448,192,112353,1,0,0:0:0:0:
64,192,112353,1,0,0:0:0:0:
64,192,112486,1,0,0:0:0:0:
320,192,112486,1,0,0:0:0:0:
192,192,112619,1,0,0:0:0:0:
448,192,112619,1,0,0:0:0:0:
64,192,112652,1,0,0:0:0:0:
192,192,112685,1,0,0:0:0:0:
320,192,112719,1,0,0:0:0:0:
448,192,112752,1,0,0:0:0:0:
64,192,112752,1,0,0:0:0:0:
320,192,112818,1,0,0:0:0:0:
192,192,112885,1,0,0:0:0:0:
64,192,112885,1,0,0:0:0:0:
448,192,113018,1,0,0:0:0:0:
320,192,113084,1,0,0:0:0:0:
192,192,113084,1,0,0:0:0:0:
64,192,113218,1,0,0:0:0:0:
192,192,113284,1,0,0:0:0:0:
320,192,113284,1,0,0:0:0:0:
448,192,113317,1,0,0:0:0:0:
64,192,113351,1,0,0:0:0:0:
192,192,113384,1,0,0:0:0:0:
320,192,113417,1,0,0:0:0:0:
448,192,113417,1,0,0:0:0:0:
192,192,113484,1,0,0:0:0:0:
64,192,113484,1,0,0:0:0:0:
320,192,113550,1,0,0:0:0:0:
448,192,113550,1,0,0:0:0:0:
192,192,113617,1,0,0:0:0:0:
64,192,113617,1,0,0:0:0:0:
320,192,113683,1,0,0:0:0:0:
448,192,113683,1,0,0:0:0:0:
192,192,113750,1,0,0:0:0:0:
64,192,113750,1,0,0:0:0:0:
320,192,113816,1,0,0:0:0:0:
448,192,113816,1,0,0:0:0:0:
192,192,113883,1,0,0:0:0:0:
64,192,113883,1,0,0:0:0:0:
320,192,113949,1,0,0:0:0:0:
448,192,113949,1,0,0:0:0:0:
192,192,114016,1,0,0:0:0:0:
64,192,114016,1,0,0:0:0:0:
320,192,114082,1,0,0:0:0:0:
448,192,114082,1,0,0:0:0:0:
192,192,114149,1,0,0:0:0:0:
64,192,114149,1,0,0:0:0:0:
320,192,114215,1,0,0:0:0:0:
448,192,114215,1,0,0:0:0:0:
192,192,114282,1,0,0:0:0:0:
64,192,114282,1,0,0:0:0:0:
320,192,114348,1,0,0:0:0:0:
448,192,114348,1,0,0:0:0:0:
192,192,114415,1,0,0:0:0:0:
64,192,114415,1,0,0:0:0:0:
448,192,114481,1,0,0:0:0:0:
320,192,114481,1,0,0:0:0:0:
64,192,114515,1,0,0:0:0:0:
192,192,114548,1,0,0:0:0:0:
320,192,114581,1,0,0:0:0:0:
448,192,114614,1,0,0:0:0:0:
64,192,114648,1,0,0:0:0:0:
192,192,114681,1,0,0:0:0:0:
448,192,114714,1,0,0:0:0:0:
320,192,114747,1,0,0:0:0:0:
64,192,114747,1,0,0:0:0:0:
192,192,114781,1,0,0:0:0:0:
448,192,114814,1,0,0:0:0:0:
64,192,114847,1,0,0:0:0:0:
192,192,114880,1,0,0:0:0:0:
320,192,114914,1,0,0:0:0:0:
448,192,114947,1,0,0:0:0:0:
64,192,114980,1,0,0:0:0:0:
192,192,115014,1,0,0:0:0:0:
320,192,115014,1,0,0:0:0:0:
448,192,115047,1,0,0:0:0:0:
64,192,115080,1,0,0:0:0:0:
192,192,115113,1,0,0:0:0:0:
320,192,115147,1,0,0:0:0:0:
448,192,115180,1,0,0:0:0:0:
64,192,115213,1,0,0:0:0:0:
192,192,115246,1,0,0:0:0:0:
320,192,115280,1,0,0:0:0:0:
448,192,115280,1,0,0:0:0:0:
64,192,115313,1,0,0:0:0:0:
192,192,115346,1,0,0:0:0:0:
448,192,115379,1,0,0:0:0:0:
320,192,115413,1,0,0:0:0:0:
192,192,115446,1,0,0:0:0:0:
64,192,115479,1,0,0:0:0:0:
192,192,115512,1,0,0:0:0:0:
320,192,115546,1,0,0:0:0:0:
448,192,115546,1,0,0:0:0:0:
