osu file format v14

[General]
AudioFilename: audio.mp3
AudioLeadIn: 0
PreviewTime: 88995
Countdown: 1
SampleSet: Normal
StackLeniency: 0.7
Mode: 1
LetterboxInBreaks: 0
WidescreenStoryboard: 1

[Editor]
DistanceSpacing: 1
BeatDivisor: 3
GridSize: 32
TimelineZoom: 3.299999

[Metadata]
Title:kyokuken
TitleUnicode:極圏
Artist:cosMo VS dj TAKA
ArtistUnicode:cosMo VS dj TAKA
Creator:ekumea1123
Version:Taiko Oni
Source:
Tags:
BeatmapID:1440101
BeatmapSetID:680794

[Difficulty]
HPDrainRate:5
CircleSize:5
OverallDifficulty:7
ApproachRate:5
SliderMultiplier:1.4
SliderTickRate:1

[Events]
//Background and Video events
0,0,"BG.jpg",0,0
//Break Periods
//Storyboard Layer 0 (Background)
//Storyboard Layer 1 (Fail)
//Storyboard Layer 2 (Pass)
//Storyboard Layer 3 (Foreground)
//Storyboard Sound Samples

[TimingPoints]
-280,289.855072463768,4,1,0,80,1,0
49575,-100,4,1,0,100,0,1
68125,-100,4,1,0,100,0,0
90154,-100,4,1,0,100,0,1
107546,-100,4,1,0,100,0,0

[HitObjects]
256,192,589,5,0,0:0:0:0:
256,192,662,1,0,0:0:0:0:
256,192,734,1,8,0:0:0:0:
256,192,806,1,8,0:0:0:0:
256,192,879,1,0,0:0:0:0:
256,192,976,1,8,0:0:0:0:
256,192,1072,1,8,0:0:0:0:
256,192,1169,1,0,0:0:0:0:
256,192,1265,1,8,0:0:0:0:
256,192,1362,1,8,0:0:0:0:
256,192,1459,1,0,0:0:0:0:
256,192,1555,1,8,0:0:0:0:
256,192,1652,1,8,0:0:0:0:
256,192,1748,1,0,0:0:0:0:
256,192,1845,1,8,0:0:0:0:
256,192,1942,1,8,0:0:0:0:
256,192,2038,1,8,0:0:0:0:
256,192,2135,1,0,0:0:0:0:
256,192,2232,1,0,0:0:0:0:
256,192,2328,1,8,0:0:0:0:
256,192,2425,1,0,0:0:0:0:
256,192,2521,1,0,0:0:0:0:
256,192,2618,1,8,0:0:0:0:
256,192,2715,1,0,0:0:0:0:
256,192,2811,1,0,0:0:0:0:
256,192,2908,1,8,0:0:0:0:
256,192,3005,1,0,0:0:0:0:
256,192,3101,1,0,0:0:0:0:
256,192,3198,1,0,0:0:0:0:
256,192,3294,1,0,0:0:0:0:
256,192,3391,1,8,0:0:0:0:
256,192,3488,1,0,0:0:0:0:
256,192,3584,1,0,0:0:0:0:
256,192,3681,1,8,0:0:0:0:
256,192,3777,1,0,0:0:0:0:
256,192,3874,1,0,0:0:0:0:
256,192,3971,1,8,0:0:0:0:
256,192,4067,1,0,0:0:0:0:
256,192,4164,1,0,0:0:0:0:
256,192,4261,1,8,0:0:0:0:
256,192,4357,1,8,0:0:0:0:
256,192,4454,1,0,0:0:0:0:
256,192,4550,1,0,0:0:0:0:
256,192,4647,1,8,0:0:0:0:
256,192,4744,1,0,0:0:0:0:
256,192,4840,1,0,0:0:0:0:
256,192,4937,1,8,0:0:0:0:
256,192,5034,1,0,0:0:0:0:
256,192,5130,1,0,0:0:0:0:
256,192,5227,1,8,0:0:0:0:
256,192,5323,1,0,0:0:0:0:
256,192,5420,1,0,0:0:0:0:
256,192,5517,1,8,0:0:0:0:
256,192,5806,1,8,0:0:0:0:
256,192,5855,1,8,0:0:0:0:
256,192,5903,1,8,0:0:0:0:
256,192,6000,1,8,0:0:0:0:
256,192,6096,1,0,0:0:0:0:
256,192,6386,1,8,0:0:0:0:
256,192,6434,1,8,0:0:0:0:
256,192,6483,1,8,0:0:0:0:
256,192,6579,1,8,0:0:0:0:
256,192,6676,1,0,0:0:0:0:
256,192,6773,1,8,0:0:0:0:
256,192,6869,1,8,0:0:0:0:
256,192,6966,1,0,0:0:0:0:
256,192,7062,1,8,0:0:0:0:
256,192,7159,1,8,0:0:0:0:
256,192,7256,1,0,0:0:0:0:
256,192,7352,1,8,0:0:0:0:
256,192,7449,1,0,0:0:0:0:
256,192,7546,1,8,0:0:0:0:
256,288,7835,1,4,0:0:0:0:
256,192,7980,1,8,0:0:0:0:
256,192,8125,1,0,0:0:0:0:
256,192,8270,1,8,0:0:0:0:
256,192,8415,1,0,0:0:0:0:
256,192,8488,1,0,0:0:0:0:
256,192,8560,1,8,0:0:0:0:
256,192,8705,1,0,0:0:0:0:
256,192,8850,1,8,0:0:0:0:
256,192,8995,1,0,0:0:0:0:
256,192,9067,1,0,0:0:0:0:
256,192,9140,1,8,0:0:0:0:
256,192,9285,1,0,0:0:0:0:
256,192,9430,1,8,0:0:0:0:
256,192,9575,1,0,0:0:0:0:
256,192,9647,1,0,0:0:0:0:
256,192,9719,1,8,0:0:0:0:
256,192,9864,1,0,0:0:0:0:
256,192,10009,1,8,0:0:0:0:
256,192,10154,1,0,0:0:0:0:
256,192,10299,1,8,0:0:0:0:
256,192,10372,1,8,0:0:0:0:
256,192,10444,1,0,0:0:0:0:
256,192,10517,1,0,0:0:0:0:
256,192,10589,1,8,0:0:0:0:
256,192,10734,1,0,0:0:0:0:
256,192,10806,1,0,0:0:0:0:
256,192,10879,1,8,0:0:0:0:
256,192,10951,1,8,0:0:0:0:
256,192,11024,1,0,0:0:0:0:
256,192,11096,1,0,0:0:0:0:
256,192,11169,1,8,0:0:0:0:
256,288,11314,1,4,0:0:0:0:
256,288,11604,1,4,0:0:0:0:
256,288,11893,1,4,0:0:0:0:
256,288,12038,1,4,0:0:0:0:
256,288,12328,1,4,0:0:0:0:
256,192,12618,1,8,0:0:0:0:
256,192,12763,1,0,0:0:0:0:
256,192,12908,1,8,0:0:0:0:
256,192,13053,1,0,0:0:0:0:
256,192,13125,1,0,0:0:0:0:
256,192,13198,1,8,0:0:0:0:
256,192,13343,1,0,0:0:0:0:
256,192,13488,1,8,0:0:0:0:
256,192,13633,1,0,0:0:0:0:
256,192,13705,1,0,0:0:0:0:
256,192,13777,1,8,0:0:0:0:
256,192,13922,1,0,0:0:0:0:
256,192,14067,1,8,0:0:0:0:
256,192,14212,1,0,0:0:0:0:
256,192,14285,1,0,0:0:0:0:
256,192,14357,1,8,0:0:0:0:
256,192,14502,1,0,0:0:0:0:
256,192,14647,1,8,0:0:0:0:
256,192,14792,1,0,0:0:0:0:
256,192,14937,1,8,0:0:0:0:
256,192,15009,1,8,0:0:0:0:
256,192,15082,1,0,0:0:0:0:
256,192,15154,1,0,0:0:0:0:
256,192,15227,1,8,0:0:0:0:
256,192,15372,1,0,0:0:0:0:
256,192,15444,1,0,0:0:0:0:
256,192,15517,1,8,0:0:0:0:
256,192,15589,1,8,0:0:0:0:
256,192,15662,1,0,0:0:0:0:
256,192,15734,1,0,0:0:0:0:
256,192,15806,1,8,0:0:0:0:
256,288,15951,1,4,0:0:0:0:
256,288,16096,1,4,0:0:0:0:
256,288,16386,1,4,0:0:0:0:
256,288,16676,1,4,0:0:0:0:
256,288,16966,1,4,0:0:0:0:
256,288,17111,1,4,0:0:0:0:
256,192,17401,1,0,0:0:0:0:
256,192,17546,1,8,0:0:0:0:
256,192,17691,1,0,0:0:0:0:
256,192,17763,1,0,0:0:0:0:
256,192,17835,1,8,0:0:0:0:
256,192,17908,1,0,0:0:0:0:
256,192,17980,1,0,0:0:0:0:
256,192,18125,1,8,0:0:0:0:
256,192,18270,1,0,0:0:0:0:
256,192,18343,1,0,0:0:0:0:
256,192,18415,1,8,0:0:0:0:
256,192,18560,1,0,0:0:0:0:
256,192,18705,1,8,0:0:0:0:
256,192,18777,1,8,0:0:0:0:
256,192,18850,1,0,0:0:0:0:
256,192,18922,1,0,0:0:0:0:
256,192,18995,1,8,0:0:0:0:
256,192,19140,1,0,0:0:0:0:
256,192,19285,1,8,0:0:0:0:
256,192,19430,1,0,0:0:0:0:
256,192,19575,1,8,0:0:0:0:
256,192,19647,1,8,0:0:0:0:
256,192,19719,1,0,0:0:0:0:
256,192,19792,1,0,0:0:0:0:
256,192,19864,1,8,0:0:0:0:
256,192,19937,1,8,0:0:0:0:
256,192,20009,1,0,0:0:0:0:
256,192,20082,1,0,0:0:0:0:
256,192,20154,1,8,0:0:0:0:
256,192,20227,1,8,0:0:0:0:
256,192,20299,1,0,0:0:0:0:
256,192,20372,1,0,0:0:0:0:
256,192,20444,1,8,0:0:0:0:
256,288,20589,1,4,0:0:0:0:
256,288,20734,1,4,0:0:0:0:
256,288,21024,1,4,0:0:0:0:
256,288,21314,1,4,0:0:0:0:
256,288,21459,1,4,0:0:0:0:
256,288,21604,1,4,0:0:0:0:
256,288,21748,1,4,0:0:0:0:
256,192,22038,1,0,0:0:0:0:
256,192,22183,1,8,0:0:0:0:
256,192,22328,1,0,0:0:0:0:
256,192,22401,1,0,0:0:0:0:
256,192,22473,1,8,0:0:0:0:
256,192,22618,1,0,0:0:0:0:
256,192,22763,1,8,0:0:0:0:
256,192,22908,1,0,0:0:0:0:
256,192,22980,1,0,0:0:0:0:
256,192,23053,1,8,0:0:0:0:
256,192,23198,1,0,0:0:0:0:
256,192,23343,1,8,0:0:0:0:
256,192,23415,1,8,0:0:0:0:
256,192,23488,1,0,0:0:0:0:
256,192,23560,1,0,0:0:0:0:
256,192,23633,1,8,0:0:0:0:
256,192,23777,1,0,0:0:0:0:
256,192,23922,1,8,0:0:0:0:
256,192,24067,1,0,0:0:0:0:
256,192,24212,1,8,0:0:0:0:
256,192,24285,1,8,0:0:0:0:
256,192,24357,1,0,0:0:0:0:
256,192,24430,1,0,0:0:0:0:
256,192,24502,1,8,0:0:0:0:
256,192,24575,1,8,0:0:0:0:
256,192,24647,1,0,0:0:0:0:
256,192,24719,1,0,0:0:0:0:
256,192,24792,1,8,0:0:0:0:
256,192,24864,1,8,0:0:0:0:
256,192,24937,1,0,0:0:0:0:
256,192,25009,1,8,0:0:0:0:
256,192,25082,1,8,0:0:0:0:
256,288,25227,1,4,0:0:0:0:
256,288,25372,1,4,0:0:0:0:
256,288,25662,1,4,0:0:0:0:
256,288,25951,1,4,0:0:0:0:
256,192,26096,1,0,0:0:0:0:
256,192,26169,1,0,0:0:0:0:
256,192,26241,1,0,0:0:0:0:
256,192,26386,1,0,0:0:0:0:
256,192,26531,1,0,0:0:0:0:
256,192,26676,1,8,0:0:0:0:
256,192,26821,1,0,0:0:0:0:
256,192,26966,1,0,0:0:0:0:
256,192,27111,1,8,0:0:0:0:
256,192,27256,1,0,0:0:0:0:
256,192,27401,1,8,0:0:0:0:
256,192,27546,1,0,0:0:0:0:
256,192,27691,1,8,0:0:0:0:
256,192,27835,1,0,0:0:0:0:
256,192,27980,1,8,0:0:0:0:
256,192,28125,1,0,0:0:0:0:
256,192,28198,1,0,0:0:0:0:
256,192,28270,1,0,0:0:0:0:
256,192,28415,1,0,0:0:0:0:
256,192,28560,1,0,0:0:0:0:
256,192,28633,1,0,0:0:0:0:
256,192,28705,1,8,0:0:0:0:
256,192,28850,1,8,0:0:0:0:
256,192,28922,1,8,0:0:0:0:
256,192,28995,1,8,0:0:0:0:
256,192,29140,1,0,0:0:0:0:
256,192,29285,1,0,0:0:0:0:
256,192,29430,1,8,0:0:0:0:
256,192,29575,1,0,0:0:0:0:
256,192,29719,1,0,0:0:0:0:
256,96,29864,1,12,0:0:0:0:
256,288,30058,1,4,0:0:0:0:
256,96,30251,1,12,0:0:0:0:
256,288,30444,1,4,0:0:0:0:
256,96,30637,1,12,0:0:0:0:
256,288,30831,1,4,0:0:0:0:
256,288,31024,1,4,0:0:0:0:
256,192,35662,1,0,0:0:0:0:
256,192,35855,1,0,0:0:0:0:
256,192,35951,1,0,0:0:0:0:
256,192,36048,1,0,0:0:0:0:
256,192,36145,1,8,0:0:0:0:
256,192,36241,1,8,0:0:0:0:
256,192,36434,1,8,0:0:0:0:
256,192,36531,1,8,0:0:0:0:
256,192,36628,1,8,0:0:0:0:
256,192,36724,1,0,0:0:0:0:
256,192,36821,1,0,0:0:0:0:
256,192,37014,1,0,0:0:0:0:
256,192,37111,1,0,0:0:0:0:
256,192,37207,1,0,0:0:0:0:
256,192,37304,1,8,0:0:0:0:
256,192,37401,1,8,0:0:0:0:
256,192,37691,1,0,0:0:0:0:
256,192,37980,1,0,0:0:0:0:
256,192,38077,1,0,0:0:0:0:
256,192,38174,1,8,0:0:0:0:
256,192,38270,1,0,0:0:0:0:
256,192,38367,1,0,0:0:0:0:
256,192,38463,1,8,0:0:0:0:
256,192,38560,1,0,0:0:0:0:
256,192,38753,1,0,0:0:0:0:
256,192,38850,1,8,0:0:0:0:
256,192,38947,1,8,0:0:0:0:
256,192,39043,1,8,0:0:0:0:
256,192,39140,1,0,0:0:0:0:
256,192,39333,1,8,0:0:0:0:
256,192,39430,1,0,0:0:0:0:
256,192,39526,1,0,0:0:0:0:
256,192,39623,1,0,0:0:0:0:
256,192,39719,1,8,0:0:0:0:
256,192,39816,1,0,0:0:0:0:
256,192,39913,1,0,0:0:0:0:
256,192,40009,1,0,0:0:0:0:
256,192,40106,1,8,0:0:0:0:
256,192,40203,1,8,0:0:0:0:
160,192,40299,2,0,L|384:192,1,210
384,192,40879,2,0,L|160:192,1,210
256,192,41459,12,0,41748,0:0:0:0:
256,192,42038,12,0,42328,0:0:0:0:
384,192,42618,6,0,L|160:192,1,210
160,192,43198,2,0,L|384:192,1,210
256,192,43777,12,0,44067,0:0:0:0:
256,192,44357,12,0,44647,0:0:0:0:
96,192,44937,6,0,L|448:192,1,350
256,192,45806,1,0,0:0:0:0:
256,192,45951,12,0,46966,0:0:0:0:
160,64,47256,6,0,B|160:320|384:320|384:64,1,490
256,192,48415,1,8,0:0:0:0:
256,192,48560,1,8,0:0:0:0:
256,192,48633,1,8,0:0:0:0:
256,192,48705,1,8,0:0:0:0:
256,192,48777,1,8,0:0:0:0:
256,192,48850,1,8,0:0:0:0:
256,192,48922,1,8,0:0:0:0:
256,192,48995,1,8,0:0:0:0:
256,192,49067,1,8,0:0:0:0:
256,192,49140,1,8,0:0:0:0:
256,192,49212,1,8,0:0:0:0:
256,192,49285,1,8,0:0:0:0:
256,192,49357,1,8,0:0:0:0:
256,192,49430,1,8,0:0:0:0:
256,288,49575,1,4,0:0:0:0:
256,192,49719,1,8,0:0:0:0:
256,192,49792,1,0,0:0:0:0:
256,192,49864,1,0,0:0:0:0:
256,192,50009,1,8,0:0:0:0:
256,192,50154,1,0,0:0:0:0:
256,192,50227,1,0,0:0:0:0:
256,192,50299,1,8,0:0:0:0:
256,192,50444,1,0,0:0:0:0:
256,192,50589,1,8,0:0:0:0:
256,192,50734,1,0,0:0:0:0:
256,192,50879,1,8,0:0:0:0:
256,192,50951,1,0,0:0:0:0:
256,192,51024,1,0,0:0:0:0:
256,192,51169,1,8,0:0:0:0:
256,192,51314,1,0,0:0:0:0:
256,192,51459,1,8,0:0:0:0:
256,192,51531,1,8,0:0:0:0:
256,192,51604,1,0,0:0:0:0:
256,192,51748,1,8,0:0:0:0:
256,192,51893,1,0,0:0:0:0:
256,192,52038,1,8,0:0:0:0:
256,192,52111,1,8,0:0:0:0:
256,192,52183,1,0,0:0:0:0:
256,192,52256,1,0,0:0:0:0:
256,192,52328,1,8,0:0:0:0:
256,192,52401,1,8,0:0:0:0:
256,192,52473,1,0,0:0:0:0:
256,192,52546,1,0,0:0:0:0:
256,192,52618,1,8,0:0:0:0:
256,192,52691,1,8,0:0:0:0:
256,192,52763,1,0,0:0:0:0:
256,192,52835,1,0,0:0:0:0:
256,192,52908,1,8,0:0:0:0:
256,192,53053,1,8,0:0:0:0:
256,192,53125,1,8,0:0:0:0:
256,192,53198,1,0,0:0:0:0:
256,192,53270,1,0,0:0:0:0:
256,192,53343,1,8,0:0:0:0:
256,192,53415,1,8,0:0:0:0:
256,192,53488,1,0,0:0:0:0:
256,192,53560,1,0,0:0:0:0:
256,192,53633,1,8,0:0:0:0:
256,192,53705,1,8,0:0:0:0:
256,192,53777,1,0,0:0:0:0:
256,192,53850,1,0,0:0:0:0:
256,192,53922,1,8,0:0:0:0:
256,192,53995,1,8,0:0:0:0:
256,192,54067,1,0,0:0:0:0:
256,192,54212,1,0,0:0:0:0:
256,192,54430,1,8,0:0:0:0:
256,192,54647,1,0,0:0:0:0:
256,192,54792,1,0,0:0:0:0:
256,192,54864,1,0,0:0:0:0:
256,192,54937,1,8,0:0:0:0:
256,192,55082,1,0,0:0:0:0:
256,192,55227,1,8,0:0:0:0:
256,192,55372,1,0,0:0:0:0:
256,192,55589,1,8,0:0:0:0:
256,192,55806,1,0,0:0:0:0:
256,192,55951,1,0,0:0:0:0:
256,192,56096,1,8,0:0:0:0:
256,192,56169,1,8,0:0:0:0:
256,192,56241,1,0,0:0:0:0:
256,192,56386,1,8,0:0:0:0:
256,192,56531,1,0,0:0:0:0:
256,192,56748,1,8,0:0:0:0:
256,192,56966,1,8,0:0:0:0:
256,288,57111,1,4,0:0:0:0:
256,288,57256,1,4,0:0:0:0:
256,288,57401,1,4,0:0:0:0:
256,192,57546,1,8,0:0:0:0:
256,192,57691,1,0,0:0:0:0:
256,192,57835,1,8,0:0:0:0:
256,192,57908,1,8,0:0:0:0:
256,192,57980,1,8,0:0:0:0:
256,192,58053,1,8,0:0:0:0:
256,192,58125,1,8,0:0:0:0:
256,192,58198,1,8,0:0:0:0:
256,192,58270,1,0,0:0:0:0:
256,192,58343,1,0,0:0:0:0:
256,192,58415,1,0,0:0:0:0:
256,192,58488,1,0,0:0:0:0:
256,192,58560,1,8,0:0:0:0:
256,192,58633,1,8,0:0:0:0:
256,192,58705,1,8,0:0:0:0:
256,192,58850,1,0,0:0:0:0:
256,192,58995,1,8,0:0:0:0:
256,192,59067,1,0,0:0:0:0:
256,192,59140,1,0,0:0:0:0:
256,192,59285,1,8,0:0:0:0:
256,192,59430,1,0,0:0:0:0:
256,192,59502,1,0,0:0:0:0:
256,192,59575,1,8,0:0:0:0:
256,192,59719,1,0,0:0:0:0:
256,192,59864,1,8,0:0:0:0:
256,192,60009,1,0,0:0:0:0:
256,192,60154,1,8,0:0:0:0:
256,192,60227,1,0,0:0:0:0:
256,192,60299,1,0,0:0:0:0:
256,192,60444,1,8,0:0:0:0:
256,192,60589,1,0,0:0:0:0:
256,192,60734,1,8,0:0:0:0:
256,192,60806,1,8,0:0:0:0:
256,192,60879,1,0,0:0:0:0:
256,192,61024,1,8,0:0:0:0:
256,192,61169,1,0,0:0:0:0:
256,192,61241,1,0,0:0:0:0:
256,192,61314,1,8,0:0:0:0:
256,192,61386,1,8,0:0:0:0:
256,192,61459,1,0,0:0:0:0:
256,192,61531,1,0,0:0:0:0:
256,192,61604,1,8,0:0:0:0:
256,192,61676,1,8,0:0:0:0:
256,192,61748,1,0,0:0:0:0:
256,192,61821,1,0,0:0:0:0:
256,192,61893,1,8,0:0:0:0:
256,192,61966,1,8,0:0:0:0:
256,192,62038,1,8,0:0:0:0:
256,192,62111,1,8,0:0:0:0:
256,192,62183,1,8,0:0:0:0:
256,192,62328,1,0,0:0:0:0:
256,192,62401,1,0,0:0:0:0:
256,192,62473,1,8,0:0:0:0:
256,192,62546,1,8,0:0:0:0:
256,192,62618,1,0,0:0:0:0:
256,192,62691,1,0,0:0:0:0:
256,192,62763,1,8,0:0:0:0:
256,192,62835,1,8,0:0:0:0:
256,192,62908,1,0,0:0:0:0:
256,192,62980,1,0,0:0:0:0:
256,192,63053,1,8,0:0:0:0:
256,192,63125,1,8,0:0:0:0:
256,192,63198,1,0,0:0:0:0:
256,192,63270,1,8,0:0:0:0:
256,192,63343,1,8,0:0:0:0:
256,192,63488,1,0,0:0:0:0:
256,192,63705,1,8,0:0:0:0:
256,192,63922,1,8,0:0:0:0:
256,288,64067,1,4,0:0:0:0:
256,288,64212,1,4,0:0:0:0:
256,96,64357,1,12,0:0:0:0:
256,192,64647,1,0,0:0:0:0:
256,192,64864,1,8,0:0:0:0:
256,192,65082,1,8,0:0:0:0:
256,192,65227,1,0,0:0:0:0:
256,192,65299,1,0,0:0:0:0:
256,192,65372,1,0,0:0:0:0:
256,96,65517,1,12,0:0:0:0:
256,192,65806,1,0,0:0:0:0:
256,192,66024,1,8,0:0:0:0:
256,192,66241,1,8,0:0:0:0:
256,192,66386,1,0,0:0:0:0:
256,192,66604,1,8,0:0:0:0:
256,192,66821,1,8,0:0:0:0:
256,192,66966,1,0,0:0:0:0:
256,192,67111,1,8,0:0:0:0:
256,192,67183,1,8,0:0:0:0:
256,192,67256,1,0,0:0:0:0:
256,192,67328,1,0,0:0:0:0:
256,192,67401,1,8,0:0:0:0:
256,192,67473,1,8,0:0:0:0:
256,192,67546,1,0,0:0:0:0:
256,192,67618,1,0,0:0:0:0:
256,192,67691,1,8,0:0:0:0:
256,192,67763,1,0,0:0:0:0:
256,192,67835,1,0,0:0:0:0:
256,192,67908,1,0,0:0:0:0:
256,192,67980,1,8,0:0:0:0:
256,192,68125,1,0,0:0:0:0:
256,192,68270,1,8,0:0:0:0:
256,192,68343,1,8,0:0:0:0:
256,192,68415,1,0,0:0:0:0:
256,192,68560,1,8,0:0:0:0:
256,192,68633,1,8,0:0:0:0:
256,192,68850,1,8,0:0:0:0:
256,192,68922,1,8,0:0:0:0:
256,192,68995,1,0,0:0:0:0:
256,192,69067,1,0,0:0:0:0:
256,192,69140,1,8,0:0:0:0:
256,192,69285,1,0,0:0:0:0:
256,192,69357,1,0,0:0:0:0:
256,192,69430,1,8,0:0:0:0:
256,192,69502,1,8,0:0:0:0:
256,192,69575,1,0,0:0:0:0:
256,192,69647,1,0,0:0:0:0:
256,192,69719,1,8,0:0:0:0:
256,192,69864,1,0,0:0:0:0:
256,192,69937,1,0,0:0:0:0:
256,192,70009,1,8,0:0:0:0:
256,192,70082,1,0,0:0:0:0:
256,192,70154,1,0,0:0:0:0:
256,192,70227,1,8,0:0:0:0:
256,192,70299,1,0,0:0:0:0:
256,192,70444,1,8,0:0:0:0:
256,192,70589,1,8,0:0:0:0:
256,192,70662,1,8,0:0:0:0:
256,192,70734,1,8,0:0:0:0:
256,192,70831,1,8,0:0:0:0:
256,192,70927,1,8,0:0:0:0:
256,192,71024,1,8,0:0:0:0:
256,192,71096,1,8,0:0:0:0:
256,192,71169,1,0,0:0:0:0:
256,192,71241,1,0,0:0:0:0:
256,192,71314,1,8,0:0:0:0:
256,192,71386,1,8,0:0:0:0:
256,192,71459,1,0,0:0:0:0:
256,192,71604,1,0,0:0:0:0:
256,192,71676,1,0,0:0:0:0:
256,192,71748,1,8,0:0:0:0:
256,192,71821,1,8,0:0:0:0:
256,192,71893,1,0,0:0:0:0:
256,192,71966,1,0,0:0:0:0:
256,192,72038,1,8,0:0:0:0:
256,192,72111,1,0,0:0:0:0:
256,192,72183,1,8,0:0:0:0:
256,192,72232,1,8,0:0:0:0:
256,192,72280,1,8,0:0:0:0:
256,192,72377,1,8,0:0:0:0:
256,192,72473,1,8,0:0:0:0:
256,192,72521,1,8,0:0:0:0:
256,192,72570,1,8,0:0:0:0:
256,192,72666,1,8,0:0:0:0:
256,192,72763,1,0,0:0:0:0:
256,192,72835,1,0,0:0:0:0:
256,192,72908,1,8,0:0:0:0:
256,192,72980,1,0,0:0:0:0:
256,192,73053,1,0,0:0:0:0:
256,192,73125,1,0,0:0:0:0:
256,192,73198,1,8,0:0:0:0:
256,192,73270,1,0,0:0:0:0:
256,192,73343,1,0,0:0:0:0:
256,192,73415,1,0,0:0:0:0:
256,192,73488,1,8,0:0:0:0:
256,192,73560,1,0,0:0:0:0:
256,192,73633,1,0,0:0:0:0:
256,192,73705,1,0,0:0:0:0:
256,192,73777,1,8,0:0:0:0:
256,192,73922,1,8,0:0:0:0:
256,192,73995,1,8,0:0:0:0:
256,192,74067,1,0,0:0:0:0:
256,192,74140,1,0,0:0:0:0:
256,192,74212,1,8,0:0:0:0:
256,192,74285,1,8,0:0:0:0:
256,192,74357,1,0,0:0:0:0:
256,192,74430,1,0,0:0:0:0:
256,192,74502,1,8,0:0:0:0:
256,192,74575,1,8,0:0:0:0:
256,192,74647,1,0,0:0:0:0:
256,192,74719,1,0,0:0:0:0:
256,192,74792,1,0,0:0:0:0:
256,192,74864,1,0,0:0:0:0:
256,192,74937,1,0,0:0:0:0:
256,192,75082,1,0,0:0:0:0:
256,192,75154,1,0,0:0:0:0:
256,192,75227,1,8,0:0:0:0:
256,192,75299,1,8,0:0:0:0:
256,192,75372,1,0,0:0:0:0:
256,192,75444,1,0,0:0:0:0:
256,192,75517,1,8,0:0:0:0:
256,192,75589,1,8,0:0:0:0:
256,192,75662,1,0,0:0:0:0:
256,192,75734,1,0,0:0:0:0:
256,192,75806,1,8,0:0:0:0:
256,192,75879,1,8,0:0:0:0:
256,192,75951,1,8,0:0:0:0:
256,192,76024,1,8,0:0:0:0:
256,192,76096,1,0,0:0:0:0:
256,192,76241,1,8,0:0:0:0:
256,192,76314,1,8,0:0:0:0:
256,192,76386,1,0,0:0:0:0:
256,192,76459,1,0,0:0:0:0:
256,192,76531,1,8,0:0:0:0:
256,192,76604,1,8,0:0:0:0:
256,192,76676,1,0,0:0:0:0:
256,192,76748,1,0,0:0:0:0:
256,192,76821,1,8,0:0:0:0:
256,192,76893,1,8,0:0:0:0:
256,192,76966,1,8,0:0:0:0:
256,192,77038,1,0,0:0:0:0:
256,192,77111,1,8,0:0:0:0:
256,192,77401,1,8,0:0:0:0:
256,192,77473,1,0,0:0:0:0:
256,192,77546,1,0,0:0:0:0:
256,192,77618,1,0,0:0:0:0:
256,192,77691,1,8,0:0:0:0:
256,192,77763,1,0,0:0:0:0:
256,192,77835,1,0,0:0:0:0:
256,192,77908,1,0,0:0:0:0:
256,192,77980,1,8,0:0:0:0:
256,192,78053,1,0,0:0:0:0:
256,192,78125,1,0,0:0:0:0:
256,192,78198,1,0,0:0:0:0:
256,192,78270,1,8,0:0:0:0:
256,192,78343,1,0,0:0:0:0:
256,192,78415,1,8,0:0:0:0:
256,192,78560,1,8,0:0:0:0:
256,192,78705,1,8,0:0:0:0:
256,192,78777,1,8,0:0:0:0:
256,192,78850,1,0,0:0:0:0:
256,192,78922,1,0,0:0:0:0:
256,192,78995,1,8,0:0:0:0:
256,192,79067,1,8,0:0:0:0:
256,192,79140,1,0,0:0:0:0:
256,192,79212,1,0,0:0:0:0:
256,192,79285,1,8,0:0:0:0:
256,192,79357,1,0,0:0:0:0:
256,192,79430,1,0,0:0:0:0:
256,192,79502,1,8,0:0:0:0:
256,192,79575,1,0,0:0:0:0:
256,192,79719,1,8,0:0:0:0:
256,192,79792,1,8,0:0:0:0:
256,192,79864,1,0,0:0:0:0:
256,192,79937,1,0,0:0:0:0:
256,192,80009,1,8,0:0:0:0:
256,192,80082,1,8,0:0:0:0:
256,192,80154,1,0,0:0:0:0:
256,192,80227,1,0,0:0:0:0:
256,192,80299,1,0,0:0:0:0:
256,192,80372,1,0,0:0:0:0:
256,192,80444,1,8,0:0:0:0:
256,192,80517,1,0,0:0:0:0:
256,192,80589,1,0,0:0:0:0:
256,192,80662,1,0,0:0:0:0:
256,192,80734,1,8,0:0:0:0:
256,192,80806,1,0,0:0:0:0:
256,192,80879,1,0,0:0:0:0:
256,192,81024,1,8,0:0:0:0:
256,192,81169,1,8,0:0:0:0:
256,192,81314,1,0,0:0:0:0:
256,192,81459,1,8,0:0:0:0:
256,192,81531,1,8,0:0:0:0:
256,192,81604,1,8,0:0:0:0:
256,192,81676,1,8,0:0:0:0:
256,192,81748,1,0,0:0:0:0:
256,192,82038,1,0,0:0:0:0:
256,192,82111,1,0,0:0:0:0:
256,192,82183,1,8,0:0:0:0:
256,192,82256,1,8,0:0:0:0:
256,192,82328,1,0,0:0:0:0:
256,192,82401,1,0,0:0:0:0:
256,192,82473,1,0,0:0:0:0:
256,192,82546,1,0,0:0:0:0:
256,192,82618,1,8,0:0:0:0:
256,192,82908,1,0,0:0:0:0:
256,192,83198,1,0,0:0:0:0:
256,192,83270,1,0,0:0:0:0:
256,192,83343,1,8,0:0:0:0:
256,192,83415,1,8,0:0:0:0:
256,192,83488,1,0,0:0:0:0:
256,192,83560,1,0,0:0:0:0:
256,192,83633,1,8,0:0:0:0:
256,192,83705,1,0,0:0:0:0:
256,192,83777,1,8,0:0:0:0:
256,192,84067,1,0,0:0:0:0:
256,96,84357,1,12,0:0:0:0:
256,96,84502,1,12,0:0:0:0:
256,96,84792,1,12,0:0:0:0:
256,96,85082,1,12,0:0:0:0:
256,96,85372,1,12,0:0:0:0:
256,96,85517,1,12,0:0:0:0:
256,96,85662,1,12,0:0:0:0:
256,96,85951,1,12,0:0:0:0:
256,96,86241,1,12,0:0:0:0:
256,96,86531,1,12,0:0:0:0:
256,288,86676,1,4,0:0:0:0:
256,288,86821,1,4,0:0:0:0:
256,192,86966,1,8,0:0:0:0:
256,192,87038,1,8,0:0:0:0:
256,192,87111,1,0,0:0:0:0:
256,192,87256,1,8,0:0:0:0:
256,192,87328,1,8,0:0:0:0:
256,192,87401,1,0,0:0:0:0:
256,192,87546,1,8,0:0:0:0:
256,192,87618,1,8,0:0:0:0:
256,192,87691,1,0,0:0:0:0:
256,96,87835,1,12,0:0:0:0:
256,96,87980,1,12,0:0:0:0:
256,192,88125,1,8,0:0:0:0:
256,192,88198,1,8,0:0:0:0:
256,192,88270,1,0,0:0:0:0:
256,192,88415,1,8,0:0:0:0:
256,192,88488,1,8,0:0:0:0:
256,192,88560,1,0,0:0:0:0:
256,192,88705,1,8,0:0:0:0:
256,192,88777,1,8,0:0:0:0:
256,192,88850,1,8,0:0:0:0:
256,192,88922,1,8,0:0:0:0:
256,192,88995,1,0,0:0:0:0:
256,192,89212,1,8,0:0:0:0:
256,192,89430,1,0,0:0:0:0:
256,192,89575,1,8,0:0:0:0:
256,192,89647,1,8,0:0:0:0:
256,192,89719,1,0,0:0:0:0:
256,192,89864,1,0,0:0:0:0:
256,192,90009,1,8,0:0:0:0:
256,192,90154,1,0,0:0:0:0:
256,192,90299,1,8,0:0:0:0:
256,192,90444,1,0,0:0:0:0:
256,192,90589,1,8,0:0:0:0:
256,192,90662,1,8,0:0:0:0:
256,192,90734,1,0,0:0:0:0:
256,192,90806,1,0,0:0:0:0:
256,192,90879,1,8,0:0:0:0:
256,192,91024,1,0,0:0:0:0:
256,192,91169,1,8,0:0:0:0:
256,192,91314,12,8,91459,0:0:0:0:
256,192,91604,5,0,0:0:0:0:
256,192,91676,1,0,0:0:0:0:
256,192,91748,1,8,0:0:0:0:
256,192,91821,1,8,0:0:0:0:
256,192,91893,1,0,0:0:0:0:
256,192,91966,1,0,0:0:0:0:
256,192,92038,1,8,0:0:0:0:
256,192,92111,1,8,0:0:0:0:
256,192,92183,1,0,0:0:0:0:
256,192,92256,1,0,0:0:0:0:
256,192,92328,1,8,0:0:0:0:
256,192,92401,1,8,0:0:0:0:
256,192,92473,1,8,0:0:0:0:
256,192,92546,1,8,0:0:0:0:
256,192,92618,1,0,0:0:0:0:
256,192,92691,1,0,0:0:0:0:
256,192,92763,1,8,0:0:0:0:
256,192,92835,1,8,0:0:0:0:
256,192,92908,1,0,0:0:0:0:
256,192,93053,1,8,0:0:0:0:
256,192,93198,1,8,0:0:0:0:
256,192,93343,1,0,0:0:0:0:
256,192,93488,1,8,0:0:0:0:
256,192,93633,1,0,0:0:0:0:
256,192,93850,1,8,0:0:0:0:
256,192,94067,1,0,0:0:0:0:
256,192,94212,1,0,0:0:0:0:
256,192,94285,1,0,0:0:0:0:
256,192,94357,1,8,0:0:0:0:
256,192,94430,1,8,0:0:0:0:
256,192,94502,1,8,0:0:0:0:
256,192,94647,1,0,0:0:0:0:
256,192,94792,1,0,0:0:0:0:
256,192,95009,1,8,0:0:0:0:
256,192,95227,1,0,0:0:0:0:
256,192,95372,1,0,0:0:0:0:
256,192,95444,1,0,0:0:0:0:
256,192,95517,1,8,0:0:0:0:
256,192,95589,1,0,0:0:0:0:
256,192,95662,1,8,0:0:0:0:
256,192,95806,1,0,0:0:0:0:
256,192,95951,1,0,0:0:0:0:
256,192,96096,1,8,0:0:0:0:
256,192,96241,1,8,0:0:0:0:
256,192,96386,1,0,0:0:0:0:
256,192,96531,1,0,0:0:0:0:
256,192,96676,1,8,0:0:0:0:
256,192,96821,1,8,0:0:0:0:
256,192,96966,1,0,0:0:0:0:
256,192,97111,1,0,0:0:0:0:
256,192,97256,1,0,0:0:0:0:
256,192,97328,1,0,0:0:0:0:
256,192,97401,1,8,0:0:0:0:
256,192,97473,1,8,0:0:0:0:
256,192,97546,1,0,0:0:0:0:
256,192,97618,1,0,0:0:0:0:
256,192,97691,1,8,0:0:0:0:
256,192,97763,1,8,0:0:0:0:
256,192,97835,1,0,0:0:0:0:
256,192,97908,1,0,0:0:0:0:
256,192,97980,1,8,0:0:0:0:
256,192,98053,1,8,0:0:0:0:
256,192,98125,1,8,0:0:0:0:
256,192,98198,1,8,0:0:0:0:
256,192,98270,1,0,0:0:0:0:
256,192,98488,1,8,0:0:0:0:
256,192,98705,1,0,0:0:0:0:
256,192,98850,1,0,0:0:0:0:
256,192,98922,1,8,0:0:0:0:
256,192,98995,1,8,0:0:0:0:
256,192,99067,1,8,0:0:0:0:
256,192,99140,1,0,0:0:0:0:
256,192,99285,1,8,0:0:0:0:
256,192,99430,1,0,0:0:0:0:
256,192,99575,1,8,0:0:0:0:
256,192,99719,1,0,0:0:0:0:
256,192,99864,1,8,0:0:0:0:
256,192,99937,1,8,0:0:0:0:
256,192,100009,1,0,0:0:0:0:
256,192,100082,1,0,0:0:0:0:
256,192,100154,1,8,0:0:0:0:
256,192,100227,1,8,0:0:0:0:
256,192,100299,1,0,0:0:0:0:
256,192,100589,1,0,0:0:0:0:
256,192,100662,1,0,0:0:0:0:
256,192,100734,1,8,0:0:0:0:
256,192,100806,1,8,0:0:0:0:
256,192,100879,1,8,0:0:0:0:
256,192,101169,1,0,0:0:0:0:
256,192,101241,1,0,0:0:0:0:
256,192,101314,1,8,0:0:0:0:
256,192,101386,1,8,0:0:0:0:
256,192,101459,1,8,0:0:0:0:
256,192,101748,1,0,0:0:0:0:
256,192,101821,1,0,0:0:0:0:
256,192,101893,1,8,0:0:0:0:
256,192,101966,1,8,0:0:0:0:
256,192,102038,1,0,0:0:0:0:
256,192,102183,1,8,0:0:0:0:
256,192,102328,1,0,0:0:0:0:
256,192,102401,1,0,0:0:0:0:
256,192,102473,1,8,0:0:0:0:
256,192,102546,1,8,0:0:0:0:
256,192,102618,1,0,0:0:0:0:
256,192,102763,1,8,0:0:0:0:
256,192,102908,1,0,0:0:0:0:
256,192,103125,1,8,0:0:0:0:
256,192,103343,1,0,0:0:0:0:
256,192,103488,1,0,0:0:0:0:
256,192,103560,1,0,0:0:0:0:
256,192,103633,1,8,0:0:0:0:
256,192,103705,1,8,0:0:0:0:
256,192,103777,1,8,0:0:0:0:
256,192,103922,1,0,0:0:0:0:
256,192,104067,1,0,0:0:0:0:
256,192,104285,1,8,0:0:0:0:
256,192,104502,1,0,0:0:0:0:
256,192,104647,1,0,0:0:0:0:
256,192,104719,1,0,0:0:0:0:
256,192,104792,1,8,0:0:0:0:
256,192,104864,1,0,0:0:0:0:
256,192,104937,1,8,0:0:0:0:
256,192,105082,1,0,0:0:0:0:
256,192,105227,1,0,0:0:0:0:
256,192,105372,1,8,0:0:0:0:
256,192,105444,1,8,0:0:0:0:
256,192,105662,1,0,0:0:0:0:
256,192,105806,1,0,0:0:0:0:
256,192,105951,1,8,0:0:0:0:
256,192,106024,1,8,0:0:0:0:
256,192,106241,1,0,0:0:0:0:
256,192,106386,1,0,0:0:0:0:
256,192,106531,1,0,0:0:0:0:
256,192,106604,1,0,0:0:0:0:
256,192,106676,1,8,0:0:0:0:
256,192,106748,1,8,0:0:0:0:
256,192,106821,1,0,0:0:0:0:
256,192,106893,1,0,0:0:0:0:
256,192,106966,1,8,0:0:0:0:
256,192,107038,1,8,0:0:0:0:
256,192,107111,1,0,0:0:0:0:
256,192,107183,1,0,0:0:0:0:
256,192,107256,1,8,0:0:0:0:
256,192,107328,1,8,0:0:0:0:
256,192,107401,1,8,0:0:0:0:
256,192,107473,1,8,0:0:0:0:
256,192,107546,1,0,0:0:0:0:
256,192,107642,1,0,0:0:0:0:
256,192,107739,1,8,0:0:0:0:
256,192,107835,1,0,0:0:0:0:
256,192,107932,1,0,0:0:0:0:
256,192,108029,1,8,0:0:0:0:
256,192,108125,1,0,0:0:0:0:
256,192,108222,1,0,0:0:0:0:
256,192,108319,1,8,0:0:0:0:
256,192,108415,1,0,0:0:0:0:
256,192,108512,1,0,0:0:0:0:
256,192,108608,1,8,0:0:0:0:
256,192,108705,1,8,0:0:0:0:
256,192,108802,1,0,0:0:0:0:
256,192,108898,1,0,0:0:0:0:
256,192,108995,1,8,0:0:0:0:
256,192,109091,1,0,0:0:0:0:
256,192,109188,1,0,0:0:0:0:
256,192,109285,1,8,0:0:0:0:
256,192,109381,1,0,0:0:0:0:
256,192,109478,1,0,0:0:0:0:
256,192,109575,1,8,0:0:0:0:
256,192,109671,1,0,0:0:0:0:
256,192,109768,1,0,0:0:0:0:
256,192,109864,1,0,0:0:0:0:
256,192,109961,1,8,0:0:0:0:
256,192,110058,1,8,0:0:0:0:
256,192,110154,1,0,0:0:0:0:
256,192,110251,1,8,0:0:0:0:
256,192,110348,1,8,0:0:0:0:
256,192,110444,1,0,0:0:0:0:
256,192,110541,1,8,0:0:0:0:
256,192,110637,1,8,0:0:0:0:
256,192,110734,1,0,0:0:0:0:
256,192,110831,1,8,0:0:0:0:
256,192,110927,1,8,0:0:0:0:
256,192,111024,1,0,0:0:0:0:
256,192,111096,1,0,0:0:0:0:
256,192,111169,1,0,0:0:0:0:
256,192,111241,1,8,0:0:0:0:
256,192,111314,1,0,0:0:0:0:
256,192,111386,1,0,0:0:0:0:
256,192,111459,1,0,0:0:0:0:
256,192,111531,1,8,0:0:0:0:
256,192,111604,1,0,0:0:0:0:
256,192,111676,1,0,0:0:0:0:
256,192,111748,1,0,0:0:0:0:
256,192,111821,1,8,0:0:0:0:
256,192,111893,1,0,0:0:0:0:
256,192,111966,1,0,0:0:0:0:
256,192,112038,1,0,0:0:0:0:
256,192,112111,1,8,0:0:0:0:
256,192,112183,1,8,0:0:0:0:
256,192,112473,1,8,0:0:0:0:
256,192,112521,1,8,0:0:0:0:
256,192,112570,1,8,0:0:0:0:
256,192,112666,1,8,0:0:0:0:
256,192,112763,1,8,0:0:0:0:
256,192,112811,1,8,0:0:0:0:
256,192,112860,1,8,0:0:0:0:
256,192,112956,1,8,0:0:0:0:
256,192,113053,1,8,0:0:0:0:
256,192,113101,1,8,0:0:0:0:
256,192,113149,1,8,0:0:0:0:
256,192,113246,1,8,0:0:0:0:
256,192,113343,1,8,0:0:0:0:
256,192,113415,1,8,0:0:0:0:
256,192,113488,1,8,0:0:0:0:
256,192,113560,1,0,0:0:0:0:
256,192,113633,1,8,0:0:0:0:
256,192,113705,1,8,0:0:0:0:
256,192,113777,1,8,0:0:0:0:
256,192,113850,1,0,0:0:0:0:
256,192,113922,1,8,0:0:0:0:
256,192,113995,1,8,0:0:0:0:
256,192,114067,1,8,0:0:0:0:
256,192,114140,1,0,0:0:0:0:
256,192,114212,1,8,0:0:0:0:
256,288,114430,1,4,0:0:0:0:
256,192,114792,12,8,119140,0:0:0:0:
