osu file format v14

[General]
AudioFilename: audio.mp3
AudioLeadIn: 0
PreviewTime: 88911
Countdown: 0
SampleSet: Soft
StackLeniency: 0.4
Mode: 0
LetterboxInBreaks: 0
WidescreenStoryboard: 0

[Editor]
DistanceSpacing: 0.5
BeatDivisor: 4
GridSize: 16
TimelineZoom: 2.1

[Metadata]
Title:kyokken
TitleUnicode:極圏
Artist:cosMo VS dj TAKA
ArtistUnicode:cosMo VS dj TAKA
Creator:[Crz]Makii
Version:HEAVENLY
Source:SOUND VOLTEX III GRAVITY WARS
Tags:sdvx cosmos
BeatmapID:1865460
BeatmapSetID:892410

[Difficulty]
HPDrainRate:6
CircleSize:4
OverallDifficulty:9
ApproachRate:9.6
SliderMultiplier:1.7
SliderTickRate:1

[Events]
//Background and Video events
0,0,"IMG_20171210_182146.jpg",0,0
//Break Periods
2,40488,47895
//Storyboard Layer 0 (Background)
//Storyboard Layer 1 (Fail)
//Storyboard Layer 2 (Pass)
//Storyboard Layer 3 (Foreground)
//Storyboard Sound Samples

[TimingPoints]
-291,289.855072463768,4,2,1,40,1,0
40288,-333.333333333333,4,2,1,40,0,0
48549,-100,4,2,1,40,0,0
49564,-90.9090909090909,4,2,1,60,0,1
68114,-100,4,2,1,50,0,0
90143,-83.3333333333333,4,2,1,50,0,1
107535,-100,4,2,1,50,0,0

[Colours]
Combo1 : 255,94,255
Combo2 : 0,255,168
Combo3 : 244,250,37
Combo4 : 0,191,255

[HitObjects]
170,62,578,5,0,0:0:0:0:
170,62,651,5,0,0:0:0:0:
170,62,723,5,0,0:0:0:0:
170,62,795,5,0,0:0:0:0:
170,62,868,6,0,L|225:71,2,56.6666666666667,4|0|0,0:0|0:0|0:0,0:0:0:0:
108,131,1158,2,0,L|53:140,2,56.6666666666667,4|0|0,0:0|0:0|0:0,0:0:0:0:
184,192,1448,2,0,L|239:201,2,56.6666666666667,4|0|0,0:0|0:0|0:0,0:0:0:0:
122,261,1738,2,0,L|67:270,2,56.6666666666667,4|0|0,0:0|0:0|0:0,0:0:0:0:
206,308,2027,2,0,L|215:363,2,56.6666666666667,4|0|0,0:0|0:0|0:0,0:0:0:0:
268,239,2317,2,0,L|277:184,2,56.6666666666667,4|0|0,0:0|0:0|0:0,0:0:0:0:
320,309,2607,5,4,0:0:0:0:
356,319,2703,1,0,0:0:0:0:
393,314,2800,1,0,0:0:0:0:
425,294,2896,1,4,0:0:0:0:
446,263,2993,1,0,0:0:0:0:
453,227,3090,1,0,0:0:0:0:
444,190,3187,6,0,L|437:135,2,56.6666666666667,4|0|0,0:0|0:0|0:0,0:0:0:0:
375,81,3477,2,0,L|382:25,2,56.6666666666667,4|0|0,0:0|0:0|0:0,0:0:0:0:
326,214,3766,2,0,L|318:158,2,56.6666666666667,4|0|0,0:0|0:0|0:0,0:0:0:0:
256,104,4056,2,0,L|263:48,2,56.6666666666667,4|0|0,0:0|0:0|0:0,0:0:0:0:
161,95,4346,2,0,L|135:32,2,56.6666666666667,4|0|0,0:0|0:0|0:0,0:0:0:0:
80,148,4636,2,0,L|20:106,2,56.6666666666667,4|0|0,0:0|0:0|0:0,0:0:0:0:
164,200,4926,5,8,0:0:0:0:
76,229,5023,1,8,0:0:0:0:
160,240,5119,5,8,0:0:0:0:
97,258,5216,1,8,0:0:0:0:
158,282,5312,5,8,0:0:0:0:
123,291,5409,1,8,0:0:0:0:
146,315,5506,5,0,0:0:0:0:
412,299,5795,2,0,L|453:307,16,28.3333333333333,2|0|0|0|0|0|0|0|0|0|0|0|0|0|0|0|0,0:0|0:0|0:0|0:0|0:0|0:0|0:0|0:0|0:0|0:0|0:0|0:0|0:0|0:0|0:0|0:0|0:0,0:0:0:0:
394,217,6665,6,0,L|408:162,2,56.6666666666667,4|0|0,0:0|0:0|0:0,0:0:0:0:
321,139,6955,2,0,L|316:79,2,56.6666666666667,4|0|0,0:0|0:0|0:0,0:0:0:0:
216,113,7245,2,0,L|186:42,2,56.6666666666667,4|0|0,0:0|0:0|0:0,0:0:0:0:
114,150,7535,1,2,0:0:0:0:
76,327,7824,6,0,B|124:344|124:344|250:315,1,170,4|8,0:0|0:0,0:0:0:0:
307,215,8259,1,0,0:0:0:0:
200,183,8404,1,0,0:0:0:0:
303,120,8549,1,0,0:0:0:0:
195,85,8694,1,8,0:0:0:0:
298,29,8839,6,0,P|368:37|392:128,1,170
437,237,9274,1,8,0:0:0:0:
396,349,9419,1,0,0:0:0:0:
315,252,9564,1,0,0:0:0:0:
257,361,9708,1,0,0:0:0:0:
184,270,9853,1,8,0:0:0:0:
242,166,9998,1,0,0:0:0:0:
171,69,10143,6,0,P|79:68|47:150,1,170,0|8,0:0|0:0,0:0:0:0:
149,187,10578,1,0,0:0:0:0:
319,157,10723,1,0,0:0:0:0:
339,150,10795,1,0,0:0:0:0:
356,138,10867,1,0,0:0:0:0:
369,121,10940,1,0,0:0:0:0:
376,101,11012,1,8,0:0:0:0:
377,80,11085,1,0,0:0:0:0:
371,59,11157,1,0,0:0:0:0:
360,41,11230,1,0,0:0:0:0:
344,27,11303,6,0,L|291:19,3,42.5,4|0|0|0,0:0|0:0|0:0|0:0,0:0:0:0:
264,97,11593,2,0,L|211:105,3,42.5,4|0|0|0,0:0|0:0|0:0|0:0,0:0:0:0:
179,27,11882,2,0,L|135:45,1,42.5,4|0,0:0|0:0,0:0:0:0:
118,121,12027,2,0,L|151:171,3,42.5,4|0|0|0,0:0|0:0|0:0|0:0,0:0:0:0:
54,58,12317,6,0,B|21:94|21:94|52:246,1,170,4|0,0:0|0:0,0:0:0:0:
91,320,12752,1,8,0:0:0:0:
137,210,12897,1,0,0:0:0:0:
225,290,13042,1,0,0:0:0:0:
262,177,13187,1,0,0:0:0:0:
346,261,13332,1,8,0:0:0:0:
418,185,13477,2,0,P|451:253|415:342,1,170
311,341,13911,5,8,0:0:0:0:
165,295,14056,1,0,0:0:0:0:
308,219,14201,1,0,0:0:0:0:
166,278,14346,1,0,0:0:0:0:
309,199,14491,1,8,0:0:0:0:
171,137,14636,1,0,0:0:0:0:
309,177,14781,6,0,B|353:127|314:59|314:59|367:80,1,170,4|8,0:0|0:0,0:0:0:0:
480,119,15216,1,0,0:0:0:0:
428,222,15361,1,0,0:0:0:0:
439,239,15433,1,0,0:0:0:0:
446,259,15505,1,0,0:0:0:0:
446,281,15578,1,0,0:0:0:0:
441,301,15650,1,8,0:0:0:0:
431,319,15723,1,0,0:0:0:0:
415,334,15795,1,0,0:0:0:0:
397,344,15868,1,0,0:0:0:0:
373,348,15940,6,0,L|318:343,1,42.5,4|0,0:0|0:0,0:0:0:0:
277,265,16085,2,0,L|218:282,3,42.5,4|0|0|0,0:0|0:0|0:0|0:0,0:0:0:0:
154,200,16375,2,0,L|159:271,3,42.5,4|0|0|0,0:0|0:0|0:0|0:0,0:0:0:0:
156,363,16665,2,0,L|171:319,1,42.5,4|0,0:0|0:0,0:0:0:0:
78,273,16810,1,8,0:3:0:0:
52,239,16882,1,8,0:3:0:0:
43,198,16954,1,8,0:3:0:0:
53,157,17027,1,8,0:3:0:0:
79,124,17100,5,4,0:0:0:0:
426,37,17390,2,0,B|458:78|458:78|430:213,1,170,8|0,0:0|0:0,0:0:0:0:
360,287,17824,1,0,0:0:0:0:
289,191,17969,1,8,0:0:0:0:
245,291,18114,2,0,P|191:246|193:142,1,170
262,57,18549,5,8,0:0:0:0:
147,24,18694,1,0,0:0:0:0:
55,100,18839,1,0,0:0:0:0:
159,156,18984,1,0,0:0:0:0:
68,233,19129,1,8,0:0:0:0:
165,300,19274,1,0,0:0:0:0:
68,370,19419,5,4,0:0:0:0:
166,237,19564,1,0,0:0:0:0:
272,317,19708,1,8,0:0:0:0:
285,333,19780,1,0,0:0:0:0:
302,345,19852,1,0,0:0:0:0:
323,351,19925,1,0,0:0:0:0:
344,352,19998,1,0,0:0:0:0:
364,347,20070,1,0,0:0:0:0:
383,336,20142,1,0,0:0:0:0:
397,321,20215,1,0,0:0:0:0:
407,302,20287,1,8,0:0:0:0:
411,282,20360,1,0,0:0:0:0:
410,260,20432,1,0,0:0:0:0:
402,241,20505,1,0,0:0:0:0:
386,221,20578,6,0,L|360:181,1,42.5,4|0,0:0|0:0,0:0:0:0:
312,119,20723,2,0,L|320:71,3,42.5,4|0|0|0,0:0|0:0|0:0|0:0,0:0:0:0:
268,194,21013,2,0,L|260:242,3,42.5,4|0|0|0,0:0|0:0|0:0|0:0,0:0:0:0:
233,125,21303,2,0,L|181:142,1,42.5,4|0,0:0|0:0,0:0:0:0:
167,50,21448,2,0,L|136:86,1,42.5,4|0,0:0|0:0,0:0:0:0:
74,21,21593,2,0,L|61:66,1,42.5,4|0,0:0|0:0,0:0:0:0:
38,185,21737,5,4,0:0:0:0:
75,355,22027,2,0,B|125:325|125:325|241:366,1,170,8|0,0:0|0:0,0:0:0:0:
332,299,22462,1,0,0:0:0:0:
252,210,22607,1,8,0:0:0:0:
363,167,22752,2,0,P|423:185|464:278,1,170
478,114,23187,5,8,0:0:0:0:
381,62,23332,1,0,0:0:0:0:
257,186,23477,5,0,0:0:0:0:
227,47,23622,1,0,0:0:0:0:
127,138,23766,5,8,0:0:0:0:
308,106,23911,1,0,0:0:0:0:
48,39,24056,5,4,0:0:0:0:
22,224,24201,1,0,0:0:0:0:
208,155,24346,1,8,0:0:0:0:
221,171,24418,1,0,0:0:0:0:
230,190,24490,1,0,0:0:0:0:
236,210,24563,1,0,0:0:0:0:
237,232,24635,1,0,0:0:0:0:
234,252,24708,1,0,0:0:0:0:
227,272,24780,1,0,0:0:0:0:
216,290,24853,1,0,0:0:0:0:
201,306,24925,1,8,0:0:0:0:
184,318,24998,1,0,0:0:0:0:
164,326,25070,1,0,0:0:0:0:
143,330,25143,1,0,0:0:0:0:
120,328,25216,6,0,L|66:320,1,42.5,4|0,0:0|0:0,0:0:0:0:
42,245,25361,2,0,L|40:194,3,42.5,4|0|0|0,0:0|0:0|0:0|0:0,0:0:0:0:
93,127,25651,2,0,L|145:125,3,42.5,4|0|0|0,0:0|0:0|0:0|0:0,0:0:0:0:
204,184,25940,2,0,L|206:245,1,42.5,4|0,0:0|0:0,0:0:0:0:
284,327,26085,1,8,0:0:0:0:
324,316,26157,1,8,0:0:0:0:
352,285,26229,1,8,0:0:0:0:
356,243,26302,1,8,0:0:0:0:
337,206,26374,5,4,0:0:0:0:
425,116,26520,1,0,0:0:0:0:
469,247,26665,1,0,0:0:0:0:
268,117,26810,5,4,0:0:0:0:
310,309,26955,1,0,0:0:0:0:
471,175,27100,1,0,0:0:0:0:
181,179,27245,5,4,0:0:0:0:
474,106,27390,1,0,0:0:0:0:
186,73,27535,5,4,0:0:0:0:
456,210,27680,1,0,0:0:0:0:
358,25,27824,5,4,0:0:0:0:
304,277,27969,1,0,0:0:0:0:
143,162,28114,1,8,0:0:0:0:
138,152,28186,1,8,0:0:0:0:
134,142,28258,1,8,0:0:0:0:
130,132,28331,1,8,0:0:0:0:
122,124,28404,5,2,0:0:0:0:
82,77,28476,1,2,0:0:0:0:
23,90,28548,1,2,0:0:0:0:
8,149,28621,1,2,0:0:0:0:
53,189,28693,1,2,0:0:0:0:
112,172,28766,2,2,L|123:124,2,42.5
134,271,28984,5,4,0:0:0:0:
270,280,29129,1,0,0:0:0:0:
416,288,29274,1,0,0:0:0:0:
209,86,29419,5,4,0:0:0:0:
277,317,29564,1,0,0:0:0:0:
440,125,29708,1,0,0:0:0:0:
126,31,29853,5,4,0:0:0:0:
352,232,30047,5,4,0:0:0:0:
50,328,30240,5,4,0:0:0:0:
176,154,30433,5,4,0:0:0:0:
428,361,30626,5,4,0:0:0:0:
409,59,30820,5,4,0:0:0:0:
256,192,31013,12,0,32172,0:0:0:0:
256,192,33332,12,0,34491,0:0:0:0:
256,192,35651,12,0,36810,0:0:0:0:
256,192,37969,12,0,39129,0:0:0:0:
256,192,40288,5,4,0:0:0:0:
116,93,48404,5,0,0:0:0:0:
229,73,48549,1,0,0:0:0:0:
228,76,48621,1,0,0:0:0:0:
228,80,48693,1,0,0:0:0:0:
227,83,48766,1,0,0:0:0:0:
227,87,48838,1,0,0:0:0:0:
227,91,48911,1,0,0:0:0:0:
226,94,48983,1,0,0:0:0:0:
226,98,49056,1,0,0:0:0:0:
226,101,49128,1,0,0:0:0:0:
225,105,49201,1,0,0:0:0:0:
225,109,49273,1,0,0:0:0:0:
225,112,49346,1,0,0:0:0:0:
224,116,49418,1,0,0:0:0:0:
224,120,49491,1,0,0:0:0:0:
221,124,49564,6,0,P|217:191|191:225,1,93.5000028533936,4|0,0:0|0:0,0:0:0:0:
65,125,49853,2,0,P|69:58|95:24,1,93.5000028533936
215,124,50143,1,0,0:0:0:0:
348,28,50288,1,0,0:0:0:0:
348,28,50361,1,0,0:0:0:0:
348,28,50433,1,0,0:0:0:0:
383,196,50578,1,0,0:0:0:0:
462,101,50723,6,0,B|394:139|318:100|318:100|301:137,1,187.000005706787
336,304,51158,1,0,0:0:0:0:
483,235,51303,1,0,0:0:0:0:
483,235,51375,1,0,0:0:0:0:
483,235,51448,1,0,0:0:0:0:
248,200,51593,1,0,0:0:0:0:
417,311,51737,1,0,0:0:0:0:
187,335,51882,6,0,B|131:327|61:342|61:342|93:311|98:291,1,187.000005706787
139,224,52245,1,0,0:0:0:0:
115,209,52317,1,0,0:0:0:0:
93,191,52389,1,0,0:0:0:0:
77,168,52461,1,0,0:0:0:0:
69,141,52534,1,0,0:0:0:0:
68,113,52606,1,0,0:0:0:0:
75,86,52679,1,0,0:0:0:0:
89,62,52751,1,0,0:0:0:0:
110,43,52824,1,0,0:0:0:0:
135,30,52896,1,0,0:0:0:0:
162,25,52969,1,0,0:0:0:0:
189,30,53042,6,0,L|243:37,3,46.7500014266968
204,127,53332,2,0,L|150:134,3,46.7500014266968
384,246,53622,1,0,0:0:0:0:
297,69,53766,1,0,0:0:0:0:
471,161,53911,1,0,0:0:0:0:
276,188,54056,1,0,0:0:0:0:
418,52,54201,6,0,B|431:72|431:72|419:154,1,93.5000028533936
372,218,54419,1,0,0:0:0:0:
372,218,54491,2,0,B|357:237|357:237|373:338,1,93.5000028533936
451,181,54781,1,0,0:0:0:0:
425,142,54853,1,0,0:0:0:0:
384,122,54925,1,0,0:0:0:0:
338,128,54998,1,0,0:0:0:0:
302,158,55070,1,0,0:0:0:0:
242,275,55216,1,0,0:0:0:0:
151,197,55361,6,0,B|132:176|132:176|153:102,1,93.5000028533936
96,51,55578,1,0,0:0:0:0:
96,51,55651,2,0,P|41:99|45:127,1,93.5000028533936
48,241,55940,1,0,0:0:0:0:
295,185,56085,1,0,0:0:0:0:
295,185,56375,1,0,0:0:0:0:
188,70,56520,6,0,B|145:50|145:50|53:85,2,140.25000428009
306,165,57100,2,0,L|303:251,1,46.7500014266968
247,275,57245,2,0,L|192:270,1,46.7500014266968
141,212,57390,2,0,L|144:126,1,46.7500014266968
200,102,57535,2,0,L|255:107,1,46.7500014266968
306,165,57680,5,0,0:0:0:0:
337,180,57752,1,0,0:0:0:0:
371,183,57824,1,0,0:0:0:0:
404,172,57897,1,0,0:0:0:0:
431,149,57969,1,0,0:0:0:0:
446,118,58042,1,0,0:0:0:0:
448,83,58114,1,0,0:0:0:0:
437,50,58187,1,0,0:0:0:0:
407,32,58259,5,0,0:0:0:0:
361,43,58331,1,0,0:0:0:0:
323,69,58403,1,0,0:0:0:0:
296,107,58476,1,0,0:0:0:0:
284,152,58548,1,0,0:0:0:0:
288,198,58621,1,0,0:0:0:0:
308,240,58693,1,0,0:0:0:0:
341,273,58766,1,0,0:0:0:0:
384,292,58839,6,0,L|480:278,1,93.5000028533936
323,69,59129,2,0,L|227:83,1,93.5000028533936
133,298,59419,1,0,0:0:0:0:
228,196,59564,1,0,0:0:0:0:
228,196,59636,1,0,0:0:0:0:
228,196,59708,1,0,0:0:0:0:
81,158,59853,1,0,0:0:0:0:
225,333,59998,6,0,B|263:304|263:304|334:362|400:306,1,187.000005706787
470,181,60433,1,0,0:0:0:0:
496,358,60578,1,0,0:0:0:0:
496,358,60651,1,0,0:0:0:0:
496,358,60723,1,0,0:0:0:0:
331,210,60868,1,0,0:0:0:0:
365,363,61013,1,0,0:0:0:0:
375,134,61158,5,0,0:0:0:0:
330,122,61230,1,0,0:0:0:0:
285,134,61302,1,0,0:0:0:0:
253,167,61375,1,0,0:0:0:0:
243,212,61448,1,0,0:0:0:0:
350,238,61593,1,0,0:0:0:0:
375,134,61737,5,0,0:0:0:0:
325,120,61809,1,0,0:0:0:0:
265,105,61881,1,0,0:0:0:0:
248,161,61954,1,0,0:0:0:0:
240,219,62026,1,0,0:0:0:0:
362,258,62172,1,0,0:0:0:0:
375,134,62317,5,0,0:0:0:0:
319,94,62389,1,0,0:0:0:0:
253,108,62461,1,0,0:0:0:0:
218,166,62534,1,0,0:0:0:0:
239,231,62606,1,0,0:0:0:0:
370,280,62752,1,0,0:0:0:0:
375,134,62897,5,0,0:0:0:0:
331,113,62969,1,0,0:0:0:0:
285,148,63041,1,0,0:0:0:0:
238,183,63114,1,0,0:0:0:0:
241,233,63186,1,0,0:0:0:0:
382,311,63332,1,0,0:0:0:0:
458,174,63477,6,0,B|481:71|481:71|455:36,2,140.25000428009
382,311,64056,2,0,L|327:303,1,46.7500014266968
294,203,64201,2,0,L|239:211,1,46.7500014266968
182,355,64346,2,0,P|126:348|111:303,1,93.5000028533936
54,174,64636,6,0,B|31:71|31:71|57:36,2,140.25000428009
130,311,65215,2,0,L|185:303,1,46.7500014266968
218,203,65360,2,0,L|273:211,1,46.7500014266968
330,355,65505,1,0,0:0:0:0:
436,79,65795,6,0,B|410:46|410:46|297:73,2,140.25000428009
437,228,66375,2,0,B|411:261|411:261|298:234,2,140.25000428009
332,137,66955,6,0,L|279:139,1,46.7500014266968
211,180,67100,2,0,L|216:245,1,46.7500014266968
267,302,67245,2,0,L|320:300,1,46.7500014266968
388,259,67390,2,0,L|383:194,1,46.7500014266968
332,137,67535,5,0,0:0:0:0:
300,170,67607,1,0,0:0:0:0:
255,182,67679,1,0,0:0:0:0:
211,170,67752,1,0,0:0:0:0:
180,136,67824,1,0,0:0:0:0:
140,82,67896,1,0,0:0:0:0:
73,85,67968,1,0,0:0:0:0:
39,143,68041,1,0,0:0:0:0:
69,204,68114,6,0,L|78:248,3,42.5
159,240,68404,2,0,L|147:283,3,42.5
228,289,68694,2,0,L|235:353,3,42.5
307,244,68984,2,0,L|303:310,3,42.5
398,353,69274,5,0,0:0:0:0:
425,337,69346,1,0,0:0:0:0:
441,310,69418,1,0,0:0:0:0:
440,278,69491,1,0,0:0:0:0:
423,252,69564,1,0,0:0:0:0:
399,217,69636,1,0,0:0:0:0:
391,176,69708,1,0,0:0:0:0:
400,135,69781,1,0,0:0:0:0:
468,128,69853,5,0,0:0:0:0:
466,170,69925,1,0,0:0:0:0:
436,199,69997,1,0,0:0:0:0:
395,202,70070,1,0,0:0:0:0:
362,176,70143,1,0,0:0:0:0:
338,130,70215,1,0,0:0:0:0:
291,106,70287,1,0,0:0:0:0:
240,113,70360,1,0,0:0:0:0:
201,148,70433,6,0,P|148:173|78:93,1,170
218,31,70868,1,0,0:0:0:0:
157,260,71013,1,0,0:0:0:0:
149,301,71085,1,0,0:0:0:0:
118,328,71157,1,0,0:0:0:0:
76,330,71230,1,0,0:0:0:0:
42,306,71303,1,0,0:0:0:0:
46,274,71375,1,0,0:0:0:0:
51,243,71447,1,0,0:0:0:0:
55,211,71520,1,0,0:0:0:0:
59,179,71593,5,0,0:0:0:0:
87,148,71665,1,0,0:0:0:0:
128,138,71737,1,0,0:0:0:0:
167,153,71810,1,0,0:0:0:0:
191,187,71882,1,0,0:0:0:0:
232,235,71954,1,0,0:0:0:0:
293,248,72026,1,0,0:0:0:0:
350,221,72099,1,0,0:0:0:0:
379,165,72172,6,0,L|378:141,7,21.25
386,114,72462,1,0,0:0:0:0:
407,113,72534,1,0,0:0:0:0:
428,113,72606,1,0,0:0:0:0:
449,113,72679,1,0,0:0:0:0:
469,102,72752,6,0,L|479:52,3,42.5
469,200,73042,2,0,L|479:250,3,42.5
375,196,73332,1,0,0:0:0:0:
333,196,73404,1,0,0:0:0:0:
299,221,73476,1,0,0:0:0:0:
287,261,73549,1,0,0:0:0:0:
301,300,73621,1,0,0:0:0:0:
336,324,73694,1,0,0:0:0:0:
377,323,73766,1,0,0:0:0:0:
414,300,73839,1,0,0:0:0:0:
421,258,73911,2,0,L|419:223,7,21.25
379,171,74201,5,0,0:0:0:0:
343,148,74273,1,0,0:0:0:0:
301,149,74345,1,0,0:0:0:0:
266,171,74418,1,0,0:0:0:0:
248,209,74491,1,0,0:0:0:0:
260,250,74563,1,0,0:0:0:0:
246,289,74635,1,0,0:0:0:0:
212,313,74708,1,0,0:0:0:0:
170,313,74781,1,0,0:0:0:0:
168,271,74853,1,0,0:0:0:0:
138,242,74925,1,0,0:0:0:0:
97,238,74998,1,0,0:0:0:0:
63,263,75071,5,0,0:0:0:0:
72,303,75143,1,0,0:0:0:0:
108,324,75215,1,0,0:0:0:0:
148,314,75288,1,0,0:0:0:0:
167,278,75361,1,0,0:0:0:0:
184,228,75433,1,0,0:0:0:0:
167,179,75505,1,0,0:0:0:0:
124,150,75578,1,0,0:0:0:0:
72,153,75651,6,0,L|26:162,1,42.5
179,47,75795,2,0,L|225:55,1,42.5
123,269,75940,6,0,L|76:277,1,42.5
229,162,76084,2,0,L|275:170,1,42.5
276,260,76230,5,0,0:0:0:0:
299,307,76302,1,0,0:0:0:0:
342,338,76374,1,0,0:0:0:0:
394,346,76447,1,0,0:0:0:0:
443,329,76519,1,0,0:0:0:0:
480,291,76592,1,0,0:0:0:0:
495,241,76664,1,0,0:0:0:0:
485,189,76737,1,0,0:0:0:0:
453,147,76810,5,0,0:0:0:0:
432,147,76882,1,0,0:0:0:0:
411,147,76954,1,0,0:0:0:0:
389,147,77027,1,0,0:0:0:0:
370,159,77100,2,0,L|374:186,7,21.25
337,74,77390,5,0,0:0:0:0:
314,38,77462,1,0,0:0:0:0:
275,27,77534,1,0,0:0:0:0:
237,45,77607,1,0,0:0:0:0:
222,84,77680,1,0,0:0:0:0:
219,125,77752,1,0,0:0:0:0:
190,155,77824,1,0,0:0:0:0:
149,159,77897,1,0,0:0:0:0:
115,135,77969,6,0,L|109:86,1,42.5
35,217,78114,2,0,L|40:164,1,42.5
121,279,78259,2,0,L|115:230,1,42.5
41,361,78404,2,0,L|46:308,1,42.5
178,351,78549,5,0,0:0:0:0:
229,358,78621,1,0,0:0:0:0:
272,330,78693,1,0,0:0:0:0:
285,279,78766,1,0,0:0:0:0:
260,234,78839,1,0,0:0:0:0:
241,185,78911,1,0,0:0:0:0:
251,133,78983,1,0,0:0:0:0:
287,95,79056,1,0,0:0:0:0:
337,82,79129,5,0,0:0:0:0:
389,88,79201,1,0,0:0:0:0:
432,119,79273,1,0,0:0:0:0:
453,167,79346,1,0,0:0:0:0:
448,219,79419,1,0,0:0:0:0:
397,228,79491,1,0,0:0:0:0:
349,206,79563,1,0,0:0:0:0:
321,162,79636,1,0,0:0:0:0:
322,110,79708,5,0,0:0:0:0:
303,72,79780,1,0,0:0:0:0:
269,48,79852,1,0,0:0:0:0:
227,44,79925,1,0,0:0:0:0:
189,61,79998,1,0,0:0:0:0:
157,88,80070,1,0,0:0:0:0:
116,98,80142,1,0,0:0:0:0:
75,86,80215,1,0,0:0:0:0:
45,57,80288,5,0,0:0:0:0:
89,29,80360,1,0,0:0:0:0:
142,29,80432,1,0,0:0:0:0:
187,55,80505,1,0,0:0:0:0:
213,101,80577,1,0,0:0:0:0:
211,154,80650,1,0,0:0:0:0:
183,198,80722,1,0,0:0:0:0:
136,222,80795,1,0,0:0:0:0:
84,218,80868,6,0,L|76:170,1,42.5
147,345,81013,2,0,L|153:297,1,42.5
299,219,81158,6,0,L|291:171,1,42.5
362,346,81303,2,0,L|368:298,1,42.5
451,39,81448,5,0,0:0:0:0:
399,34,81520,1,0,0:0:0:0:
359,68,81592,1,0,0:0:0:0:
355,119,81665,1,0,0:0:0:0:
388,159,81737,1,0,0:0:0:0:
429,207,81809,1,0,0:0:0:0:
435,270,81881,1,0,0:0:0:0:
405,325,81954,1,0,0:0:0:0:
350,355,82027,6,0,L|218:347,1,127.5
179,289,82317,2,0,L|83:317,1,85
102,205,82607,1,0,0:0:0:0:
148,198,82679,1,0,0:0:0:0:
186,170,82751,1,0,0:0:0:0:
206,127,82824,1,0,0:0:0:0:
203,79,82896,1,0,0:0:0:0:
178,39,82969,1,0,0:0:0:0:
137,16,83041,1,0,0:0:0:0:
90,15,83114,1,0,0:0:0:0:
48,37,83187,6,0,L|40:198,1,127.5
111,190,83477,2,0,L|84:278,1,85
125,340,83766,1,0,0:0:0:0:
151,294,83838,1,0,0:0:0:0:
197,269,83910,1,0,0:0:0:0:
249,271,83983,1,0,0:0:0:0:
293,299,84056,1,0,0:0:0:0:
352,321,84128,1,0,0:0:0:0:
413,306,84200,1,0,0:0:0:0:
455,259,84273,1,0,0:0:0:0:
462,197,84346,5,0,0:0:0:0:
311,51,84491,5,0,0:0:0:0:
54,268,84781,5,0,0:0:0:0:
442,120,85071,5,0,0:0:0:0:
96,47,85361,5,0,0:0:0:0:
180,279,85506,5,0,0:0:0:0:
231,22,85651,5,0,0:0:0:0:
284,352,85940,5,0,0:0:0:0:
401,39,86230,5,0,0:0:0:0:
463,138,86375,1,0,0:0:0:0:
486,173,86447,1,0,0:0:0:0:
492,214,86519,1,0,0:0:0:0:
481,255,86592,1,0,0:0:0:0:
453,287,86665,6,0,L|395:296,1,42.5
341,185,86810,2,0,L|347:242,1,42.5
344,354,86955,6,0,L|285:362,1,42.5
238,260,87100,2,0,L|244:317,1,42.5
292,119,87245,6,0,L|233:127,1,42.5
0,150,87390,2,0,L|42:144,1,42.5
136,9,87535,6,0,L|140:51,1,42.5
144,272,87680,2,0,L|139:229,1,42.5
80,322,87824,5,0,0:0:0:0:
133,353,87896,1,0,0:0:0:0:
193,338,87968,1,0,0:0:0:0:
226,285,88041,1,0,0:0:0:0:
212,225,88114,1,0,0:0:0:0:
189,166,88186,1,0,0:0:0:0:
202,105,88258,1,0,0:0:0:0:
247,61,88331,1,0,0:0:0:0:
308,48,88404,5,0,0:0:0:0:
347,111,88476,1,0,0:0:0:0:
352,185,88548,1,0,0:0:0:0:
322,252,88621,1,0,0:0:0:0:
263,297,88693,1,0,0:0:0:0:
191,309,88766,1,0,0:0:0:0:
121,285,88838,1,0,0:0:0:0:
70,232,88911,1,0,0:0:0:0:
51,161,88984,5,0,0:0:0:0:
453,69,89564,1,0,0:0:0:0:
452,79,89636,1,0,0:0:0:0:
452,90,89708,1,0,0:0:0:0:
451,100,89781,1,0,0:0:0:0:
451,111,89853,1,0,0:0:0:0:
348,203,89998,1,0,0:0:0:0:
478,251,90143,6,0,P|446:353|367:300,1,203.999993774414
258,176,90578,1,0,0:0:0:0:
209,349,90723,1,0,0:0:0:0:
209,349,90795,1,0,0:0:0:0:
209,349,90868,1,0,0:0:0:0:
88,250,91013,1,0,0:0:0:0:
293,167,91158,1,0,0:0:0:0:
96,110,91303,6,0,P|53:67|149:49,1,203.999993774414
258,26,91665,1,0,0:0:0:0:
235,70,91737,1,0,0:0:0:0:
253,116,91809,1,0,0:0:0:0:
294,145,91881,1,0,0:0:0:0:
344,147,91954,1,0,0:0:0:0:
387,121,92027,1,0,0:0:0:0:
403,73,92099,1,0,0:0:0:0:
447,50,92171,1,0,0:0:0:0:
495,64,92244,1,0,0:0:0:0:
512,107,92316,1,0,0:0:0:0:
507,156,92389,1,0,0:0:0:0:
465,182,92462,6,0,L|479:236,3,50.9999984436036
321,69,92752,2,0,L|307:15,3,50.9999984436036
236,207,93042,2,0,L|253:266,1,50.9999984436036
320,308,93187,2,0,L|377:292,1,50.9999984436036
427,233,93332,2,0,L|410:174,1,50.9999984436036
343,132,93477,2,0,L|286:148,1,50.9999984436036
107,229,93622,6,0,B|78:268|78:268|105:380,2,152.999995330811
178,40,94201,1,0,0:0:0:0:
181,89,94273,1,0,0:0:0:0:
146,124,94345,1,0,0:0:0:0:
97,123,94418,1,0,0:0:0:0:
64,85,94490,1,0,0:0:0:0:
271,27,94636,1,0,0:0:0:0:
440,94,94781,6,0,B|466:133|466:133|447:249,2,152.999995330811
339,98,95361,1,0,0:0:0:0:
305,114,95433,1,0,0:0:0:0:
286,146,95505,1,0,0:0:0:0:
288,184,95578,1,0,0:0:0:0:
311,214,95651,1,0,0:0:0:0:
349,246,95723,1,0,0:0:0:0:
357,295,95795,1,0,0:0:0:0:
330,337,95868,1,0,0:0:0:0:
282,351,95940,5,0,0:0:0:0:
202,93,96085,1,0,0:0:0:0:
112,333,96230,1,0,0:0:0:0:
392,164,96375,1,0,0:0:0:0:
65,193,96520,5,0,0:0:0:0:
379,335,96665,1,0,0:0:0:0:
290,73,96810,1,0,0:0:0:0:
286,60,96882,1,0,0:0:0:0:
283,48,96954,1,0,0:0:0:0:
280,36,97027,1,0,0:0:0:0:
276,21,97100,5,0,0:0:0:0:
227,9,97172,1,0,0:0:0:0:
188,39,97244,1,0,0:0:0:0:
185,88,97317,1,0,0:0:0:0:
220,122,97390,1,0,0:0:0:0:
260,170,97462,1,0,0:0:0:0:
247,230,97534,1,0,0:0:0:0:
191,257,97607,1,0,0:0:0:0:
136,231,97680,5,0,0:0:0:0:
173,172,97752,1,0,0:0:0:0:
231,133,97824,1,0,0:0:0:0:
300,121,97897,1,0,0:0:0:0:
367,138,97969,1,0,0:0:0:0:
422,180,98042,1,0,0:0:0:0:
456,241,98114,1,0,0:0:0:0:
461,311,98187,1,0,0:0:0:0:
439,376,98259,6,0,B|399:363|399:363|357:358|324:386|260:363,1,152.999995330811
232,313,98549,2,0,L|128:323,1,101.999996887207
36,225,98839,1,0,0:0:0:0:
191,191,98984,1,0,0:0:0:0:
58,88,99129,1,0,0:0:0:0:
211,52,99274,1,0,0:0:0:0:
321,132,99419,6,0,P|355:188|272:286,1,203.999993774414
460,110,99853,1,0,0:0:0:0:
415,293,99998,1,0,0:0:0:0:
415,293,100071,1,0,0:0:0:0:
415,293,100143,1,0,0:0:0:0:
277,204,100288,1,0,0:0:0:0:
173,320,100433,1,0,0:0:0:0:
86,185,100578,5,0,0:0:0:0:
68,138,100650,1,0,0:0:0:0:
80,89,100722,1,0,0:0:0:0:
117,55,100795,1,0,0:0:0:0:
167,50,100867,1,0,0:0:0:0:
167,50,101158,5,0,0:0:0:0:
103,58,101230,1,0,0:0:0:0:
40,67,101302,1,0,0:0:0:0:
61,125,101375,1,0,0:0:0:0:
85,184,101447,1,0,0:0:0:0:
85,184,101737,5,0,0:0:0:0:
63,137,101809,1,0,0:0:0:0:
79,94,101881,1,0,0:0:0:0:
109,56,101954,1,0,0:0:0:0:
160,56,102026,1,0,0:0:0:0:
160,56,102317,5,0,0:0:0:0:
91,28,102389,1,0,0:0:0:0:
31,70,102461,1,0,0:0:0:0:
32,143,102534,1,0,0:0:0:0:
96,183,102607,2,0,L|167:177,1,50.9999984436036
227,114,102752,2,0,L|285:128,1,50.9999984436036
405,66,102897,6,0,B|445:103|445:103|430:227,2,152.999995330811
276,125,103477,1,0,0:0:0:0:
245,164,103549,1,0,0:0:0:0:
246,214,103621,1,0,0:0:0:0:
278,253,103694,1,0,0:0:0:0:
327,264,103766,1,0,0:0:0:0:
375,254,103838,1,0,0:0:0:0:
417,281,103910,1,0,0:0:0:0:
428,330,103983,1,0,0:0:0:0:
402,372,104056,6,0,B|370:383|370:383|248:362,2,152.999995330811
451,161,104636,1,0,0:0:0:0:
471,116,104708,1,0,0:0:0:0:
453,69,104780,1,0,0:0:0:0:
407,51,104853,1,0,0:0:0:0:
362,72,104926,1,0,0:0:0:0:
325,106,104998,1,0,0:0:0:0:
275,108,105070,1,0,0:0:0:0:
236,78,105143,1,0,0:0:0:0:
225,29,105216,5,0,0:0:0:0:
348,186,105361,1,0,0:0:0:0:
90,222,105506,1,0,0:0:0:0:
371,42,105651,1,0,0:0:0:0:
280,328,105795,5,0,0:0:0:0:
140,91,105940,1,0,0:0:0:0:
403,231,106085,1,0,0:0:0:0:
91,307,106230,1,0,0:0:0:0:
318,138,106375,5,0,0:0:0:0:
363,119,106447,1,0,0:0:0:0:
409,139,106519,1,0,0:0:0:0:
425,185,106592,1,0,0:0:0:0:
403,231,106665,1,0,0:0:0:0:
357,250,106737,1,0,0:0:0:0:
338,296,106809,1,0,0:0:0:0:
357,342,106882,1,0,0:0:0:0:
403,362,106955,5,0,0:0:0:0:
414,299,107027,1,0,0:0:0:0:
397,238,107100,2,0,L|367:212,2,25.4999992218018
246,219,107245,1,0,0:0:0:0:
199,162,107317,1,0,0:0:0:0:
217,90,107389,1,0,0:0:0:0:
285,62,107462,1,0,0:0:0:0:
348,100,107535,5,4,0:0:0:0:
501,331,107824,5,4,0:0:0:0:
149,317,108114,5,4,0:0:0:0:
442,42,108404,5,4,0:0:0:0:
46,223,108694,5,4,0:0:0:0:
456,318,108984,5,4,0:0:0:0:
136,131,109274,5,0,0:0:0:0:
174,114,109370,1,0,0:0:0:0:
216,117,109467,1,0,0:0:0:0:
252,140,109563,1,0,0:0:0:0:
272,176,109660,1,0,0:0:0:0:
273,218,109757,1,0,0:0:0:0:
254,256,109853,5,0,0:0:0:0:
321,308,110143,1,0,0:0:0:0:
404,292,110433,1,0,0:0:0:0:
448,219,110723,1,0,0:0:0:0:
440,134,111013,1,0,0:0:0:0:
383,70,111303,1,0,0:0:0:0:
303,40,111593,1,0,0:0:0:0:
220,59,111882,1,0,0:0:0:0:
176,131,112172,5,0,0:0:0:0:
268,205,112462,2,0,L|303:202,17,28.3333333333333
183,193,113332,1,0,0:0:0:0:
164,203,113404,1,0,0:0:0:0:
150,219,113476,1,0,0:0:0:0:
143,238,113549,1,0,0:0:0:0:
142,259,113621,1,0,0:0:0:0:
149,279,113694,1,0,0:0:0:0:
163,296,113766,1,0,0:0:0:0:
181,306,113839,1,0,0:0:0:0:
205,308,113911,5,0,0:0:0:0:
226,307,113983,1,0,0:0:0:0:
247,307,114055,1,0,0:0:0:0:
268,307,114128,1,0,0:0:0:0:
289,307,114200,1,0,0:0:0:0:
311,306,114273,1,0,0:0:0:0:
332,306,114345,1,0,0:0:0:0:
353,306,114418,1,0,0:0:0:0:
256,192,114781,5,0,0:0:0:0:
256,192,114853,12,0,119129,0:0:0:0:
