osu file format v14

[General]
AudioFilename: audio.mp3
AudioLeadIn: 0
PreviewTime: 64906
Countdown: 1
SampleSet: None
StackLeniency: 0.4
Mode: 0
LetterboxInBreaks: 0
WidescreenStoryboard: 1

[Editor]
Bookmarks: 17031,33031,49031,65031,73031,81031,89031,97031,105031,113031,121031,124781,129031,133031
DistanceSpacing: 1
BeatDivisor: 3
GridSize: 8
TimelineZoom: 2.4

[Metadata]
Title:Hatsune Miku no Shoushitsu -DEAD END-
TitleUnicode:初音ミクの消失 -DEAD END-
Artist:cosMo
ArtistUnicode:cosMo
Creator:Shanipika
Version:-DEAD END-
Source:初音ミク -Project DIVA-
Tags:The Disappearance of Hatsune Miku -DEAD END-
BeatmapID:1696143
BeatmapSetID:808259

[Difficulty]
HPDrainRate:6
CircleSize:4
OverallDifficulty:9
ApproachRate:9.5
SliderMultiplier:2.1
SliderTickRate:1

[Events]
//Background and Video events
0,0,"66294279_p0.jpg",0,0
//Break Periods
//Storyboard Layer 0 (Background)
//Storyboard Layer 1 (Fail)
//Storyboard Layer 2 (Pass)
//Storyboard Layer 3 (Foreground)
//Storyboard Sound Samples

[TimingPoints]
1031,250,4,2,1,50,1,0
1031,-200,4,2,1,50,0,0
8531,-100,4,2,1,60,0,1
17031,-83.3333333333333,4,2,1,50,0,0
20031,-133.333333333333,4,2,1,50,0,0
23031,-200,4,2,1,50,0,0
25031,-100,4,2,1,50,0,0
33031,-125,4,2,1,45,0,0
61031,-83.3333333333333,4,2,1,50,0,0
62718,-50,4,2,1,50,0,0
62906,-38.4615384615385,4,2,1,50,0,0
63156,-33.3333333333333,4,2,1,50,0,0
63406,-285.714285714284,4,2,1,50,0,0
63531,-153.846153846153,4,2,1,50,0,0
65031,-76.9230769230769,4,2,1,55,0,0
73031,-76.9230769230769,4,2,1,60,0,1
81031,-100,4,2,1,50,0,0
89031,-100,4,2,1,60,0,0
97031,-181.818181818181,4,2,1,65,0,1
105031,-181.818181818181,4,2,1,70,0,1
113031,-181.818181818181,4,2,1,50,0,0
121031,-181.818181818181,4,2,1,50,0,1
129031,-399.999999999997,4,2,1,70,0,0

[Colours]
Combo1 : 255,102,102
Combo2 : 157,255,255
Combo3 : 254,184,247
Combo4 : 149,149,255

[HitObjects]
44,70,1031,5,4,1:0:0:0:
45,80,1114,1,0,0:0:0:0:
46,90,1197,1,0,0:0:0:0:
47,100,1281,1,0,0:0:0:0:
48,110,1364,1,0,0:0:0:0:
49,120,1447,1,0,0:0:0:0:
49,130,1531,1,0,0:0:0:0:
50,140,1614,1,0,0:0:0:0:
51,150,1697,1,0,0:0:0:0:
52,160,1781,1,0,0:0:0:0:
53,170,1864,1,0,0:0:0:0:
54,180,1947,1,0,0:0:0:0:
58,261,2031,5,4,1:0:0:0:
64,253,2114,1,0,0:0:0:0:
71,245,2197,1,0,0:0:0:0:
79,238,2281,1,0,0:0:0:0:
87,231,2364,1,0,0:0:0:0:
96,226,2447,1,0,0:0:0:0:
105,221,2531,1,0,0:0:0:0:
115,218,2614,1,0,0:0:0:0:
125,216,2697,1,0,0:0:0:0:
135,215,2781,1,0,0:0:0:0:
145,214,2864,1,0,0:0:0:0:
155,214,2947,1,0,0:0:0:0:
235,239,3031,6,0,P|259:258|266:268,5,35,4|0|0|0|0|0,1:0|0:0|0:0|0:0|0:0|0:0,0:0:0:0:
250,345,3531,6,0,P|261:357|276:367,5,35,0|0|0|0|0|0,1:0|0:0|0:0|0:0|0:0|0:0,0:0:0:0:
405,298,4031,1,4,1:0:0:0:
421,303,4114,1,0,1:0:0:0:
425,323,4197,1,0,1:0:0:0:
407,340,4281,1,0,1:0:0:0:
382,327,4364,1,0,1:0:0:0:
383,295,4447,1,0,1:0:0:0:
397,262,4531,1,8,3:0:0:0:
381,230,4614,1,8,3:0:0:0:
353,208,4697,1,8,3:0:0:0:
317,210,4781,1,8,3:0:0:0:
286,226,4864,1,8,3:0:0:0:
270,257,4947,1,8,3:0:0:0:
246,341,5031,5,4,1:0:0:0:
248,316,5114,1,0,0:0:0:0:
246,292,5197,1,0,0:0:0:0:
238,269,5280,1,0,0:0:0:0:
225,248,5364,1,0,0:0:0:0:
208,230,5447,1,0,0:0:0:0:
188,217,5530,1,0,0:0:0:0:
165,208,5614,1,0,0:0:0:0:
141,205,5697,1,0,0:0:0:0:
116,207,5780,1,0,0:0:0:0:
93,214,5864,1,0,0:0:0:0:
72,226,5947,1,0,0:0:0:0:
11,288,6031,5,4,1:0:0:0:
4,201,6156,1,0,3:0:0:0:
44,119,6281,1,0,1:0:0:0:
120,69,6406,1,0,3:0:0:0:
0,56,6531,1,0,1:0:0:0:
157,87,6656,1,0,3:0:0:0:
224,209,6781,1,0,1:0:0:0:
218,364,6906,1,0,3:0:0:0:
254,189,7031,1,0,1:0:0:0:
351,60,7156,1,0,3:0:0:0:
511,45,7281,5,0,1:0:0:0:
323,48,7406,1,0,3:0:0:0:
505,137,7531,5,0,1:0:0:0:
254,189,7656,1,0,3:0:0:0:
440,87,7781,5,0,1:0:0:0:
157,87,7906,1,0,3:0:0:0:
478,219,8031,5,0,1:0:0:0:
476,223,8093,1,0,3:0:0:0:
474,227,8156,1,0,1:0:0:0:
472,231,8218,1,0,1:0:0:0:
470,235,8281,1,8,1:3:0:0:
468,239,8343,1,0,1:0:0:0:
466,243,8406,1,8,1:3:0:0:
464,247,8468,1,8,1:3:0:0:
459,256,8531,2,0,P|438:206|389:190,1,105,4|0,1:0|0:0,0:0:0:0:
227,313,8781,1,0,1:0:0:0:
251,322,8843,1,0,1:0:0:0:
274,332,8906,1,4,3:0:0:0:
298,341,8968,1,4,3:0:0:0:
203,305,9031,5,4,1:0:0:0:
150,285,9114,1,0,0:0:0:0:
98,307,9197,1,2,0:0:0:0:
43,360,9281,1,8,1:0:0:0:
74,314,9364,1,0,0:0:0:0:
74,258,9447,1,0,0:0:0:0:
111,215,9531,1,0,3:0:0:0:
111,159,9614,1,0,0:0:0:0:
138,110,9697,1,2,0:0:0:0:
109,40,9781,1,8,1:0:0:0:
138,87,9864,1,0,0:0:0:0:
192,99,9947,1,0,0:0:0:0:
330,30,10031,5,4,1:0:0:0:
385,35,10114,1,0,0:0:0:0:
425,73,10197,1,2,0:0:0:0:
440,191,10281,1,8,1:0:0:0:
434,135,10364,1,0,0:0:0:0:
468,91,10447,1,0,0:0:0:0:
465,34,10531,1,0,3:0:0:0:
425,73,10614,1,0,0:0:0:0:
434,135,10697,1,2,0:0:0:0:
470,232,10781,1,8,1:0:0:0:
468,252,10843,1,8,3:0:0:0:
459,271,10906,1,8,3:0:0:0:
316,237,11031,6,0,P|260:227|206:264,1,70,4|0,1:0|0:0,0:0:0:0:
142,276,11197,1,2,0:0:0:0:
216,218,11281,2,0,P|238:150|238:128,1,70,8|0,1:0|0:0,0:0:0:0:
173,48,11447,1,2,0:0:0:0:
180,158,11531,2,0,P|217:219|234:233,1,70,0|0,3:0|0:0,0:0:0:0:
172,354,11697,1,2,0:0:0:0:
50,278,11781,1,8,1:0:0:0:
37,217,11864,1,0,0:0:0:0:
67,163,11947,1,0,0:0:0:0:
12,22,12031,5,4,1:0:0:0:
43,76,12114,1,0,0:0:0:0:
97,106,12197,1,2,0:0:0:0:
229,80,12281,2,0,B|230:76|283:60|302:71|333:86,1,70,8|0,1:0|0:0,0:0:0:0:
375,177,12447,2,0,P|315:193|281:194,1,70,0|0,0:0|3:0,0:0:0:0:
433,74,12614,1,0,0:0:0:0:
424,137,12697,1,2,0:0:0:0:
370,224,12781,5,8,1:0:0:0:
370,249,12843,1,0,3:0:0:0:
379,274,12906,1,0,3:0:0:0:
394,293,12968,1,0,3:0:0:0:
463,280,13031,5,4,1:0:0:0:
412,316,13114,1,0,0:0:0:0:
390,374,13197,1,2,0:0:0:0:
473,326,13281,1,8,1:0:0:0:
412,316,13364,1,0,0:0:0:0:
351,334,13447,1,0,0:0:0:0:
287,327,13531,1,0,3:0:0:0:
226,344,13614,1,0,0:0:0:0:
165,329,13697,1,2,0:0:0:0:
84,342,13781,1,8,1:0:0:0:
144,327,13864,1,0,0:0:0:0:
189,284,13947,1,0,0:0:0:0:
77,159,14031,5,4,1:0:0:0:
114,209,14114,1,0,0:0:0:0:
174,225,14197,1,2,0:0:0:0:
289,190,14281,1,8,1:0:0:0:
235,208,14364,1,0,0:0:0:0:
210,257,14447,1,0,0:0:0:0:
265,245,14531,1,0,3:0:0:0:
289,190,14614,1,0,0:0:0:0:
278,135,14697,1,2,0:0:0:0:
349,195,14781,2,0,P|367:185|425:99,1,105,12|0,1:0|0:0,0:0:0:0:
403,24,15031,5,8,1:3:0:0:
268,216,15156,1,4,3:0:0:0:
53,39,15281,1,8,1:3:0:0:
276,226,15406,1,4,3:0:0:0:
423,11,15531,1,8,1:3:0:0:
284,237,15656,1,4,3:0:0:0:
33,26,15781,1,8,1:3:0:0:
292,247,15906,1,4,3:0:0:0:
415,114,16031,5,4,1:0:0:0:
399,112,16093,1,0,3:0:0:0:
383,109,16156,1,4,1:3:0:0:
367,107,16218,1,4,1:3:0:0:
351,105,16281,1,0,1:0:0:0:
335,103,16343,1,0,3:0:0:0:
319,100,16406,1,0,3:0:0:0:
303,96,16468,1,0,3:0:0:0:
293,145,16531,5,8,3:3:0:0:
285,93,16593,1,8,3:3:0:0:
250,52,16656,1,8,3:3:0:0:
202,32,16718,1,8,3:3:0:0:
149,25,16781,1,8,3:3:0:0:
100,44,16843,1,8,3:3:0:0:
64,83,16906,1,8,3:3:0:0:
43,131,16968,1,8,3:3:0:0:
46,183,17031,6,0,P|67:118|42:37,1,125.999996154785,4|0,1:0|0:0,0:0:0:0:
0,0,17281,1,8,1:0:0:0:
12,273,17406,1,0,3:0:0:0:
164,114,17531,1,0,1:0:0:0:
164,114,17656,1,0,3:0:0:0:
90,305,17781,5,8,1:0:0:0:
219,261,17906,1,0,3:0:0:0:
348,320,18031,2,0,P|400:304|453:238,1,125.999996154785,0|0,1:0|3:0,0:0:0:0:
114,210,18281,2,0,P|73:173|53:91,1,125.999996154785,8|0,1:0|3:0,0:0:0:0:
306,225,18468,1,0,3:0:0:0:
337,216,18531,2,0,P|377:179|397:97,1,125.999996154785,0|0,1:0|0:0,0:0:0:0:
191,162,18781,5,8,1:0:0:0:
196,182,18843,1,0,3:0:0:0:
201,200,18906,2,0,L|220:266,1,62.9999980773926,8|0,1:3|3:0,0:0:0:0:
432,105,19031,2,0,P|374:48|251:24,1,188.999994232178,4|0,1:0|0:0,0:0:0:0:
443,184,19281,1,8,1:0:0:0:
271,21,19406,2,0,P|237:39|214:63,2,62.9999980773926,0|0|0,3:0|3:0|1:0,0:0:0:0:
375,13,19656,1,0,3:0:0:0:
273,188,19781,1,8,1:0:0:0:
273,188,19906,1,0,1:0:0:0:
213,102,20031,6,0,P|258:154|269:197,1,78.7500030040742,4|0,1:0|0:0,0:0:0:0:
192,335,20281,2,0,P|229:345|268:343,1,78.7500030040742,8|0,1:0|3:0,0:0:0:0:
433,211,20468,1,0,3:0:0:0:
444,226,20531,2,0,P|445:265|432:302,1,78.7500030040742,0|0,1:0|3:0,0:0:0:0:
283,309,20781,1,8,1:0:0:0:
314,336,20843,1,8,3:0:0:0:
357,347,20906,1,8,3:0:0:0:
397,331,20968,1,8,3:0:0:0:
431,302,21031,6,0,P|444:265|444:226,1,78.7500030040742,4|0,1:0|3:0,0:0:0:0:
403,132,21281,1,8,1:0:0:0:
371,217,21406,1,0,3:0:0:0:
371,217,21468,1,0,3:0:0:0:
371,217,21531,1,0,1:0:0:0:
279,167,21656,1,0,3:0:0:0:
491,153,21781,2,0,P|462:126|413:105,1,78.7500030040742,8|0,1:0|3:0,0:0:0:0:
201,115,22031,5,4,1:0:0:0:
166,270,22156,2,0,P|194:225|197:181,1,78.7500030040742,0|8,3:0|1:0,0:0:0:0:
108,363,22406,2,0,P|172:369|261:304,1,157.500006008148,0|0,3:0|3:0,0:0:0:0:
61,276,22781,2,0,P|70:237|93:206,1,78.7500030040742,8|0,1:0|1:0,0:0:0:0:
249,322,23031,6,0,P|318:344|368:332,1,105,4|8,1:0|1:0,0:0:0:0:
249,322,23531,2,0,P|229:233|241:202,1,105,0|8,1:0|1:0,0:0:0:0:
249,322,24031,1,0,1:0:0:0:
284,216,24156,2,0,P|245:218|210:232,1,52.5,0|8,3:0|1:0,0:0:0:0:
348,339,24406,1,0,3:0:0:0:
284,216,24531,1,0,1:0:0:0:
283,186,24593,1,0,3:0:0:0:
293,158,24656,1,8,0:3:0:0:
311,136,24718,1,8,0:3:0:0:
332,115,24781,1,8,1:0:0:0:
349,92,24843,1,8,3:0:0:0:
359,64,24906,1,8,3:0:0:0:
362,35,24968,1,8,3:0:0:0:
360,7,25031,6,0,P|379:72|413:103,1,105,4|0,1:0|3:0,0:0:0:0:
494,131,25281,1,8,1:0:0:0:
281,46,25406,1,0,3:0:0:0:
281,46,25531,1,0,1:0:0:0:
228,125,25656,1,0,3:0:0:0:
263,289,25781,5,8,1:0:0:0:
303,204,25906,1,0,3:0:0:0:
250,22,26031,2,0,L|223:143,1,105,4|0,1:0|3:0,0:0:0:0:
249,316,26281,2,0,L|222:195,1,105,8|0,1:0|3:0,0:0:0:0:
218,25,26531,2,0,P|175:40|116:89,1,105,0|0,1:0|3:0,0:0:0:0:
280,306,26781,1,8,1:0:0:0:
318,295,26844,1,0,3:0:0:0:
350,266,26906,2,0,P|363:243|373:219,1,52.5,8|0,1:3|3:0,0:0:0:0:
501,359,27031,6,0,P|444:331|402:287,1,105,4|0,1:0|3:0,0:0:0:0:
368,158,27281,1,8,1:0:0:0:
342,273,27406,1,0,3:0:0:0:
355,301,27468,1,0,3:0:0:0:
381,319,27531,6,0,P|420:269|440:211,1,105,0|0,1:0|0:0,0:0:0:0:
459,96,27781,1,8,1:0:0:0:
428,203,27906,1,0,3:0:0:0:
333,245,28031,6,0,P|323:181|335:121,1,105,0|0,1:0|3:0,0:0:0:0:
217,265,28281,1,8,1:0:0:0:
295,154,28406,1,0,3:0:0:0:
301,13,28531,6,0,P|249:51|216:101,1,105,2|0,1:2|3:0,0:0:0:0:
277,374,28781,1,8,1:0:0:0:
292,336,28843,1,8,3:0:0:0:
293,294,28906,1,8,3:0:0:0:
281,254,28968,1,8,3:0:0:0:
254,222,29031,6,0,P|302:252|373:255,1,105,4|0,1:0|3:0,0:0:0:0:
512,219,29281,2,0,P|464:189|393:186,1,105,8|0,1:0|3:0,0:0:0:0:
277,374,29531,2,0,P|307:326|310:255,1,105,0|0,1:0|3:0,0:0:0:0:
0,165,29781,2,0,P|48:195|119:198,1,105,8|0,1:0|3:0,0:0:0:0:
301,13,30031,5,0,1:0:0:0:
301,13,30156,1,0,3:0:0:0:
213,108,30281,1,8,1:0:0:0:
288,91,30406,1,0,3:0:0:0:
288,91,30468,1,0,3:0:0:0:
288,91,30531,1,0,1:0:0:0:
213,108,30656,1,0,3:0:0:0:
349,135,30781,1,8,1:0:0:0:
169,175,30906,1,0,1:0:0:0:
364,210,31031,6,0,P|419:171|426:116,1,105,4|0,1:2|0:0,0:0:0:0:
191,246,31281,1,8,1:0:0:0:
318,271,31406,1,0,3:0:0:0:
352,267,31468,1,0,3:0:0:0:
375,245,31531,2,0,P|408:186|391:133,1,105,4|0,1:0|0:0,0:0:0:0:
248,293,31781,1,8,1:0:0:0:
251,296,31906,1,0,3:0:0:0:
391,358,32031,5,4,1:2:0:0:
496,243,32156,2,0,P|494:296|467:354,1,105,0|12,3:0|1:0,0:0:0:0:
175,124,32406,2,0,P|177:177|204:235,1,105,0|0,1:0|1:0,0:0:0:0:
49,21,32656,1,4,3:0:0:0:
42,46,32718,1,4,3:0:0:0:
48,71,32781,1,8,1:0:0:0:
56,95,32843,1,8,3:0:0:0:
57,121,32906,1,8,3:0:0:0:
50,146,32968,1,8,3:0:0:0:
44,171,33031,6,0,P|31:221|41:266,1,84,4|0,1:0|3:0,0:0:0:0:
85,346,33281,1,8,1:0:0:0:
6,383,33406,1,0,3:0:0:0:
3,380,33468,1,0,3:0:0:0:
0,377,33531,2,0,P|33:337|76:320,1,84,0|0,1:0|1:0,0:0:0:0:
153,382,33781,2,0,P|189:361|214:328,1,84,8|0,1:0|3:0,0:0:0:0:
235,249,34031,1,0,1:0:0:0:
235,249,34156,1,0,1:0:0:0:
335,243,34281,2,0,P|291:270|243:269,1,84,8|8,1:0|3:0,0:0:0:0:
318,338,34468,1,8,3:0:0:0:
314,321,34531,6,0,P|313:289|337:239,1,84,0|0,1:0|3:0,0:0:0:0:
421,160,34781,2,0,P|440:122|441:81,1,84,8|0,1:0|0:0,0:0:0:0:
197,147,35031,2,0,L|382:100,1,168,4|8,1:0|1:0,0:0:0:0:
493,220,35406,1,4,3:0:0:0:
493,220,35468,1,4,3:0:0:0:
493,220,35531,1,0,1:0:0:0:
396,269,35656,1,0,3:0:0:0:
440,118,35781,2,0,P|394:104|335:112,1,84,8|0,1:0|3:0,0:0:0:0:
197,147,36031,1,4,1:0:0:0:
197,147,36156,1,0,1:0:0:0:
110,117,36281,2,0,P|77:107|49:57,1,84,8|0,1:0|3:0,0:0:0:0:
33,156,36468,1,0,3:0:0:0:
43,144,36531,2,0,P|59:113|43:58,1,84,0|0,1:0|3:0,0:0:0:0:
105,200,36781,6,0,P|111:255|75:328,1,126,8|0,1:0|0:0,0:0:0:0:
17,370,37031,1,4,1:0:0:0:
191,359,37156,1,0,1:0:0:0:
191,359,37281,1,8,1:0:0:0:
191,359,37406,2,0,L|231:333,2,42,0|0|0,3:0|3:0|1:0,0:0:0:0:
191,359,37656,1,0,3:0:0:0:
300,295,37781,5,8,1:0:0:0:
369,360,37906,1,0,3:0:0:0:
212,275,38031,2,0,P|191:233|189:173,1,84,4|0,1:0|3:0,0:0:0:0:
187,97,38281,1,8,1:0:0:0:
184,291,38406,1,0,3:0:0:0:
199,285,38468,1,0,3:0:0:0:
212,275,38531,2,0,P|233:233|235:173,1,84,0|0,1:0|3:0,0:0:0:0:
277,90,38781,1,8,1:0:0:0:
346,221,38906,1,8,1:0:0:0:
184,291,39031,6,0,P|124:243|111:205,1,84,4|0,1:0|3:0,0:0:0:0:
62,106,39281,1,8,1:0:0:0:
184,291,39406,1,0,3:0:0:0:
206,288,39468,1,0,3:0:0:0:
231,278,39531,2,0,P|271:255|302:219,1,84,0|0,1:0|3:0,0:0:0:0:
143,284,39781,2,0,P|90:255|56:210,1,84,8|0,1:0|3:0,0:0:0:0:
246,360,40031,2,0,P|309:338|336:318,1,84,4|0,1:0|0:0,0:0:0:0:
492,323,40281,2,0,P|451:349|404:354,1,84,8|0,1:0|3:0,0:0:0:0:
246,360,40468,1,0,3:0:0:0:
259,343,40531,1,0,1:0:0:0:
143,284,40656,1,0,1:0:0:0:
492,323,40781,1,8,1:0:0:0:
499,294,40843,1,8,1:3:0:0:
499,264,40906,1,8,1:3:0:0:
488,236,40968,1,8,1:3:0:0:
469,212,41031,6,0,P|454:157|464:111,1,84,4|0,1:2|3:0,0:0:0:0:
512,74,41281,1,8,1:0:0:0:
433,37,41406,1,0,3:0:0:0:
430,40,41468,1,0,3:0:0:0:
427,43,41531,2,0,P|460:83|503:100,1,84,0|0,1:0|3:0,0:0:0:0:
359,2,41781,2,0,P|323:23|298:56,1,84,8|0,1:0|3:0,0:0:0:0:
277,135,42031,1,4,1:0:0:0:
277,135,42156,1,0,3:0:0:0:
177,141,42281,2,0,P|221:114|269:115,1,84,8|0,1:0|3:0,0:0:0:0:
194,46,42468,1,0,3:0:0:0:
198,63,42531,6,0,P|199:95|175:145,1,84,0|0,1:0|3:0,0:0:0:0:
91,224,42781,2,0,P|72:262|71:303,1,84,8|0,1:0|3:0,0:0:0:0:
400,319,43031,2,0,L|215:366,1,168,0|8,1:0|1:0,0:0:0:0:
19,164,43406,1,0,3:0:0:0:
19,164,43468,1,0,3:0:0:0:
19,164,43531,1,0,1:0:0:0:
116,115,43656,1,0,3:0:0:0:
155,347,43781,2,0,P|201:361|260:353,1,84,8|0,1:0|3:0,0:0:0:0:
349,194,44031,1,0,1:0:0:0:
349,194,44156,1,0,1:0:0:0:
435,228,44281,2,0,P|468:218|496:168,1,84,8|0,1:0|3:0,0:0:0:0:
512,267,44468,1,0,3:0:0:0:
502,255,44531,2,0,P|486:224|502:169,1,84,0|0,1:0|3:0,0:0:0:0:
349,194,44781,6,0,P|343:139|379:66,1,126,8|0,1:0|0:0,0:0:0:0:
512,5,45031,2,0,P|476:43|429:59,1,84,0|0,1:0|1:0,0:0:0:0:
321,25,45281,2,0,P|283:43|256:75,1,84,8|0,1:0|0:0,0:0:0:0:
164,30,45468,1,0,3:0:0:0:
192,25,45531,2,0,P|229:43|256:75,1,84,0|0,1:0|3:0,0:0:0:0:
242,173,45781,5,8,1:0:0:0:
185,100,45906,1,0,3:0:0:0:
300,109,46031,2,0,P|321:151|323:211,1,84,0|0,1:0|3:0,0:0:0:0:
325,287,46281,1,8,1:0:0:0:
328,93,46406,1,0,3:0:0:0:
313,99,46468,1,0,3:0:0:0:
300,109,46531,2,0,P|279:151|277:211,1,84,0|0,1:0|3:0,0:0:0:0:
235,294,46781,1,8,1:0:0:0:
166,163,46906,1,8,1:0:0:0:
328,93,47031,6,0,P|388:141|401:179,1,84,0|0,1:0|3:0,0:0:0:0:
450,278,47281,1,8,1:0:0:0:
328,93,47406,1,0,3:0:0:0:
306,96,47468,1,0,3:0:0:0:
281,106,47531,2,0,P|241:129|210:165,1,84,0|0,1:0|3:0,0:0:0:0:
369,100,47781,2,0,P|422:129|456:174,1,84,8|0,1:0|3:0,0:0:0:0:
266,24,48031,2,0,P|203:46|176:66,1,84,0|0,1:0|0:0,0:0:0:0:
20,61,48281,2,0,P|61:35|108:30,1,84,8|0,1:0|3:0,0:0:0:0:
266,24,48468,1,0,3:0:0:0:
253,41,48531,1,0,1:0:0:0:
369,100,48656,1,0,3:0:0:0:
452,5,48781,1,8,1:0:0:0:
490,116,48906,5,2,0:0:0:0:
459,128,48969,1,2,0:0:0:0:
490,116,49031,1,0,3:0:0:0:
459,128,49094,1,2,0:0:0:0:
490,116,49156,1,2,0:0:0:0:
459,128,49219,1,2,0:0:0:0:
433,171,49281,5,8,1:0:0:0:
512,193,49531,1,0,1:0:0:0:
512,193,49656,1,0,0:0:0:0:
369,227,49781,1,8,1:0:0:0:
481,343,49906,2,0,P|426:329|363:347,1,84,0|0,3:0|1:0,0:0:0:0:
221,287,50156,2,0,P|276:297|326:340,1,84,0|8,1:0|1:0,0:0:0:0:
87,331,50406,2,0,P|31:320|-18:277,1,84,0|0,1:0|1:0,0:0:0:0:
141,267,50656,1,0,1:0:0:0:
37,231,50781,1,8,1:0:0:0:
110,189,50906,1,0,3:0:0:0:
110,189,51031,1,0,1:0:0:0:
37,231,51156,1,0,3:0:0:0:
32,64,51281,6,0,P|31:131|46:170,1,84,8|0,1:0|3:0,0:0:0:0:
106,16,51531,1,0,1:0:0:0:
106,16,51656,1,0,3:0:0:0:
171,125,51781,1,8,1:0:0:0:
221,0,51906,2,0,P|234:53|217:86,1,84,0|0,1:0|3:0,0:0:0:0:
288,216,52156,2,0,P|271:163|235:138,1,84,0|8,1:0|1:0,0:0:0:0:
216,315,52406,2,0,P|236:357|280:384,1,84,8|0,1:0|1:0,0:0:0:0:
199,229,52656,1,4,3:0:0:0:
300,305,52781,1,8,1:0:0:0:
288,216,52906,1,0,3:0:0:0:
216,315,53031,1,0,1:0:0:0:
374,243,53156,1,0,3:0:0:0:
470,360,53281,6,0,P|498:318|501:267,1,84,8|0,1:0|3:0,0:0:0:0:
384,371,53531,1,0,1:0:0:0:
384,371,53656,1,0,3:0:0:0:
278,237,53781,1,8,1:0:0:0:
438,232,53906,2,0,P|437:177|404:131,1,84,0|0,1:0|1:0,0:0:0:0:
249,229,54156,2,0,P|233:190|235:148,1,84,0|8,1:0|1:0,0:0:0:0:
219,215,54406,1,0,3:0:0:0:
219,215,54468,1,0,3:0:0:0:
219,215,54531,2,0,P|179:171|156:161,1,84,0|0,1:0|3:0,0:0:0:0:
124,324,54781,2,0,P|182:311|202:296,1,84,8|0,1:0|3:0,0:0:0:0:
60,268,55031,6,0,P|59:226|75:187,1,84,4|0,1:0|3:0,0:0:0:0:
44,349,55281,1,8,1:0:0:0:
65,182,55406,1,0,1:0:0:0:
61,186,55468,1,0,3:0:0:0:
57,190,55531,2,0,P|39:246|42:271,1,84,0|0,1:0|3:0,0:0:0:0:
78,108,55781,1,8,1:0:0:0:
119,333,55906,1,0,1:0:0:0:
119,333,55968,1,0,3:0:0:0:
119,333,56031,2,0,P|160:327|197:306,1,84,0|0,1:0|3:0,0:0:0:0:
75,113,56281,1,8,1:0:0:0:
208,221,56406,1,0,1:0:0:0:
212,217,56468,1,0,3:0:0:0:
214,211,56531,2,0,P|188:178|152:158,1,84,0|0,1:0|1:0,0:0:0:0:
272,272,56781,1,8,1:0:0:0:
130,243,56906,1,0,1:0:0:0:
361,269,57031,6,0,P|412:257|466:232,2,84,0|0|8,1:0|1:0|1:0,0:0:0:0:
130,243,57406,2,0,P|78:231|25:206,2,84,0|0|0,1:0|1:0|3:0,0:0:0:0:
428,168,57781,2,0,P|469:135|507:90,2,84,8|0|0,1:0|1:0|1:0,0:0:0:0:
272,272,58156,2,0,P|230:239|192:194,2,84,0|8|0,0:0|1:0|0:0,0:0:0:0:
468,347,58531,2,0,P|492:299|507:242,1,84,0|0,1:0|0:0,0:0:0:0:
209,216,58781,2,0,P|184:168|169:111,1,84,8|0,1:0|0:0,0:0:0:0:
512,39,59031,1,4,1:0:0:0:
175,139,59281,5,8,1:3:0:0:
338,177,59406,1,0,1:0:0:0:
142,208,59531,5,8,1:3:0:0:
365,104,59656,1,0,1:0:0:0:
170,274,59781,5,8,1:3:0:0:
336,37,59906,1,0,1:0:0:0:
239,306,60031,5,8,1:3:0:0:
266,0,60156,1,0,1:0:0:0:
316,307,60281,1,8,1:3:0:0:
194,14,60531,5,8,1:3:0:0:
381,266,60656,1,0,1:0:0:0:
127,51,60781,1,8,1:3:0:0:
415,201,61031,6,0,P|463:176|513:119,1,125.999996154785,4|0,1:0|3:0,0:0:0:0:
273,108,61281,1,8,1:0:0:0:
512,103,61406,1,0,3:0:0:0:
480,72,61468,1,0,3:0:0:0:
444,53,61531,1,0,1:0:0:0:
254,206,61656,1,0,1:0:0:0:
356,50,61781,1,8,1:0:0:0:
316,287,61906,2,0,P|247:311|190:287,1,125.999996154785,0|0,1:0|1:0,0:0:0:0:
0,332,62156,2,0,P|69:356|126:332,1,125.999996154785,0|8,1:0|1:0,0:0:0:0:
512,332,62406,2,0,P|443:356|386:332,1,125.999996154785,0|0,0:0|1:0,0:0:0:0:
254,206,62656,1,0,1:0:0:0:
236,178,62718,6,0,B|255:146|255:146|287:128,4,52.5,0|0|0|0|0,3:0|3:0|3:0|3:0|3:0,0:0:0:0:
317,153,62906,2,0,B|334:138|334:138|341:111,13,34.1249984378815,0|0|0|0|0|0|0|0|0|0|0|0|0|0,3:0|3:0|3:0|3:0|3:0|3:0|3:0|3:0|3:0|3:0|3:0|3:0|3:0|3:0,0:0:0:0:
195,113,63156,2,0,L|145:106,13,39.3750015020371,0|0|0|0|0|0|0|0|0|0|0|0|0|0,3:0|3:0|3:0|3:0|3:0|3:0|3:0|3:0|3:0|3:0|3:0|3:0|3:0|3:0,0:0:0:0:
76,126,63406,2,0,L|68:143,1,18.3749994392395,0|0,0:0|0:0,0:0:0:0:
148,122,63531,6,0,L|157:104,1,17.0624992189408,2|0,0:0|0:0,0:0:0:0:
74,124,63593,2,0,L|65:142,1,17.0624992189408,2|0,0:0|0:0,0:0:0:0:
150,124,63656,2,0,L|159:106,1,17.0624992189408,2|0,0:0|0:0,0:0:0:0:
72,122,63718,2,0,L|63:140,1,17.0624992189408,2|0,0:0|0:0,0:0:0:0:
152,126,63781,2,0,L|161:108,1,17.0624992189408,2|0,0:0|0:0,0:0:0:0:
70,120,63843,2,0,L|61:138,1,17.0624992189408,2|0,0:0|0:0,0:0:0:0:
154,128,63906,2,0,L|163:110,1,17.0624992189408,2|0,0:0|0:0,0:0:0:0:
68,118,63968,2,0,L|59:136,1,17.0624992189408,2|0,0:0|0:0,0:0:0:0:
156,130,64031,2,0,L|165:112,1,17.0624992189408,2|0,0:0|0:0,0:0:0:0:
66,116,64093,2,0,L|57:134,1,17.0624992189408,2|0,0:0|0:0,0:0:0:0:
158,132,64156,2,0,L|167:114,1,17.0624992189408,2|0,0:0|0:0,0:0:0:0:
64,114,64218,2,0,L|55:132,1,17.0624992189408,2|0,0:0|0:0,0:0:0:0:
105,195,64281,6,0,L|91:211,2,17.0624992189408,2|0|0,0:0|0:0|0:0,0:0:0:0:
115,221,64406,1,4,1:0:0:0:
125,238,64531,1,4,1:3:0:0:
127,242,64593,1,4,1:3:0:0:
129,246,64656,1,4,1:3:0:0:
135,260,64781,1,8,0:3:0:0:
137,264,64843,1,8,0:3:0:0:
139,268,64906,1,8,0:3:0:0:
40,331,65031,6,0,P|164:344|228:313,1,136.499993751526,8|0,0:0|0:0,0:0:0:0:
278,263,65281,1,8,1:0:0:0:
472,340,65406,1,0,3:0:0:0:
451,337,65468,1,0,3:0:0:0:
432,327,65531,1,0,1:0:0:0:
478,262,65656,1,0,3:0:0:0:
311,352,65781,5,8,1:0:0:0:
357,158,65906,1,0,0:0:0:0:
478,262,66031,2,0,P|493:188|485:110,1,136.499993751526,0|0,1:0|3:0,0:0:0:0:
280,184,66281,2,0,P|265:110|273:32,1,136.499993751526,8|0,1:0|3:0,0:0:0:0:
489,109,66468,1,4,3:0:0:0:
468,80,66531,2,0,P|407:35|333:9,1,136.499993751526,0|0,1:0|3:0,0:0:0:0:
184,215,66781,5,8,1:0:0:0:
50,38,66906,1,0,3:0:0:0:
42,30,67031,1,0,1:0:0:0:
22,206,67156,1,0,3:0:0:0:
161,31,67281,1,8,1:0:0:0:
68,273,67406,1,0,3:0:0:0:
94,312,67468,1,0,3:0:0:0:
135,335,67531,1,0,1:0:0:0:
0,363,67656,1,0,3:0:0:0:
184,215,67781,1,8,1:0:0:0:
191,208,67906,1,0,1:0:0:0:
496,328,68031,6,0,P|433:355|306:329,1,136.499993751526,4|0,1:0|0:0,0:0:0:0:
135,124,68281,2,0,P|198:97|325:123,1,136.499993751526,8|0,1:0|3:0,0:0:0:0:
443,216,68468,1,0,3:0:0:0:
439,243,68531,2,0,P|413:306|305:378,1,136.499993751526,0|0,1:0|0:0,0:0:0:0:
191,208,68781,1,8,1:0:0:0:
265,97,68906,1,8,1:0:0:0:
365,353,69031,2,0,L|339:210,1,136.499993751526,0|0,1:0|0:0,0:0:0:0:
166,342,69281,2,0,L|192:199,1,136.499993751526,8|0,1:0|3:0,0:0:0:0:
363,247,69468,1,4,3:0:0:0:
340,218,69531,6,0,L|314:75,1,136.499993751526,0|0,1:0|0:0,0:0:0:0:
33,351,69781,2,0,P|147:350|215:304,1,136.499993751526,8|0,1:0|0:0,0:0:0:0:
368,18,70031,1,0,1:0:0:0:
377,15,70156,1,0,3:0:0:0:
453,34,70281,1,8,1:0:0:0:
488,304,70406,1,0,3:0:0:0:
440,298,70468,1,4,3:0:0:0:
397,274,70531,2,0,P|341:213|306:120,1,136.499993751526,0|0,1:0|0:0,0:0:0:0:
6,271,70781,6,0,P|87:271|178:215,1,136.499993751526,8|0,1:0|0:0,0:0:0:0:
317,165,71031,2,0,P|380:141|448:143,1,136.499993751526,0|0,1:0|0:0,0:0:0:0:
295,296,71281,2,0,P|292:228|316:164,1,136.499993751526,8|0,1:0|3:0,0:0:0:0:
118,227,71468,1,4,3:0:0:0:
136,249,71531,2,0,P|160:185|158:118,1,136.499993751526,0|0,1:0|3:0,0:0:0:0:
55,353,71781,1,8,1:0:0:0:
182,194,71906,2,0,P|176:125|146:65,1,136.499993751526,0|0,1:0|1:0,0:0:0:0:
44,14,72156,1,0,0:0:0:0:
253,40,72281,1,8,1:0:0:0:
51,175,72406,1,0,1:0:0:0:
33,193,72468,1,0,1:0:0:0:
29,213,72531,1,4,3:0:0:0:
88,227,72593,1,4,3:0:0:0:
135,187,72656,1,4,3:0:0:0:
147,127,72718,1,4,3:0:0:0:
146,65,72781,1,8,3:0:0:0:
176,116,72843,1,8,3:0:0:0:
207,162,72906,1,8,3:0:0:0:
239,214,72968,1,8,3:0:0:0:
272,265,73031,6,0,P|320:324|407:354,1,136.499993751526,4|0,1:0|3:0,0:0:0:0:
510,290,73281,1,8,1:0:0:0:
193,273,73406,1,0,3:0:0:0:
171,289,73468,1,4,3:0:0:0:
159,313,73531,1,0,1:0:0:0:
235,340,73656,1,0,3:0:0:0:
11,323,73781,5,8,1:0:0:0:
272,265,73906,1,0,3:0:0:0:
12,252,74031,1,0,1:0:0:0:
12,252,74114,1,0,3:0:0:0:
12,252,74197,1,0,3:0:0:0:
149,152,74281,1,8,1:0:0:0:
149,152,74364,1,0,3:0:0:0:
149,152,74447,1,0,3:0:0:0:
22,113,74531,1,0,1:0:0:0:
22,113,74614,1,0,3:0:0:0:
22,113,74697,1,0,3:0:0:0:
104,7,74781,5,8,1:0:0:0:
186,217,74906,1,0,3:0:0:0:
321,27,75031,2,0,P|254:80|207:152,1,136.499993751526,4|0,1:0|3:0,0:0:0:0:
95,378,75281,1,8,1:0:0:0:
268,190,75406,1,0,3:0:0:0:
306,177,75468,1,4,3:0:0:0:
347,178,75531,1,0,1:0:0:0:
397,361,75656,1,0,3:0:0:0:
186,217,75781,1,8,1:0:0:0:
115,236,75906,1,8,1:0:0:0:
280,364,76031,5,0,1:0:0:0:
280,364,76114,1,0,3:0:0:0:
280,364,76197,1,0,3:0:0:0:
347,178,76281,1,8,1:0:0:0:
347,178,76364,1,0,3:0:0:0:
347,178,76447,1,0,3:0:0:0:
504,319,76531,1,0,1:0:0:0:
504,319,76614,1,0,3:0:0:0:
504,319,76697,1,0,3:0:0:0:
442,130,76781,1,8,1:0:0:0:
442,130,76864,1,0,3:0:0:0:
442,130,76947,1,0,3:0:0:0:
512,57,77031,5,0,1:0:0:0:
481,37,77114,1,0,3:0:0:0:
446,35,77197,1,0,3:0:0:0:
409,39,77281,1,8,1:0:0:0:
380,60,77364,1,0,3:0:0:0:
359,89,77447,1,0,3:0:0:0:
315,313,77531,6,0,L|268:137,1,136.499993751526,0|0,1:0|3:0,0:0:0:0:
2,378,77781,2,0,P|97:372|176:303,1,136.499993751526,8|0,1:0|3:0,0:0:0:0:
504,295,78031,2,0,P|395:273|306:183,1,204.749990627289,0|0,1:0|0:0,0:0:0:0:
45,297,78281,1,8,1:0:0:0:
277,298,78406,1,0,3:0:0:0:
229,294,78468,1,4,3:0:0:0:
187,269,78531,1,0,1:0:0:0:
387,268,78656,1,0,3:0:0:0:
104,238,78781,6,0,P|79:164|105:78,1,136.499993751526,8|0,1:0|3:0,0:0:0:0:
318,220,79031,2,0,P|343:146|317:60,1,136.499993751526,0|0,1:0|0:0,0:0:0:0:
88,214,79281,1,8,1:3:0:0:
318,67,79406,1,0,1:0:0:0:
78,54,79531,1,8,1:3:0:0:
336,196,79656,1,0,1:0:0:0:
502,154,79781,1,8,1:3:0:0:
146,105,79906,1,0,1:0:0:0:
449,94,80031,2,0,P|380:69|269:76,1,136.499993751526,4|0,1:0|3:0,0:0:0:0:
46,132,80281,1,8,1:0:0:0:
184,293,80406,5,0,1:0:0:0:
213,276,80468,1,0,1:0:0:0:
243,259,80531,1,4,3:0:0:0:
273,244,80593,1,4,3:0:0:0:
302,226,80656,1,4,3:0:0:0:
331,209,80718,1,4,3:0:0:0:
283,181,80781,5,8,1:3:0:0:
336,186,80843,1,8,1:3:0:0:
389,171,80906,1,8,1:3:0:0:
425,131,80968,1,8,1:3:0:0:
445,85,81031,5,4,1:0:0:0:
451,119,81114,1,0,0:0:0:0:
458,153,81197,1,2,0:0:0:0:
492,158,81281,1,8,1:0:0:0:
480,190,81364,1,0,0:0:0:0:
464,221,81447,1,0,0:0:0:0:
447,252,81531,1,0,1:0:0:0:
429,282,81614,1,0,0:0:0:0:
416,314,81697,1,2,0:0:0:0:
447,338,81781,1,8,1:0:0:0:
413,346,81864,1,0,0:0:0:0:
379,354,81947,1,0,0:0:0:0:
306,318,82031,6,0,P|266:311|228:321,5,70,4|0|2|8|0|0,1:0|0:0|0:0|1:0|0:0|0:0,0:0:0:0:
164,351,82531,2,0,P|106:346|70:321,1,70,0|0,1:0|0:0,0:0:0:0:
0,379,82697,2,0,P|18:349|25:295,3,70,2|8|0|0,0:0|1:0|0:0|0:0,0:0:0:0:
93,30,83031,6,0,L|70:97,1,70,4|0,1:0|0:0,0:0:0:0:
133,205,83197,1,2,0:0:0:0:
176,148,83281,2,0,P|213:117|265:102,2,70,8|0|0,1:0|0:0|0:0,0:0:0:0:
317,176,83531,1,0,1:0:0:0:
350,167,83614,1,0,0:0:0:0:
384,174,83697,1,0,0:0:0:0:
417,216,83781,1,8,1:0:0:0:
411,181,83864,1,0,0:0:0:0:
423,148,83947,1,0,0:0:0:0:
454,93,84031,5,4,1:0:0:0:
451,127,84114,1,0,0:0:0:0:
469,156,84197,1,2,0:0:0:0:
483,188,84281,1,8,1:0:0:0:
489,222,84364,1,0,0:0:0:0:
478,255,84447,1,0,0:0:0:0:
453,280,84531,1,0,1:0:0:0:
419,290,84614,1,0,0:0:0:0:
385,280,84697,1,2,0:0:0:0:
289,239,84781,5,8,1:0:0:0:
463,355,84906,1,0,1:0:0:0:
240,349,85031,2,0,P|200:363|165:384,5,70,4|0|2|8|0|0,1:0|0:0|0:0|1:0|0:0|0:0,0:0:0:0:
16,359,85531,2,0,P|56:345|91:324,5,70,0|0|2|8|0|0,1:0|0:0|0:0|1:0|0:0|0:0,0:0:0:0:
129,245,86031,5,4,1:0:0:0:
136,210,86114,1,0,0:0:0:0:
133,172,86197,1,2,0:0:0:0:
114,141,86281,1,8,1:0:0:0:
107,106,86364,1,0,0:0:0:0:
116,72,86447,1,0,0:0:0:0:
137,44,86531,1,0,1:0:0:0:
169,31,86614,1,0,0:0:0:0:
203,34,86697,1,2,0:0:0:0:
184,107,86781,1,12,1:0:0:0:
209,83,86864,1,0,0:0:0:0:
243,79,86947,1,0,0:0:0:0:
320,14,87031,5,4,1:0:0:0:
299,42,87114,1,0,0:0:0:0:
288,75,87197,1,2,0:0:0:0:
290,155,87281,1,8,1:0:0:0:
362,78,87406,1,0,1:0:0:0:
236,210,87531,1,0,1:0:0:0:
265,228,87614,1,0,0:0:0:0:
299,231,87697,1,2,0:0:0:0:
390,181,87781,1,8,1:0:0:0:
273,307,87906,1,0,1:0:0:0:
447,299,88031,6,0,P|429:286|408:248,1,52.5,4|4,1:0|1:0,0:0:0:0:
420,323,88156,1,8,3:0:0:0:
406,331,88218,1,8,3:0:0:0:
390,333,88281,1,8,1:0:0:0:
494,225,88406,1,0,1:0:0:0:
376,335,88531,1,8,1:3:0:0:
359,336,88593,1,8,1:3:0:0:
344,331,88656,1,8,1:3:0:0:
181,283,88781,5,8,1:0:0:0:
154,292,88864,1,0,3:0:0:0:
131,308,88947,1,0,3:0:0:0:
86,373,89031,5,4,1:0:0:0:
96,325,89114,1,0,3:0:0:0:
87,276,89197,1,0,3:0:0:0:
25,238,89281,1,8,1:0:0:0:
72,242,89364,1,0,3:0:0:0:
118,227,89447,1,0,3:0:0:0:
146,187,89531,1,0,1:0:0:0:
162,141,89614,1,0,3:0:0:0:
151,93,89697,1,0,3:0:0:0:
126,50,89781,1,8,1:0:0:0:
107,96,89864,1,0,3:0:0:0:
129,140,89947,1,0,3:0:0:0:
210,221,90031,5,0,1:0:0:0:
241,185,90114,1,0,3:0:0:0:
284,166,90197,1,0,3:0:0:0:
318,129,90281,1,8,1:0:0:0:
365,117,90364,1,0,3:0:0:0:
391,75,90447,1,0,3:0:0:0:
495,70,90531,1,0,1:0:0:0:
467,111,90614,1,0,3:0:0:0:
421,124,90697,1,0,3:0:0:0:
388,158,90781,1,8,1:0:0:0:
345,179,90864,1,0,3:0:0:0:
312,214,90947,1,0,3:0:0:0:
299,338,91031,5,0,1:0:0:0:
333,372,91114,1,0,3:0:0:0:
381,375,91197,1,0,3:0:0:0:
427,357,91281,1,8,1:0:0:0:
446,312,91364,1,0,3:0:0:0:
448,263,91447,1,0,3:0:0:0:
347,331,91531,1,0,1:0:0:0:
394,318,91614,1,0,3:0:0:0:
400,269,91697,1,0,3:0:0:0:
369,230,91781,1,8,1:0:0:0:
408,183,91864,1,0,3:0:0:0:
381,130,91947,1,0,3:0:0:0:
431,29,92031,5,0,1:0:0:0:
400,66,92114,1,0,3:0:0:0:
356,87,92197,1,0,3:0:0:0:
236,49,92281,1,8,1:0:0:0:
277,75,92364,1,0,3:0:0:0:
302,116,92447,1,0,3:0:0:0:
300,188,92531,1,0,1:0:0:0:
255,167,92614,1,0,3:0:0:0:
229,125,92697,1,0,3:0:0:0:
255,228,92781,1,8,1:0:0:0:
225,267,92864,1,0,3:0:0:0:
178,283,92947,1,0,3:0:0:0:
36,250,93031,5,0,1:0:0:0:
81,268,93114,1,0,3:0:0:0:
121,295,93197,1,0,3:0:0:0:
151,333,93281,1,8,1:0:0:0:
104,319,93364,1,0,3:0:0:0:
93,271,93447,1,0,3:0:0:0:
106,223,93531,1,0,1:0:0:0:
122,176,93614,1,0,3:0:0:0:
126,127,93697,1,0,3:0:0:0:
112,79,93781,1,8,1:0:0:0:
91,123,93864,1,0,3:0:0:0:
99,171,93947,1,0,3:0:0:0:
176,247,94031,5,0,1:0:0:0:
191,200,94114,1,0,3:0:0:0:
198,151,94197,1,0,3:0:0:0:
176,55,94281,1,8,1:0:0:0:
190,102,94364,1,0,3:0:0:0:
226,134,94447,1,0,3:0:0:0:
270,154,94531,1,0,1:0:0:0:
318,161,94614,1,0,3:0:0:0:
366,153,94697,1,0,3:0:0:0:
461,69,94781,1,4,1:2:0:0:
424,101,94864,1,0,3:0:0:0:
412,148,94947,1,0,3:0:0:0:
430,266,95031,5,4,1:0:0:0:
354,79,95156,1,0,1:0:0:0:
339,276,95281,1,8,1:3:0:0:
498,141,95406,1,0,1:0:0:0:
261,233,95531,1,8,1:3:0:0:
504,226,95656,1,0,1:0:0:0:
279,78,95781,1,8,1:3:0:0:
398,348,95906,1,0,1:0:0:0:
192,147,96031,5,4,1:0:0:0:
141,205,96114,1,0,1:0:0:0:
129,280,96197,1,0,1:0:0:0:
136,357,96281,1,8,1:0:0:0:
151,281,96364,1,0,1:0:0:0:
141,205,96447,1,0,1:0:0:0:
104,136,96531,1,0,1:0:0:0:
119,211,96614,1,0,1:0:0:0:
190,239,96697,1,0,1:0:0:0:
267,233,96781,1,8,1:0:0:0:
197,201,96864,1,0,1:0:0:0:
119,211,96947,1,0,1:0:0:0:
311,333,97031,6,0,P|335:338|375:339,2,38.5000011749268,4|0|0,1:0|0:0|0:0,0:0:0:0:
41,188,97281,2,0,P|16:193|-23:194,2,38.5000011749268,8|0|0,1:0|0:0|0:0,0:0:0:0:
325,97,97531,2,0,P|349:102|389:103,2,38.5000011749268,0|0|0,1:0|0:0|0:0,0:0:0:0:
37,7,97781,2,0,P|12:12|-27:13,2,38.5000011749268,8|0|0,1:0|0:0|0:0,0:0:0:0:
430,327,98031,5,4,1:0:0:0:
430,327,98114,1,0,0:0:0:0:
430,327,98197,1,0,0:0:0:0:
203,243,98281,1,8,1:0:0:0:
203,243,98364,1,0,0:0:0:0:
203,243,98447,1,0,0:0:0:0:
415,196,98531,1,0,1:0:0:0:
415,196,98614,1,0,0:0:0:0:
415,196,98697,1,0,0:0:0:0:
202,108,98781,1,8,1:0:0:0:
202,108,98864,1,0,0:0:0:0:
202,108,98947,1,0,0:0:0:0:
65,346,99031,5,4,1:0:0:0:
65,346,99114,1,0,0:0:0:0:
65,346,99197,1,0,0:0:0:0:
306,178,99281,1,8,1:0:0:0:
306,178,99364,1,0,0:0:0:0:
306,178,99447,1,0,0:0:0:0:
297,350,99531,1,0,1:0:0:0:
297,350,99614,1,0,0:0:0:0:
297,350,99697,1,0,0:0:0:0:
74,164,99781,1,8,1:0:0:0:
74,164,99864,1,0,0:0:0:0:
74,164,99947,1,0,0:0:0:0:
237,264,100031,5,4,1:0:0:0:
237,264,100114,1,0,0:0:0:0:
237,264,100197,1,0,0:0:0:0:
127,262,100281,1,8,1:0:0:0:
127,262,100364,1,0,0:0:0:0:
127,262,100447,1,0,0:0:0:0:
237,264,100531,1,0,1:0:0:0:
237,264,100614,1,0,0:0:0:0:
237,264,100697,1,0,0:0:0:0:
127,262,100781,1,8,1:0:0:0:
127,262,100864,1,0,0:0:0:0:
127,262,100947,1,0,0:0:0:0:
346,272,101031,6,0,P|373:282|393:298,2,38.5000011749268,4|0|0,1:0|0:0|0:0,0:0:0:0:
74,164,101281,2,0,P|47:174|27:190,2,38.5000011749268,8|0|0,1:0|0:0|0:0,0:0:0:0:
357,112,101531,2,0,P|384:122|404:138,2,38.5000011749268,0|0|0,1:0|0:0|0:0,0:0:0:0:
74,20,101781,2,0,P|47:30|27:46,2,38.5000011749268,8|0|0,1:0|0:0|0:0,0:0:0:0:
180,359,102031,5,4,1:0:0:0:
180,359,102114,1,0,0:0:0:0:
180,359,102197,1,0,0:0:0:0:
259,157,102281,1,8,1:0:0:0:
259,157,102364,1,0,0:0:0:0:
259,157,102447,1,0,0:0:0:0:
320,349,102531,1,0,1:0:0:0:
320,349,102614,1,0,0:0:0:0:
320,349,102697,1,0,0:0:0:0:
402,159,102781,1,8,1:0:0:0:
402,159,102864,1,0,0:0:0:0:
402,159,102947,1,0,0:0:0:0:
96,256,103031,5,4,1:0:0:0:
96,256,103114,1,0,0:0:0:0:
96,256,103197,1,0,0:0:0:0:
325,88,103281,1,8,1:0:0:0:
325,88,103364,1,0,0:0:0:0:
325,88,103447,1,0,0:0:0:0:
96,75,103531,1,0,1:0:0:0:
96,75,103614,1,0,0:0:0:0:
96,75,103697,1,0,0:0:0:0:
307,265,103781,1,8,1:0:0:0:
307,265,103864,1,0,0:0:0:0:
307,265,103947,1,0,0:0:0:0:
140,173,104031,5,4,1:0:0:0:
140,173,104114,1,0,0:0:0:0:
140,173,104197,1,0,0:0:0:0:
247,173,104281,1,8,1:0:0:0:
247,173,104364,1,0,0:0:0:0:
247,173,104447,1,0,0:0:0:0:
175,314,104531,5,8,1:3:0:0:
212,339,104593,1,8,0:3:0:0:
257,349,104656,1,8,0:3:0:0:
302,351,104718,1,8,0:3:0:0:
347,341,104781,1,8,1:3:0:0:
384,314,104843,1,8,0:3:0:0:
413,277,104906,1,8,0:3:0:0:
430,234,104968,1,8,0:3:0:0:
415,88,105031,5,4,1:0:0:0:
386,113,105114,1,0,3:0:0:0:
366,156,105197,1,0,3:0:0:0:
347,341,105281,1,4,1:2:0:0:
364,306,105364,1,0,3:0:0:0:
364,267,105447,1,0,3:0:0:0:
257,115,105531,1,4,1:0:0:0:
241,150,105614,1,0,3:0:0:0:
244,188,105697,1,0,3:0:0:0:
428,309,105781,1,4,1:2:0:0:
400,281,105864,1,0,3:0:0:0:
364,267,105947,1,0,3:0:0:0:
179,313,106031,5,4,1:0:0:0:
144,295,106114,1,0,3:0:0:0:
122,263,106197,1,0,3:0:0:0:
128,62,106281,1,4,1:2:0:0:
146,95,106364,1,0,3:0:0:0:
152,132,106447,1,0,3:0:0:0:
60,302,106531,1,4,1:0:0:0:
85,273,106614,1,0,3:0:0:0:
122,263,106697,1,0,3:0:0:0:
286,295,106781,1,4,1:2:0:0:
322,281,106864,1,0,3:0:0:0:
349,254,106947,1,0,3:0:0:0:
122,263,107031,5,4,1:0:0:0:
128,300,107114,1,0,3:0:0:0:
151,330,107197,1,0,3:0:0:0:
144,128,107281,1,4,1:2:0:0:
125,94,107364,1,0,3:0:0:0:
94,71,107447,1,0,3:0:0:0:
202,254,107531,1,4,1:0:0:0:
237,260,107614,1,0,3:0:0:0:
273,249,107697,1,0,3:0:0:0:
80,187,107781,1,4,1:2:0:0:
42,192,107864,1,0,3:0:0:0:
10,213,107947,1,0,3:0:0:0:
44,364,108031,5,4,1:0:0:0:
63,331,108114,1,0,3:0:0:0:
72,293,108197,1,0,3:0:0:0:
42,145,108281,1,4,1:2:0:0:
19,176,108364,1,0,3:0:0:0:
10,213,108447,1,0,3:0:0:0:
173,228,108531,1,4,1:0:0:0:
163,191,108614,1,0,3:0:0:0:
142,157,108697,1,0,3:0:0:0:
16,74,108781,1,4,1:2:0:0:
22,112,108864,1,0,3:0:0:0:
42,145,108947,1,0,3:0:0:0:
172,67,109031,5,4,1:0:0:0:
201,92,109114,1,0,3:0:0:0:
221,135,109197,1,0,3:0:0:0:
240,320,109281,1,4,1:2:0:0:
223,285,109364,1,0,3:0:0:0:
223,246,109447,1,0,3:0:0:0:
330,94,109531,1,4,1:0:0:0:
346,129,109614,1,0,3:0:0:0:
343,167,109697,1,0,3:0:0:0:
159,288,109781,1,4,1:2:0:0:
187,260,109864,1,0,3:0:0:0:
223,246,109947,1,0,3:0:0:0:
333,313,110031,5,4,1:0:0:0:
368,295,110114,1,0,3:0:0:0:
390,263,110197,1,0,3:0:0:0:
384,62,110281,1,4,1:2:0:0:
366,95,110364,1,0,3:0:0:0:
360,132,110447,1,0,3:0:0:0:
452,302,110531,1,4,1:0:0:0:
427,273,110614,1,0,3:0:0:0:
390,263,110697,1,0,3:0:0:0:
226,295,110781,1,4,1:2:0:0:
190,281,110864,1,0,3:0:0:0:
163,254,110947,1,0,3:0:0:0:
390,263,111031,5,4,1:0:0:0:
384,300,111114,1,0,3:0:0:0:
361,330,111197,1,0,3:0:0:0:
368,128,111281,1,4,1:2:0:0:
387,94,111364,1,0,3:0:0:0:
418,71,111447,1,0,3:0:0:0:
310,254,111531,1,4,1:0:0:0:
275,260,111614,1,0,3:0:0:0:
239,249,111697,1,0,3:0:0:0:
432,187,111781,1,4,1:2:0:0:
470,192,111864,1,0,3:0:0:0:
502,213,111947,1,0,3:0:0:0:
468,364,112031,5,4,1:0:0:0:
449,331,112114,1,0,3:0:0:0:
440,293,112197,1,0,3:0:0:0:
470,145,112281,1,4,1:2:0:0:
493,176,112364,1,0,3:0:0:0:
502,213,112447,1,0,3:0:0:0:
339,228,112531,5,4,1:0:0:0:
349,191,112614,1,0,3:0:0:0:
370,157,112697,1,0,3:0:0:0:
496,74,112781,1,4,1:2:0:0:
490,112,112864,1,0,3:0:0:0:
470,145,112947,1,0,3:0:0:0:
42,279,113031,5,4,1:0:0:0:
115,310,113156,1,0,1:0:0:0:
181,264,113281,1,0,3:0:0:0:
235,356,113406,1,0,0:0:0:0:
303,202,113531,1,8,1:0:0:0:
369,248,113656,1,0,1:0:0:0:
371,167,113781,1,2,3:0:0:0:
441,206,113906,1,0,0:0:0:0:
223,201,114031,5,0,1:0:0:0:
377,93,114156,1,8,1:0:0:0:
303,202,114281,1,0,3:0:0:0:
316,39,114406,1,0,1:0:0:0:
169,149,114531,1,8,1:0:0:0:
371,167,114656,1,0,1:0:0:0:
175,75,114781,1,8,1:0:0:0:
238,32,114906,1,0,3:0:0:0:
28,32,115031,5,0,1:0:0:0:
68,101,115156,1,0,3:0:0:0:
35,202,115281,1,0,1:0:0:0:
73,273,115406,1,0,3:0:0:0:
7,368,115531,1,8,1:0:0:0:
87,370,115656,1,0,1:0:0:0:
185,312,115781,1,0,3:0:0:0:
292,359,115906,1,0,3:0:0:0:
387,147,116031,5,0,1:0:0:0:
354,221,116156,1,0,3:0:0:0:
402,283,116281,1,0,1:0:0:0:
371,357,116406,1,0,3:0:0:0:
254,289,116531,1,8,1:0:0:0:
326,290,116656,1,0,3:0:0:0:
278,158,116781,1,0,1:0:0:0:
271,174,116843,1,0,1:0:0:0:
271,191,116906,1,0,1:0:0:0:
274,207,116968,1,0,1:0:0:0:
282,222,117031,5,0,1:0:0:0:
433,212,117156,1,0,3:0:0:0:
278,158,117281,1,8,1:0:0:0:
471,142,117406,1,0,0:0:0:0:
212,106,117531,1,0,1:0:0:0:
390,146,117656,1,0,3:0:0:0:
458,27,117781,1,8,1:0:0:0:
287,80,117906,1,0,3:0:0:0:
164,261,118031,1,0,1:0:0:0:
212,106,118156,1,0,3:0:0:0:
56,141,118281,1,8,1:0:0:0:
203,190,118406,1,0,3:0:0:0:
127,98,118531,1,0,1:0:0:0:
95,215,118656,1,0,3:0:0:0:
234,152,118781,1,8,1:0:0:0:
51,198,118906,1,8,1:0:0:0:
196,342,119031,5,0,1:0:0:0:
34,297,119156,1,0,3:0:0:0:
250,272,119281,1,8,1:0:0:0:
123,70,119406,1,0,3:0:0:0:
113,355,119531,1,0,1:0:0:0:
387,340,119656,1,0,3:0:0:0:
164,261,119781,1,8,1:0:0:0:
288,351,119906,1,0,3:0:0:0:
455,259,120031,5,8,1:0:0:0:
455,259,120156,1,8,1:0:0:0:
455,259,120281,1,8,1:0:0:0:
455,259,120406,1,8,1:0:0:0:
398,113,120531,1,4,1:3:0:0:
385,124,120593,1,4,1:3:0:0:
377,139,120656,1,4,1:3:0:0:
374,156,120718,1,4,1:3:0:0:
374,173,120781,1,4,1:3:0:0:
435,340,120906,1,0,1:0:0:0:
507,22,121031,1,4,1:0:0:0:
490,28,121093,6,0,L|442:47,1,28.8750008811951,12|0,1:3|0:0,0:0:0:0:
158,44,121218,2,0,L|206:63,1,28.8750008811951,12|0,1:3|0:0,0:0:0:0:
492,49,121343,6,0,L|444:68,1,28.8750008811951,12|0,1:3|0:0,0:0:0:0:
160,65,121468,2,0,L|208:84,1,28.8750008811951,12|0,1:3|0:0,0:0:0:0:
494,69,121593,6,0,L|446:88,1,28.8750008811951,12|0,1:3|0:0,0:0:0:0:
162,85,121718,2,0,L|210:104,1,28.8750008811951,12|0,1:3|0:0,0:0:0:0:
495,87,121843,6,0,L|447:106,1,28.8750008811951,12|0,1:3|0:0,0:0:0:0:
163,103,121968,2,0,L|211:122,1,28.8750008811951,12|0,1:3|0:0,0:0:0:0:
497,104,122093,6,0,L|449:123,1,28.8750008811951,12|0,1:3|0:0,0:0:0:0:
165,120,122218,2,0,L|213:139,1,28.8750008811951,12|0,1:3|0:0,0:0:0:0:
499,118,122343,6,0,L|451:137,1,28.8750008811951,12|0,1:3|0:0,0:0:0:0:
167,134,122468,2,0,L|215:153,1,28.8750008811951,12|0,1:3|0:0,0:0:0:0:
501,133,122593,6,0,L|453:152,1,28.8750008811951,12|0,1:3|0:0,0:0:0:0:
169,149,122718,2,0,L|217:168,1,28.8750008811951,12|0,1:3|0:0,0:0:0:0:
502,149,122843,6,0,L|454:168,1,28.8750008811951,12|0,1:3|0:0,0:0:0:0:
170,165,122968,2,0,L|218:184,1,28.8750008811951,12|0,1:3|0:0,0:0:0:0:
504,165,123093,6,0,L|456:184,1,28.8750008811951,12|0,1:3|0:0,0:0:0:0:
172,181,123218,2,0,L|220:200,1,28.8750008811951,12|0,1:3|0:0,0:0:0:0:
503,182,123343,6,0,L|455:201,1,28.8750008811951,12|0,1:3|0:0,0:0:0:0:
171,198,123468,2,0,L|219:217,1,28.8750008811951,12|0,1:3|0:0,0:0:0:0:
504,200,123593,6,0,L|456:219,1,28.8750008811951,12|0,1:3|0:0,0:0:0:0:
172,216,123718,2,0,L|220:235,1,28.8750008811951,12|0,1:3|0:0,0:0:0:0:
506,217,123843,6,0,L|458:236,1,28.8750008811951,12|0,1:3|0:0,0:0:0:0:
174,233,123968,2,0,L|222:252,1,28.8750008811951,12|0,1:3|0:0,0:0:0:0:
508,231,124093,6,0,L|460:250,1,28.8750008811951,12|0,1:3|0:0,0:0:0:0:
176,247,124218,2,0,L|224:266,1,28.8750008811951,12|0,1:3|0:0,0:0:0:0:
510,246,124343,6,0,L|462:265,1,28.8750008811951,12|0,1:3|0:0,0:0:0:0:
178,262,124468,2,0,L|226:281,1,28.8750008811951,12|0,1:3|0:0,0:0:0:0:
511,262,124593,6,0,L|463:281,1,28.8750008811951,12|0,1:3|0:0,0:0:0:0:
179,278,124718,1,12,1:3:0:0:
205,288,124780,1,0,1:0:0:0:
259,304,124906,1,0,1:0:0:0:
144,363,125031,1,0,1:0:0:0:
161,357,125093,6,0,L|209:338,1,28.8750008811951,12|0,1:3|0:0,0:0:0:0:
493,341,125218,2,0,L|445:322,1,28.8750008811951,12|0,1:3|0:0,0:0:0:0:
159,336,125343,6,0,L|207:317,1,28.8750008811951,12|0,1:3|0:0,0:0:0:0:
491,320,125468,2,0,L|443:301,1,28.8750008811951,12|0,1:3|0:0,0:0:0:0:
157,316,125593,6,0,L|205:297,1,28.8750008811951,12|0,1:3|0:0,0:0:0:0:
489,300,125718,2,0,L|441:281,1,28.8750008811951,12|0,1:3|0:0,0:0:0:0:
156,298,125843,6,0,L|204:279,1,28.8750008811951,12|0,1:3|0:0,0:0:0:0:
488,282,125968,2,0,L|440:263,1,28.8750008811951,12|0,1:3|0:0,0:0:0:0:
154,281,126093,6,0,L|202:262,1,28.8750008811951,12|0,1:3|0:0,0:0:0:0:
486,265,126218,2,0,L|438:246,1,28.8750008811951,12|0,1:3|0:0,0:0:0:0:
152,267,126343,6,0,L|200:248,1,28.8750008811951,12|0,1:3|0:0,0:0:0:0:
484,251,126468,2,0,L|436:232,1,28.8750008811951,12|0,1:3|0:0,0:0:0:0:
150,252,126593,6,0,L|198:233,1,28.8750008811951,12|0,1:3|0:0,0:0:0:0:
482,236,126718,2,0,L|434:217,1,28.8750008811951,12|0,1:3|0:0,0:0:0:0:
149,236,126843,6,0,L|197:217,1,28.8750008811951,12|0,1:3|0:0,0:0:0:0:
481,220,126968,2,0,L|433:201,1,28.8750008811951,12|0,1:3|0:0,0:0:0:0:
147,220,127093,6,0,L|195:201,1,28.8750008811951,12|0,1:3|0:0,0:0:0:0:
479,204,127218,2,0,L|431:185,1,28.8750008811951,12|0,1:3|0:0,0:0:0:0:
148,203,127343,6,0,L|196:184,1,28.8750008811951,12|0,1:3|0:0,0:0:0:0:
480,187,127468,2,0,L|432:168,1,28.8750008811951,12|0,1:3|0:0,0:0:0:0:
147,185,127593,6,0,L|195:166,1,28.8750008811951,12|0,1:3|0:0,0:0:0:0:
479,169,127718,2,0,L|431:150,1,28.8750008811951,12|0,1:3|0:0,0:0:0:0:
145,168,127843,6,0,L|193:149,1,28.8750008811951,12|0,1:3|0:0,0:0:0:0:
477,152,127968,2,0,L|429:133,1,28.8750008811951,12|0,1:3|0:0,0:0:0:0:
143,154,128093,6,0,L|191:135,1,28.8750008811951,12|0,1:3|0:0,0:0:0:0:
475,138,128218,2,0,L|427:119,1,28.8750008811951,12|0,1:3|0:0,0:0:0:0:
141,139,128343,6,0,L|189:120,1,28.8750008811951,12|0,1:3|0:0,0:0:0:0:
473,123,128468,2,0,L|425:104,1,28.8750008811951,12|0,1:3|0:0,0:0:0:0:
140,123,128593,6,0,L|188:104,1,28.8750008811951,12|0,1:3|0:0,0:0:0:0:
472,107,128718,1,0,1:0:0:0:
445,96,128780,1,0,1:0:0:0:
415,94,128843,1,8,0:3:0:0:
387,103,128906,1,8,0:3:0:0:
368,124,128968,1,4,3:0:0:0:
340,199,129031,6,0,B|332:303|172:313|147:216|147:216|281:206|276:64|172:49|172:49|216:353,1,840,4|0,1:0|0:0,0:0:0:0:
