osu file format v14

[General]
AudioFilename: audio.mp3
AudioLeadIn: 0
PreviewTime: 63872
Countdown: 0
SampleSet: Soft
StackLeniency: 0.4
Mode: 0
LetterboxInBreaks: 0
WidescreenStoryboard: 0

[Editor]
Bookmarks: 23810,47660,59586,71511,83437,95362,131139,137101
DistanceSpacing: 1.4
BeatDivisor: 4
GridSize: 4
TimelineZoom: 2.2

[Metadata]
Title:i fucked up
TitleUnicode:i fucked up
Artist:convolk
ArtistUnicode:convolk
Creator:Gordon123
Version:Terton's Hard
Source:
Tags:riffy Bakari Terton HipHop Hip-Hop rap russian русский english Azinlen jakkyboi LONEWOLF
BeatmapID:2523541
BeatmapSetID:1212361

[Difficulty]
HPDrainRate:4
CircleSize:3.6
OverallDifficulty:6
ApproachRate:7
SliderMultiplier:1.3
SliderTickRate:1

[Events]
//Background and Video events
0,0,"riffster_wave.jpg",0,0
//Break Periods
//Storyboard Layer 0 (Background)
//Storyboard Layer 1 (Fail)
//Storyboard Layer 2 (Pass)
//Storyboard Layer 3 (Foreground)
//Storyboard Layer 4 (Overlay)
//Storyboard Sound Samples

[TimingPoints]
23810,372.670807453416,4,2,1,70,1,0

[Colours]
Combo1 : 133,137,163
Combo2 : 148,165,197
Combo3 : 209,174,210

[HitObjects]
108,314,23810,6,0,P|111:245|118:172,1,130,6|2,0:0|0:0,0:0:0:0:
174,113,24369,1,0,0:0:0:0:
245,169,24555,1,8,0:0:0:0:
237,350,24928,1,0,0:0:0:0:
247,324,25114,1,0,0:0:0:0:
266,301,25300,6,0,P|300:299|342:302,1,65,2|0,0:0|3:0,0:0:0:0:
421,311,25673,1,0,3:0:0:0:
386,132,26046,2,0,P|305:128|231:130,1,130,8|0,0:0|0:0,0:0:0:0:
164,132,26605,1,0,0:0:0:0:
82,97,26791,6,0,P|80:57|88:6,1,65,6|0,0:0|0:0,0:0:0:0:
78,175,27164,2,0,P|71:213|75:265,1,65,2|0,0:0|0:0,0:0:0:0:
62,329,27536,1,8,0:0:0:0:
238,282,27909,1,0,0:0:0:0:
228,256,28095,1,0,0:0:0:0:
209,233,28281,6,0,P|175:231|133:234,1,65,2|0,0:0|3:0,0:0:0:0:
54,243,28654,1,0,3:0:0:0:
200,134,29027,1,8,0:0:0:0:
200,43,29213,1,0,3:0:0:0:
200,43,29400,1,0,0:0:0:0:
362,123,29772,6,0,P|373:165|349:187,1,65,6|0,0:0|0:0,0:0:0:0:
341,268,30145,2,0,P|284:240|227:273,1,130,2|8,0:0|0:0,0:0:0:0:
180,346,30704,1,0,0:0:0:0:
66,203,31077,1,0,0:0:0:0:
154,183,31263,5,2,0:0:0:0:
188,99,31449,1,0,0:0:0:0:
272,136,31636,2,0,P|307:140|346:131,1,65,0|0,3:0|0:0,0:0:0:0:
301,19,32008,2,0,P|229:16|144:20,1,130,8|0,0:0|0:0,0:0:0:0:
79,22,32567,1,0,0:0:0:0:
40,167,32754,6,0,P|36:120|43:94,1,65,6|0,0:0|0:0,0:0:0:0:
132,130,33126,2,0,P|136:177|129:203,1,65,2|0,0:0|0:0,0:0:0:0:
63,258,33499,1,8,0:0:0:0:
234,326,33872,1,0,0:0:0:0:
289,249,34058,1,0,0:0:0:0:
194,239,34244,5,2,0:0:0:0:
250,161,34431,1,0,3:0:0:0:
345,170,34617,2,0,P|373:149|401:114,1,65,0|0,3:0|0:0,0:0:0:0:
311,77,34990,2,0,P|283:56|255:21,1,65,8|0,0:0|3:0,0:0:0:0:
192,91,35362,1,0,0:0:0:0:
10,130,35735,6,0,P|9:203|13:284,1,130,6|2,0:0|0:0,0:0:0:0:
20,352,36294,1,0,0:0:0:0:
93,293,36480,1,8,0:0:0:0:
159,120,36853,1,0,0:0:0:0:
203,200,37039,1,0,0:0:0:0:
290,232,37226,6,0,P|336:233|378:241,1,65,2|0,0:0|3:0,0:0:0:0:
377,146,37598,2,0,P|423:145|465:137,1,65,0|0,3:0|0:0,0:0:0:0:
452,234,37971,2,0,P|436:280|470:358,1,130,8|0,0:0|0:0,0:0:0:0:
372,353,38530,1,0,0:0:0:0:
279,356,38716,6,0,L|198:354,1,65,6|0,0:0|0:0,0:0:0:0:
122,353,39089,1,2,0:0:0:0:
170,274,39275,1,0,0:0:0:0:
263,274,39462,1,8,0:0:0:0:
123,157,39834,1,0,0:0:0:0:
50,98,40021,1,0,0:0:0:0:
50,5,40207,6,0,P|111:3|198:4,1,130,2|0,0:0|3:0,0:0:0:0:
272,0,40766,1,0,0:0:0:0:
283,123,40952,2,0,P|257:78|184:95,1,130,8|0,0:0|0:0,0:0:0:0:
377,63,41698,6,0,L|456:63,1,65,6|0,0:0|0:0,0:0:0:0:
369,166,42070,2,0,P|367:241|361:316,1,130,2|8,0:0|0:0,0:0:0:0:
198,221,42816,1,0,0:0:0:0:
277,165,43002,1,0,0:0:0:0:
369,166,43188,5,2,0:0:0:0:
367,76,43375,1,0,0:0:0:0:
445,119,43561,2,0,L|516:117,1,65,0|0,3:0|0:0,0:0:0:0:
512,246,43934,2,0,P|484:197|422:230,1,130,8|0,0:0|0:0,0:0:0:0:
375,300,44493,1,0,0:0:0:0:
282,302,44679,6,0,L|188:310,1,65,6|0,0:0|0:0,0:0:0:0:
158,228,45052,2,0,L|253:218,1,65,2|0,0:0|0:0,0:0:0:0:
282,152,45424,2,0,P|288:121|279:78,1,65,8|0,0:0|0:0,0:0:0:0:
238,8,45797,1,0,0:0:0:0:
162,58,45983,1,0,0:0:0:0:
75,87,46170,5,2,0:0:0:0:
124,163,46356,1,0,3:0:0:0:
121,253,46542,2,0,L|116:346,1,65,0|0,3:0|0:0,0:0:0:0:
227,244,46915,1,8,0:0:0:0:
227,244,47288,1,2,0:0:0:0:
328,138,47660,6,0,P|377:135|474:134,1,130,2|2,0:0|0:0,0:0:0:0:
464,49,48219,1,0,0:0:0:0:
379,51,48406,1,8,0:0:0:0:
373,213,48778,2,0,L|372:300,1,65,2|0,0:0|0:0,0:0:0:0:
281,281,49151,6,0,L|282:201,1,65,2|0,0:0|3:0,0:0:0:0:
285,123,49524,1,2,3:0:0:0:
124,32,49896,2,0,P|122:109|128:175,1,130,8|2,0:0|0:0,0:0:0:0:
121,253,50455,1,0,0:0:0:0:
200,189,50642,6,0,P|241:139|184:124,1,130,6|2,0:0|0:0,0:0:0:0:
211,33,51201,1,0,0:0:0:0:
299,33,51387,2,0,P|366:41|442:32,1,130,8|2,0:0|0:0,0:0:0:0:
512,31,51946,1,0,0:0:0:0:
479,123,52132,6,0,P|439:127|423:155,1,65,2|0,0:0|3:0,0:0:0:0:
323,184,52505,2,0,P|360:198|368:229,1,65,2|0,3:0|0:0,0:0:0:0:
461,303,52878,2,0,B|414:310|414:310|397:324|397:324|377:316|377:316|330:323,1,130,8|0,0:0|0:0,0:0:0:0:
249,342,53437,1,0,0:0:0:0:
166,249,53623,6,0,P|214:231|225:148,1,130,6|2,0:0|0:0,0:0:0:0:
151,107,54182,2,0,P|103:125|92:208,1,130
68,358,54741,2,0,P|66:315|67:280,1,65,2|0,0:0|0:0,0:0:0:0:
164,313,55114,6,0,P|166:270|165:235,1,65,2|0,0:0|0:0,0:0:0:0:
273,263,55487,2,0,P|291:312|360:344,1,130,2|8,3:0|0:0,0:0:0:0:
356,263,56046,1,0,3:0:0:0:
359,171,56232,1,2,0:0:0:0:
220,47,56605,6,0,P|153:33|86:44,1,130,6|2,0:0|0:0,0:0:0:0:
19,101,57164,1,0,0:0:0:0:
104,142,57350,2,0,P|171:156|238:145,1,130,8|2,0:0|0:0,0:0:0:0:
305,88,57909,1,0,0:0:0:0:
369,182,58095,6,0,L|407:120,1,65,2|0,0:0|3:0,0:0:0:0:
319,265,58468,2,0,L|281:203,1,65,2|0,3:0|0:0,0:0:0:0:
219,277,58841,1,8,0:0:0:0:
218,369,59027,2,0,P|171:364|84:367,1,130,0|0,3:0|0:0,0:0:0:0:
0,368,59586,5,6,0:0:0:0:
53,192,59959,2,0,L|47:108,1,65,2|0,0:0|0:0,0:0:0:0:
137,205,60331,2,0,P|146:171|245:158,1,130,8|2,0:0|0:0,0:0:0:0:
312,185,60890,1,0,0:0:0:0:
312,277,61077,6,0,L|312:349,1,65,2|0,0:0|3:0,0:0:0:0:
392,236,61449,2,0,L|392:164,1,65,0|0,3:0|0:0,0:0:0:0:
458,118,61822,2,0,P|394:89|327:120,1,130,8|0,0:0|0:0,0:0:0:0:
154,44,62567,5,6,0:0:0:0:
246,42,62754,1,0,0:0:0:0:
201,122,62940,2,0,L|200:204,1,65,2|0,0:0|0:0,0:0:0:0:
131,257,63313,2,0,P|198:265|290:283,1,130,8|2,0:0|0:0,0:0:0:0:
194,349,63872,1,0,0:0:0:0:
93,360,64058,6,0,P|39:366|3:374,1,65,2|0,0:0|3:0,0:0:0:0:
50,247,64431,2,0,P|14:288|-6:318,1,65,0|0,3:0|0:0,0:0:0:0:
16,174,64803,2,0,P|51:111|6:67,1,130,8|0,0:0|0:0,0:0:0:0:
204,32,65549,5,6,0:0:0:0:
261,105,65735,1,0,0:0:0:0:
318,32,65921,1,0,0:0:0:0:
335,218,66294,2,0,P|341:172|355:141,1,65,8|0,0:0|0:0,0:0:0:0:
408,99,66667,1,2,0:0:0:0:
487,66,66853,1,0,0:0:0:0:
419,11,67039,5,2,0:0:0:0:
335,218,67412,1,0,3:0:0:0:
267,164,67598,1,0,0:0:0:0:
252,251,67785,2,0,P|179:249|96:255,1,130,8|0,0:0|0:0,0:0:0:0:
39,259,68344,1,0,0:0:0:0:
30,167,68530,6,0,P|23:112|28:81,1,65,6|0,0:0|0:0,0:0:0:0:
118,106,68903,2,0,P|125:51|120:20,1,65
24,103,69275,1,8,0:0:0:0:
224,105,69648,2,0,P|217:50|222:19,1,65,2|0,0:0|0:0,0:0:0:0:
319,101,70020,1,2,0:0:0:0:
170,211,70393,5,0,3:0:0:0:
263,199,70580,1,0,0:0:0:0:
226,285,70766,2,0,B|227:363|227:363|287:351,1,130
372,344,71325,1,0,0:0:0:0:
465,337,71511,6,0,P|496:306|448:237,1,130,6|2,0:0|0:0,0:0:0:0:
372,221,72070,2,0,P|337:170|375:122,1,130
465,93,72629,1,0,0:0:0:0:
401,32,72816,1,0,0:0:0:0:
308,31,73002,6,0,P|227:29|151:34,1,130,2|0,0:0|3:0,0:0:0:0:
106,124,73561,2,0,P|95:86|112:51,1,65,0|8,0:0|0:0,0:0:0:0:
183,148,73934,2,0,P|221:137|256:153,1,65,0|0,3:0|0:0,0:0:0:0:
325,192,74306,1,2,0:0:0:0:
252,249,74493,6,0,P|256:322|263:387,1,130,6|2,0:0|0:0,0:0:0:0:
338,327,75052,2,0,P|380:326|426:328,1,65,0|8,0:0|0:0,0:0:0:0:
448,242,75424,2,0,P|406:241|360:243,1,65
252,249,75797,6,0,P|183:236|117:250,1,130,2|0,0:0|3:0,0:0:0:0:
44,289,76356,2,0,L|40:213,1,65,0|0,3:0|0:0,0:0:0:0:
10,107,76729,2,0,P|59:113|144:75,1,130,8|0,0:0|0:0,0:0:0:0:
199,22,77288,1,0,0:0:0:0:
214,152,77474,6,0,P|238:115|327:112,1,130,6|2,0:0|0:0,0:0:0:0:
369,182,78033,2,0,L|247:240,2,130,2|2|0,0:0|0:0|0:0,0:0:0:0:
454,140,78965,5,2,0:0:0:0:
447,234,79151,1,0,0:0:0:0:
369,324,79337,2,0,P|363:286|383:254,1,65,0|0,3:0|0:0,0:0:0:0:
277,330,79710,2,0,P|202:331|145:335,1,130,8|0,0:0|0:0,0:0:0:0:
44,252,80269,2,0,P|119:253|177:249,1,130,2|0,0:0|0:0,0:0:0:0:
250,201,80828,1,2,0:0:0:0:
59,95,81201,6,0,P|50:44|62:9,1,65,8|0,0:0|0:0,0:0:0:0:
144,54,81573,1,0,0:0:0:0:
177,146,81760,2,0,P|212:108|247:96,1,65,0|2,0:0|0:0,0:0:0:0:
286,20,82132,2,0,P|314:62|318:99,1,65,0|0,3:0|3:0,0:0:0:0:
342,165,82505,1,0,0:0:0:0:
342,257,82691,2,0,P|342:329|350:407,1,130,8|0,0:0|0:0,0:0:0:0:
476,364,83250,6,0,P|510:312|459:272,1,130,2|0,0:0|0:0,0:0:0:0:
447,178,83810,2,0,P|447:106|439:28,2,130,2|2|0,0:0|0:0|0:0,0:0:0:0:
468,272,84741,1,2,0:0:0:0:
377,244,84928,6,0,P|314:280|251:325,1,130,2|0,0:0|0:0,0:0:0:0:
113,205,85673,2,0,P|134:116|105:76,1,130,2|0,0:0|0:0,0:0:0:0:
203,42,86232,1,0,0:0:0:0:
243,129,86418,6,0,P|221:188|247:246,1,130,2|2,0:0|0:0,0:0:0:0:
320,307,86977,1,0,0:0:0:0:
397,254,87164,2,0,P|400:352|398:404,1,130,2|0,0:0|0:0,0:0:0:0:
494,384,87723,6,0,P|491:286|493:234,1,130,2|0,0:0|0:0,0:0:0:0:
501,163,88282,1,0,0:0:0:0:
300,17,88654,2,0,L|155:12,1,130,2|0,0:0|0:0,0:0:0:0:
76,5,89213,1,0,0:0:0:0:
116,89,89400,6,0,P|147:107|102:185,1,130,2|2,0:0|0:0,0:0:0:0:
45,142,89959,1,0,0:0:0:0:
49,230,90145,2,0,L|60:369,1,130,8|0,0:0|0:0,0:0:0:0:
151,333,90704,6,0,P|157:266|236:238,1,130,2|0,0:0|0:0,0:0:0:0:
300,229,91263,1,0,0:0:0:0:
412,76,91636,2,0,L|420:228,1,130,8|0,0:0|0:0,0:0:0:0:
495,263,92195,6,0,L|490:345,1,65,0|2,0:0|0:0,0:0:0:0:
403,368,92567,2,0,L|398:286,1,65,0|2,0:0|0:0,0:0:0:0:
306,305,92940,1,0,0:0:0:0:
233,247,93126,2,0,P|193:195|239:150,1,130,8|0,0:0|0:0,0:0:0:0:
322,135,93685,6,0,P|362:83|316:38,1,130,2|0,0:0|0:0,0:0:0:0:
239,13,94244,1,0,0:0:0:0:
102,157,94617,2,0,L|93:84,1,65,8|0,0:0|0:0,0:0:0:0:
78,0,94990,1,0,0:0:0:0:
78,0,95176,1,0,0:0:0:0:
0,96,95362,6,0,P|34:92|70:106,1,65,6|0,0:0|0:0,0:0:0:0:
176,24,95735,2,0,P|151:48|139:89,1,65,2|0,0:0|0:0,0:0:0:0:
118,172,96108,1,8,0:0:0:0:
52,352,96480,1,0,0:0:0:0:
49,324,96666,1,0,0:0:0:0:
56,295,96852,6,0,P|85:278|124:262,1,65,2|0,0:0|3:0,0:0:0:0:
200,236,97225,1,0,3:0:0:0:
21,191,97598,2,0,P|97:163|168:143,1,130,8|0,0:0|0:0,0:0:0:0:
231,113,98157,1,0,0:0:0:0:
151,61,98343,6,0,P|141:22|118:-24,1,65,6|0,0:0|0:0,0:0:0:0:
72,95,98716,2,0,P|54:60|42:9,1,65,2|0,0:0|0:0,0:0:0:0:
0,140,99088,1,8,0:0:0:0:
188,176,99461,1,0,0:0:0:0:
212,187,99647,1,0,0:0:0:0:
234,207,99833,6,0,P|233:241|227:282,1,65,2|0,0:0|3:0,0:0:0:0:
214,361,100206,1,0,3:0:0:0:
332,223,100579,1,8,0:0:0:0:
423,229,100765,1,0,0:0:0:0:
383,148,100952,1,0,0:0:0:0:
221,64,101325,6,0,P|212:96|216:147,1,65,6|0,0:0|0:0,0:0:0:0:
251,253,101698,2,0,P|264:213|256:170,1,65,2|0,0:0|0:0,0:0:0:0:
171,196,102070,2,0,P|120:193|34:198,1,130,8|0,0:0|0:0,0:0:0:0:
39,290,102629,1,0,0:0:0:0:
122,333,102816,6,0,P|132:297|131:265,1,65,2|0,0:0|0:0,0:0:0:0:
206,324,103188,2,0,P|216:288|215:256,1,65,0|0,3:0|0:0,0:0:0:0:
289,201,103561,2,0,P|307:241|281:330,1,130,8|0,0:0|0:0,0:0:0:0:
372,364,104120,1,0,0:0:0:0:
456,321,104306,6,0,L|460:233,1,65,6|0,0:0|0:0,0:0:0:0:
375,217,104679,2,0,P|396:185|431:172,1,65,2|0,0:0|0:0,0:0:0:0:
506,131,105052,2,0,L|509:-7,1,130,8|0,0:0|0:0,0:0:0:0:
267,95,105797,5,2,0:0:0:0:
337,33,105983,1,0,3:0:0:0:
355,124,106170,2,0,L|351:214,1,65,0|0,3:0|0:0,0:0:0:0:
287,257,106542,2,0,P|333:265|334:342,1,130,8|0,0:0|0:0,0:0:0:0:
156,363,107288,6,0,L|228:356,1,65,6|0,0:0|0:0,0:0:0:0:
287,257,107660,2,0,L|215:250,1,65,2|0,0:0|0:0,0:0:0:0:
129,244,108033,1,8,0:0:0:0:
183,59,108406,1,0,0:0:0:0:
186,151,108592,1,0,0:0:0:0:
279,141,108778,6,0,L|429:130,1,130,2|0,0:0|3:0,0:0:0:0:
502,124,109337,1,0,0:0:0:0:
443,50,109524,2,0,L|293:39,1,130,8|0,0:0|0:0,0:0:0:0:
219,32,110083,1,0,0:0:0:0:
125,23,110269,6,0,L|133:91,1,65,6|0,0:0|0:0,0:0:0:0:
149,178,110642,1,2,0:0:0:0:
61,146,110828,1,0,0:0:0:0:
78,239,111014,2,0,P|73:279|78:311,1,65,8|0,0:0|0:0,0:0:0:0:
123,384,111387,2,0,P|153:357|167:331,1,65
205,252,111760,5,2,0:0:0:0:
205,252,111946,1,0,3:0:0:0:
246,168,112132,2,0,P|263:140|288:119,1,65,0|0,3:0|0:0,0:0:0:0:
360,61,112505,2,0,L|363:210,1,130,8|0,0:0|0:0,0:0:0:0:
238,329,113250,6,0,L|328:322,1,65,6|0,0:0|0:0,0:0:0:0:
424,275,113623,2,0,L|276:245,1,130,2|8,0:0|0:0,0:0:0:0:
129,161,114369,2,0,L|132:243,1,65
51,278,114741,6,0,P|40:249|39:209,1,65,2|0,0:0|0:0,0:0:0:0:
39,124,115114,1,0,3:0:0:0:
43,31,115300,1,0,0:0:0:0:
121,80,115487,2,0,P|177:112|225:71,1,130,8|0,0:0|0:0,0:0:0:0:
173,0,116046,1,0,0:0:0:0:
265,2,116232,6,0,P|305:3|347:-3,1,65,6|0,0:0|0:0,0:0:0:0:
393,71,116605,2,0,P|374:101|383:144,1,65,2|0,0:0|0:0,0:0:0:0:
384,221,116977,2,0,P|446:261|430:329,1,130,8|0,0:0|0:0,0:0:0:0:
393,384,117536,1,0,0:0:0:0:
298,382,117723,6,0,P|265:376|225:391,1,65,2|0,0:0|3:0,0:0:0:0:
158,306,118095,2,0,P|191:300|231:315,1,65,0|0,3:0|0:0,0:0:0:0:
205,216,118468,2,0,P|173:169|217:106,1,130,8|0,0:0|0:0,0:0:0:0:
387,99,119213,6,0,P|432:70|453:-6,1,130,6|2,0:0|0:0,0:0:0:0:
361,8,119772,1,0,0:0:0:0:
269,23,119959,2,0,P|201:35|131:52,1,130,8|0,0:0|0:0,0:0:0:0:
88,228,120704,6,0,P|50:199|92:142,1,130,2|0,0:0|3:0,0:0:0:0:
172,182,121263,1,0,0:0:0:0:
176,275,121449,2,0,P|229:258|263:193,1,130,8|0,0:0|0:0,0:0:0:0:
395,64,122195,6,0,P|398:138|411:201,1,130,6|2,0:0|0:0,0:0:0:0:
411,288,122754,1,0,0:0:0:0:
325,348,122940,2,0,P|329:283|325:217,1,130,8|0,0:0|0:0,0:0:0:0:
268,45,123685,6,0,P|229:55|196:41,1,65,2|0,0:0|3:0,0:0:0:0:
142,112,124058,2,0,L|159:190,1,65,0|0,3:0|0:0,0:0:0:0:
275,299,124431,2,0,P|248:372|229:296,1,195,8|0,0:0|0:0,0:0:0:0:
133,332,125176,6,0,L|1:335,1,130,6|2,0:0|0:0,0:0:0:0:
41,250,125735,2,0,P|63:195|0:175,1,130
19,78,126294,2,0,P|28:42|-7:12,1,65
105,36,126667,6,0,L|182:35,1,65,2|0,0:0|0:0,0:0:0:0:
262,33,127039,1,0,3:0:0:0:
448,25,127412,2,0,P|449:86|446:154,1,130,8|0,0:0|0:0,0:0:0:0:
353,157,127971,1,0,0:0:0:0:
400,236,128157,6,0,L|457:287,1,65,6|0,0:0|0:0,0:0:0:0:
366,321,128530,2,0,L|309:372,1,65,2|0,0:0|0:0,0:0:0:0:
276,282,128903,2,0,P|222:253|164:295,1,130,8|0,0:0|0:0,0:0:0:0:
113,361,129462,1,0,0:0:0:0:
49,296,129648,6,0,P|58:262|44:229,1,65,2|0,0:0|3:0,0:0:0:0:
120,164,130021,2,0,P|91:140|91:101,1,65,0|0,3:0|0:0,0:0:0:0:
46,30,130393,1,8,0:0:0:0:
234,30,130766,2,0,L|238:109,1,65
215,228,131139,6,0,P|247:196|350:180,1,130,6|0,0:0|0:0,0:0:0:0:
423,162,131698,2,0,P|393:130|381:38,1,130,2|0,0:0|0:0,0:0:0:0:
299,94,132257,2,0,P|227:97|153:103,1,130,2|0,0:0|0:0,0:0:0:0:
79,121,132816,5,0,3:0:0:0:
79,121,133002,1,0,3:0:0:0:
107,356,133375,2,0,P|97:298|195:187,1,195,8|0,0:0|0:0,0:0:0:0:
261,167,134120,5,6,0:0:0:0:
261,167,134306,1,0,0:0:0:0:
478,217,134679,2,0,P|503:184|454:118,1,130,2|0,0:0|0:0,0:0:0:0:
370,217,135238,2,0,P|345:184|394:118,1,130,2|0,0:0|0:0,0:0:0:0:
423,55,135797,6,0,L|419:-16,1,65,0|0,3:0|3:0,0:0:0:0:
245,42,136356,2,0,L|241:106,1,65,8|0,0:0|3:0,0:0:0:0:
241,107,137101,5,4,0:0:0:0:
