osu file format v14

[General]
AudioFilename: audio.mp3
AudioLeadIn: 0
PreviewTime: 63872
Countdown: 0
SampleSet: Soft
StackLeniency: 0.4
Mode: 0
LetterboxInBreaks: 0
WidescreenStoryboard: 0

[Editor]
Bookmarks: 23810,47660,59586,71511,83437,95362,131139,137101
DistanceSpacing: 1.4
BeatDivisor: 4
GridSize: 4
TimelineZoom: 2.899999

[Metadata]
Title:i fucked up
TitleUnicode:i fucked up
Artist:convolk
ArtistUnicode:convolk
Creator:Gordon123
Version:Hyper
Source:
Tags:riffy Bakari Terton HipHop Hip-Hop rap russian русский english Azinlen jakkyboi LONEWOLF
BeatmapID:2523523
BeatmapSetID:1212361

[Difficulty]
HPDrainRate:4.3
CircleSize:4
OverallDifficulty:6.3
ApproachRate:8.3
SliderMultiplier:1.54
SliderTickRate:1

[Events]
//Background and Video events
0,0,"riffster_wave.jpg",0,0
//Break Periods
//Storyboard Layer 0 (Background)
//Storyboard Layer 1 (Fail)
//Storyboard Layer 2 (Pass)
//Storyboard Layer 3 (Foreground)
//Storyboard Layer 4 (Overlay)
//Storyboard Sound Samples

[TimingPoints]
23810,372.670807453416,4,2,1,70,1,0

[Colours]
Combo1 : 133,137,163
Combo2 : 148,165,197
Combo3 : 209,174,210

[HitObjects]
103,238,23810,6,0,P|141:224|271:212,1,154,6|2,0:0|0:0,0:0:0:0:
398,256,24369,1,0,0:0:0:0:
391,274,24555,1,8,0:0:0:0:
483,162,24741,1,0,0:0:0:0:
445,29,24928,2,0,P|435:64|379:47,1,77
311,39,25300,5,2,0:0:0:0:
289,40,25487,1,0,3:0:0:0:
114,18,25673,1,0,3:0:0:0:
181,80,25859,1,0,0:0:0:0:
126,155,26046,2,0,P|152:201|121:229,1,77,8|0,0:0|3:0,0:0:0:0:
268,229,26418,2,0,P|242:275|273:303,1,77
341,362,26791,6,0,P|354:279|342:175,1,154,6|2,0:0|0:0,0:0:0:0:
309,66,27350,1,0,0:0:0:0:
377,107,27536,2,0,L|222:81,1,154,8|0,0:0|0:0,0:0:0:0:
99,86,28095,1,0,0:0:0:0:
97,70,28282,5,2,0:0:0:0:
123,209,28468,1,0,3:0:0:0:
71,365,28654,1,0,3:0:0:0:
142,323,28841,1,0,0:0:0:0:
234,318,29027,2,0,P|228:361|261:375,1,77,8|0,0:0|3:0,0:0:0:0:
463,348,29400,2,0,L|337:327,1,115.5
322,320,29772,6,0,P|388:264|467:258,1,154,6|2,0:0|0:0,0:0:0:0:
463,95,30331,1,0,0:0:0:0:
459,114,30518,1,8,0:0:0:0:
290,82,30704,1,0,0:0:0:0:
295,103,30890,1,0,0:0:0:0:
155,196,31077,1,0,0:0:0:0:
161,175,31263,6,0,L|151:81,1,77,2|0,0:0|0:0,0:0:0:0:
34,211,31636,2,0,L|53:132,1,77,0|0,3:0|0:0,0:0:0:0:
173,187,32008,1,8,0:0:0:0:
262,164,32195,1,0,3:0:0:0:
316,89,32381,1,0,0:0:0:0:
406,69,32567,1,0,0:0:0:0:
465,232,32754,6,0,P|429:242|381:267,1,77,6|0,0:0|0:0,0:0:0:0:
348,363,33126,2,0,P|313:346|276:335,1,77,2|0,0:0|0:0,0:0:0:0:
115,346,33499,1,8,0:0:0:0:
106,318,33685,1,0,0:0:0:0:
180,216,33872,1,0,0:0:0:0:
190,194,34058,1,0,0:0:0:0:
265,171,34244,6,0,P|264:137|220:108,1,77,2|0,0:0|3:0,0:0:0:0:
431,127,34617,1,0,3:0:0:0:
394,211,34803,1,0,0:0:0:0:
417,300,34990,2,0,P|374:288|306:288,1,77,8|0,0:0|3:0,0:0:0:0:
107,347,35362,2,0,L|242:329,1,115.5
251,322,35735,6,0,P|205:273|104:254,1,154,6|2,0:0|0:0,0:0:0:0:
53,111,36294,1,0,0:0:0:0:
48,141,36480,1,8,0:0:0:0:
174,68,36667,1,0,0:0:0:0:
249,120,36853,1,0,0:0:0:0:
340,106,37039,1,0,0:0:0:0:
226,223,37226,6,0,P|233:266|232:319,1,77,2|0,0:0|3:0,0:0:0:0:
422,334,37598,1,0,3:0:0:0:
441,322,37785,1,0,0:0:0:0:
373,259,37971,2,0,P|390:171|432:91,1,154,8|0,0:0|0:0,0:0:0:0:
485,175,38530,1,0,0:0:0:0:
337,62,38716,6,0,L|249:84,1,77,6|0,0:0|0:0,0:0:0:0:
182,18,39089,2,0,L|157:108,1,77,2|0,0:0|0:0,0:0:0:0:
56,123,39462,2,0,L|106:191,1,77,8|0,0:0|0:0,0:0:0:0:
98,277,39834,1,0,0:0:0:0:
101,299,40021,1,0,0:0:0:0:
228,272,40207,5,2,0:0:0:0:
241,287,40393,1,0,3:0:0:0:
136,177,40580,1,0,3:0:0:0:
209,121,40766,1,0,0:0:0:0:
186,31,40952,2,0,P|221:42|281:43,1,77,8|0,0:0|0:0,0:0:0:0:
459,32,41325,2,0,P|407:44|375:106,1,115.5
370,127,41698,6,0,L|525:108,1,154,6|2,0:0|0:0,0:0:0:0:
431,255,42257,1,0,0:0:0:0:
438,234,42443,1,8,0:0:0:0:
294,272,42629,1,0,0:0:0:0:
301,251,42815,1,0,0:0:0:0:
276,161,43002,1,0,0:0:0:0:
189,129,43188,6,0,L|191:212,1,77,2|0,0:0|0:0,0:0:0:0:
232,351,43561,1,0,3:0:0:0:
144,320,43747,1,0,0:0:0:0:
51,325,43934,2,0,P|71:286|76:248,1,77,8|0,0:0|3:0,0:0:0:0:
78,77,44306,2,0,P|97:116|124:143,1,77
259,202,44679,6,0,L|254:99,1,77,6|0,0:0|0:0,0:0:0:0:
364,173,45052,2,0,L|457:148,1,77,2|0,0:0|0:0,0:0:0:0:
394,269,45424,2,0,L|450:340,1,77,8|0,0:0|0:0,0:0:0:0:
289,316,45797,2,0,L|196:341,1,77
122,342,46170,5,2,0:0:0:0:
0,205,46356,1,0,3:0:0:0:
91,191,46542,1,0,3:0:0:0:
138,111,46729,1,0,0:0:0:0:
229,97,46915,2,0,P|233:137|249:176,1,77,8|0,0:0|3:0,0:0:0:0:
372,292,47288,2,0,L|351:156,1,115.5,2|0,0:0|0:0,0:0:0:0:
352,149,47660,6,0,P|405:175|459:251,1,154,2|2,0:0|0:0,0:0:0:0:
458,343,48219,1,0,0:0:0:0:
509,146,48406,1,8,0:0:0:0:
504,141,48778,1,2,0:0:0:0:
420,181,48965,1,0,0:0:0:0:
328,167,49151,5,2,0:0:0:0:
202,63,49337,1,0,3:0:0:0:
391,100,49524,1,2,3:0:0:0:
328,167,49710,1,0,0:0:0:0:
362,252,49896,2,0,P|379:285|384:347,1,77,8|0,0:0|3:0,0:0:0:0:
239,313,50269,2,0,P|237:249|259:184,1,115.5,2|0,0:0|0:0,0:0:0:0:
294,183,50642,6,0,P|203:203|192:142,1,154,6|2,0:0|0:0,0:0:0:0:
230,81,51201,1,0,0:0:0:0:
221,69,51387,1,8,0:0:0:0:
220,68,51760,2,0,L|329:68,1,77,2|0,0:0|0:0,0:0:0:0:
473,73,52132,5,2,0:0:0:0:
365,197,52319,1,0,3:0:0:0:
472,342,52505,2,0,P|416:328|366:323,1,77,2|0,3:0|0:0,0:0:0:0:
207,325,52878,2,0,P|264:316|278:217,1,154,8|0,0:0|0:0,0:0:0:0:
362,178,53437,1,0,0:0:0:0:
221,134,53623,6,0,L|94:112,1,115.5,6|0,0:0|0:0,0:0:0:0:
94,95,53996,2,0,L|274:66,1,154,2|8,0:0|0:0,0:0:0:0:
249,64,54741,1,2,0:0:0:0:
438,95,54928,1,0,0:0:0:0:
433,113,55114,5,2,0:0:0:0:
446,188,55300,1,0,0:0:0:0:
495,295,55487,2,0,P|459:286|400:282,1,77,2|0,3:0|0:0,0:0:0:0:
253,340,55859,2,0,P|287:325|330:292,1,77,8|0,0:0|3:0,0:0:0:0:
357,187,56232,2,0,L|221:177,1,115.5,2|0,0:0|0:0,0:0:0:0:
221,170,56605,6,0,P|249:140|378:105,1,154,6|2,0:0|0:0,0:0:0:0:
222,44,57164,1,0,0:0:0:0:
206,39,57350,1,8,0:0:0:0:
203,38,57723,2,0,P|153:43|108:81,1,77,2|0,0:0|0:0,0:0:0:0:
50,101,58095,5,2,0:0:0:0:
92,304,58282,1,0,3:0:0:0:
126,189,58468,2,0,P|185:206|262:267,1,154,2|8,3:0|0:0,0:0:0:0:
351,93,59027,1,0,3:0:0:0:
439,118,59213,2,0,P|460:98|421:56,1,77
351,93,59586,6,0,L|373:257,1,154,6|2,0:0|0:0,0:0:0:0:
182,357,60331,2,0,L|190:281,1,77,8|0,0:0|0:0,0:0:0:0:
125,198,60704,1,2,0:0:0:0:
122,217,60890,1,0,0:0:0:0:
85,68,61077,6,0,P|69:104|62:148,1,77,2|0,0:0|3:0,0:0:0:0:
202,139,61449,2,0,P|218:175|180:290,1,154,0|8,3:0|0:0,0:0:0:0:
260,340,62008,1,0,3:0:0:0:
381,237,62195,2,0,L|476:254,1,77
461,100,62567,6,0,L|291:119,1,154,6|2,0:0|0:0,0:0:0:0:
228,68,63126,1,0,0:0:0:0:
84,124,63313,2,0,P|123:107|99:64,1,77,8|0,0:0|0:0,0:0:0:0:
218,188,63685,1,2,0:0:0:0:
213,206,63872,1,0,0:0:0:0:
51,257,64058,6,0,L|64:348,1,77,2|0,0:0|3:0,0:0:0:0:
250,330,64431,1,0,3:0:0:0:
243,349,64617,1,0,0:0:0:0:
375,353,64803,2,0,P|355:318|346:263,1,77,8|0,0:0|3:0,0:0:0:0:
395,160,65176,2,0,P|352:173|326:126,1,77
224,48,65549,6,0,L|231:151,1,77,6|0,0:0|0:0,0:0:0:0:
62,112,65921,1,0,0:0:0:0:
38,209,66108,1,0,0:0:0:0:
115,279,66294,1,8,0:0:0:0:
123,260,66480,1,0,0:0:0:0:
302,292,66667,2,0,P|276:269|224:279,1,77,2|0,0:0|0:0,0:0:0:0:
161,349,67039,6,0,P|223:356|350:338,1,154,2|0,0:0|3:0,0:0:0:0:
387,304,67598,1,0,0:0:0:0:
406,310,67785,1,8,0:0:0:0:
465,169,67971,1,0,3:0:0:0:
366,187,68157,2,0,L|368:99,1,77
200,42,68530,5,6,0:0:0:0:
207,59,68716,1,0,0:0:0:0:
91,144,68903,2,0,P|78:187|101:223,1,77
148,302,69275,2,0,P|198:227|210:137,1,154,8|2,0:0|0:0,0:0:0:0:
211,62,69834,1,0,0:0:0:0:
197,70,70021,5,2,0:0:0:0:
371,123,70207,1,0,3:0:0:0:
359,46,70393,1,0,3:0:0:0:
431,73,70580,1,0,0:0:0:0:
487,204,70766,2,0,P|458:236|426:331,1,115.5
415,340,71139,2,0,P|396:308|356:290,1,77
200,331,71511,6,0,P|198:265|220:161,1,154,6|2,0:0|0:0,0:0:0:0:
127,194,72070,1,0,0:0:0:0:
111,199,72257,1,8,0:0:0:0:
56,145,72443,1,0,0:0:0:0:
64,67,72629,2,0,P|108:55|155:67,1,77
209,89,73002,5,2,0:0:0:0:
327,17,73188,1,0,3:0:0:0:
251,198,73375,1,0,3:0:0:0:
248,274,73561,2,0,L|343:260,1,77,0|8,0:0|0:0,0:0:0:0:
488,234,73934,1,0,3:0:0:0:
452,302,74120,1,0,0:0:0:0:
413,235,74306,6,0,P|430:167|488:97,1,154,2|0,0:0|0:0,0:0:0:0:
389,86,74865,2,0,P|349:87|302:105,1,77,2|0,0:0|0:0,0:0:0:0:
199,71,75238,1,8,0:0:0:0:
207,92,75424,1,0,0:0:0:0:
140,131,75611,1,0,0:0:0:0:
168,202,75797,6,0,L|326:171,1,154,2|0,0:0|3:0,0:0:0:0:
266,346,76356,1,0,3:0:0:0:
271,331,76542,1,0,0:0:0:0:
196,309,76729,2,0,P|170:287|125:303,1,77,8|0,0:0|0:0,0:0:0:0:
59,324,77101,1,0,0:0:0:0:
58,303,77288,1,0,0:0:0:0:
19,171,77474,6,0,P|52:166|184:124,1,154,6|2,0:0|0:0,0:0:0:0:
229,85,78033,1,2,0:0:0:0:
158,54,78219,1,8,0:0:0:0:
244,200,78406,2,0,P|230:285|233:362,1,154,2|0,0:0|0:0,0:0:0:0:
301,318,78965,5,2,0:0:0:0:
154,238,79151,1,0,0:0:0:0:
6,321,79337,1,0,3:0:0:0:
30,247,79524,1,0,0:0:0:0:
144,339,79710,2,0,P|180:350|227:353,1,77,8|0,0:0|3:0,0:0:0:0:
277,246,80083,2,0,P|313:235|360:232,1,77
481,285,80455,6,0,P|445:310|329:331,1,154,6|2,0:0|0:0,0:0:0:0:
261,323,81014,1,0,0:0:0:0:
165,217,81201,1,8,0:0:0:0:
159,240,81387,1,0,0:0:0:0:
41,279,81573,2,0,P|38:236|56:174,1,77
91,61,81946,6,0,P|107:89|166:70,1,77,2|0,0:0|3:0,0:0:0:0:
284,20,82319,1,0,3:0:0:0:
301,94,82505,1,0,0:0:0:0:
449,95,82691,1,8,0:0:0:0:
444,113,82878,1,0,3:0:0:0:
389,217,83064,1,0,0:0:0:0:
394,235,83250,1,0,0:0:0:0:
471,327,83437,6,0,P|376:309|305:308,1,154,2|2,0:0|0:0,0:0:0:0:
245,330,83996,1,0,0:0:0:0:
113,250,84182,2,0,P|190:241|231:166,1,154,2|0,0:0|0:0,0:0:0:0:
188,115,84741,1,2,0:0:0:0:
259,84,84928,6,0,L|252:-4,1,77,2|0,0:0|0:0,0:0:0:0:
381,62,85300,1,0,0:0:0:0:
368,159,85487,2,0,P|393:202|404:309,1,154,2|0,0:0|0:0,0:0:0:0:
307,279,86046,1,0,0:0:0:0:
216,321,86232,1,0,0:0:0:0:
65,297,86418,6,0,P|81:247|88:198,1,77,2|0,0:0|0:0,0:0:0:0:
55,75,86791,2,0,P|82:102|112:125,1,77,2|0,0:0|0:0,0:0:0:0:
233,152,87164,2,0,P|272:144|413:127,1,154,2|0,0:0|0:0,0:0:0:0:
501,212,87723,6,0,P|451:232|357:283,1,154,2|0,0:0|0:0,0:0:0:0:
337,363,88282,2,0,P|368:365|416:332,1,77
397,174,88654,1,2,0:0:0:0:
403,152,88841,1,0,0:0:0:0:
321,84,89027,1,0,0:0:0:0:
303,97,89213,1,0,0:0:0:0:
177,77,89400,6,0,P|187:102|161:153,1,77,2|0,0:0|0:0,0:0:0:0:
64,222,89772,2,0,P|65:155|98:65,1,154,2|8,0:0|0:0,0:0:0:0:
26,33,90331,1,0,0:0:0:0:
177,77,90518,2,0,P|225:85|281:81,1,77
336,23,90890,5,2,0:0:0:0:
346,37,91077,1,0,0:0:0:0:
489,96,91263,1,0,0:0:0:0:
435,150,91449,1,0,0:0:0:0:
446,254,91636,2,0,L|275:245,1,154,8|0,0:0|0:0,0:0:0:0:
236,299,92195,1,0,0:0:0:0:
111,243,92381,6,0,P|106:211|145:178,1,77,2|0,0:0|0:0,0:0:0:0:
252,139,92754,2,0,P|257:107|218:74,1,77,2|0,0:0|0:0,0:0:0:0:
94,72,93126,2,0,L|4:57,1,77,8|0,0:0|0:0,0:0:0:0:
85,190,93499,2,0,L|160:177,1,77
242,249,93872,5,2,0:0:0:0:
242,232,94058,1,0,0:0:0:0:
351,316,94244,1,0,0:0:0:0:
359,296,94431,1,0,0:0:0:0:
379,108,94617,1,8,0:0:0:0:
362,291,94803,1,0,0:0:0:0:
455,163,94990,2,0,P|457:143|453:117,3,38.5
428,76,95362,6,0,L|245:91,1,154,6|2,0:0|0:0,0:0:0:0:
272,91,96108,1,8,0:0:0:0:
129,148,96480,2,0,P|148:170|114:222,1,77
211,305,96853,6,0,P|204:276|258:246,1,77,2|0,0:0|3:0,0:0:0:0:
429,260,97226,2,0,P|386:241|354:189,1,77,0|0,3:0|0:0,0:0:0:0:
324,149,97598,2,0,P|386:134|492:167,1,154,8|0,0:0|0:0,0:0:0:0:
355,64,98157,1,0,0:0:0:0:
245,187,98344,5,6,0:0:0:0:
248,161,98530,1,0,0:0:0:0:
116,126,98716,2,0,P|118:169|101:205,1,77,2|0,0:0|0:0,0:0:0:0:
13,340,99089,2,0,L|2:177,1,154,8|0,0:0|0:0,0:0:0:0:
36,117,99648,1,0,0:0:0:0:
150,47,99834,6,0,P|143:94|142:141,1,77,2|0,0:0|3:0,0:0:0:0:
123,282,100207,1,0,3:0:0:0:
75,216,100393,1,0,0:0:0:0:
241,242,100580,2,0,P|293:243|337:225,1,77,8|0,0:0|0:0,0:0:0:0:
439,157,100952,2,0,P|394:129|319:110,1,115.5
305,113,101325,6,0,L|338:293,1,154,6|2,0:0|0:0,0:0:0:0:
335,266,102070,1,8,0:0:0:0:
195,331,102443,1,0,0:0:0:0:
175,256,102629,1,0,0:0:0:0:
104,223,102816,6,0,P|53:236|10:269,1,77,2|0,0:0|0:0,0:0:0:0:
98,104,103188,2,0,P|140:118|203:120,1,77,0|0,3:0|0:0,0:0:0:0:
362,112,103561,2,0,P|323:68|250:122,1,154,8|0,0:0|0:0,0:0:0:0:
295,172,104120,1,0,0:0:0:0:
183,264,104306,5,6,0:0:0:0:
199,259,104493,1,0,0:0:0:0:
253,321,104679,1,2,0:0:0:0:
325,356,104865,1,0,0:0:0:0:
452,340,105052,2,0,P|450:308|499:288,1,77,8|0,0:0|0:0,0:0:0:0:
413,195,105424,2,0,P|397:152|396:113,1,77
468,95,105797,5,2,0:0:0:0:
294,232,105983,1,0,3:0:0:0:
303,82,106170,2,0,P|269:98|226:102,1,77,0|0,3:0|0:0,0:0:0:0:
62,88,106542,2,0,P|109:100|104:19,1,154,8|0,0:0|0:0,0:0:0:0:
103,20,107288,6,0,P|88:70|110:190,1,154,6|2,0:0|0:0,0:0:0:0:
172,276,107847,1,0,0:0:0:0:
156,279,108033,1,8,0:0:0:0:
333,347,108219,1,0,0:0:0:0:
440,324,108406,2,0,P|412:304|437:256,1,77
473,182,108778,5,2,0:0:0:0:
468,163,108965,1,0,3:0:0:0:
503,20,109151,1,0,3:0:0:0:
406,44,109337,1,0,0:0:0:0:
318,93,109524,2,0,P|293:101|256:48,1,77,8|0,0:0|3:0,0:0:0:0:
142,187,109896,2,0,P|160:168|217:197,1,77
249,344,110269,6,0,P|290:282|303:185,1,154,6|2,0:0|0:0,0:0:0:0:
285,106,110828,1,0,0:0:0:0:
383,121,111014,2,0,L|388:16,1,77,8|0,0:0|0:0,0:0:0:0:
488,139,111387,2,0,L|491:215,1,77
493,348,111760,5,2,0:0:0:0:
347,198,111946,1,0,3:0:0:0:
370,341,112132,1,0,3:0:0:0:
276,304,112319,1,0,0:0:0:0:
182,338,112505,2,0,P|161:303|112:323,1,77,8|0,0:0|3:0,0:0:0:0:
44,215,112878,2,0,L|170:194,1,115.5
182,189,113250,6,0,P|141:153|37:126,1,154,6|2,0:0|0:0,0:0:0:0:
145,26,113809,1,0,0:0:0:0:
141,48,113996,1,8,0:0:0:0:
280,92,114182,1,0,0:0:0:0:
270,109,114368,1,0,0:0:0:0:
340,176,114555,1,0,0:0:0:0:
429,212,114741,6,0,P|465:194|451:147,1,77,2|0,0:0|0:0,0:0:0:0:
491,318,115114,2,0,P|434:305|387:307,1,77,0|0,3:0|0:0,0:0:0:0:
325,323,115486,1,8,0:0:0:0:
295,234,115673,1,0,3:0:0:0:
203,226,115859,1,0,0:0:0:0:
189,134,116045,1,0,0:0:0:0:
61,66,116232,6,0,P|93:53|138:43,1,77,6|0,0:0|0:0,0:0:0:0:
330,43,116605,2,0,P|298:63|310:97,1,77,2|0,0:0|0:0,0:0:0:0:
475,100,116977,1,8,0:0:0:0:
472,119,117163,1,0,0:0:0:0:
383,209,117350,1,0,0:0:0:0:
389,235,117536,1,0,0:0:0:0:
363,330,117723,6,0,P|323:317|269:311,1,77,2|0,0:0|3:0,0:0:0:0:
141,330,118095,1,0,3:0:0:0:
133,237,118282,1,0,0:0:0:0:
54,187,118468,2,0,P|71:156|60:91,1,77,8|0,0:0|3:0,0:0:0:0:
216,118,118841,2,0,P|209:99|208:77,3,38.5
215,28,119213,6,0,P|272:28|390:79,1,154,6|2,0:0|0:0,0:0:0:0:
332,127,119772,1,0,0:0:0:0:
484,39,119959,2,0,P|470:83|471:127,1,77,8|0,0:0|0:0,0:0:0:0:
489,270,120331,2,0,P|467:238|437:213,1,77
386,271,120704,5,2,0:0:0:0:
217,349,120890,1,0,3:0:0:0:
178,217,121077,2,0,P|108:227|24:262,1,154,0|8,3:0|0:0,0:0:0:0:
90,127,121636,1,0,3:0:0:0:
53,59,121822,2,0,P|91:74|142:79,1,77
303,45,122195,6,0,P|261:99|251:191,1,154,6|2,0:0|0:0,0:0:0:0:
287,249,122754,1,0,0:0:0:0:
411,287,122940,2,0,P|405:236|379:184,1,77,8|0,0:0|0:0,0:0:0:0:
487,151,123313,1,0,0:0:0:0:
491,130,123499,1,0,0:0:0:0:
450,22,123685,6,0,L|366:40,1,77,2|0,0:0|3:0,0:0:0:0:
222,28,124058,1,0,3:0:0:0:
252,98,124244,1,0,0:0:0:0:
173,91,124431,2,0,P|185:175|230:241,1,154,8|0,0:0|0:0,0:0:0:0:
297,228,124990,1,0,0:0:0:0:
108,352,125176,6,0,P|111:306|85:249,1,77,6|0,0:0|0:0,0:0:0:0:
30,159,125549,2,0,P|59:193|81:154,1,77,2|0,0:0|0:0,0:0:0:0:
100,44,125921,1,8,0:0:0:0:
110,66,126108,1,0,0:0:0:0:
253,19,126294,1,0,0:0:0:0:
249,43,126480,1,0,0:0:0:0:
207,133,126667,6,0,P|199:172|202:220,1,77,2|0,0:0|0:0,0:0:0:0:
266,310,127039,2,0,P|300:242|300:145,1,154,0|8,3:0|0:0,0:0:0:0:
437,252,127598,1,0,3:0:0:0:
442,230,127785,1,0,0:0:0:0:
491,144,127971,1,0,0:0:0:0:
469,28,128157,6,0,P|416:41|318:90,1,154,6|2,0:0|0:0,0:0:0:0:
382,137,128716,1,0,0:0:0:0:
261,206,128903,2,0,P|271:244|244:281,1,77,8|0,0:0|0:0,0:0:0:0:
152,324,129275,1,0,0:0:0:0:
125,319,129462,1,0,0:0:0:0:
25,334,129648,5,2,0:0:0:0:
119,120,129834,1,0,3:0:0:0:
34,208,130021,2,0,P|74:212|117:228,1,77,0|0,3:0|0:0,0:0:0:0:
214,303,130393,2,0,P|203:269|244:250,1,77,8|0,0:0|3:0,0:0:0:0:
382,326,130766,2,0,L|358:182,1,115.5
358,183,131139,6,0,P|411:211|477:298,1,154,6|0,0:0|0:0,0:0:0:0:
363,95,131698,2,0,L|202:115,1,154,2|0,0:0|0:0,0:0:0:0:
98,22,132257,2,0,P|87:77|20:148,1,154,2|0,0:0|0:0,0:0:0:0:
117,211,132816,5,0,3:0:0:0:
38,339,133002,2,0,L|215:322,1,154,0|8,3:0|0:0,0:0:0:0:
323,366,133561,1,0,3:0:0:0:
293,278,133747,2,0,P|297:237|272:202,1,77,2|0,0:0|0:0,0:0:0:0:
149,90,134120,6,0,P|193:68|297:46,1,154,6|0,0:0|0:0,0:0:0:0:
455,235,134679,2,0,L|476:70,1,154,2|0,0:0|0:0,0:0:0:0:
372,105,135238,2,0,P|356:140|302:172,1,77,2|0,0:0|0:0,0:0:0:0:
228,156,135611,5,0,0:0:0:0:
295,341,135797,1,0,3:0:0:0:
151,308,135983,1,0,3:0:0:0:
158,283,136170,1,0,0:0:0:0:
42,131,136356,2,0,L|51:220,1,77,8|0,0:0|3:0,0:0:0:0:
318,95,137101,5,4,0:0:0:0:
