osu file format v14

[General]
AudioFilename: audio.mp3
AudioLeadIn: 0
PreviewTime: 43940
Countdown: 0
SampleSet: Soft
StackLeniency: 0.7
Mode: 0
LetterboxInBreaks: 0
WidescreenStoryboard: 1

[Editor]
Bookmarks: 93087
DistanceSpacing: 2
BeatDivisor: 4
GridSize: 8
TimelineZoom: 1.1

[Metadata]
Title:GO AGANE
TitleUnicode:GO AGANE
Artist:constera
ArtistUnicode:constera
Creator:Ali_Xe
Version:Insane
Source:
Tags:
BeatmapID:1882553
BeatmapSetID:878517

[Difficulty]
HPDrainRate:6
CircleSize:4
OverallDifficulty:7
ApproachRate:9
SliderMultiplier:1.8
SliderTickRate:1

[Events]
//Background and Video events
Video,0,"videoplayback.mp4"
0,0,"5678343857873.jpg",0,0
//Break Periods
2,104758,114546
//Storyboard Layer 0 (Background)
//Storyboard Layer 1 (Fail)
//Storyboard Layer 2 (Pass)
//Storyboard Layer 3 (Foreground)
//Storyboard Layer 4 (Overlay)
//Storyboard Sound Samples

[TimingPoints]
88,352.941176470588,4,2,0,35,1,0
88,-100,4,2,0,35,0,0
14205,-200,4,2,0,10,0,0
35382,-100,4,3,0,35,0,0
47029,-200,4,2,0,35,0,0
48087,-71.4285714285714,4,2,0,50,0,1
93264,-200,4,2,0,35,0,0
115852,-100,4,2,0,35,0,0
126087,-200,4,2,0,35,0,0
127146,-71.4285714285714,4,2,0,50,0,1
149382,-76.9230769230769,4,2,0,50,0,1
161205,-71.4285714285714,4,2,0,35,0,0
170029,-62.5,4,2,0,35,0,0
170382,-55.5555555555556,4,2,0,35,0,0
170382,-55.5555555555556,4,2,0,35,0,0
170735,-50,4,2,0,35,0,0
171440,-55.5555555555556,4,2,0,35,0,0
171793,-62.5,4,2,0,35,0,0

[Colours]
Combo1 : 0,128,255
Combo2 : 192,192,192
Combo3 : 255,255,255
Combo4 : 128,128,128
Combo5 : 0,255,255
Combo6 : 0,0,255

[HitObjects]
110,191,2911,6,0,P|151:230|201:233,1,90
207,102,3264,1,0,0:0:0:0:
207,102,3352,1,0,0:0:0:0:
207,102,3440,1,0,0:0:0:0:
308,195,3617,2,0,P|340:148|336:99,1,90
210,185,3970,5,0,0:0:0:0:
355,301,4146,1,0,0:0:0:0:
190,299,4323,2,0,P|129:268|99:219,1,90
107,95,4676,1,0,0:0:0:0:
107,95,4764,1,0,0:0:0:0:
107,95,4852,1,0,0:0:0:0:
248,131,5029,2,0,P|309:162|339:211,1,90
218,294,5382,2,0,P|250:324|292:340,1,90
412,289,5735,5,0,0:0:0:0:
302,203,5911,1,0,0:0:0:0:
302,203,5999,1,0,0:0:0:0:
302,203,6087,2,0,P|257:145|259:111,1,90
418,35,6440,2,0,P|463:93|461:127,1,90
430,250,6793,1,0,0:0:0:0:
326,345,6970,1,0,0:0:0:0:
174,293,7146,54,0,P|127:259|107:200,1,90
249,118,7499,2,0,P|296:152|316:211,1,90
314,344,7852,1,0,0:0:0:0:
445,258,8029,1,0,0:0:0:0:
311,180,8205,1,0,0:0:0:0:
311,180,8293,1,0,0:0:0:0:
311,180,8382,1,0,0:0:0:0:
225,265,8558,5,0,0:0:0:0:
118,308,8735,1,0,0:0:0:0:
30,225,8911,2,0,P|38:177|110:146,2,90
205,215,9440,1,0,0:0:0:0:
346,172,9617,1,0,0:0:0:0:
419,46,9793,1,0,0:0:0:0:
271,41,9970,2,0,P|226:47|191:73,1,90
186,251,10323,5,0,0:0:0:0:
301,167,10499,1,0,0:0:0:0:
307,341,10676,2,0,P|271:367|227:373,1,90
335,242,11029,2,0,P|370:215|414:209,1,90
404,355,11382,1,0,0:0:0:0:
251,303,11558,1,0,0:0:0:0:
251,303,11646,1,0,0:0:0:0:
251,303,11735,2,0,P|243:232|267:196,1,90
310,88,12087,2,0,P|268:72|224:80,1,90
126,171,12440,53,0,0:0:0:0:
126,326,12617,1,0,0:0:0:0:
259,238,12793,6,0,P|301:211|369:213,1,90
207,294,13146,2,0,P|165:321|97:319,1,90
127,258,14205,6,0,L|126:196,1,45
226,112,14558,2,0,P|258:106|282:116,1,45
278,317,15087,2,0,P|246:323|222:313,1,45
160,238,15440,1,0,0:0:0:0:
160,151,15617,1,0,0:0:0:0:
158,27,15793,1,0,0:0:0:0:
287,100,16146,53,0,0:0:0:0:
435,225,16499,1,0,0:0:0:0:
293,314,16852,1,0,0:0:0:0:
219,190,17029,2,0,P|169:208|225:219,1,135
296,232,17735,2,0,P|346:214|290:203,1,135
254,112,18440,5,0,0:0:0:0:
255,287,18926,1,0,0:0:0:0:
256,201,19499,1,0,0:0:0:0:
256,201,19852,2,0,P|231:156|256:124,1,90
323,204,20559,1,0,0:0:0:0:
323,269,20735,1,0,0:0:0:0:
321,333,20912,1,0,0:0:0:0:
113,334,21264,6,0,L|113:281,1,45
108,208,21617,2,0,B|163:183|171:143|171:143|182:183|251:208,1,180
233,200,22676,2,0,P|268:223|323:198,1,90
210,49,23382,2,0,P|180:47|161:69,1,45
256,192,23735,12,0,25323,0:0:0:0:
254,90,25499,54,0,P|218:94|171:143,1,90
258,186,26029,1,0,0:0:0:0:
258,186,26911,6,0,P|257:225|220:271,1,90
148,186,27440,1,0,0:0:0:0:
148,186,28323,2,0,P|136:155|138:131,1,45
141,37,28676,1,0,0:0:0:0:
286,87,28852,2,0,P|269:72|248:64,1,45
275,168,29205,6,0,P|324:172|354:139,1,90
214,105,29735,2,0,P|188:106|168:124,1,45
168,209,30087,1,0,0:0:0:0:
167,273,30264,1,0,0:0:0:0:
167,338,30440,2,0,P|184:363|211:369,1,45
321,277,30793,2,0,P|304:252|277:246,1,45
176,193,31146,54,0,L|176:141,2,45
239,289,31676,2,0,P|288:299|329:274,1,90
261,185,32205,1,0,0:0:0:0:
147,82,32558,5,0,0:0:0:0:
279,19,32735,1,0,0:0:0:0:
410,89,32911,1,0,0:0:0:0:
255,194,33264,1,0,0:0:0:0:
255,207,33352,1,0,0:0:0:0:
255,220,33440,1,0,0:0:0:0:
252,327,33617,2,0,P|276:351|296:358,1,45
381,235,33970,6,0,P|384:278|348:363,1,135
254,358,34676,1,0,0:0:0:0:
197,225,34852,1,0,0:0:0:0:
254,92,35029,1,0,0:0:0:0:
303,224,35382,53,0,2:0:0:0:
303,224,35735,1,0,2:0:0:0:
303,224,36087,1,0,2:0:0:0:
141,201,36440,1,0,2:0:0:0:
213,127,36617,1,0,2:0:0:0:
307,17,36793,1,0,2:0:0:0:
400,312,37146,6,0,L|210:312,1,180
112,72,37852,2,0,L|302:72,1,180
448,160,38558,2,0,L|341:317,1,180
64,224,39264,2,0,L|170:66,1,180
424,288,39970,2,0,L|245:352,1,180
88,96,40676,1,0,0:0:0:0:
192,208,41029,5,0,0:0:0:0:
201,217,41117,1,0,0:0:0:0:
210,227,41205,1,0,0:0:0:0:
219,237,41293,1,0,0:0:0:0:
229,247,41381,1,0,0:0:0:0:
238,257,41470,1,0,0:0:0:0:
247,266,41558,1,0,0:0:0:0:
256,276,41646,1,0,0:0:0:0:
266,286,41734,1,0,0:0:0:0:
275,296,41823,1,0,0:0:0:0:
284,306,41911,1,0,0:0:0:0:
293,316,41999,1,0,0:0:0:0:
303,325,42087,1,0,0:0:0:0:
408,272,42440,54,0,L|408:80,1,180
72,88,43146,2,0,L|72:272,1,180
408,272,43852,2,0,L|328:96,1,180
72,88,44558,2,0,L|152:264,1,180
408,280,45264,2,0,L|264:152,1,180
80,88,45970,2,0,L|224:216,1,180
256,192,46676,5,0,0:0:0:0:
272,80,47029,2,0,P|320:96|376:216,1,180
253,299,48087,22,0,P|197:258|177:190,1,125.999996154785
175,26,48440,1,0,0:0:0:0:
178,207,48617,2,0,P|151:263|98:295,1,125.999996154785
161,104,48970,2,0,P|202:57|262:42,1,125.999996154785
318,207,49323,1,0,0:0:0:0:
418,127,49499,2,0,P|461:192|449:257,1,125.999996154785
319,349,49852,5,0,0:0:0:0:
117,350,50029,2,0,P|51:313|49:243,1,125.999996154785
121,63,50382,2,0,P|187:100|189:170,1,125.999996154785
197,315,50735,1,0,0:0:0:0:
304,189,50911,2,0,P|376:153|445:171,1,125.999996154785
385,333,51264,1,0,0:0:0:0:
198,240,51440,6,0,L|61:212,1,125.999996154785
221,157,51793,2,0,L|116:64,1,125.999996154785
304,132,52146,2,0,L|302:5,1,125.999996154785
351,209,52676,54,0,L|479:210,1,125.999996154785
303,278,53029,2,0,L|407:370,1,125.999996154785
214,255,53382,2,0,L|215:382,1,125.999996154785
92,206,53735,6,0,P|137:150|203:144,1,125.999996154785
376,139,54087,1,0,0:0:0:0:
187,140,54264,6,0,P|115:131|75:78,1,125.999996154785
270,92,54617,2,0,P|341:100|381:153,1,125.999996154785
376,333,54970,1,0,0:0:0:0:
225,283,55146,2,0,P|136:285|91:334,1,125.999996154785
255,357,55499,1,0,0:0:0:0:
345,206,55676,1,0,0:0:0:0:
446,317,55852,1,0,0:0:0:0:
434,138,56029,2,0,P|377:83|309:78,1,125.999996154785
145,27,56382,53,0,0:0:0:0:
273,176,56558,2,0,P|330:231|398:236,1,125.999996154785
388,73,56911,1,0,0:0:0:0:
240,67,57087,2,0,L|83:67,1,125.999996154785
251,147,57440,2,0,L|136:225,1,125.999996154785
257,234,57793,2,0,L|256:367,1,125.999996154785
335,347,58323,2,0,L|461:347,1,125.999996154785
323,268,58676,2,0,L|427:197,1,125.999996154785
318,181,59029,2,0,L|318:55,1,125.999996154785
179,45,59382,6,0,P|106:105|96:183,1,125.999996154785
250,172,59735,1,0,0:0:0:0:
381,50,59911,2,0,P|427:91|445:151,1,125.999996154785
415,372,60264,2,0,P|450:320|455:258,1,125.999996154785
301,280,60617,1,0,0:0:0:0:
177,169,60793,2,0,P|141:220|136:282,1,125.999996154785
286,201,61146,5,0,0:0:0:0:
286,21,61323,1,0,0:0:0:0:
126,102,61499,1,0,0:0:0:0:
306,137,61676,2,0,P|376:157|432:124,1,125.999996154785
357,7,62029,1,0,0:0:0:0:
306,137,62205,2,0,P|306:222|373:263,1,125.999996154785
431,83,62558,1,0,0:0:0:0:
431,239,62735,54,0,L|431:375,1,125.999996154785
321,239,63087,2,0,L|321:375,1,125.999996154785
204,238,63440,2,0,L|204:374,1,125.999996154785
202,149,63970,2,0,L|202:13,1,125.999996154785
313,150,64323,2,0,L|313:14,1,125.999996154785
420,148,64676,2,0,L|420:12,1,125.999996154785
351,217,65029,6,0,P|307:281|238:295,1,125.999996154785
174,136,65382,1,0,0:0:0:0:
324,53,65558,2,0,P|425:64|460:125,1,125.999996154785
285,204,65911,2,0,P|354:248|427:233,1,125.999996154785
215,333,66264,1,0,0:0:0:0:
121,167,66440,2,0,P|161:98|222:91,1,125.999996154785
208,238,66793,1,0,0:0:0:0:
315,132,66970,1,0,0:0:0:0:
310,325,67146,1,0,0:0:0:0:
414,201,67323,6,0,P|441:123|394:76,1,125.999996154785
240,152,67676,1,0,0:0:0:0:
358,276,67852,2,0,P|310:314|251:301,1,125.999996154785
333,122,68205,1,0,0:0:0:0:
160,78,68382,2,0,P|94:47|25:53,1,125.999996154785
148,177,68735,2,0,P|74:182|25:230,1,125.999996154785
181,274,69087,2,0,P|118:325|114:376,1,125.999996154785
279,152,69617,54,0,P|335:104|396:113,1,125.999996154785
282,286,69970,1,0,0:0:0:0:
267,294,70058,1,0,0:0:0:0:
250,301,70146,1,0,0:0:0:0:
231,302,70235,1,0,0:0:0:0:
213,298,70323,2,0,P|154:262|157:187,1,125.999996154785
343,81,70676,2,0,P|402:117|399:192,1,125.999996154785
200,85,71029,5,0,0:0:0:0:
67,224,71205,2,0,P|48:157|101:104,1,125.999996154785
247,262,71558,2,0,P|265:328|212:381,1,125.999996154785
36,294,71911,1,0,0:0:0:0:
159,143,72087,2,0,P|236:98|296:96,1,125.999996154785
503,95,72440,5,0,0:0:0:0:
389,238,72617,2,0,P|316:266|243:255,1,125.999996154785
371,66,72970,1,0,0:0:0:0:
197,200,73146,1,0,0:0:0:0:
193,15,73323,1,0,0:0:0:0:
334,177,73499,2,0,P|326:262|268:286,1,125.999996154785
136,160,73852,1,0,0:0:0:0:
306,81,74029,54,0,P|391:50|431:73,1,125.999996154785
306,81,74382,2,0,P|376:119|382:197,1,125.999996154785
306,81,74735,2,0,P|325:175|290:221,1,125.999996154785
206,303,75264,6,0,P|121:334|81:311,1,125.999996154785
206,303,75617,2,0,P|136:265|130:187,1,125.999996154785
206,303,75970,2,0,P|187:209|222:163,1,125.999996154785
456,137,76323,6,0,B|485:202|485:202|470:275,1,125.999996154785
364,84,76676,1,0,0:0:0:0:
413,288,76852,1,0,0:0:0:0:
251,212,77029,1,0,0:0:0:0:
179,37,77205,2,0,P|126:98|129:176,1,125.999996154785
288,143,77558,1,0,0:0:0:0:
120,140,77735,2,0,P|154:213|226:242,1,125.999996154785
414,194,78087,53,0,0:0:0:0:
221,107,78264,2,0,P|186:33|114:4,1,125.999996154785
191,275,78617,2,0,P|225:348|297:377,1,125.999996154785
340,229,78970,1,0,0:0:0:0:
104,220,79146,2,0,P|86:315|113:358,1,125.999996154785
186,133,79499,1,0,0:0:0:0:
415,46,79676,2,0,P|430:106|408:164,1,125.999996154785
410,352,80029,2,0,P|349:367|292:344,1,125.999996154785
96,346,80382,2,0,P|80:285|103:228,1,125.999996154785
219,39,80911,6,0,P|162:16|102:32,1,125.999996154785
103,228,81264,2,0,P|80:285|96:346,1,125.999996154785
292,344,81617,2,0,P|349:367|410:352,1,125.999996154785
224,198,81970,6,0,B|197:137|197:137|241:91,1,125.999996154785
345,266,82323,1,0,0:0:0:0:
237,94,82499,54,0,B|298:67|298:67|344:111,1,125.999996154785
241,283,82852,2,0,B|180:310|180:310|134:266,1,125.999996154785
137,84,83205,1,0,0:0:0:0:
137,269,83382,2,0,B|180:310|180:310|241:283,1,125.999996154785
1,182,83735,1,0,0:0:0:0:
222,139,83911,6,0,P|303:102|320:33,1,125.999996154785
207,226,84264,2,0,P|192:313|240:366,1,125.999996154785
390,269,84617,1,0,0:0:0:0:
306,87,84793,2,0,P|232:46|161:77,1,125.999996154785
379,188,85146,1,0,0:0:0:0:
193,237,85323,6,0,P|111:243|64:214,1,125.999996154785
159,106,85676,2,0,P|227:59|282:61,1,125.999996154785
266,191,86029,2,0,P|274:272|247:320,1,125.999996154785
319,147,86558,54,0,P|401:141|448:170,1,125.999996154785
353,278,86911,2,0,P|284:324|229:322,1,125.999996154785
246,193,87264,2,0,P|237:111|264:63,1,125.999996154785
267,305,87617,2,0,P|188:322|116:300,1,125.999996154785
124,123,87970,1,0,0:0:0:0:
220,341,88146,2,0,P|282:349|342:332,1,125.999996154785
396,105,88499,2,0,P|413:165|405:228,1,125.999996154785
310,37,88852,5,0,0:0:0:0:
280,216,89029,2,0,P|216:265|158:251,1,125.999996154785
226,89,89382,1,0,0:0:0:0:
86,217,89558,1,0,0:0:0:0:
36,27,89735,1,0,0:0:0:0:
188,180,89911,2,0,P|197:267|164:321,1,125.999996154785
107,85,90264,1,0,0:0:0:0:
249,127,90440,2,0,P|308:146|368:133,1,125.999996154785
309,5,90793,1,0,0:0:0:0:
162,146,90970,6,0,B|106:173|106:173|96:169|96:169|100:186|100:186|87:182|87:182|35:210,1,125.999996154785
242,229,91323,2,0,B|212:283|212:283|202:286|202:286|215:297|215:297|203:302|203:302|176:355,1,125.999996154785
394,246,91676,2,0,B|393:308|393:308|385:315|385:315|402:319|402:319|394:328|394:328|395:388,1,125.999996154785
134,72,92205,54,0,B|134:94|134:94|126:104|126:104|143:108|143:108|135:115|135:115|134:177,1,125.999996154785
335,100,92558,2,0,B|324:120|324:120|312:124|312:124|326:136|326:136|315:138|315:138|286:193,1,125.999996154785
461,230,92911,2,0,B|440:240|440:240|428:237|428:237|432:254|432:254|422:250|422:250|366:277,1,125.999996154785
218,298,93264,38,0,P|193:258|208:211,1,90
302,153,93970,2,0,P|304:120|287:95,1,45
239,32,94323,1,0,0:0:0:0:
173,145,94499,1,0,0:0:0:0:
100,264,94676,2,0,P|153:278|199:263,1,90
172,122,95382,5,0,0:0:0:0:
210,157,95558,1,0,0:0:0:0:
247,194,95735,2,0,L|289:232,1,45
358,233,96087,2,0,P|342:287|301:297,1,90
269,137,96617,2,0,L|309:166,1,45
238,254,96970,2,0,L|198:225,1,45
151,100,97499,5,0,0:0:0:0:
249,101,97676,1,0,0:0:0:0:
344,104,97852,1,0,0:0:0:0:
297,211,98205,2,0,P|247:223|209:211,1,90
256,192,98911,12,0,104558,0:0:0:0:
163,189,115146,53,0,0:0:0:0:
257,70,115323,1,0,0:0:0:0:
351,194,115499,1,0,0:0:0:0:
353,301,115852,6,0,P|256:325|153:283,1,180
159,83,116558,2,0,P|256:59|359:101,1,180
244,316,117264,2,0,P|149:283|86:191,1,180
268,68,117970,2,0,P|362:100|425:192,1,180
109,281,118676,2,0,P|81:184|120:80,1,180
403,103,119382,2,0,P|430:199|391:303,1,180
307,92,120087,5,0,0:0:0:0:
292,108,120175,1,0,0:0:0:0:
277,125,120263,1,0,0:0:0:0:
262,142,120351,1,0,0:0:0:0:
247,159,120439,1,0,0:0:0:0:
232,175,120528,1,0,0:0:0:0:
217,192,120616,1,0,0:0:0:0:
202,209,120704,1,0,0:0:0:0:
187,226,120792,1,0,0:0:0:0:
172,243,120881,1,0,0:0:0:0:
157,259,120969,1,0,0:0:0:0:
142,276,121057,1,0,0:0:0:0:
127,293,121145,1,0,0:0:0:0:
167,45,121499,54,0,P|263:18|367:57,1,180
345,339,122205,2,0,P|249:366|145:327,1,180
452,104,122911,2,0,P|479:200|440:304,1,180
60,280,123617,2,0,P|33:184|72:80,1,180
160,30,124323,2,0,P|256:3|360:42,1,180
352,325,125029,2,0,P|256:352|152:313,1,180
97,192,125735,5,0,0:0:0:0:
249,192,126087,2,0,L|450:192,1,180
315,64,127146,22,0,P|231:65|184:135,1,125.999996154785
412,142,127499,1,0,0:0:0:0:
189,171,127676,2,0,P|233:242|317:246,1,125.999996154785
219,64,128029,2,0,P|135:69|91:141,1,125.999996154785
320,143,128382,1,0,0:0:0:0:
146,244,128558,2,0,L|32:316,1,125.999996154785
273,325,128911,1,0,0:0:0:0:
320,143,129087,2,0,L|434:71,1,125.999996154785
268,35,129440,5,0,0:0:0:0:
156,208,129617,1,0,0:0:0:0:
155,67,129793,1,0,0:0:0:0:
269,250,129970,2,0,P|332:298|392:298,1,125.999996154785
380,109,130323,1,0,0:0:0:0:
206,148,130499,6,0,B|141:147|141:147|93:103,1,125.999996154785
174,239,130852,2,0,B|91:238|91:238|54:197,1,125.999996154785
134,327,131205,2,0,B|40:324|40:324|14:285,1,125.999996154785
275,306,131735,54,0,B|340:307|340:307|388:351,1,125.999996154785
307,215,132088,2,0,B|390:216|390:216|427:257,1,125.999996154785
347,127,132441,2,0,B|441:130|441:130|467:169,1,125.999996154785
375,48,132793,6,0,P|308:28|249:53,1,125.999996154785
333,205,133146,1,0,0:0:0:0:
254,355,133323,2,0,P|321:375|380:350,1,125.999996154785
204,215,133676,2,0,P|137:195|78:220,1,125.999996154785
258,282,134029,1,0,0:0:0:0:
407,100,134205,1,0,0:0:0:0:
210,197,134382,1,0,0:0:0:0:
318,90,134558,5,0,0:0:0:0:
138,143,134735,2,0,P|76:202|63:264,1,125.999996154785
280,263,135087,2,0,P|339:201|350:139,1,125.999996154785
212,38,135440,1,0,0:0:0:0:
171,216,135617,2,0,P|111:235|50:224,1,125.999996154785
211,155,135970,1,0,0:0:0:0:
271,288,136146,54,0,B|302:299|322:281|322:281|332:293|332:293|364:268|392:275,1,125.999996154785
301,169,136499,2,0,B|330:154|332:127|332:127|347:129|347:129|352:89|377:74,1,125.999996154785
191,141,136852,2,0,B|202:110|184:90|184:90|196:80|196:80|171:48|178:20,1,125.999996154785
241,96,137382,6,0,B|210:85|190:103|190:103|180:91|180:91|148:116|120:109,1,125.999996154785
211,215,137735,2,0,B|181:229|179:256|179:256|164:254|164:254|159:294|134:309,1,125.999996154785
321,243,138088,2,0,B|310:274|328:294|328:294|316:304|316:304|341:336|334:364,1,125.999996154785
397,195,138440,6,0,P|401:118|368:62,1,125.999996154785
295,223,138793,1,0,0:0:0:0:
238,94,138970,2,0,P|161:74|109:102,1,125.999996154785
205,240,139323,2,0,P|276:283|362:271,1,125.999996154785
249,139,139676,1,0,0:0:0:0:
429,115,139852,2,0,P|474:184|463:247,1,125.999996154785
307,200,140205,1,0,0:0:0:0:
135,191,140382,54,0,P|116:276|176:333,1,125.999996154785
288,129,140735,1,0,0:0:0:0:
219,227,140911,1,0,0:0:0:0:
83,102,141087,1,0,0:0:0:0:
92,232,141264,2,0,P|145:299|230:310,1,125.999996154785
218,168,141617,1,0,0:0:0:0:
329,282,141793,6,0,B|370:304|370:304|393:298|393:298|456:333,1,125.999996154785
194,254,142146,2,0,B|206:299|206:299|228:315|228:315|245:378,1,125.999996154785
73,243,142499,2,0,B|69:289|69:289|85:311|85:311|81:377,1,125.999996154785
321,144,143029,6,0,B|364:109|364:109|368:86|368:86|404:57,1,125.999996154785
176,144,143382,2,0,B|206:101|206:101|204:74|204:74|231:36,1,125.999996154785
72,151,143735,2,0,B|75:98|75:98|59:76|59:76|62:30,1,125.999996154785
151,220,144087,54,0,P|215:275|286:269,1,125.999996154785
178,117,144440,1,0,0:0:0:0:
333,124,144617,2,0,P|378:103|408:36,1,125.999996154785
230,73,144970,2,0,P|185:94|155:161,1,125.999996154785
323,207,145323,1,0,0:0:0:0:
179,294,145499,2,0,P|260:343|319:335,1,125.999996154785
171,178,145852,1,0,0:0:0:0:
298,246,146029,1,0,0:0:0:0:
203,65,146205,1,0,0:0:0:0:
391,185,146382,6,0,P|466:195|507:153,1,125.999996154785
421,46,146735,1,0,0:0:0:0:
285,147,146911,2,0,P|275:222|317:263,1,125.999996154785
476,210,147264,1,0,0:0:0:0:
378,310,147440,6,0,P|327:344|268:329,1,125.999996154785
324,112,147793,2,0,P|358:162|343:221,1,125.999996154785
123,253,148146,2,0,P|173:218|232:233,1,125.999996154785
191,323,148676,53,0,0:0:0:0:
191,323,149029,1,0,0:0:0:0:
188,212,149205,5,0,0:0:0:0:
193,198,149293,1,0,0:0:0:0:
197,184,149382,2,0,P|233:128|312:118,1,116.999994644165
278,245,149735,1,0,0:0:0:0:
453,209,149911,6,0,L|412:94,1,116.999994644165
275,128,150264,2,0,L|234:13,1,116.999994644165
371,186,150617,6,0,L|331:296,1,116.999994644165
193,267,150970,2,0,L|153:377,1,116.999994644165
82,217,151323,6,0,B|54:162|54:162|93:101,1,116.999994644165
258,231,151676,2,0,B|286:286|286:286|247:347,1,116.999994644165
201,159,152029,6,0,B|252:121|252:121|303:157,1,116.999994644165
394,323,152382,2,0,B|445:361|445:361|496:325,1,116.999994644165
490,175,152735,6,0,L|444:57,1,116.999994644165
343,99,153087,2,0,L|244:19,1,116.999994644165
181,97,153440,2,0,L|55:77,1,116.999994644165
129,182,153793,2,0,L|11:228,1,116.999994644165
20,225,154146,6,0,L|66:343,1,116.999994644165
167,301,154498,2,0,L|265:380,1,116.999994644165
329,303,154851,2,0,L|454:322,1,116.999994644165
260,171,155205,1,0,0:0:0:0:
284,34,155382,1,0,0:0:0:0:
86,62,155558,6,0,B|86:93|86:93|79:97|79:97|79:159|79:159|85:162|85:162|84:227,1,125.999996154785
187,307,155911,2,0,B|223:331|223:331|223:204,1,125.999996154785
181,49,156264,6,0,B|212:49|212:49|216:42|216:42|278:42|278:42|281:48|281:48|346:47,1,125.999996154785
426,150,156617,2,0,B|450:186|450:186|323:186,1,125.999996154785
350,69,156970,6,0,B|324:77|299:54|299:54|311:93|289:120,1,125.999996154785
350,281,157323,2,0,B|323:273|298:296|298:296|310:257|289:229,1,125.999996154785
127,107,157676,6,0,P|82:115|124:150,1,125.999996154785
209,255,158029,2,0,P|253:263|211:298,1,125.999996154785
448,35,158382,6,0,L|512:155,1,116.999994644165
422,204,158735,2,0,L|417:339,1,116.999994644165
308,275,159087,2,0,L|236:390,1,116.999994644165
148,302,159440,2,0,L|28:366,1,116.999994644165
64,35,159793,6,0,L|0:155,1,116.999994644165
90,204,160146,2,0,L|94:339,1,116.999994644165
204,275,160498,2,0,L|275:390,1,116.999994644165
364,302,160851,2,0,L|483:366,1,116.999994644165
453,209,161205,6,0,L|412:94,1,116.999994644165
275,128,161558,2,0,L|234:13,1,116.999994644165
371,186,161911,6,0,L|331:296,1,116.999994644165
193,267,162264,2,0,L|153:377,1,116.999994644165
82,217,162617,6,0,B|54:162|54:162|93:101,1,116.999994644165
258,231,162970,2,0,B|286:286|286:286|247:347,1,116.999994644165
201,159,163323,6,0,B|252:121|252:121|303:157,1,116.999994644165
394,323,163676,2,0,B|445:361|445:361|496:325,1,116.999994644165
490,175,164029,6,0,L|444:57,1,116.999994644165
343,99,164381,2,0,L|244:19,1,116.999994644165
181,97,164734,2,0,L|55:77,1,116.999994644165
129,182,165087,2,0,L|11:228,1,116.999994644165
20,225,165440,6,0,L|66:343,1,116.999994644165
167,301,165792,2,0,L|265:380,1,116.999994644165
329,303,166145,2,0,L|454:322,1,116.999994644165
391,192,166498,2,0,L|509:146,1,116.999994644165
86,62,166852,6,0,B|86:93|86:93|79:97|79:97|79:159|79:159|85:162|85:162|84:227,1,125.999996154785
187,307,167205,2,0,B|223:331|223:331|223:204,1,125.999996154785
181,49,167558,6,0,B|212:49|212:49|216:42|216:42|278:42|278:42|281:48|281:48|346:47,1,125.999996154785
426,150,167911,2,0,B|450:186|450:186|323:186,1,125.999996154785
350,69,168264,6,0,B|324:77|299:54|299:54|311:93|289:120,1,125.999996154785
350,281,168617,2,0,B|323:273|298:296|298:296|310:257|289:229,1,125.999996154785
127,107,168970,6,0,P|82:115|124:150,1,125.999996154785
209,255,169323,2,0,P|253:263|211:298,1,125.999996154785
386,76,169676,6,0,P|407:141|371:182,1,125.999996154785
386,76,170029,2,0,P|408:135|295:162,1,144
386,76,170382,2,0,P|408:135|288:148,1,161.999995056153
386,76,170735,2,0,P|408:135|284:134,1,180
213,125,171087,6,0,P|191:66|315:67,1,180
213,125,171440,2,0,P|191:66|311:53,1,161.999995056153
213,125,171793,2,0,P|191:66|304:39,1,144
213,125,172146,2,0,P|192:60|228:19,1,125.999996154785
256,192,172499,12,0,175323,0:0:0:0:
