osu file format v14

[General]
AudioFilename: audio.mp3
AudioLeadIn: 0
PreviewTime: 43940
Countdown: 0
SampleSet: Soft
StackLeniency: 0.7
Mode: 0
LetterboxInBreaks: 0
WidescreenStoryboard: 0

[Editor]
Bookmarks: 93087
DistanceSpacing: 2
BeatDivisor: 4
GridSize: 8
TimelineZoom: 1.7

[Metadata]
Title:GO AGANE
TitleUnicode:GO AGANE
Artist:constera
ArtistUnicode:constera
Creator:Ali_Xe
Version:If you fail, you go agane
Source:
Tags:Electronic DnB xQc remix
BeatmapID:1837362
BeatmapSetID:878517

[Difficulty]
HPDrainRate:6
CircleSize:4
OverallDifficulty:8
ApproachRate:9.3
SliderMultiplier:1.8
SliderTickRate:1

[Events]
//Background and Video events
Video,0,"videoplayback.mp4"
0,0,"5678343857873.jpg",0,0
//Break Periods
2,107403,114590
//Storyboard Layer 0 (Background)
//Storyboard Layer 1 (Fail)
//Storyboard Layer 2 (Pass)
//Storyboard Layer 3 (Foreground)
//Storyboard Layer 4 (Overlay)
//Storyboard Sound Samples

[TimingPoints]
86,352.941176470588,4,2,0,35,1,0
88,-100,4,2,0,35,0,0
14205,-200,4,2,0,10,0,0
35380,-100,4,2,0,35,0,0
47027,-200,4,2,0,35,0,0
48085,-66.6666666666667,4,2,0,50,0,1
93264,-200,4,2,0,35,0,0
115850,-100,4,2,0,35,0,0
126085,-200,4,2,0,35,0,0
127146,-66.6666666666667,4,2,0,50,0,1
148321,-43.4782608695652,4,2,0,50,0,1
149027,-50,4,2,0,50,0,1
161205,-66.6666666666667,4,2,0,35,0,0

[Colours]
Combo1 : 110,110,110
Combo2 : 0,128,255
Combo3 : 0,255,255
Combo4 : 0,64,128
Combo5 : 255,255,255
Combo6 : 192,192,192

[HitObjects]
136,64,2909,6,0,L|136:160,1,90
192,240,3262,1,0,1:0:0:0:
232,264,3350,1,0,0:0:0:0:
272,240,3438,1,0,0:0:0:0:
400,72,3615,2,0,L|400:176,2,90,0|0|0,1:0|1:0|1:0,1:0:0:0:
488,232,4144,1,0,0:0:0:0:
288,168,4321,2,0,L|288:64,1,90,0|0,1:0|1:0,1:0:0:0:
120,136,4674,5,0,1:0:0:0:
88,168,4762,1,0,0:0:0:0:
112,208,4850,1,0,0:0:0:0:
288,232,5027,2,0,L|288:328,1,90,0|0,1:0|1:0,1:0:0:0:
472,192,5380,2,0,L|472:88,1,90,0|0,1:0|1:0,1:0:0:0:
296,40,5733,5,0,1:0:0:0:
256,24,5821,1,0,0:0:0:0:
216,8,5909,1,0,0:0:0:0:
176,8,5997,1,0,0:0:0:0:
136,24,6086,1,0,0:0:0:0:
104,48,6174,1,0,0:0:0:0:
80,80,6262,2,0,P|64:136|80:192,1,90
232,288,6615,1,0,0:0:0:0:
384,200,6791,2,0,L|384:96,1,90,0|0,1:0|1:0,1:0:0:0:
200,104,7144,54,0,L|200:200,1,90,0|0,1:0|1:0,1:0:0:0:
328,304,7497,1,0,1:0:0:0:
368,328,7585,1,0,0:0:0:0:
400,296,7674,1,0,0:0:0:0:
488,144,7850,1,0,1:0:0:0:
304,48,8027,1,0,0:0:0:0:
352,192,8203,1,0,1:0:0:0:
328,232,8291,1,0,0:0:0:0:
280,232,8380,1,0,0:0:0:0:
112,176,8556,6,0,L|112:288,1,90,0|0,1:0|1:0,1:0:0:0:
24,112,8909,2,0,L|24:16,1,90,0|0,1:0|1:0,1:0:0:0:
208,120,9262,2,0,L|208:24,2,90,0|0|0,1:0|1:0|1:0,1:0:0:0:
336,280,9791,1,0,0:0:0:0:
448,128,9968,2,0,L|448:32,1,90,0|0,1:0|1:0,1:0:0:0:
264,32,10321,1,0,1:0:0:0:
264,160,10497,1,0,0:0:0:0:
128,32,10674,2,0,L|128:128,1,90,0|0,1:0|1:0,1:0:0:0:
128,280,11027,2,0,L|128:384,1,90,0|0,1:0|1:0,1:0:0:0:
232,248,11380,5,0,1:0:0:0:
256,216,11468,1,0,0:0:0:0:
272,176,11556,1,0,0:0:0:0:
272,136,11644,1,0,0:0:0:0:
264,96,11733,1,0,1:0:0:0:
96,32,11909,1,0,0:0:0:0:
264,8,12085,2,0,L|368:8,1,90,0|0,1:0|1:0,1:0:0:0:
464,152,12438,2,0,L|360:152,1,90,0|0,1:0|1:0,1:0:0:0:
200,152,12791,53,0,1:0:0:0:
392,272,12968,1,0,0:0:0:0:
231,322,13144,2,0,L|127:322,1,90,0|0,1:0|1:0,1:0:0:0:
256,192,14203,37,4,0:0:0:0:
384,72,14556,2,0,P|416:64|440:80,1,45
424,248,15085,2,0,P|400:256|376:232,1,45
312,184,15438,1,0,0:0:0:0:
224,184,15615,1,0,0:0:0:0:
224,272,15791,1,0,0:0:0:0:
352,320,16144,1,0,0:0:0:0:
464,192,16497,1,0,0:0:0:0:
464,26,16850,1,0,0:0:0:0:
256,192,17027,12,0,18085,0:0:0:0:
224,56,18438,5,0,0:0:0:0:
104,296,18924,1,0,0:0:0:0:
376,264,19497,1,0,0:0:0:0:
480,120,19850,2,0,P|448:64|416:48,1,90
288,160,20556,1,0,0:0:0:0:
216,248,20733,1,0,0:0:0:0:
152,160,20909,1,0,0:0:0:0:
224,24,21262,2,0,L|288:24,1,45
352,96,21615,2,0,L|352:248,1,135
296,304,22321,5,0,0:0:0:0:
144,208,22674,2,0,L|144:104,1,90
328,120,23380,1,0,0:0:0:0:
256,192,23556,12,0,25321,0:0:0:0:
256,96,25497,54,0,L|352:96,1,90
440,96,26027,1,0,0:0:0:0:
448,288,26909,2,0,L|344:288,1,90
256,288,27438,1,0,0:0:0:0:
96,240,28144,1,0,0:0:0:0:
96,152,28321,2,0,L|96:88,1,45
168,40,28674,1,0,0:0:0:0:
256,40,28850,2,0,L|304:40,1,45
384,88,29203,6,0,P|416:144|416:184,1,90
416,256,29733,1,0,0:0:0:0:
256,192,29909,12,0,30968,0:0:0:0:
248,136,31144,6,0,L|144:136,1,90
160,224,31674,2,0,L|264:224,1,90
344,224,32203,1,0,0:0:0:0:
264,56,32556,1,0,0:0:0:0:
184,136,32733,1,0,0:0:0:0:
104,56,32909,1,0,0:0:0:0:
104,240,33262,53,0,0:0:0:0:
120,256,33350,1,0,0:0:0:0:
136,272,33438,1,0,0:0:0:0:
232,312,33615,1,0,0:0:0:0:
368,192,33968,2,0,L|432:192,2,45
184,192,34674,2,0,L|128:192,2,45
184,64,35380,5,0,0:0:0:0:
256,249,35733,1,0,0:0:0:0:
328,64,36085,1,0,0:0:0:0:
328,171,36438,1,0,0:0:0:0:
422,335,36615,1,0,0:0:0:0:
231,335,36791,1,0,0:0:0:0:
216,56,37144,6,0,P|272:40|400:56,1,180,0|0,3:0|3:0,3:0:0:0:
393,255,37850,2,0,P|329:271|193:239,1,180,0|0,3:0|3:0,3:0:0:0:
88,240,38556,2,0,B|24:176|24:176|88:96,1,180,0|0,3:0|3:0,3:0:0:0:
432,104,39262,2,0,B|488:176|488:176|432:256,1,180,0|0,3:0|3:0,3:0:0:0:
256,32,39968,1,0,3:0:0:0:
336,272,40321,2,0,P|258:314|183:272,1,180,0|0,3:0|3:0,3:0:0:0:
0,160,41027,53,0,0:0:0:0:
33,137,41115,1,0,0:0:0:0:
69,118,41203,1,0,0:0:0:0:
106,103,41291,1,0,0:0:0:0:
145,91,41379,1,0,0:0:0:0:
185,83,41468,1,0,0:0:0:0:
225,80,41556,1,0,0:0:0:0:
266,80,41644,1,0,0:0:0:0:
306,85,41732,1,0,0:0:0:0:
346,93,41821,1,0,0:0:0:0:
384,105,41909,1,0,0:0:0:0:
421,121,41997,1,0,0:0:0:0:
457,141,42085,1,0,0:0:0:0:
160,264,42438,6,0,P|112:144|144:80,1,180,0|0,3:0|3:0,3:0:0:0:
368,104,43144,2,0,P|416:192|384:280,1,180,0|0,3:0|3:0,3:0:0:0:
332,42,43850,2,0,P|268:18|156:50,1,180,0|0,3:0|3:0,3:0:0:0:
159,305,44556,2,0,P|223:329|335:297,1,180,0|0,3:0|3:0,3:0:0:0:
344,192,45262,2,0,P|392:160|512:200,1,180,0|0,3:0|3:0,3:0:0:0:
256,304,45968,1,0,0:0:0:0:
256,56,46321,1,0,0:0:0:0:
80,192,46674,1,0,0:0:0:0:
256,192,47027,2,0,L|448:192,1,180
160,48,48085,22,0,L|64:144,1,135.000005149842
264,344,48438,1,0,0:0:0:0:
320,80,48615,1,0,0:0:0:0:
464,264,48791,2,0,L|360:368,1,135.000005149842
168,192,49144,1,0,0:0:0:0:
424,136,49321,1,0,0:0:0:0:
224,32,49497,2,0,L|88:32,1,135.000005149842
328,192,49850,5,0,0:0:0:0:
88,320,50027,2,0,L|224:320,1,135.000005149842
464,192,50380,2,0,L|328:192,1,135.000005149842
56,192,50733,1,0,0:0:0:0:
256,56,50909,2,0,L|392:56,1,135.000005149842
328,328,51262,1,0,0:0:0:0:
400,128,51438,2,0,L|264:128,1,135.000005149842
256,240,51791,2,0,L|408:240,1,135.000005149842
400,368,52144,2,0,L|264:368,1,135.000005149842
176,368,52674,6,0,L|32:368,1,135.000005149842
48,208,53027,2,0,L|192:208,1,135.000005149842
184,64,53380,2,0,L|32:64,1,135.000005149842
312,112,53733,2,0,L|416:208,1,135.000005149842
136,320,54085,1,0,0:0:0:0:
128,128,54262,1,0,0:0:0:0:
328,312,54438,1,0,0:0:0:0:
368,64,54615,2,0,L|472:168,1,135.000005149842
216,56,54968,53,0,0:0:0:0:
376,272,55144,2,0,L|240:272,1,135.000005149842
40,160,55497,1,0,0:0:0:0:
352,88,55674,1,0,0:0:0:0:
208,264,55850,1,0,0:0:0:0:
456,224,56027,2,0,L|512:88,1,135.000005149842
496,320,56380,1,0,0:0:0:0:
264,224,56556,2,0,L|200:96,1,135.000005149842
104,344,56909,5,0,0:0:0:0:
352,264,57085,2,0,L|480:208,1,135.000005149842
160,264,57438,2,0,L|32:208,1,135.000005149842
256,24,57791,2,0,L|256:168,1,135.000005149842
176,80,58321,2,0,L|48:144,1,135.000005149842
336,80,58674,2,0,L|464:144,1,135.000005149842
256,336,59027,2,0,L|256:192,1,135.000005149842
64,40,59380,1,0,0:0:0:0:
392,144,59556,1,0,0:0:0:0:
168,216,59733,6,0,L|96:344,1,135.000005149842
376,296,60085,1,0,0:0:0:0:
216,120,60262,2,0,L|296:0,1,135.000005149842
488,192,60615,1,0,0:0:0:0:
216,264,60791,2,0,L|304:384,1,135.000005149842
368,64,61144,53,0,0:0:0:0:
88,120,61321,1,0,0:0:0:0:
344,336,61497,1,0,0:0:0:0:
216,48,61674,2,0,L|283:200,1,135.000005149842
80,288,62027,1,0,0:0:0:0:
368,240,62203,2,0,L|504:216,1,135.000005149842
256,24,62556,1,0,0:0:0:0:
64,104,62733,6,0,L|64:248,1,135.000005149842
256,240,63085,2,0,L|256:96,1,135.000005149842
448,112,63438,2,0,L|448:256,1,135.000005149842
448,256,63968,2,0,L|448:104,1,135.000005149842
256,120,64321,2,0,L|256:264,1,135.000005149842
64,256,64674,2,0,L|64:104,1,135.000005149842
320,32,65027,6,0,L|464:32,1,135.000005149842
360,312,65380,1,0,0:0:0:0:
224,96,65556,1,0,0:0:0:0:
72,304,65733,1,0,0:0:0:0:
328,176,65909,2,0,L|480:96,1,135.000005149842
328,336,66262,1,0,0:0:0:0:
152,160,66438,2,0,L|32:224,1,135.000005149842
216,24,66791,53,0,0:0:0:0:
496,232,66968,1,0,0:0:0:0:
248,232,67144,1,0,0:0:0:0:
496,32,67321,2,0,L|496:168,1,135.000005149842
248,192,67674,1,0,0:0:0:0:
496,232,67850,2,0,L|496:376,1,135.000005149842
400,112,68203,1,0,0:0:0:0:
320,320,68380,2,0,L|320:168,1,135.000005149842
112,32,68733,5,0,0:0:0:0:
176,264,68909,1,0,0:0:0:0:
320,112,69085,2,0,L|416:0,1,135.000005149842
176,264,69615,2,0,L|72:368,1,135.000005149842
96,88,69968,1,0,0:0:0:0:
256,196,70144,1,0,0:0:0:0:
284,214,70233,1,0,0:0:0:0:
312,233,70321,2,0,L|427:324,1,135.000005149842
424,112,70674,6,0,L|314:22,1,135.000005149842
72,72,71027,1,0,0:0:0:0:
288,136,71203,1,0,0:0:0:0:
16,296,71380,1,0,0:0:0:0:
264,256,71556,2,0,L|408:208,1,135.000005149842
192,56,71909,1,0,0:0:0:0:
144,256,72085,2,0,L|0:208,1,135.000005149842
320,192,72438,1,0,0:0:0:0:
104,104,72615,1,0,0:0:0:0:
376,24,72791,54,0,L|456:184,1,135.000005149842
200,192,73144,1,0,0:0:0:0:
440,240,73321,2,0,L|376:368,1,135.000005149842
120,304,73850,5,0,0:0:0:0:
344,104,74027,2,0,L|448:16,1,135.000005149842
344,192,74380,2,0,L|216:304,1,135.000005149842
360,296,74733,2,0,L|480:192,1,135.000005149842
152,296,75262,2,0,L|40:200,1,135.000005149842
152,200,75615,2,0,L|264:296,1,135.000005149842
152,120,75968,2,0,L|40:32,1,135.000005149842
296,32,76321,2,0,L|464:32,1,135.000005149842
232,304,76674,5,0,0:0:0:0:
296,104,76850,1,0,0:0:0:0:
48,240,77027,1,0,0:0:0:0:
120,32,77203,2,0,L|272:32,1,135.000005149842
472,192,77556,1,0,0:0:0:0:
248,352,77733,2,0,L|80:352,1,135.000005149842
104,120,78085,1,0,0:0:0:0:
328,264,78262,2,0,L|464:368,1,135.000005149842
320,104,78615,2,0,L|432:24,1,135.000005149842
160,32,78968,53,0,0:0:0:0:
120,200,79144,2,0,L|0:288,1,135.000005149842
296,256,79497,1,0,0:0:0:0:
432,56,79674,1,0,0:0:0:0:
168,160,79850,1,0,0:0:0:0:
288,32,80027,2,0,L|144:32,1,135.000005149842
296,256,80380,2,0,L|448:256,1,135.000005149842
176,40,80909,6,0,L|64:152,1,135.000005149842
216,248,81262,2,0,L|328:136,1,135.000005149842
456,272,81615,2,0,L|360:384,1,135.000005149842
72,328,81968,2,0,L|72:176,1,135.000005149842
264,32,82321,1,0,0:0:0:0:
184,280,82497,1,0,0:0:0:0:
392,160,82674,2,0,L|392:24,1,135.000005149842
480,280,83027,5,0,0:0:0:0:
224,104,83203,1,0,0:0:0:0:
296,336,83380,2,0,L|144:336,1,135.000005149842
392,192,83733,1,0,0:0:0:0:
168,40,83909,2,0,L|336:40,1,135.000005149842
152,256,84262,2,0,L|16:256,1,135.000005149842
272,40,84615,1,0,0:0:0:0:
344,304,84791,2,0,L|480:232,1,135.000005149842
160,272,85144,1,0,0:0:0:0:
344,304,85321,6,0,P|424:296|472:328,1,135.000005149842
329,210,85674,2,0,P|398:170|455:179,1,135.000005149842
297,101,86027,2,0,P|353:43|410:37,1,135.000005149842
159,304,86556,2,0,P|79:296|31:328,1,135.000005149842
174,210,86909,2,0,P|104:170|47:179,1,135.000005149842
206,101,87262,2,0,P|149:43|92:37,1,135.000005149842
344,352,87615,2,0,L|496:352,1,135.000005149842
200,232,87968,1,0,0:0:0:0:
464,144,88144,2,0,L|312:144,1,135.000005149842
40,144,88497,6,0,L|184:144,1,135.000005149842
424,248,88850,1,0,0:0:0:0:
176,352,89027,2,0,L|176:208,1,135.000005149842
392,48,89380,1,0,0:0:0:0:
328,248,89556,1,0,0:0:0:0:
136,24,89733,1,0,0:0:0:0:
192,216,89909,2,0,L|256:344,1,135.000005149842
56,120,90262,1,0,0:0:0:0:
328,168,90438,2,0,L|256:40,1,135.000005149842
504,168,90791,5,0,0:0:0:0:
336,313,90968,2,0,B|274:297|274:297|265:302|265:302|269:287|269:287|259:293|259:293|200:278,1,135.000005149842
139,158,91321,2,0,B|77:142|77:142|68:147|68:147|72:132|72:132|62:138|62:138|3:123,1,135.000005149842
403,99,91674,2,0,B|341:83|341:83|332:88|332:88|336:73|336:73|326:79|326:79|267:64,1,135.000005149842
183,307,92203,2,0,B|150:298|150:298|140:304|140:304|144:289|144:289|135:294|135:294|73:278,1,135.000005149842
447,248,92556,2,0,B|414:239|414:239|404:245|404:245|408:230|408:230|399:235|399:235|337:219,1,135.000005149842
250,93,92909,2,0,B|217:84|217:84|207:90|207:90|211:75|211:75|202:80|202:80|140:64,1,135.000005149842
464,128,93262,5,0,0:0:0:0:
376,264,93615,2,0,L|312:280,1,45
296,264,94056,2,0,L|268:241,1,22.5
228,210,94321,1,0,0:0:0:0:
176,168,94497,1,0,0:0:0:0:
104,104,94762,2,0,P|112:72|152:56,1,67.5
266,66,95291,2,0,P|292:93|307:116,2,56.25
288,256,96174,2,0,P|248:256|232:248,1,45
272,184,96527,2,0,P|312:192|328:208,1,45
407,237,96968,2,0,L|409:335,1,90
248,328,97497,5,0,0:0:0:0:
184,328,97674,1,0,0:0:0:0:
120,328,97850,1,0,0:0:0:0:
120,160,98203,1,0,0:0:0:0:
120,160,98380,2,0,P|136:120|184:104,1,90
256,192,98909,12,0,100144,0:0:0:0:
176,240,100321,6,0,P|144:208|152:152,1,90
256,200,100850,2,0,P|272:224|272:248,1,45
256,312,101203,1,0,0:0:0:0:
352,248,101556,2,0,P|376:216|376:192,1,45
272,192,102085,2,0,P|256:224|256:288,1,90
264,112,102968,2,0,B|176:120|184:208|264:216|336:208|136:96|128:96|104:152,1,270
256,192,104291,12,0,107203,0:0:0:0:
160,112,115144,53,0,0:0:0:0:
256,224,115321,1,0,0:0:0:0:
344,112,115497,1,0,0:0:0:0:
416,232,115850,6,0,P|392:272|272:328,1,180
200,168,116556,2,0,P|240:120|368:104,1,180
176,264,117262,2,0,P|120:232|88:104,1,180
264,32,117968,2,0,P|320:56|360:200,1,180
112,128,118674,2,0,B|48:192|48:192|136:256,1,180
392,248,119380,2,0,B|464:192|464:192|392:128,1,180
400,128,120085,5,0,0:0:0:0:
369,108,120173,1,0,0:0:0:0:
336,93,120261,1,0,0:0:0:0:
302,83,120349,1,0,0:0:0:0:
267,77,120437,1,0,0:0:0:0:
231,75,120526,1,0,0:0:0:0:
195,79,120614,1,0,0:0:0:0:
160,87,120702,1,0,0:0:0:0:
126,99,120790,1,0,0:0:0:0:
94,116,120879,1,0,0:0:0:0:
65,136,120967,1,0,0:0:0:0:
48,160,121056,1,0,0:0:0:0:
32,192,121144,1,0,0:0:0:0:
168,296,121497,54,0,P|252:319|344:296,1,180
336,88,122203,2,0,P|264:64|160:88,1,180
120,128,122909,2,0,P|80:176|112:296,1,180
400,296,123615,2,0,P|448:192|408:136,1,180
328,64,124321,2,0,P|240:40|144:72,1,180
112,192,125027,1,0,0:0:0:0:
416,192,125380,1,0,0:0:0:0:
256,192,125733,1,0,0:0:0:0:
256,56,126085,6,0,L|440:56,1,180
436,56,127144,21,0,0:0:0:0:
312,304,127321,1,0,0:0:0:0:
248,56,127497,2,0,L|96:56,1,135.000005149842
344,192,127850,1,0,0:0:0:0:
112,328,128027,2,0,L|256:328,1,135.000005149842
8,192,128380,1,0,0:0:0:0:
240,40,128556,2,0,L|80:40,1,135.000005149842
376,80,128909,5,0,0:0:0:0:
304,328,129085,1,0,0:0:0:0:
112,120,129262,1,0,0:0:0:0:
352,208,129438,2,0,L|480:256,1,135.000005149842
256,64,129791,1,0,0:0:0:0:
176,208,129968,2,0,L|48:256,1,135.000005149842
256,336,130321,1,0,0:0:0:0:
376,96,130497,6,0,L|448:216,1,135.000005149842
296,272,130850,2,0,L|224:144,1,135.000005149842
80,224,131203,2,0,L|152:360,1,135.000005149842
88,160,131733,2,0,L|160:16,1,135.000005149842
304,112,132085,2,0,L|240:248,1,135.000005149842
424,312,132438,2,0,L|488:192,1,135.000005149842
256,320,132791,2,0,L|112:320,1,135.000005149842
288,104,133144,1,0,0:0:0:0:
328,320,133321,2,0,L|480:320,1,135.000005149842
448,40,133674,54,0,L|288:40,1,135.000005149842
32,160,134027,1,0,0:0:0:0:
264,160,134203,2,0,L|400:160,1,135.000005149842
264,344,134556,1,0,0:0:0:0:
328,64,134733,1,0,0:0:0:0:
144,224,134909,1,0,0:0:0:0:
120,24,135085,2,0,L|24:144,1,135.000005149842
136,320,135438,5,0,0:0:0:0:
368,296,135615,2,0,L|464:184,1,135.000005149842
248,16,135968,1,0,0:0:0:0:
312,240,136144,2,0,L|408:128,1,135.000005149842
152,240,136497,2,0,L|40:112,1,135.000005149842
232,240,136850,2,0,L|232:80,1,135.000005149842
304,104,137380,2,0,L|304:248,1,135.000005149842
304,352,137733,5,0,0:0:0:0:
72,192,137909,1,0,0:0:0:0:
304,32,138085,1,0,0:0:0:0:
304,32,138438,54,0,L|424:136,1,135.000005149842
400,344,138791,1,0,0:0:0:0:
256,88,138968,1,0,0:0:0:0:
256,320,139144,1,0,0:0:0:0:
120,112,139321,2,0,L|24:8,1,135.000005149842
16,280,139674,1,0,0:0:0:0:
200,120,139850,2,0,L|288:16,1,135.000005149842
496,192,140203,5,0,0:0:0:0:
232,192,140380,1,0,0:0:0:0:
496,192,140556,1,0,0:0:0:0:
232,192,140733,2,0,L|56:192,1,135.000005149842
320,344,141085,1,0,0:0:0:0:
496,192,141262,2,0,L|352:192,1,135.000005149842
312,32,141615,1,0,0:0:0:0:
137,105,141791,6,0,P|57:129|-7:105,1,135.000005149842
179,187,142144,2,0,P|112:238|44:238,1,135.000005149842
227,279,142497,2,0,P|179:347|115:369,1,135.000005149842
375,105,143027,6,0,P|455:129|519:105,1,135.000005149842
333,187,143380,2,0,P|399:238|467:238,1,135.000005149842
285,279,143733,2,0,P|332:347|396:369,1,135.000005149842
285,279,144085,2,0,L|141:319,1,135.000005149842
216,96,144438,53,0,0:0:0:0:
72,312,144615,2,0,L|24:184,1,135.000005149842
288,128,144968,2,0,L|344:280,1,135.000005149842
120,48,145321,1,0,0:0:0:0:
344,64,145497,2,0,L|480:72,1,135.000005149842
400,336,145850,1,0,0:0:0:0:
272,96,146027,2,0,L|136:168,1,135.000005149842
368,152,146380,2,0,L|504:72,1,135.000005149842
280,352,146733,5,0,0:0:0:0:
96,128,146909,2,0,L|16:16,1,135.000005149842
368,40,147262,1,0,0:0:0:0:
160,192,147438,1,0,0:0:0:0:
488,144,147615,1,0,0:0:0:0:
280,296,147791,2,0,L|160:376,1,135.000005149842
296,136,148144,1,0,0:0:0:0:
28,120,148321,6,0,B|64:99|126:98|138:168|94:191|94:191|139:211|131:279|58:281|27:259,1,310.500005922318
199,122,148674,2,0,B|268:101|297:167|275:208|224:228|198:262|198:262|367:263,1,310.500005922318
410,104,149027,2,0,L|411:317,1,180
411,303,149291,1,0,0:0:0:0:
411,318,149380,1,0,0:0:0:0:
147,194,149733,5,0,0:0:0:0:
155,154,149821,1,0,0:0:0:0:
175,119,149909,1,0,0:0:0:0:
204,91,149997,1,0,0:0:0:0:
240,73,150085,1,0,0:0:0:0:
280,66,150174,1,0,0:0:0:0:
320,72,150262,1,0,0:0:0:0:
356,89,150350,1,0,0:0:0:0:
386,116,150438,1,0,0:0:0:0:
407,150,150527,5,0,0:0:0:0:
416,189,150615,1,0,0:0:0:0:
413,229,150703,1,0,0:0:0:0:
399,267,150791,1,0,0:0:0:0:
375,299,150879,1,0,0:0:0:0:
342,322,150968,1,0,0:0:0:0:
303,335,151056,1,0,0:0:0:0:
263,335,151144,1,0,0:0:0:0:
224,324,151232,1,0,0:0:0:0:
190,302,151321,5,0,0:0:0:0:
165,271,151409,1,0,0:0:0:0:
149,234,151497,1,0,0:0:0:0:
145,194,151585,1,0,0:0:0:0:
153,154,151674,1,0,0:0:0:0:
172,119,151762,1,0,0:0:0:0:
201,91,151850,1,0,0:0:0:0:
237,72,151938,1,0,0:0:0:0:
276,65,152027,1,0,0:0:0:0:
316,70,152115,5,0,0:0:0:0:
353,86,152203,1,0,0:0:0:0:
378,117,152291,1,0,0:0:0:0:
384,156,152379,1,0,0:0:0:0:
368,193,152467,1,0,0:0:0:0:
336,217,152555,1,0,0:0:0:0:
297,222,152644,1,0,0:0:0:0:
260,205,152732,1,0,0:0:0:0:
234,173,152821,1,0,0:0:0:0:
220,135,152909,5,0,0:0:0:0:
192,105,152997,1,0,0:0:0:0:
156,89,153085,1,0,0:0:0:0:
115,88,153173,1,0,0:0:0:0:
78,103,153262,1,0,0:0:0:0:
49,131,153350,1,0,0:0:0:0:
34,168,153438,1,0,0:0:0:0:
34,208,153526,1,0,0:0:0:0:
51,245,153615,1,0,0:0:0:0:
80,273,153703,5,0,0:0:0:0:
118,289,153791,1,0,0:0:0:0:
154,306,153879,1,0,0:0:0:0:
193,317,153967,1,0,0:0:0:0:
233,321,154055,1,0,0:0:0:0:
273,319,154143,1,0,0:0:0:0:
313,309,154232,1,0,0:0:0:0:
350,293,154320,1,0,0:0:0:0:
383,270,154408,1,0,0:0:0:0:
412,242,154496,1,0,0:0:0:0:
430,207,154497,5,0,0:0:0:0:
436,167,154585,1,0,0:0:0:0:
425,128,154673,1,0,0:0:0:0:
399,98,154761,1,0,0:0:0:0:
362,82,154849,1,0,0:0:0:0:
322,84,154938,1,0,0:0:0:0:
286,102,155026,1,0,0:0:0:0:
336,328,155380,5,0,0:0:0:0:
295,333,155468,1,0,0:0:0:0:
255,331,155556,1,0,0:0:0:0:
215,323,155644,1,0,0:0:0:0:
178,309,155732,1,0,0:0:0:0:
143,288,155821,1,0,0:0:0:0:
112,262,155909,1,0,0:0:0:0:
88,232,155997,1,0,0:0:0:0:
64,199,156085,1,0,0:0:0:0:
55,159,156173,1,0,0:0:0:0:
62,120,156261,5,0,0:0:0:0:
83,85,156349,1,0,0:0:0:0:
116,62,156438,1,0,0:0:0:0:
155,52,156526,1,0,0:0:0:0:
192,56,156615,1,0,0:0:0:0:
230,69,156703,1,0,0:0:0:0:
262,93,156791,1,0,0:0:0:0:
284,127,156879,1,0,0:0:0:0:
296,168,156968,1,0,0:0:0:0:
300,207,157056,1,0,0:0:0:0:
290,246,157144,5,0,0:0:0:0:
265,278,157232,1,0,0:0:0:0:
230,298,157320,1,0,0:0:0:0:
190,304,157409,1,0,0:0:0:0:
151,294,157497,1,0,0:0:0:0:
120,272,157585,1,0,0:0:0:0:
96,239,157673,1,0,0:0:0:0:
87,200,157761,1,0,0:0:0:0:
96,160,157849,1,0,0:0:0:0:
119,128,157937,1,0,0:0:0:0:
154,108,158026,1,0,0:0:0:0:
192,96,158115,5,0,0:0:0:0:
231,104,158203,1,0,0:0:0:0:
267,122,158291,1,0,0:0:0:0:
297,149,158379,1,0,0:0:0:0:
328,176,158468,1,0,0:0:0:0:
360,199,158556,1,0,0:0:0:0:
400,205,158644,1,0,0:0:0:0:
438,192,158732,1,0,0:0:0:0:
467,164,158820,1,0,0:0:0:0:
480,126,158909,1,0,0:0:0:0:
488,88,158997,5,0,0:0:0:0:
474,50,159085,1,0,0:0:0:0:
445,22,159173,1,0,0:0:0:0:
406,12,159261,1,0,0:0:0:0:
368,24,159350,1,0,0:0:0:0:
331,41,159438,1,0,0:0:0:0:
300,67,159526,1,0,0:0:0:0:
276,100,159614,1,0,0:0:0:0:
261,137,159702,1,0,0:0:0:0:
256,177,159791,1,0,0:0:0:0:
248,216,159880,5,0,0:0:0:0:
231,252,159968,1,0,0:0:0:0:
201,279,160056,1,0,0:0:0:0:
163,292,160144,1,0,0:0:0:0:
123,288,160232,1,0,0:0:0:0:
88,268,160321,1,0,0:0:0:0:
64,236,160409,1,0,0:0:0:0:
48,200,160497,1,0,0:0:0:0:
48,160,160585,1,0,0:0:0:0:
64,120,160674,1,0,0:0:0:0:
176,56,161027,5,0,0:0:0:0:
211,37,161115,1,0,0:0:0:0:
252,35,161203,1,0,0:0:0:0:
289,48,161291,1,0,0:0:0:0:
319,75,161379,1,0,0:0:0:0:
335,112,161468,1,0,0:0:0:0:
336,152,161556,1,0,0:0:0:0:
328,192,161644,1,0,0:0:0:0:
296,216,161732,1,0,0:0:0:0:
258,231,161820,5,0,0:0:0:0:
216,232,161908,1,0,0:0:0:0:
184,224,161997,1,0,0:0:0:0:
149,203,162085,1,0,0:0:0:0:
133,167,162173,1,0,0:0:0:0:
142,128,162261,1,0,0:0:0:0:
173,102,162349,1,0,0:0:0:0:
212,100,162438,1,0,0:0:0:0:
248,120,162527,1,0,0:0:0:0:
275,149,162615,1,0,0:0:0:0:
296,184,162703,1,0,0:0:0:0:
307,223,162791,5,0,0:0:0:0:
320,264,162880,1,0,0:0:0:0:
337,299,162968,1,0,0:0:0:0:
370,322,163056,1,0,0:0:0:0:
410,327,163144,1,0,0:0:0:0:
447,312,163232,1,0,0:0:0:0:
473,281,163321,1,0,0:0:0:0:
488,248,163409,1,0,0:0:0:0:
490,207,163497,1,0,0:0:0:0:
482,167,163585,1,0,0:0:0:0:
466,131,163673,5,0,0:0:0:0:
441,99,163761,1,0,0:0:0:0:
409,73,163850,1,0,0:0:0:0:
376,56,163938,1,0,0:0:0:0:
337,43,164026,1,0,0:0:0:0:
297,38,164114,1,0,0:0:0:0:
256,40,164202,1,0,0:0:0:0:
217,50,164290,1,0,0:0:0:0:
180,65,164379,1,0,0:0:0:0:
146,88,164467,1,0,0:0:0:0:
116,115,164555,5,0,0:0:0:0:
92,148,164643,1,0,0:0:0:0:
80,184,164733,1,0,0:0:0:0:
83,224,164821,1,0,0:0:0:0:
102,259,164909,1,0,0:0:0:0:
133,285,164997,1,0,0:0:0:0:
172,294,165085,1,0,0:0:0:0:
209,280,165174,1,0,0:0:0:0:
240,256,165262,1,0,0:0:0:0:
271,231,165350,1,0,0:0:0:0:
312,224,165438,5,0,0:0:0:0:
349,236,165526,1,0,0:0:0:0:
376,264,165615,1,0,0:0:0:0:
411,282,165703,1,0,0:0:0:0:
451,278,165791,1,0,0:0:0:0:
483,254,165879,1,0,0:0:0:0:
496,216,165968,1,0,0:0:0:0:
501,176,166056,1,0,0:0:0:0:
496,136,166144,1,0,0:0:0:0:
479,99,166232,1,0,0:0:0:0:
452,69,166320,1,0,0:0:0:0:
336,80,166674,5,0,0:0:0:0:
342,119,166762,1,0,0:0:0:0:
338,160,166850,1,0,0:0:0:0:
323,197,166938,1,0,0:0:0:0:
299,229,167026,1,0,0:0:0:0:
267,254,167115,1,0,0:0:0:0:
232,272,167203,1,0,0:0:0:0:
193,283,167291,1,0,0:0:0:0:
153,282,167379,1,0,0:0:0:0:
115,268,167467,1,0,0:0:0:0:
83,243,167555,5,0,0:0:0:0:
61,209,167644,1,0,0:0:0:0:
51,170,167732,1,0,0:0:0:0:
56,128,167821,1,0,0:0:0:0:
69,90,167909,1,0,0:0:0:0:
99,63,167997,1,0,0:0:0:0:
138,53,168085,1,0,0:0:0:0:
177,63,168173,1,0,0:0:0:0:
207,90,168262,1,0,0:0:0:0:
216,128,168350,1,0,0:0:0:0:
224,168,168438,5,0,0:0:0:0:
222,208,168526,1,0,0:0:0:0:
234,247,168614,1,0,0:0:0:0:
256,280,168702,1,0,0:0:0:0:
288,305,168790,1,0,0:0:0:0:
326,319,168879,1,0,0:0:0:0:
368,328,168968,1,0,0:0:0:0:
406,317,169056,1,0,0:0:0:0:
440,295,169144,1,0,0:0:0:0:
466,264,169232,1,0,0:0:0:0:
481,226,169320,5,0,0:0:0:0:
484,186,169409,1,0,0:0:0:0:
475,147,169497,1,0,0:0:0:0:
448,120,169585,1,0,0:0:0:0:
408,112,169673,1,0,0:0:0:0:
367,114,169761,1,0,0:0:0:0:
331,131,169849,1,0,0:0:0:0:
302,159,169937,1,0,0:0:0:0:
277,191,170026,1,0,0:0:0:0:
248,216,170115,1,0,0:0:0:0:
209,225,170203,5,0,0:0:0:0:
169,219,170291,1,0,0:0:0:0:
135,198,170379,1,0,0:0:0:0:
111,165,170467,1,0,0:0:0:0:
103,126,170556,1,0,0:0:0:0:
112,88,170644,1,0,0:0:0:0:
135,55,170732,1,0,0:0:0:0:
172,40,170820,1,0,0:0:0:0:
211,47,170908,1,0,0:0:0:0:
240,74,170996,1,0,0:0:0:0:
250,113,171085,5,0,0:0:0:0:
248,152,171174,1,0,0:0:0:0:
238,191,171262,1,0,0:0:0:0:
230,230,171350,1,0,0:0:0:0:
231,271,171438,1,0,0:0:0:0:
252,304,171526,1,0,0:0:0:0:
284,329,171615,1,0,0:0:0:0:
320,344,171703,1,0,0:0:0:0:
360,344,171791,1,0,0:0:0:0:
399,332,171879,5,0,0:0:0:0:
432,310,171967,1,0,0:0:0:0:
458,279,172055,1,0,0:0:0:0:
473,241,172144,1,0,0:0:0:0:
476,201,172232,1,0,0:0:0:0:
472,160,172321,1,0,0:0:0:0:
256,192,172497,12,0,175144,0:0:0:0:
