osu file format v14

[General]
AudioFilename: audio.mp3
AudioLeadIn: 0
PreviewTime: 43940
Countdown: 0
SampleSet: Soft
StackLeniency: 0.7
Mode: 0
LetterboxInBreaks: 0
WidescreenStoryboard: 1

[Editor]
Bookmarks: 93087
DistanceSpacing: 2
BeatDivisor: 4
GridSize: 8
TimelineZoom: 1

[Metadata]
Title:GO AGANE
TitleUnicode:GO AGANE
Artist:constera
ArtistUnicode:constera
Creator:Ali_Xe
Version:Hard
Source:
Tags:
BeatmapID:1842510
BeatmapSetID:878517

[Difficulty]
HPDrainRate:6
CircleSize:3.7
OverallDifficulty:7
ApproachRate:8
SliderMultiplier:1.6
SliderTickRate:1

[Events]
//Background and Video events
Video,0,"videoplayback.mp4"
0,0,"5678343857873.jpg",0,0
//Break Periods
//Storyboard Layer 0 (Background)
//Storyboard Layer 1 (Fail)
//Storyboard Layer 2 (Pass)
//Storyboard Layer 3 (Foreground)
//Storyboard Sound Samples

[TimingPoints]
86,352.941176470588,4,2,0,50,1,0
14205,-200,4,2,0,50,0,0
35382,-100,4,2,0,50,0,0
47029,-200,4,2,0,50,0,0
48085,-66.6666666666667,4,2,0,50,0,1
69970,-80,4,2,0,50,0,1
70323,-80,4,2,0,50,0,1
93264,-200,4,2,0,50,0,0
115852,-100,4,2,0,50,0,0
126087,-200,4,2,0,50,0,0
127146,-66.6666666666667,4,2,0,50,0,1
161205,-80,4,2,0,50,0,0

[Colours]
Combo1 : 255,255,255
Combo2 : 0,128,255
Combo3 : 0,255,255
Combo4 : 0,64,128

[HitObjects]
120,64,2909,6,0,P|104:136|160:192,1,160
208,104,3438,1,0,0:0:0:0:
272,168,3615,1,0,0:0:0:0:
328,96,3791,2,0,P|392:88|416:120,1,80
376,176,4144,1,0,0:0:0:0:
328,264,4321,2,0,P|312:328|336:360,1,80
216,320,4674,6,0,P|144:296|128:264,1,80
136,192,5027,1,0,0:0:0:0:
232,224,5203,1,0,0:0:0:0:
208,136,5380,1,0,0:0:0:0:
352,56,5733,6,0,P|400:88|416:128,1,80
408,216,6085,1,0,0:0:0:0:
312,160,6262,1,0,0:0:0:0:
336,264,6438,2,0,P|360:304|352:352,1,80
256,320,6791,1,0,0:0:0:0:
96,192,7144,5,0,0:0:0:0:
200,192,7321,1,0,0:0:0:0:
304,192,7497,2,0,P|376:184|440:128,1,160
192,48,8203,2,0,P|152:72|144:128,1,80
144,208,8556,5,0,0:0:0:0:
224,144,8733,1,0,0:0:0:0:
232,240,8909,2,0,P|240:296|280:320,1,80
320,248,9262,2,0,P|320:192|304:176,2,80
224,192,9791,1,0,0:0:0:0:
136,152,9968,2,0,P|96:136|72:88,1,80
168,64,10321,5,0,0:0:0:0:
272,64,10497,1,0,0:0:0:0:
376,64,10674,2,0,P|424:72|448:112,1,80
376,160,11027,2,0,P|416:208|464:200,1,80
440,96,11380,1,0,0:0:0:0:
392,296,11733,5,0,0:0:0:0:
304,232,11909,1,0,0:0:0:0:
304,328,12085,2,0,P|280:360|224:360,1,80
224,272,12438,1,0,0:0:0:0:
144,96,12791,5,0,0:0:0:0:
232,48,12968,1,0,0:0:0:0:
232,144,13144,2,0,P|280:184|320:176,1,80
368,184,14203,5,0,0:0:0:0:
224,264,14556,2,0,P|192:248|176:240,1,40
248,120,15085,2,0,L|296:144,1,40
384,136,15438,1,0,0:0:0:0:
328,72,15615,1,0,0:0:0:0:
440,72,15791,1,0,0:0:0:0:
448,224,16144,1,0,0:0:0:0:
352,320,16497,1,0,0:0:0:0:
256,232,16850,1,0,0:0:0:0:
152,152,17027,6,0,P|208:104|256:96,1,120
256,152,17733,2,0,P|328:136|368:96,1,120
368,32,18438,1,0,0:0:0:0:
152,72,18924,1,0,0:0:0:0:
256,248,19497,1,0,0:0:0:0:
368,176,19850,2,0,P|400:208|400:256,1,80
304,328,20556,5,0,0:0:0:0:
248,360,20733,1,0,0:0:0:0:
192,328,20909,1,0,0:0:0:0:
248,192,21262,1,0,0:0:0:0:
384,192,21615,2,0,P|376:144|312:88,1,120
248,88,22321,1,0,0:0:0:0:
88,96,22674,2,0,P|56:120|48:160,1,80
176,144,23380,2,0,P|168:184|136:208,1,80
256,192,23909,12,0,25321,0:0:0:0:
184,192,25497,6,0,P|192:152|240:144,1,80
256,208,26027,1,0,0:0:0:0:
328,200,26909,2,0,P|320:232|280:248,1,80
256,176,27438,1,0,0:0:0:0:
256,80,28321,6,0,P|304:96|320:136,1,80
320,200,28850,2,0,P|328:224|344:240,1,40
400,272,29203,1,0,0:0:0:0:
264,344,29556,2,0,L|224:360,2,40
232,272,30085,1,0,0:0:0:0:
192,208,30262,1,0,0:0:0:0:
152,144,30438,2,0,P|136:112|136:96,1,40
136,40,30791,1,0,0:0:0:0:
256,40,31144,6,0,P|296:48|312:96,1,80
256,120,31674,2,0,P|280:152|328:152,1,80
392,128,32203,1,0,0:0:0:0:
400,264,32556,1,0,0:0:0:0:
360,320,32733,1,0,0:0:0:0:
320,264,32909,1,0,0:0:0:0:
256,192,33085,12,0,35203,0:0:0:0:
256,192,35380,5,0,0:0:0:0:
256,192,35733,1,0,0:0:0:0:
256,192,36085,1,0,0:0:0:0:
256,112,36350,2,0,L|256:192,1,80
376,152,36791,1,0,0:0:0:0:
368,256,37144,6,0,P|312:288|208:280,1,160
200,192,37850,2,0,P|288:152|352:160,1,160
88,104,38556,2,0,P|144:64|248:72,1,160
256,168,39262,2,0,P|200:200|104:184,1,160
264,80,39968,1,0,0:0:0:0:
344,208,40321,1,0,0:0:0:0:
264,320,40674,1,0,0:0:0:0:
144,240,41027,6,0,B|80:168|128:80|254:40|360:64|425:165|411:222|352:258,1,480
240,240,42438,1,0,0:0:0:0:
120,352,42791,1,0,0:0:0:0:
16,240,43144,2,0,P|40:144|120:112,1,160
280,144,44027,2,0,P|344:152|368:184,1,80
280,224,44380,2,0,P|224:208|208:176,2,80
128,96,45262,6,0,P|184:64|280:64,1,160
208,272,45968,1,0,0:0:0:0:
320,128,46321,1,0,0:0:0:0:
320,352,46674,1,0,0:0:0:0:
456,176,47027,2,0,P|472:112|400:56,1,160
416,304,48085,6,0,P|336:320|288:296,1,120.000004577637
285,184,48438,1,0,0:0:0:0:
347,82,48615,2,0,P|283:66|219:82,1,120.000004577637
199,214,48968,2,0,P|151:270|55:262,1,120.000004577637
169,150,49321,1,0,0:0:0:0:
259,252,49497,2,0,P|299:302|358:317,1,120.000004577637
352,157,49850,1,0,0:0:0:0:
408,256,50027,1,0,0:0:0:0:
465,160,50203,1,0,0:0:0:0:
328,224,50380,6,0,P|264:264|200:272,1,120.000004577637
105,232,50733,1,0,0:0:0:0:
104,120,50909,2,0,P|152:72|208:48,1,120.000004577637
339,55,51262,1,0,0:0:0:0:
422,154,51438,6,0,P|430:226|406:282,1,120.000004577637
299,183,51791,2,0,P|275:111|227:63,1,120.000004577637
176,184,52144,2,0,P|160:280|120:328,1,120.000004577637
176,184,52674,2,0,P|152:88|136:64,1,120.000004577637
312,184,53027,2,0,P|296:248|248:296,1,120.000004577637
440,184,53380,2,0,P|432:96|400:40,1,120.000004577637
280,48,53733,2,0,L|136:48,1,120.000004577637
118,142,54085,5,0,0:0:0:0:
248,144,54262,2,0,P|328:168|360:208,1,120.000004577637
352,312,54615,2,0,P|288:352|224:352,1,120.000004577637
297,226,54968,1,0,0:0:0:0:
160,256,55144,2,0,P|192:176|232:144,1,120.000004577637
330,63,55497,1,0,0:0:0:0:
184,72,55674,2,0,P|96:88|40:48,1,120.000004577637
64,232,56027,2,0,P|136:216|208:248,1,120.000004577637
242,346,56380,5,0,0:0:0:0:
304,232,56556,2,0,P|384:216|448:240,1,120.000004577637
352,343,56909,1,0,0:0:0:0:
243,273,57085,2,0,P|187:217|187:137,1,120.000004577637
178,100,57438,2,0,P|202:44|266:20,1,120.000004577637
339,20,57791,2,0,P|395:52|419:124,1,120.000004577637
417,100,58321,2,0,P|387:44|339:20,1,120.000004577637
253,20,58674,2,0,P|194:52|178:116,1,120.000004577637
178,184,59027,2,0,P|194:254|258:286,1,120.000004577637
264,176,59380,6,0,P|312:120|376:112,1,120.000004577637
367,235,59733,1,0,0:0:0:0:
289,329,59909,2,0,P|209:313|177:241,1,120.000004577637
179,141,60262,2,0,P|131:77|67:69,1,120.000004577637
139,203,60615,1,0,0:0:0:0:
264,200,60791,2,0,P|352:200|384:232,1,120.000004577637
253,300,61144,1,0,0:0:0:0:
176,184,61321,2,0,P|216:104|264:80,1,120.000004577637
416,88,61674,6,0,P|464:152|472:208,1,120.000004577637
381,292,62027,1,0,0:0:0:0:
296,184,62203,2,0,P|272:112|224:72,1,120.000004577637
233,234,62556,1,0,0:0:0:0:
88,168,62733,2,0,L|192:80,1,120.000004577637
232,136,63085,2,0,L|120:232,1,120.000004577637
176,272,63438,2,0,L|288:176,1,120.000004577637
328,160,63968,6,0,L|248:64,1,120.000004577637
192,104,64321,2,0,L|280:208,1,120.000004577637
224,248,64674,2,0,L|128:136,1,120.000004577637
104,256,65027,2,0,P|120:320|176:344,1,120.000004577637
286,321,65380,1,0,0:0:0:0:
324,211,65556,2,0,P|284:147|220:147,1,120.000004577637
128,136,65909,6,0,P|64:104|64:32,1,120.000004577637
208,104,66262,1,0,0:0:0:0:
136,208,66438,2,0,P|80:256|80:320,1,120.000004577637
216,304,66791,1,0,0:0:0:0:
272,184,66968,2,0,P|336:152|400:160,1,120.000004577637
424,286,67321,2,0,P|344:310|280:286,1,120.000004577637
212,241,67674,1,0,0:0:0:0:
122,169,67850,2,0,P|130:89|202:57,1,120.000004577637
232,160,68203,5,0,0:0:0:0:
272,48,68380,1,0,0:0:0:0:
304,184,68556,1,0,0:0:0:0:
456,216,68733,2,0,L|456:344,1,120.000004577637
360,336,69085,2,0,L|360:216,1,120.000004577637
208,336,69615,6,0,L|128:224,1,120.000004577637
104,136,69968,2,0,L|104:72,4,50
256,48,70674,2,0,P|320:40|384:64,1,100
224,123,71027,1,0,0:0:0:0:
320,144,71203,2,0,P|384:176|416:216,1,100
265,222,71556,2,0,P|297:278|297:350,1,100
177,343,71909,1,0,0:0:0:0:
120,232,72085,6,0,P|128:152|176:112,1,100
232,240,72438,1,0,0:0:0:0:
272,119,72615,2,0,P|328:71|368:71,1,100
351,207,72968,1,0,0:0:0:0:
440,128,73144,1,0,0:0:0:0:
416,272,73321,1,0,0:0:0:0:
288,288,73497,2,0,P|232:232|240:176,1,100
178,104,73850,5,0,0:0:0:0:
112,208,74027,2,0,P|104:264|56:304,1,100
24,200,74380,2,0,P|40:136|96:104,1,100
112,208,74733,2,0,P|160:264|216:264,1,100
328,224,75262,6,0,P|336:160|384:128,1,100
392,264,75615,2,0,P|456:216|488:216,1,100
408,336,75968,2,0,P|464:352|496:384,1,100
320,352,76321,2,0,P|248:320|232:288,1,100
148,220,76674,1,0,0:0:0:0:
272,192,76850,2,0,P|336:168|400:184,1,100
288,264,77203,2,0,P|216:264|176:240,1,100
232,131,77556,1,0,0:0:0:0:
360,128,77733,2,0,P|408:88|408:40,1,100
288,68,78085,5,0,0:0:0:0:
328,208,78262,1,0,0:0:0:0:
224,144,78438,2,0,P|168:128|120:152,1,100
136,272,78791,1,0,0:0:0:0:
246,210,78968,1,0,0:0:0:0:
263,327,79144,2,0,P|335:319|367:287,1,100
350,169,79497,1,0,0:0:0:0:
256,64,79674,6,0,L|136:64,1,100
152,144,80027,2,0,L|264:144,1,100
256,224,80380,2,0,L|136:224,1,100
256,224,80909,2,0,L|376:224,1,100
360,144,81262,2,0,L|248:144,1,100
256,64,81615,2,0,L|368:64,1,100
448,152,81968,2,0,P|472:216|440:256,1,100
359,320,82321,5,0,0:0:0:0:
296,224,82497,2,0,P|264:176|208:176,1,100
208,288,82850,2,0,P|240:328|304:320,1,100
376,232,83203,1,0,0:0:0:0:
352,120,83380,2,0,P|312:64|264:72,1,100
248,192,83733,1,0,0:0:0:0:
160,88,83909,2,0,P|112:136|112:184,1,100
104,256,84262,2,0,P|104:288|152:344,1,100
208,248,84615,5,0,0:0:0:0:
288,160,84791,2,0,P|336:120|384:136,1,100
278,229,85144,1,0,0:0:0:0:
192,136,85321,2,0,P|152:88|96:80,1,100
192,136,85674,2,0,P|112:152|88:192,1,100
192,136,86027,2,0,P|168:208|192:256,1,100
320,136,86556,2,0,P|352:96|416:80,1,100
320,136,86909,2,0,P|408:160|416:184,1,100
320,136,87262,2,0,P|352:200|336:248,1,100
216,224,87615,6,0,P|240:304|264:320,1,100
145,375,87968,1,0,0:0:0:0:
43,311,88144,2,0,P|83:255|83:191,1,100
60,90,88497,2,0,P|95:43|136:25,1,100
151,164,88850,1,0,0:0:0:0:
208,64,89027,2,0,P|264:24|312:56,1,100
296,160,89380,1,0,0:0:0:0:
384,56,89556,2,0,P|424:96|432:160,1,100
352,264,89909,2,0,P|312:304|304:360,1,100
417,341,90262,5,0,0:0:0:0:
259,324,90438,2,0,P|187:292|171:236,1,100
143,145,90791,1,0,0:0:0:0:
232,208,90968,2,0,P|320:208|344:176,1,100
280,104,91321,2,0,P|336:72|392:88,1,100
324,204,91674,2,0,P|380:212|428:180,1,100
296,288,92203,6,0,P|216:304|176:272,1,100
232,184,92556,2,0,P|152:160|112:192,1,100
80,272,92909,2,0,P|96:320|160:344,1,100
256,192,93262,12,0,94674,0:0:0:0:
