osu file format v14

[General]
AudioFilename: audio.mp3
AudioLeadIn: 0
PreviewTime: 553443
Countdown: 0
SampleSet: Soft
StackLeniency: 0.3
Mode: 0
LetterboxInBreaks: 0
EpilepsyWarning: 1
WidescreenStoryboard: 1

[Editor]
Bookmarks: 6803,38862,69818,93817,114151,136484,160310,170155,180155,190001,199847,232950,243984,255019,266053,277081,299669,310963,322264,335505,348746,361988,375176,388890,402604,416318,430033,443747,462335,478858,493858,508858,524353,538898,553443,567989,582516,604584,615619,626653,637688,648722,659757,670791,692733,714676,735571,746865,757299,767734,778169,788604,809473,819908,835560,845995,856430,866865,882517
DistanceSpacing: 1.15
BeatDivisor: 16
GridSize: 16
TimelineZoom: 8

[Metadata]
Title:Taishi.App.Team//songs_compilation::1
TitleUnicode:Taishi.App.Team//songs_compilation::1
Artist:compllege / Diverse System / wavforme
ArtistUnicode:compllege / Diverse System / wavforme
Creator:-Tochi
Version:mode : Plethora.Unity
Source:
Tags:Taishi Appreciation Team Wasteland in the Depths INSIDE BLUE INSIDE Part 2 Angels Distant Relatives Encounter Like A Rendezvous (Another World) Keys to Desired Image (Spirit Chords Mix) Tanchiky Confide Alkome Take Me Project-G Choke Feryquitous Devoed Nhato Telling Zekk Opal Somewhere Not This -Tower Which Is Telling Time- AcuticNotes An songs compilation electronic instrumental TtmnZK _epreus applous verychill eiri- ayyri honne BlastTheKidd realazy megafan miura azrael -_AzRaeL_- lokidoki sagon scubdomino nyarkoO maot slyze- she luv lando sheluvlando crissa Serenhaide Chemo -jordan- keevy mahloola aistre alphabet atri kurantemelodii krt Firis Mistlud -atri- testeron ataraksia sampo _kotachi_ thexo lince cosmico chekito neuronio jezag funny melon boy fuccho marcobrolo zhen pyo fisky sharu [_sharuresu_] celine nagabi waefwerf arbane seros halgoh feiri krimek axaptice gordon Lazarus Xoul flower faito -[pino]- pino necho atlus zer0-g frenz FrenZ396 yugu smug nanachi aqua_ sanzu
BeatmapID:3640549
BeatmapSetID:1777727

[Difficulty]
HPDrainRate:5
CircleSize:4
OverallDifficulty:8.8
ApproachRate:9.5
SliderMultiplier:2
SliderTickRate:1

[Events]
//Background and Video events
0,0,"taishiappteam.jpg",0,0
//Break Periods
2,382233,385778
2,791412,798498
//Storyboard Layer 0 (Background)
//Storyboard Layer 1 (Fail)
//Storyboard Layer 2 (Pass)
//Storyboard Layer 3 (Foreground)
//Storyboard Layer 4 (Overlay)
//Storyboard Sound Samples

[TimingPoints]
6803,478.08764940239,4,2,7,30,1,0
8237,500,4,2,1,30,1,0
8737,447.761194029851,4,2,1,30,1,0
9184,474.308300395257,4,2,1,30,1,0
9184,-153.846153846153,4,2,1,30,0,0
9669,444.444444444444,4,2,1,30,1,0
9669,-153.846153846153,4,2,1,30,0,0
10130,434.782608695652,4,2,1,30,1,0
10623,468.201326570425,4,2,1,30,1,0
11091,472.813238770686,4,2,1,30,1,0
11091,-181.818181818181,4,2,1,30,0,0
12036,478.08764940239,4,2,1,30,1,0
12036,-153.846153846153,4,2,1,30,0,0
15860,472.44094488189,4,2,1,30,1,0
15860,-153.846153846153,4,2,1,30,0,0
16332,480,4,2,1,30,1,0
16812,451.127819548872,4,2,1,30,1,0
16812,-222.222222222221,4,2,1,30,0,0
17263,486.815415821501,4,2,1,30,1,0
17749,476.190476190476,4,2,1,30,1,0
17749,-153.846153846153,4,2,1,30,0,0
18701,480,4,2,1,30,1,0
19181,576.923076923077,4,2,1,30,1,0
19757,487.80487804878,4,2,1,30,1,0
19757,-133.333333333333,4,2,1,30,0,0
20478,487.80487804878,4,2,1,30,1,0
20478,-181.818181818181,4,2,1,30,0,0
21212,480,4,2,1,30,1,0
21212,-181.818181818181,4,2,1,30,0,0
21692,555.555555555556,4,2,1,30,1,0
22247,530.973451327434,4,2,1,30,1,0
22777,555.555555555556,4,2,1,30,1,0
23332,701.754385964912,4,2,1,30,1,0
24033,500,4,2,1,30,1,0
24033,-399.999999999997,4,2,1,30,0,0
24533,465.116279069767,4,2,1,30,1,0
24533,-285.714285714284,4,2,1,30,0,0
24998,461.538461538462,4,2,1,30,1,0
25459,483.870967741935,4,2,1,30,1,0
25459,-222.222222222221,4,2,1,30,0,0
25942,474.308300395257,4,2,1,30,1,0
25942,-222.222222222221,4,2,1,30,0,0
26416,480,4,2,1,30,1,0
26896,468.75,4,2,1,30,1,0
26896,-285.714285714284,4,2,1,30,0,0
27833,473.372781065089,4,2,1,30,1,0
28069,-285.714285714284,4,2,1,30,0,0
28779,447.761194029851,4,2,1,30,1,0
28779,-153.846153846154,4,2,1,30,0,0
29226,441.176470588235,4,2,1,30,1,0
29226,-181.818181818182,4,2,1,30,0,0
29726,454.545454545455,4,2,1,30,1,0
29726,-222.222222222221,4,2,1,30,0,0
30181,519.480519480519,4,2,1,30,1,0
30700,579.710144927536,4,2,1,30,1,0
31279,666.666666666667,4,2,1,30,1,0
31279,-222.222222222221,4,2,1,30,0,0
32029,625,4,2,1,30,1,0
32029,-285.714285714284,4,2,1,30,0,0
32341,530.973451327434,4,2,1,30,1,0
32606,666.666666666667,4,2,1,30,1,0
32939,461.538461538462,4,2,1,30,1,0
33169,540.540540540541,4,2,1,30,1,0
33169,-399.999999999997,4,2,1,30,0,0
34790,530.973451327434,4,2,1,30,1,0
34790,-222.222222222221,4,2,1,30,0,0
36382,620.15503875969,4,2,1,30,1,0
38862,487.80487804878,4,2,1,50,1,0
40325,472.44094488189,4,2,1,50,1,0
40325,-76.9230769230769,4,2,1,50,0,0
41269,458.015267175573,4,2,1,50,1,0
41269,-133.333333333333,4,2,1,50,0,0
41727,497.92531120332,4,2,1,50,1,0
41727,-133.333333333333,4,2,1,50,0,0
42224,451.127819548872,4,2,1,50,1,0
42224,-100,4,2,1,50,0,0
43126,458.015267175573,4,2,1,50,1,0
43126,-117.647058823529,4,2,1,50,0,0
43584,444.444444444444,4,2,1,50,1,0
43584,-117.647058823529,4,2,1,50,0,0
43806,582.52427184466,4,2,1,50,1,0
44097,472.44094488189,4,2,1,50,1,0
44451,-100,4,2,1,5,0,0
44569,-133.333333333333,4,2,1,50,0,0
45986,483.870967741935,4,2,1,50,1,0
46348,-100,4,2,1,5,0,0
46469,463.320463320463,4,2,1,50,1,0
47860,472.44094488189,4,2,1,50,1,0
47860,-83.3333333333333,4,2,1,50,0,0
48804,508.474576271186,4,2,1,50,1,0
49312,437.956204379562,4,2,1,50,1,0
49749,477.13717693837,4,2,1,50,1,0
49749,-90.9090909090909,4,2,1,50,0,0
50703,-133.333333333333,4,2,1,50,0,0
51657,472.44094488189,4,2,1,50,1,0
51657,-76.9230769230769,4,2,1,50,0,0
52011,-76.9230769230769,4,2,1,5,0,0
52129,-100,4,2,1,50,0,0
52601,-133.333333333333,4,2,1,50,0,0
53310,-83.3333333333333,4,2,1,50,0,0
54019,504.201680672269,4,2,1,50,1,0
54523,458.015267175573,4,2,1,50,1,0
54981,480,4,2,1,50,1,0
55461,463.320463320463,4,2,1,50,1,0
55461,-80,4,2,1,50,0,0
56850,-80,4,2,1,50,0,0
57314,471.512770137525,4,2,1,50,1,0
57314,-100,4,2,1,50,0,0
58728,515.021459227468,4,2,1,50,1,0
58728,-100,4,2,1,50,0,0
59114,-100,4,2,1,5,0,0
59243,472.44094488189,4,2,1,50,1,0
59243,-74.0740740740741,4,2,1,50,0,0
59597,-74.0740740740741,4,2,1,5,0,0
59715,-133.333333333333,4,2,1,50,0,0
60187,454.545454545455,4,2,1,50,1,0
60187,-133.333333333333,4,2,1,50,0,0
61096,487.80487804878,4,2,1,50,1,0
61096,-100,4,2,1,50,0,0
61461,-149.925037481259,4,2,1,5,0,0
61584,468.75,4,2,1,50,1,0
62052,484.848484848485,4,2,1,50,1,0
63021,447.761194029851,4,2,1,50,1,0
63021,-125,4,2,1,50,0,0
63356,-125,4,2,1,5,0,0
63468,-125,4,2,1,50,0,0
63916,500,4,2,1,50,1,0
63916,-142.857142857143,4,2,1,50,0,0
64416,497.92531120332,4,2,1,50,1,0
64416,-166.666666666667,4,2,1,50,0,0
64913,468.75,4,2,1,50,1,0
64913,-200,4,2,1,50,0,0
65381,-222.222222222222,4,2,1,50,0,0
65850,512.820512820513,4,2,1,50,1,0
65850,-142.857142857143,4,2,1,50,0,0
66298,-100,4,2,1,5,0,0
66362,582.52427184466,4,2,1,50,1,0
66362,-142.857142857143,4,2,1,50,0,0
66871,-100,4,2,1,5,0,0
66944,493.827160493827,4,2,1,50,1,0
66944,-125,4,2,1,50,0,0
67437,550.45871559633,4,2,1,50,1,0
67712,697.674418604651,4,2,1,50,1,0
68060,845.070422535211,4,2,1,50,1,0
68482,991.735537190083,4,2,1,50,1,0
68977,841.514726507714,4,2,1,50,1,0
69713,-100,4,2,1,5,0,0
69818,333.333333333333,4,2,1,70,1,0
72484,-100,4,2,2,70,0,0
93817,-66.6666666666667,4,2,2,70,0,0
94151,-200,4,2,2,70,0,0
94484,-62.5,4,2,2,70,0,0
94817,-200,4,2,2,70,0,0
95151,-66.6666666666667,4,2,2,70,0,0
95484,-200,4,2,2,70,0,0
95817,-57.1428571428571,4,2,2,70,0,0
96150,-66.6666666666667,4,2,2,70,0,0
96817,-200,4,2,2,70,0,0
97151,-66.6666666666667,4,2,2,70,0,0
97484,-200,4,2,2,70,0,0
97817,-66.6666666666667,4,2,2,70,0,0
99484,-200,4,2,2,70,0,0
99817,-66.6666666666667,4,2,2,70,0,0
100151,-200,4,2,2,70,0,0
100484,-66.6666666666667,4,2,2,70,0,0
100817,-200,4,2,2,70,0,0
101151,-57.1428571428571,4,2,2,70,0,0
101484,-66.6666666666667,4,2,2,70,0,0
102151,-200,4,2,2,70,0,0
102484,-66.6666666666667,4,2,2,70,0,0
102817,-200,4,2,2,70,0,0
103151,-66.6666666666667,4,2,2,70,0,0
104484,-57.1428571428571,4,2,2,70,0,0
104817,-200,4,2,2,70,0,0
105151,-66.6666666666667,4,2,2,70,0,0
105484,-200,4,2,2,70,0,0
105817,-66.6666666666667,4,2,2,70,0,0
106151,-200,4,2,2,70,0,0
106484,-66.6666666666667,4,2,2,70,0,0
107484,-200,4,2,2,70,0,0
107817,-66.6666666666667,4,2,2,70,0,0
110151,-200,4,2,2,70,0,0
110484,-66.6666666666667,4,2,2,70,0,0
110817,-200,4,2,2,70,0,0
111151,-66.6666666666667,4,2,2,70,0,0
111484,-200,4,2,2,70,0,0
111817,-66.6666666666667,4,2,2,70,0,0
112150,-200,4,2,2,70,0,0
112484,-200,4,2,2,70,0,0
114067,-200,4,2,2,5,0,0
114151,-200,4,2,2,70,0,0
115151,-200,4,2,4,70,0,0
115234,-200,4,2,2,70,0,0
115651,-200,4,2,4,70,0,0
115734,-200,4,2,2,70,0,0
116151,-200,4,2,4,70,0,0
116234,-200,4,2,2,70,0,0
116484,-133.333333333333,4,2,4,70,0,0
116567,-133.333333333333,4,2,2,70,0,0
116984,-133.333333333333,4,2,4,70,0,0
117067,-133.333333333333,4,2,2,70,0,0
117317,-399.999999999997,4,2,2,70,0,0
117484,-399.999999999997,4,2,4,70,0,0
117567,-399.999999999997,4,2,2,70,0,0
117817,-80,4,2,2,90,0,0
119817,-66.6666666666667,4,2,2,90,0,0
120151,-100,4,2,2,90,0,0
120484,-80,4,2,2,90,0,0
124484,-133.333333333333,4,2,2,90,0,0
125817,-80,4,2,2,90,0,0
129817,-100,4,2,3,90,0,0
130595,-100,4,2,2,90,0,0
131151,-80,4,2,2,90,0,0
136151,-50,4,2,2,90,0,0
136484,-142.857142857143,4,2,2,90,0,0
139151,-133.333333333333,4,2,2,90,0,0
139484,-55.5555555555556,4,2,2,90,0,1
139817,-83.3333333333333,4,2,2,90,0,1
140151,-55.5555555555556,4,2,2,90,0,1
140484,-66.6666666666667,4,2,2,90,0,0
140984,-55.5555555555556,4,2,2,90,0,0
141817,-83.3333333333333,4,2,2,90,0,0
142151,-83.3333333333333,4,2,2,90,0,1
142651,-111.111111111111,4,2,2,90,0,1
143151,-83.3333333333333,4,2,2,90,0,0
143484,-66.6666666666667,4,2,2,90,0,0
143651,-55.5555555555556,4,2,2,90,0,0
143984,-66.6666666666667,4,2,2,90,0,0
144317,-83.3333333333333,4,2,2,90,0,0
144484,-133.333333333333,4,2,2,90,0,0
144817,-55.5555555555556,4,2,2,90,0,1
145151,-83.3333333333333,4,2,2,90,0,1
145484,-55.5555555555556,4,2,2,90,0,1
145817,-66.6666666666667,4,2,2,90,0,0
145984,-55.5555555555556,4,2,2,90,0,0
146484,-47.6190476190476,4,2,2,90,0,0
146817,-100,4,2,2,90,0,0
147817,-100,4,2,2,90,0,1
148484,-142.857142857143,4,2,2,90,0,0
148817,-66.6666666666667,4,2,2,90,0,0
149817,-83.3333333333333,4,2,2,90,0,0
150151,-71.4285714285714,4,2,2,90,0,0
150817,-83.3333333333333,4,2,2,90,0,0
151151,-66.6666666666667,4,2,2,90,0,1
151484,-83.3333333333333,4,2,2,90,0,0
152984,-83.3333333333333,4,2,2,90,0,1
153817,-55.5555555555556,4,2,2,90,0,0
154317,-50,4,2,2,90,0,0
154651,-66.6666666666667,4,2,2,90,0,0
154984,-83.3333333333333,4,2,2,90,0,0
155151,-133.333333333333,4,2,2,90,0,0
155484,-55.5555555555556,4,2,2,90,0,1
155817,-83.3333333333333,4,2,2,90,0,1
156151,-55.5555555555556,4,2,2,90,0,1
156484,-83.3333333333333,4,2,2,90,0,0
156567,-125,4,2,2,90,0,0
156817,-83.3333333333333,4,2,2,90,0,0
157151,-55.5555555555556,4,2,2,90,0,0
157484,-100,4,2,2,90,0,0
158484,-100,4,2,2,90,0,1
159151,-66.6666666666667,4,2,2,90,0,0
159484,-47.6190476190476,4,2,2,90,0,0
160310,307.692307692308,4,2,5,70,1,0
160463,307.692307692308,4,2,5,70,1,0
160463,-100,4,2,5,70,0,0
160770,-66.6666666666667,4,2,5,70,0,0
161232,-80,4,2,5,70,0,0
162001,-66.6666666666667,4,2,5,70,0,0
162463,-80,4,2,5,70,0,0
162924,-100,4,2,5,70,0,0
163232,-66.6666666666667,4,2,5,70,0,0
163693,-80,4,2,5,70,0,0
164155,-100,4,2,5,70,0,0
164463,-66.6666666666667,4,2,5,70,0,0
165078,-80,4,2,5,70,0,0
165386,-100,4,2,5,70,0,0
165693,-66.6666666666667,4,2,5,70,0,0
166463,-80,4,2,5,70,0,0
166924,-66.6666666666667,4,2,5,70,0,0
167386,-80,4,2,5,70,0,0
167847,-100,4,2,5,70,0,0
168155,-66.6666666666667,4,2,5,70,0,0
168616,-80,4,2,5,70,0,0
168924,-66.6666666666667,4,2,5,70,0,0
169539,-57.1428571428571,4,2,5,70,0,0
170155,-100,4,2,5,70,0,0
170616,-66.6666666666667,4,2,5,70,0,0
171078,-80,4,2,5,70,0,0
171386,-100,4,2,5,70,0,0
171847,-66.6666666666667,4,2,5,70,0,0
172309,-80,4,2,5,70,0,0
172616,-100,4,2,5,70,0,0
173078,-66.6666666666667,4,2,5,70,0,0
173539,-80,4,2,5,70,0,0
174309,-66.6666666666667,4,2,5,70,0,0
174924,-80,4,2,5,70,0,0
175078,-100,4,2,5,70,0,0
175539,-66.6666666666667,4,2,5,70,0,0
176001,-80,4,2,5,70,0,0
176309,-100,4,2,5,70,0,0
176770,-66.6666666666667,4,2,5,70,0,0
177232,-80,4,2,5,70,0,0
177539,-100,4,2,5,70,0,0
178001,-66.6666666666667,4,2,5,70,0,0
178463,-80,4,2,5,70,0,0
179539,-80,4,2,10,70,0,0
180155,-80,4,2,6,85,0,0
180309,-80,4,2,5,85,0,0
180616,-80,4,2,7,85,0,0
181078,-66.6666666666667,4,2,5,85,0,0
181386,-66.6666666666667,4,2,8,85,0,0
182155,-80,4,2,5,85,0,0
182463,-80,4,2,7,85,0,0
182616,-80,4,2,6,85,0,0
182770,-80,4,2,5,85,0,0
183078,-80,4,2,7,85,0,0
183232,-80,4,2,9,85,0,0
183693,-80,4,2,7,85,0,0
183847,-80,4,2,6,85,0,0
185232,-80,4,2,5,85,0,0
185539,-80,4,2,7,85,0,0
186309,-80,4,2,8,85,0,0
187539,-80,4,2,6,85,0,0
187693,-80,4,2,9,85,0,0
189847,-80,4,2,5,70,0,0
190001,-80,4,2,6,70,0,0
190463,-80,4,2,7,70,0,0
190770,-80,4,2,6,70,0,0
191078,-57.1428571428571,4,2,5,70,0,0
192309,-66.6666666666667,4,2,5,70,0,0
192770,-80,4,2,5,70,0,0
193078,-80,4,2,8,70,0,0
193232,-80,4,2,7,88,0,0
193386,-80,4,2,5,88,0,0
193539,-80,4,2,7,88,0,0
193693,-80,4,2,6,88,0,0
193847,-80,4,2,7,88,0,0
194155,-80,4,2,6,88,0,0
195078,-80,4,2,5,88,0,0
195386,-80,4,2,7,88,0,0
195539,-80,4,2,6,88,0,0
195693,-80,4,2,9,88,0,0
196001,-80,4,2,8,88,0,0
196155,-80,4,2,6,88,0,0
196308,-80,4,2,9,88,0,0
197386,-80,4,2,6,88,0,0
197539,-80,4,2,9,88,0,0
198616,-80,4,2,7,88,0,0
199078,-66.6666666666667,4,2,5,88,0,0
199386,-57.1428571428571,4,2,9,88,0,0
199847,344.827586206897,4,2,26,50,1,0
199847,-200,4,2,26,50,0,0
200191,-200,4,2,10,50,0,0
200536,-166.666666666667,4,2,10,50,0,0
200881,-142.857142857143,4,2,10,50,0,0
202950,-200,4,2,10,50,0,0
203295,-166.666666666667,4,2,10,50,0,0
204847,-200,4,2,10,50,0,0
210536,-58.8235294117647,4,2,10,50,0,0
210881,-250,4,2,10,50,0,0
211226,-83.3333333333333,4,2,10,50,0,0
212260,-66.6666666666667,4,2,10,50,0,0
212778,-83.3333333333333,4,2,10,50,0,0
213295,-125,4,2,10,50,0,0
213984,-83.3333333333333,4,2,10,50,0,0
215019,-58.8235294117647,4,2,10,50,0,0
215536,-66.6666666666667,4,2,10,50,0,0
216053,-76.9230769230769,4,2,10,50,0,0
216743,-83.3333333333333,4,2,10,50,0,0
217778,-66.6666666666667,4,2,10,50,0,0
218295,-83.3333333333333,4,2,10,50,0,0
218812,-66.6666666666667,4,2,10,50,0,0
219502,-55.5555555555556,4,2,10,50,0,0
219847,-100,4,2,10,50,0,0
220536,-55.5555555555556,4,2,10,50,0,0
220881,-100,4,2,10,50,0,0
221571,-66.6666666666667,4,2,10,50,0,0
221915,-200,4,2,10,50,0,0
223295,-66.6666666666667,4,2,10,50,0,0
223640,-100,4,2,10,50,0,0
224329,-125,4,2,10,50,0,0
224674,-200,4,2,10,50,0,0
226053,-58.8235294117647,4,2,10,50,0,0
226743,-66.6666666666667,4,2,10,50,0,0
228812,-125,4,2,10,50,0,0
230881,-76.9230769230769,4,2,10,50,0,0
230967,-83.3333333333333,4,2,10,50,0,0
231053,-90.9090909090909,4,2,10,50,0,0
231140,-100,4,2,10,50,0,0
231226,-111.111111111111,4,2,10,50,0,0
231312,-125,4,2,10,50,0,0
231398,-142.857142857143,4,2,10,50,0,0
231484,-166.666666666667,4,2,10,50,0,0
232605,-100,4,2,10,50,0,0
232950,-50,4,2,10,80,0,0
233295,-100,4,2,10,80,0,0
233467,-33.3333333333333,4,2,10,80,0,0
233640,-50,4,2,10,80,0,0
233812,-100,4,2,10,80,0,0
233984,-50,4,2,10,80,0,0
234502,-100,4,2,10,80,0,0
234674,-50,4,2,10,80,0,0
234847,-66.6666666666667,4,2,10,80,0,0
235191,-50,4,2,10,80,0,0
236571,-100,4,2,10,80,0,0
236743,-40,4,2,10,80,0,0
237260,-100,4,2,10,80,0,0
237433,-33.3333333333333,4,2,10,80,0,0
238467,-50,4,2,10,80,0,0
239502,-100,4,2,10,80,0,0
239674,-50,4,2,10,80,0,0
239847,-100,4,2,10,80,0,0
240191,-50,4,2,10,80,0,0
241053,-100,4,2,10,80,0,0
241226,-43.4782608695652,4,2,10,80,0,0
241398,-133.333333333333,4,2,10,80,0,0
241571,-66.6666666666667,4,2,10,80,0,0
242433,-50,4,2,10,80,0,0
242605,-43.4782608695652,4,2,10,80,0,0
243122,-33.3333333333333,4,2,10,80,0,0
243532,-40,4,2,10,80,0,0
243984,-50,4,2,10,80,0,0
244329,-66.6666666666667,4,2,10,80,0,0
244674,-133.333333333333,4,2,10,80,0,0
244847,-66.6666666666667,4,2,10,80,0,0
245191,-133.333333333333,4,2,10,80,0,0
245364,-66.6666666666667,4,2,10,80,0,0
245709,-133.333333333333,4,2,10,80,0,0
245881,-66.6666666666667,4,2,10,80,0,0
246743,-50,4,2,10,80,0,0
247088,-62.5,4,2,10,80,0,0
247433,-117.647058823529,4,2,10,80,0,0
247605,-58.8235294117647,4,2,10,80,0,0
247950,-111.111111111111,4,2,10,80,0,0
248122,-55.5555555555556,4,2,10,80,0,0
248467,-100,4,2,10,80,0,0
248640,-52.6315789473684,4,2,10,80,0,0
248984,-90.9090909090909,4,2,10,80,0,0
249157,-50,4,2,10,80,0,0
249502,-50,4,2,10,80,0,0
249847,-66.6666666666667,4,2,10,80,0,0
250191,-133.333333333333,4,2,10,80,0,0
250364,-66.6666666666667,4,2,10,80,0,0
250709,-133.333333333333,4,2,10,80,0,0
250881,-66.6666666666667,4,2,10,80,0,0
251226,-133.333333333333,4,2,10,80,0,0
251398,-66.6666666666667,4,2,10,80,0,0
252260,-66.6666666666667,4,2,10,80,0,0
252605,-79.9999999999999,4,2,10,80,0,0
252950,-100,4,2,10,80,0,0
253122,-50,4,2,10,80,0,0
254674,-33.3333333333333,4,2,10,80,0,0
254760,-40,4,2,10,80,0,0
254847,-50,4,2,10,80,0,0
254933,-66.6666666666667,4,2,10,80,0,0
255019,-35.7142857142857,4,2,10,80,0,0
255364,-58.823529411765,4,2,10,80,0,0
255709,-32.258064516129,4,2,10,80,0,0
255881,-55.5555555555556,4,2,10,80,0,0
256053,-50,4,2,10,80,0,0
256226,-90.9090909090909,4,2,10,80,0,0
256398,-50,4,2,10,80,0,0
256571,-90.9090909090909,4,2,10,80,0,0
256743,-100,4,2,10,80,0,0
256915,-50,4,2,10,80,0,0
257088,-66.6666666666667,4,2,10,80,0,0
257260,-100,4,2,10,80,0,0
257433,-45.4545454545455,4,2,10,80,0,0
257778,-45.4545454545455,4,2,10,80,0,0
258122,-52.6315789473686,4,2,10,80,0,0
258467,-83.3333333333333,4,2,10,80,0,0
258640,-45.4545454545455,4,2,10,80,0,0
258984,-76.9230769230769,4,2,10,80,0,0
259157,-38.4615384615384,4,2,10,80,0,0
259502,-71.4285714285715,4,2,10,80,0,0
259674,-43.4782608695653,4,2,10,80,0,0
259847,-50,4,2,10,80,0,0
260019,-100,4,2,10,80,0,0
260191,-40,4,2,10,80,0,0
260536,-39.9999999999999,4,2,10,80,0,0
260881,-49.9999999999999,4,2,10,80,0,0
261226,-58.8235294117645,4,2,10,80,0,0
261398,-47.6190476190475,4,2,10,80,0,0
261743,-58.8235294117645,4,2,10,80,0,0
261915,-40,4,2,10,80,0,0
262260,-71.4285714285714,4,2,10,80,0,0
262433,-62.5,4,2,10,80,0,0
262778,-55.5555555555556,4,2,10,80,0,0
262950,-38.4615384615385,4,2,10,80,0,0
263295,-31.7965023847377,4,2,10,80,0,0
263640,-50,4,2,10,80,0,0
263984,-66.6666666666667,4,2,10,80,0,0
264157,-62.5,4,2,10,80,0,0
264502,-90.909090909091,4,2,10,80,0,0
264674,-50,4,2,10,80,0,0
265019,-58.8235294117647,4,2,10,80,0,0
265536,-50,4,2,10,80,0,0
265709,-100,4,2,10,80,0,0
266053,-38.4615384615385,4,2,10,80,0,0
266398,-45.4545454545455,4,2,10,80,0,0
266743,-34.4827586206897,4,2,10,80,0,0
267260,-250,4,2,10,80,0,0
267433,-37.037037037037,4,2,10,80,0,0
267778,-34.4827586206897,4,2,10,80,0,0
268467,-166.666666666667,4,2,10,80,0,0
268812,-41.6666666666667,4,2,10,80,0,0
269157,-38.4615384615385,4,2,10,80,0,0
269502,-34.4827586206897,4,2,10,80,0,0
270019,-200,4,2,10,80,0,0
270191,-41.6666666666667,4,2,10,80,0,0
270536,-34.4827586206897,4,2,10,80,0,0
271226,-166.666666666667,4,2,10,80,0,0
271571,-36.3636363636364,4,2,10,80,0,0
271915,-43.4782608695652,4,2,10,80,0,0
272260,-33.3333333333333,4,2,10,80,0,0
272605,-27.7777777777778,4,2,10,80,0,0
272778,-250,4,2,10,80,0,0
272950,-41.6666666666667,4,2,10,80,0,0
273295,-40,4,2,10,80,0,0
273467,-34.4827586206897,4,2,10,80,0,0
273898,-166.666666666667,4,2,10,80,0,0
274329,-50,4,2,10,80,0,0
275536,-66.6666666666667,4,2,10,80,0,0
275709,-142.857142857143,4,2,10,80,0,0
276226,-500,4,2,10,80,0,0
276743,-58.8235294117647,4,2,10,70,0,0
277081,352.941176470588,4,2,15,70,1,0
277081,-1000,4,2,15,70,0,0
282728,-166.666666666667,4,2,15,70,0,0
286963,-142.857142857143,4,2,15,70,0,0
287669,-125,4,2,15,70,0,0
288375,-71.4285714285714,4,2,15,85,0,0
288728,-83.3333333333333,4,2,15,85,0,0
290669,-71.4285714285714,4,2,15,85,0,0
292610,-125,4,2,15,85,0,0
294022,-62.5,4,2,15,85,0,0
298257,-500,4,2,15,85,0,0
298610,-250,4,2,15,85,0,0
298963,-71.4285714285714,4,2,15,85,0,0
299316,-41.6666666666667,4,2,15,85,0,0
299669,-333.333333333333,4,2,15,70,0,0
299845,-71.4285714285714,4,2,15,70,0,0
300375,-71.4285714285714,4,2,14,70,0,0
300728,-333.333333333333,4,2,14,70,0,0
301433,-71.4285714285714,4,2,14,83,0,0
302139,-55.5555555555556,4,2,14,83,0,0
302492,-333.333333333333,4,2,14,83,0,0
303198,-83.3333333333333,4,2,14,83,0,0
303551,-333.333333333333,4,2,14,83,0,0
304081,-83.3333333333333,4,2,14,83,0,0
304698,-66.6666666666666,4,2,14,83,0,0
304963,-83.3333333333333,4,2,14,83,0,0
305228,-50,4,2,14,83,0,0
305316,-333.333333333333,4,2,14,83,0,0
307081,-71.4285714285714,4,2,14,83,0,0
307786,-55.5555555555556,4,2,14,83,0,0
308139,-333.333333333333,4,2,14,83,0,0
309375,-71.4285714285714,4,2,14,83,0,0
309992,-125,4,2,14,83,0,0
310257,-166.666666666667,4,2,14,70,0,0
310963,-166.666666666667,4,2,14,83,0,0
312198,-71.4285714285714,4,2,14,83,0,0
312551,-166.666666666667,4,2,14,83,0,0
313875,-66.6666666666667,4,2,14,83,0,0
315375,-166.666666666667,4,2,14,83,0,0
315551,-83.3333333333333,4,2,14,83,0,0
315728,-166.666666666667,4,2,14,83,0,0
317845,-66.6666666666667,4,2,14,83,0,0
318022,-166.666666666667,4,2,14,83,0,0
319433,-66.6666666666667,4,2,14,83,0,0
321551,-100,4,2,14,70,0,0
321938,413.793103448276,4,2,14,70,1,0
322264,413.793103448276,4,2,20,70,1,0
322264,-41.6666666666667,4,2,20,70,0,0
322522,-41.6666666666667,4,2,20,5,0,0
322574,-166.666666666667,4,2,20,70,0,0
322884,-41.6666666666667,4,2,20,70,0,0
323143,-41.6666666666667,4,2,20,5,0,0
323195,-166.666666666667,4,2,20,70,0,0
323505,-83.3333333333333,4,2,20,70,0,0
324281,-83.3333333333333,4,2,20,5,0,0
324332,-35.7142857142857,4,2,20,70,0,0
324746,-166.666666666667,4,2,20,70,0,0
324953,-62.5,4,2,20,70,0,0
325574,-41.6666666666667,4,2,20,70,0,0
325832,-41.6666666666667,4,2,20,5,0,0
325884,-166.666666666667,4,2,20,70,0,0
326195,-41.6666666666667,4,2,20,70,0,0
326453,-41.6666666666667,4,2,20,5,0,0
326505,-166.666666666667,4,2,20,70,0,0
326815,-100,4,2,20,70,0,0
327591,-100,4,2,20,5,0,0
327643,-35.7142857142857,4,2,20,70,0,0
328264,-50,4,2,20,70,0,0
328470,-100,4,2,20,70,0,0
328574,-83.3333333333333,4,2,20,70,0,0
328677,-71.4285714285714,4,2,20,70,0,0
328781,-62.5,4,2,20,70,0,0
328884,-41.6666666666667,4,2,20,70,0,0
329143,-41.6666666666667,4,2,20,5,0,0
329195,-166.666666666667,4,2,20,70,0,0
329505,-41.6666666666667,4,2,20,70,0,0
329764,-41.6666666666667,4,2,20,5,0,0
329815,-166.666666666667,4,2,20,70,0,0
330126,-83.3333333333333,4,2,20,70,0,0
330901,-83.3333333333333,4,2,20,5,0,0
330953,-35.7142857142857,4,2,20,70,0,0
331367,-166.666666666667,4,2,20,70,0,0
331574,-50,4,2,20,70,0,0
331781,-41.6666666666667,4,2,20,70,0,0
332195,-41.6666666666667,4,2,20,70,0,0
332453,-41.6666666666667,4,2,20,5,0,0
332505,-166.666666666667,4,2,20,70,0,0
332815,-41.6666666666667,4,2,20,70,0,0
333074,-41.6666666666667,4,2,20,5,0,0
333126,-166.666666666667,4,2,20,70,0,0
333436,-83.3333333333333,4,2,20,70,0,0
335091,-166.666666666667,4,2,20,70,0,0
335246,-166.666666666667,4,2,60,70,0,0
335505,-45.4545454545455,4,2,20,70,0,0
335815,-26.3157894736842,4,2,20,70,0,0
336022,-41.6666666666667,4,2,20,70,0,0
336332,-28.5714285714286,4,2,20,70,0,0
336643,-33.3333333333333,4,2,20,70,0,0
336850,-50,4,2,20,70,0,0
337160,-27.027027027027,4,2,20,70,0,0
337470,-50,4,2,20,70,0,0
337988,-33.3333333333333,4,2,20,70,0,0
338298,-45.4545454545455,4,2,20,70,0,0
338712,-100,4,2,20,70,0,0
338815,-45.4545454545455,4,2,20,70,0,0
339125,-27.027027027027,4,2,20,70,0,0
339332,-41.6666666666667,4,2,20,70,0,0
339642,-27.027027027027,4,2,20,70,0,0
339953,-33.3333333333333,4,2,20,70,0,0
340160,-50,4,2,20,70,0,0
340470,-27.027027027027,4,2,20,70,0,0
340780,-50,4,2,20,70,0,0
341298,-33.3333333333333,4,2,20,70,0,0
341608,-45.4545454545455,4,2,20,70,0,0
342022,-100,4,2,20,70,0,0
342125,-50,4,2,20,70,0,0
342436,-100,4,2,20,70,0,0
342850,-41.6666666666667,4,2,20,70,0,0
342953,-33.3333333333333,4,2,20,70,0,0
343264,-66.6666666666667,4,2,20,70,0,0
343677,-33.3333333333333,4,2,20,70,0,0
343781,-33.3333333333333,4,2,20,70,0,0
344091,-100,4,2,20,70,0,0
344505,-66.6666666666667,4,2,20,70,0,0
344608,-40,4,2,20,70,0,0
344919,-66.6666666666667,4,2,20,70,0,0
345436,-33.3333333333333,4,2,20,70,0,0
345643,-66.6666666666667,4,2,20,70,0,0
345850,-33.3333333333333,4,2,20,70,0,0
346057,-83.3333333333333,4,2,20,70,0,0
346264,-58.8235294117647,4,2,20,70,0,0
347091,-200,4,2,20,70,0,0
347505,-100,4,2,20,70,0,0
348332,-100,4,2,21,70,0,0
348746,-43.4782608695652,4,2,20,70,0,0
349057,-88.4955752212389,4,2,20,70,0,0
349884,-333.333333333333,4,2,20,70,0,0
350091,-100,4,2,20,70,0,0
352057,-100,4,2,20,70,0,0
352367,-50,4,2,20,70,0,0
353195,-150.15015015015,4,2,20,70,0,0
353712,-50,4,2,20,70,0,0
355677,-88.4955752212389,4,2,20,70,0,0
356505,-333.333333333333,4,2,20,70,0,0
356712,-100,4,2,20,70,0,0
357022,-50,4,2,20,70,0,0
359091,-80,4,2,20,70,0,0
359505,-66.6666666666667,4,2,20,70,0,0
359815,-57.1428571428571,4,2,20,70,0,0
360332,-50,4,2,20,70,0,0
360643,-44.4444444444445,4,2,20,70,0,0
361470,-100,4,2,20,70,0,0
361988,-36.3636363636364,4,2,20,70,0,0
362401,-50,4,2,20,70,0,0
363229,-40,4,2,20,70,0,0
364884,-28.5714285714286,4,2,20,70,0,0
365091,-200,4,2,20,70,0,0
365298,-25,4,2,20,70,0,0
365608,-40,4,2,20,70,0,0
365919,-100,4,2,20,70,0,0
366126,-33.3333333333333,4,2,20,70,0,0
366953,-40,4,2,20,70,0,0
367781,-33.3333333333333,4,2,20,70,0,0
368608,-50,4,2,20,70,0,0
369022,-66.6666666666667,4,2,20,70,0,0
369436,-50,4,2,20,70,0,0
370264,-29.4117647058824,4,2,20,70,0,0
370626,-29.4117647058824,4,2,20,5,0,0
370677,-50,4,2,20,70,0,0
371091,-200,4,2,20,70,0,0
371505,-40,4,2,20,70,0,0
371712,-50,4,2,20,70,0,0
372332,-40,4,2,20,70,0,0
373574,-33.3333333333333,4,2,20,70,0,0
374815,-55.5555555555556,4,2,20,70,0,0
375176,428.571428571429,4,2,20,70,1,0
375176,-178.571428571429,4,2,20,70,0,0
382033,-178.571428571429,4,2,20,45,0,0
388783,-178.571428571429,4,2,20,5,0,0
388890,-96.1538461538461,4,2,25,70,0,0
389211,-96.1538461538461,4,2,25,5,0,0
389318,-156.25,4,2,25,70,0,0
395854,-156.25,4,2,25,5,0,0
395961,-156.25,4,2,25,70,0,0
396068,-156.25,4,2,25,5,0,0
396175,-156.25,4,2,25,70,0,0
396283,-156.25,4,2,25,5,0,0
396390,-156.25,4,2,25,70,0,0
396497,-156.25,4,2,25,5,0,0
396604,-156.25,4,2,25,70,0,0
396711,-156.25,4,2,25,5,0,0
396818,-156.25,4,2,25,70,0,0
396926,-156.25,4,2,25,5,0,0
397033,-156.25,4,2,25,70,0,0
397140,-156.25,4,2,25,5,0,0
397247,-156.25,4,2,25,70,0,0
397354,-156.25,4,2,25,5,0,0
397461,-156.25,4,2,25,70,0,0
397568,-156.25,4,2,25,5,0,0
397675,-156.25,4,2,25,70,0,0
397783,-156.25,4,2,25,5,0,0
397890,-156.25,4,2,25,70,0,0
397997,-156.25,4,2,25,5,0,0
398104,-156.25,4,2,25,70,0,0
398211,-156.25,4,2,25,5,0,0
398318,-156.25,4,2,25,70,0,0
398426,-156.25,4,2,25,5,0,0
398533,-156.25,4,2,25,70,0,0
398640,-156.25,4,2,25,5,0,0
398747,-156.25,4,2,25,70,0,0
398854,-156.25,4,2,25,5,0,0
398961,-156.25,4,2,25,70,0,0
399068,-156.25,4,2,25,5,0,0
399176,-96.1538461538461,4,2,25,70,0,0
402176,-57.4712643678161,4,2,26,70,0,0
402497,-69.4444444444444,4,2,26,5,0,0
402604,-294.117647058824,4,2,26,70,0,0
402711,-294.117647058824,4,2,25,70,0,0
403354,-294.117647058824,4,2,26,5,0,0
403461,-50,4,2,27,90,0,0
403783,-50,4,2,27,5,0,0
403890,-50,4,2,27,90,0,0
403997,-50,4,2,27,5,0,0
404104,-50,4,2,27,90,0,0
404426,-50,4,2,27,5,0,0
404533,-50,4,2,27,90,0,0
404640,-50,4,2,27,5,0,0
404747,-50,4,2,27,90,0,0
404854,-50,4,2,27,5,0,0
404961,-50,4,2,27,90,0,0
405068,-50,4,2,27,5,0,0
405176,-50,4,2,27,90,0,0
405283,-50,4,2,27,5,0,0
405390,-50,4,2,27,90,0,0
405497,-50,4,2,27,5,0,0
405604,-66.6666666666667,4,2,27,90,0,0
405711,-66.6666666666667,4,2,27,5,0,0
405818,-66.6666666666667,4,2,27,90,0,0
405926,-66.6666666666667,4,2,27,5,0,0
406033,-66.6666666666667,4,2,27,45,0,0
406676,-100,4,2,27,90,0,0
406890,-50,4,2,27,90,0,0
407211,-50,4,2,27,5,0,0
407318,-50,4,2,27,90,0,0
407426,-50,4,2,27,5,0,0
407533,-50,4,2,27,90,0,0
407854,-50,4,2,27,5,0,0
407961,-50,4,2,27,90,0,0
408068,-50,4,2,27,5,0,0
408176,-50,4,2,27,90,0,0
408283,-50,4,2,27,5,0,0
408390,-50,4,2,27,90,0,0
408497,-50,4,2,27,5,0,0
408604,-50,4,2,27,90,0,0
408711,-50,4,2,27,5,0,0
408818,-50,4,2,27,90,0,0
408926,-50,4,2,27,5,0,0
409033,-40,4,2,27,90,0,0
409140,-40,4,2,27,5,0,0
409247,-40,4,2,27,90,0,0
409354,-40,4,2,27,5,0,0
409461,-100,4,2,27,90,0,0
409783,-100,4,2,27,5,0,0
409890,-28.5714285714286,4,2,27,90,0,0
409961,-28.5714285714286,4,2,27,5,0,0
410033,-33.3333333333333,4,2,27,90,0,0
410104,-33.3333333333333,4,2,27,5,0,0
410176,-40,4,2,27,90,0,0
410247,-40,4,2,27,5,0,0
410318,-50,4,2,27,90,0,0
410640,-50,4,2,27,5,0,0
410747,-50,4,2,27,90,0,0
410854,-50,4,2,27,5,0,0
410961,-50,4,2,27,90,0,0
411283,-50,4,2,27,5,0,0
411390,-50,4,2,27,90,0,0
411497,-50,4,2,27,5,0,0
411604,-50,4,2,27,90,0,0
411711,-50,4,2,27,5,0,0
411818,-50,4,2,27,90,0,0
411926,-50,4,2,27,5,0,0
412033,-50,4,2,27,90,0,0
412140,-50,4,2,27,5,0,0
412247,-50,4,2,27,90,0,0
412354,-50,4,2,27,5,0,0
412461,-66.6666666666667,4,2,27,90,0,0
412568,-66.6666666666667,4,2,27,5,0,0
412676,-66.6666666666667,4,2,27,90,0,0
412783,-66.6666666666667,4,2,27,5,0,0
412890,-66.6666666666667,4,2,27,45,0,0
413533,-100,4,2,27,90,0,0
413747,-50,4,2,27,90,0,0
414068,-50,4,2,27,5,0,0
414176,-50,4,2,27,90,0,0
414283,-50,4,2,27,5,0,0
414390,-50,4,2,27,90,0,0
414711,-50,4,2,27,5,0,0
414818,-50,4,2,27,90,0,0
414926,-50,4,2,27,5,0,0
415033,-50,4,2,27,90,0,0
415140,-50,4,2,27,5,0,0
415247,-50,4,2,27,90,0,0
415354,-50,4,2,27,5,0,0
415461,-40,4,2,27,90,0,0
415568,-40,4,2,27,5,0,0
415676,-40,4,2,27,90,0,0
415783,-40,4,2,27,5,0,0
415890,-50,4,2,27,90,0,0
415997,-50,4,2,27,5,0,0
416104,-50,4,2,27,90,0,0
416211,-50,4,2,27,5,0,0
416318,-500,4,2,28,90,0,0
416426,-500,4,2,27,90,0,0
416640,-500,4,2,27,5,0,0
416747,-40,4,2,15,90,0,0
417176,-50,4,2,27,90,0,0
417390,-50,4,2,27,90,0,0
417497,-50,4,2,27,5,0,0
417604,-50,4,2,27,90,0,0
417711,-50,4,2,27,5,0,0
417818,-50,4,2,27,90,0,0
417926,-50,4,2,27,5,0,0
418033,-100,4,2,27,90,0,0
418140,-100,4,2,27,5,0,0
418247,-50,4,2,27,90,0,0
418354,-50,4,2,27,5,0,0
418461,-50,4,2,27,90,0,0
418568,-50,4,2,27,5,0,0
418676,-50,4,2,27,90,0,0
418783,-50,4,2,27,5,0,0
418890,-50,4,2,27,90,0,0
419104,-50,4,2,27,90,0,0
419211,-50,4,2,27,5,0,0
419318,-50,4,2,27,90,0,0
419426,-50,4,2,27,5,0,0
419533,-50,4,2,27,90,0,0
419640,-50,4,2,27,5,0,0
419747,-200,4,2,27,55,0,0
420390,-66.6666666666667,4,2,27,90,0,0
420604,-50,4,2,27,90,0,0
420818,-50,4,2,27,90,0,0
420926,-50,4,2,27,5,0,0
421033,-50,4,2,27,90,0,0
421140,-50,4,2,27,5,0,0
421247,-50,4,2,27,90,0,0
421354,-50,4,2,27,5,0,0
421461,-100,4,2,27,90,0,0
421568,-100,4,2,27,5,0,0
421676,-50,4,2,27,90,0,0
421783,-50,4,2,27,5,0,0
421890,-50,4,2,27,90,0,0
421997,-50,4,2,27,5,0,0
422104,-50,4,2,27,90,0,0
422211,-50,4,2,27,5,0,0
422318,-50,4,2,27,90,0,0
422426,-50,4,2,27,5,0,0
422533,-50,4,2,27,90,0,0
422640,-50,4,2,27,5,0,0
422747,-40,4,2,27,90,0,0
422854,-40,4,2,27,5,0,0
422961,-40,4,2,27,90,0,0
423068,-40,4,2,27,5,0,0
423176,-38.4615384615385,4,2,27,90,0,0
423497,-100,4,2,27,5,0,0
423604,-33.3333333333333,4,2,27,90,0,0
423676,-33.3333333333333,4,2,27,5,0,0
423747,-28.5714285714286,4,2,27,90,0,0
423818,-28.5714285714286,4,2,27,5,0,0
423890,-25,4,2,27,90,0,0
423961,-25,4,2,27,5,0,0
424033,-25,4,2,27,90,0,0
424247,-50,4,2,27,90,0,0
424354,-50,4,2,27,5,0,0
424461,-50,4,2,27,90,0,0
424568,-50,4,2,27,5,0,0
424676,-50,4,2,27,90,0,0
424783,-50,4,2,27,5,0,0
424890,-100,4,2,27,90,0,0
424997,-100,4,2,27,5,0,0
425104,-50,4,2,27,90,0,0
425211,-50,4,2,27,5,0,0
425318,-50,4,2,27,90,0,0
425426,-50,4,2,27,5,0,0
425533,-50,4,2,27,90,0,0
425640,-50,4,2,27,5,0,0
425747,-50,4,2,27,90,0,0
425961,-50,4,2,27,90,0,0
426068,-50,4,2,27,5,0,0
426176,-50,4,2,27,90,0,0
426283,-50,4,2,27,5,0,0
426390,-50,4,2,27,90,0,0
426497,-50,4,2,27,5,0,0
426604,-66.6666666666667,4,2,27,55,0,0
427461,-50,4,2,27,90,0,0
427676,-50,4,2,27,90,0,0
427890,-50,4,2,27,90,0,0
427997,-50,4,2,27,5,0,0
428104,-50,4,2,27,90,0,0
428211,-50,4,2,27,5,0,0
428318,-58.8235294117647,4,2,27,90,0,0
428426,-58.8235294117647,4,2,27,5,0,0
428533,-55.5555555555556,4,2,27,90,0,0
428640,-55.5555555555556,4,2,27,5,0,0
428747,-52.6315789473684,4,2,27,90,0,0
428854,-52.6315789473684,4,2,27,5,0,0
428961,-50,4,2,27,90,0,0
429068,-50,4,2,27,5,0,0
429176,-50,4,2,27,90,0,0
429604,-50,4,2,27,90,0,0
429658,-50,4,2,27,5,0,0
429711,-50,4,2,27,90,0,0
429765,-50,4,2,27,5,0,0
429818,-50,4,2,27,90,0,0
429872,-50,4,2,27,5,0,0
429926,-50,4,2,27,90,0,0
429979,-50,4,2,27,5,0,0
430033,-42.5531914893617,4,2,28,90,0,0
430140,-42.5531914893617,4,2,27,90,0,0
430408,-42.5531914893617,4,2,27,5,0,0
430461,-111.111111111111,4,2,27,90,0,0
430783,-42.5531914893617,4,2,27,5,0,0
430890,-42.5531914893617,4,2,27,90,0,0
431211,-42.5531914893617,4,2,27,5,0,0
431318,-42.5531914893617,4,2,27,90,0,0
431640,-42.5531914893617,4,2,27,5,0,0
431747,-42.5531914893617,4,2,27,90,0,0
432068,-42.5531914893617,4,2,27,5,0,0
432176,-42.5531914893617,4,2,27,90,0,0
432283,-42.5531914893617,4,2,27,5,0,0
432390,-42.5531914893617,4,2,27,90,0,0
432497,-42.5531914893617,4,2,27,5,0,0
432604,-42.5531914893617,4,2,27,90,0,0
432711,-42.5531914893617,4,2,27,5,0,0
432818,-42.5531914893617,4,2,27,90,0,0
432926,-42.5531914893617,4,2,27,5,0,0
433033,-66.6666666666667,4,2,27,90,0,0
433140,-42.5531914893617,4,2,27,5,0,0
433247,-66.6666666666667,4,2,27,90,0,0
433354,-42.5531914893617,4,2,27,5,0,0
433461,-666.666666666667,4,2,27,90,0,0
434211,-42.5531914893617,4,2,27,5,0,0
434318,-666.666666666667,4,2,27,90,0,0
434533,-42.5531914893617,4,2,27,90,0,0
434640,-42.5531914893617,4,2,27,5,0,0
434747,-42.5531914893617,4,2,27,90,0,0
434854,-42.5531914893617,4,2,27,5,0,0
434961,-42.5531914893617,4,2,27,90,0,0
435283,-42.5531914893617,4,2,27,5,0,0
435390,-42.5531914893617,4,2,27,90,0,0
435497,-42.5531914893617,4,2,27,5,0,0
435604,-42.5531914893617,4,2,27,90,0,0
435926,-42.5531914893617,4,2,27,5,0,0
436033,-66.6666666666667,4,2,27,90,0,0
436140,-42.5531914893617,4,2,27,5,0,0
436247,-66.6666666666667,4,2,27,90,0,0
436354,-42.5531914893617,4,2,27,5,0,0
436461,-50,4,2,27,90,0,0
436568,-42.5531914893617,4,2,27,5,0,0
436676,-50,4,2,27,90,0,0
436783,-42.5531914893617,4,2,27,5,0,0
436890,-36.3636363636364,4,2,27,90,0,0
437211,-42.5531914893617,4,2,27,5,0,0
437318,-36.3636363636364,4,2,27,90,0,0
437390,-36.3636363636364,4,2,27,5,0,0
437461,-36.3636363636364,4,2,27,90,0,0
437533,-36.3636363636364,4,2,27,5,0,0
437604,-36.3636363636364,4,2,27,90,0,0
437676,-36.3636363636364,4,2,27,5,0,0
437747,-36.3636363636364,4,2,27,90,0,0
437961,-42.5531914893617,4,2,27,90,0,0
438068,-42.5531914893617,4,2,27,5,0,0
438176,-42.5531914893617,4,2,27,90,0,0
438283,-42.5531914893617,4,2,27,5,0,0
438390,-42.5531914893617,4,2,27,90,0,0
438497,-42.5531914893617,4,2,27,5,0,0
438604,-42.5531914893617,4,2,27,90,0,0
438926,-42.5531914893617,4,2,27,5,0,0
439033,-42.5531914893617,4,2,27,90,0,0
439140,-42.5531914893617,4,2,27,5,0,0
439247,-42.5531914893617,4,2,27,90,0,0
439354,-42.5531914893617,4,2,27,5,0,0
439461,-42.5531914893617,4,2,27,90,0,0
439568,-42.5531914893617,4,2,27,5,0,0
439676,-42.5531914893617,4,2,27,90,0,0
439783,-42.5531914893617,4,2,27,5,0,0
439890,-42.5531914893617,4,2,27,90,0,0
439997,-42.5531914893617,4,2,27,5,0,0
440104,-42.5531914893617,4,2,27,90,0,0
440211,-42.5531914893617,4,2,27,5,0,0
440318,-42.5531914893617,4,2,27,55,0,0
441283,-42.5531914893617,4,2,27,5,0,0
441390,-42.5531914893617,4,2,27,90,0,0
441497,-42.5531914893617,4,2,27,5,0,0
441604,-42.5531914893617,4,2,27,90,0,0
441711,-42.5531914893617,4,2,27,5,0,0
441818,-42.5531914893617,4,2,27,90,0,0
441926,-42.5531914893617,4,2,27,5,0,0
442033,-42.5531914893617,4,2,27,90,0,0
442140,-42.5531914893617,4,2,27,5,0,0
442247,-42.5531914893617,4,2,27,90,0,0
442354,-42.5531914893617,4,2,27,5,0,0
442461,-42.5531914893617,4,2,27,90,0,0
442568,-42.5531914893617,4,2,27,5,0,0
442676,-42.5531914893617,4,2,27,90,0,0
442783,-42.5531914893617,4,2,27,5,0,0
442890,-42.5531914893617,4,2,27,90,0,0
442997,-42.5531914893617,4,2,27,5,0,0
443104,-42.5531914893617,4,2,27,90,0,0
443211,-42.5531914893617,4,2,27,5,0,0
443318,-42.5531914893617,4,2,27,90,0,0
443426,-42.5531914893617,4,2,27,5,0,0
443533,-42.5531914893617,4,2,27,90,0,0
443640,-42.5531914893617,4,2,27,5,0,0
443747,-42.5531914893617,4,2,26,90,0,0
443854,-42.5531914893617,4,2,27,90,0,0
444068,-42.5531914893617,4,2,26,5,0,0
444176,-100,4,2,27,90,0,0
444497,-64.5161290322581,4,2,27,5,0,0
444604,-50,4,2,27,90,0,0
444711,-50,4,2,27,5,0,0
444818,-50,4,2,27,90,0,0
444926,-50,4,2,27,5,0,0
445033,-50,4,2,27,90,0,0
445140,-50,4,2,27,5,0,0
445247,-40,4,2,27,90,0,0
445568,-40,4,2,27,5,0,0
445676,-47.6190476190476,4,2,27,90,0,0
445783,-47.6190476190476,4,2,27,5,0,0
445890,-47.6190476190476,4,2,27,90,0,0
445997,-47.6190476190476,4,2,27,5,0,0
446104,-47.6190476190476,4,2,27,90,0,0
446211,-47.6190476190476,4,2,27,5,0,0
446318,-62.5,4,2,27,90,0,0
446426,-62.5,4,2,27,5,0,0
446533,-62.5,4,2,27,90,0,0
446640,-62.5,4,2,27,5,0,0
446747,-62.5,4,2,27,90,0,0
446854,-62.5,4,2,27,5,0,0
446961,-62.5,4,2,27,90,0,0
447068,-62.5,4,2,27,5,0,0
447176,-250,4,2,27,90,0,0
448033,-50,4,2,27,90,0,0
448140,-50,4,2,27,5,0,0
448247,-50,4,2,27,90,0,0
448354,-50,4,2,27,5,0,0
448461,-50,4,2,27,90,0,0
448568,-50,4,2,27,5,0,0
448676,-45.4545454545455,4,2,27,90,0,0
448783,-45.4545454545455,4,2,27,5,0,0
448890,-45.4545454545455,4,2,27,90,0,0
448997,-45.4545454545455,4,2,27,5,0,0
449104,-45.4545454545455,4,2,27,90,0,0
449211,-45.4545454545455,4,2,27,5,0,0
449318,-55.5555555555556,4,2,27,90,0,0
449426,-55.5555555555556,4,2,27,5,0,0
449533,-55.5555555555556,4,2,27,90,0,0
449640,-55.5555555555556,4,2,27,5,0,0
449747,-62.5,4,2,27,90,0,0
449854,-62.5,4,2,27,5,0,0
449961,-55.5555555555556,4,2,27,90,0,0
450068,-55.5555555555556,4,2,27,5,0,0
450176,-50,4,2,27,90,0,0
450283,-50,4,2,27,5,0,0
450390,-45.4545454545455,4,2,27,90,0,0
450497,-45.4545454545455,4,2,27,5,0,0
450604,-38.4615384615385,4,2,27,90,0,0
450926,-38.4615384615385,4,2,27,5,0,0
451033,-33.3333333333333,4,2,27,90,0,0
451104,-33.3333333333333,4,2,27,5,0,0
451176,-33.3333333333333,4,2,27,90,0,0
451247,-33.3333333333333,4,2,27,5,0,0
451318,-33.3333333333333,4,2,27,90,0,0
451390,-33.3333333333333,4,2,27,5,0,0
451461,-50,4,2,27,90,0,0
451997,-50,4,2,27,5,0,0
452104,-50,4,2,27,90,0,0
452211,-50,4,2,27,5,0,0
452318,-50,4,2,27,90,0,0
452426,-50,4,2,27,5,0,0
452533,-50,4,2,27,90,0,0
452640,-50,4,2,27,5,0,0
452747,-50,4,2,27,90,0,0
452854,-50,4,2,27,5,0,0
452961,-50,4,2,27,90,0,0
453068,-50,4,2,27,5,0,0
453176,-50,4,2,27,90,0,0
453283,-50,4,2,27,5,0,0
453390,-50,4,2,27,90,0,0
453497,-50,4,2,27,5,0,0
453604,-50,4,2,27,90,0,0
453711,-50,4,2,27,5,0,0
453818,-50,4,2,27,90,0,0
453926,-50,4,2,27,5,0,0
454033,-250,4,2,27,90,0,0
454890,-50,4,2,27,90,0,0
454997,-50,4,2,27,5,0,0
455104,-50,4,2,27,90,0,0
455211,-50,4,2,27,5,0,0
455318,-50,4,2,27,90,0,0
455426,-50,4,2,27,5,0,0
455533,-50,4,2,27,90,0,0
455640,-50,4,2,27,5,0,0
455747,-50,4,2,27,90,0,0
455854,-50,4,2,27,5,0,0
455961,-50,4,2,27,90,0,0
456068,-50,4,2,27,5,0,0
456176,-45.4545454545455,4,2,27,90,0,0
456283,-45.4545454545455,4,2,27,5,0,0
456390,-45.4545454545455,4,2,27,70,0,0
456497,-45.4545454545455,4,2,27,5,0,0
456604,-45.4545454545455,4,2,27,60,0,0
456818,-45.4545454545455,4,2,27,90,0,0
456926,-45.4545454545455,4,2,27,5,0,0
457033,-50,4,2,27,80,0,0
457140,-50,4,2,27,5,0,0
457247,-55.5555555555556,4,2,27,70,0,0
457354,-55.5555555555556,4,2,27,5,0,0
457461,-55.5555555555556,4,2,27,40,0,0
457488,-55.5555555555556,4,2,27,30,0,0
457568,-55.5555555555556,4,2,27,30,0,0
459176,-55.5555555555556,4,2,27,50,0,0
460890,-55.5555555555556,4,2,27,70,0,0
461984,468.75,4,2,0,5,1,0
462335,-100,4,2,30,70,0,0
462452,468.75,4,2,30,70,1,0
462452,-166.666666666667,4,2,30,70,0,0
462686,-83.3333333333333,4,2,30,70,0,0
463272,-333.333333333333,4,2,31,70,0,0
463330,-333.333333333333,4,2,30,70,0,0
463799,-333.333333333333,4,2,31,70,0,0
463858,-50,4,2,31,70,0,0
463916,-50,4,2,30,70,0,0
464268,-50,4,2,31,70,0,0
464327,-76.9230769230769,4,2,31,70,0,0
464795,-111.111111111111,4,2,31,70,0,0
465030,-76.9230769230769,4,2,31,70,0,0
465381,-62.5,4,2,31,70,0,0
465733,-43.4782608695652,4,2,31,70,0,0
466202,-71.4285714285714,4,2,31,70,0,0
466436,-90.9090909090909,4,2,32,70,0,0
466670,-40,4,2,30,70,0,0
467022,-90.9090909090909,4,2,32,70,0,0
467139,-40,4,2,32,70,0,0
467373,-90.9090909090909,4,2,32,70,0,0
467608,-50,4,2,30,70,0,0
468077,-76.9230769230769,4,2,30,70,0,0
468545,-111.111111111111,4,2,30,70,0,0
468780,-76.9230769230769,4,2,30,70,0,0
469131,-62.5,4,2,30,70,0,0
469483,-43.4782608695652,4,2,30,70,0,0
469952,-71.4285714285714,4,2,30,70,0,0
470186,-90.9090909090909,4,2,32,70,0,0
470420,-40,4,2,30,70,0,0
470772,-90.9090909090909,4,2,32,72,0,0
470889,-40,4,2,32,70,0,0
470948,-40,4,2,30,70,0,0
471006,-40,4,2,32,70,0,0
471123,-90.9090909090909,4,2,32,70,0,0
471358,-50,4,2,30,70,0,0
471827,-76.9230769230769,4,2,30,70,0,0
472295,-111.111111111111,4,2,30,70,0,0
472530,-76.9230769230769,4,2,30,70,0,0
472881,-62.5,4,2,30,70,0,0
473233,-43.4782608695652,4,2,30,70,0,0
473702,-71.4285714285714,4,2,30,70,0,0
473936,-90.9090909090909,4,2,32,70,0,0
474170,-40,4,2,30,70,0,0
474522,-90.9090909090909,4,2,32,70,0,0
474639,-40,4,2,32,70,0,0
474698,-40,4,2,30,70,0,0
474756,-40,4,2,32,70,0,0
474873,-90.9090909090909,4,2,32,70,0,0
475108,-50,4,2,30,70,0,0
475577,-76.9230769230769,4,2,30,70,0,0
476045,-111.111111111111,4,2,30,70,0,0
476280,-76.9230769230769,4,2,30,70,0,0
476631,-62.5,4,2,30,70,0,0
476983,-43.4782608695652,4,2,30,70,0,0
477452,-71.4285714285714,4,2,30,70,0,0
477686,-40,4,2,30,70,0,0
478077,-111.111111111111,4,2,34,70,0,0
478858,468.75,4,2,31,70,1,0
479483,-66.6666666666667,4,2,31,70,0,0
479795,-100,4,2,31,70,0,0
480889,-100,4,2,31,70,0,0
481201,-100,4,2,31,70,0,0
481358,-66.6666666666667,4,2,31,70,0,0
481670,-100,4,2,31,70,0,0
482295,-50,4,2,31,70,0,0
482608,-100,4,2,31,70,0,0
483233,-66.6666666666667,4,2,31,70,0,0
483545,-100,4,2,31,70,0,0
485108,-66.6666666666667,4,2,31,70,0,0
485420,-100,4,2,31,70,0,0
486045,-50,4,2,31,70,0,0
486358,-71.4285714285714,4,2,31,70,0,0
486826,-100,4,2,31,70,0,0
487451,-66.6666666666667,4,2,31,70,0,0
487764,-100,4,2,31,70,0,0
488233,-71.4285714285714,4,2,31,70,0,0
488701,-100,4,2,31,70,0,0
489795,-50,4,2,31,70,0,0
490108,-71.4285714285714,4,2,31,70,0,0
490576,-100,4,2,31,70,0,0
491983,-71.4285714285714,4,2,31,70,0,0
492451,-100,4,2,31,70,0,0
492920,-71.4285714285714,4,2,32,70,0,0
492998,-71.4285714285714,4,2,31,70,0,0
493389,-100,4,2,32,70,0,0
493467,-100,4,2,31,70,0,0
493858,-55.5555555555556,4,2,31,70,0,0
493916,-55.5555555555556,4,2,30,70,0,0
494248,-55.5555555555556,4,2,31,70,0,0
494326,-62.5,4,2,30,70,0,0
495733,-55.5555555555556,4,2,31,70,0,0
495791,-55.5555555555556,4,2,30,70,0,0
496123,-55.5555555555556,4,2,31,70,0,0
496201,-62.5,4,2,31,70,0,0
496358,-62.5,4,2,30,70,0,0
497608,-55.5555555555556,4,2,31,70,0,0
497666,-55.5555555555556,4,2,30,70,0,0
497998,-62.5,4,2,31,70,0,0
498233,-62.5,4,2,30,70,0,0
499483,-55.5555555555556,4,2,31,70,0,0
499541,-55.5555555555556,4,2,30,70,0,0
499873,-55.5555555555556,4,2,31,70,0,0
499951,-62.5,4,2,31,70,0,0
500108,-62.5,4,2,30,70,0,0
501358,-55.5555555555556,4,2,31,70,0,0
501416,-55.5555555555556,4,2,30,70,0,0
501748,-55.5555555555556,4,2,31,70,0,0
501826,-62.5,4,2,31,70,0,0
501983,-62.5,4,2,30,70,0,0
502764,-45.4545454545455,4,2,30,70,0,0
503233,-55.5555555555556,4,2,31,70,0,0
503291,-55.5555555555556,4,2,30,70,0,0
503623,-55.5555555555556,4,2,31,70,0,0
503701,-62.5,4,2,31,70,0,0
503858,-62.5,4,2,30,70,0,0
505108,-55.5555555555556,4,2,31,70,0,0
505166,-55.5555555555556,4,2,30,70,0,0
505498,-55.5555555555556,4,2,31,70,0,0
505576,-62.5,4,2,31,70,0,0
505733,-62.5,4,2,30,70,0,0
506983,-35.7142857142857,4,2,31,70,0,0
507041,-35.7142857142857,4,2,30,70,0,0
507373,-35.7142857142857,4,2,31,70,0,0
507451,-45.4545454545455,4,2,31,70,0,0
507920,-45.4545454545455,4,2,32,70,0,0
508858,-100,4,2,31,70,0,0
508916,-100,4,2,30,70,0,0
510733,-100,4,2,31,70,0,0
510889,-100,4,2,30,70,0,0
512178,-100,4,2,30,10,0,0
512295,-76.9230769230769,4,2,30,70,0,0
512334,-76.9230769230769,4,2,30,10,0,0
512451,-142.857142857143,4,2,30,70,0,0
512490,-142.857142857143,4,2,30,10,0,0
512608,-100,4,2,31,70,0,0
512764,-100,4,2,30,70,0,0
514483,-100,4,2,31,70,0,0
514639,-100,4,2,30,70,0,0
515928,-100,4,2,30,10,0,0
516045,-76.9230769230769,4,2,30,70,0,0
516084,-76.9230769230769,4,2,30,10,0,0
516201,-142.857142857143,4,2,30,70,0,0
516240,-142.857142857143,4,2,30,10,0,0
516358,-100,4,2,31,70,0,0
516514,-100,4,2,30,70,0,0
518233,-100,4,2,31,70,0,0
518389,-100,4,2,30,70,0,0
519678,-100,4,2,30,10,0,0
519795,-76.9230769230769,4,2,30,70,0,0
519834,-76.9230769230769,4,2,30,10,0,0
519951,-142.857142857143,4,2,30,70,0,0
519990,-142.857142857143,4,2,30,10,0,0
520108,-100,4,2,31,70,0,0
520264,-100,4,2,30,70,0,0
521983,-62.5,4,2,31,70,0,0
522061,-62.5,4,2,30,70,0,0
522373,-62.5,4,2,31,70,0,0
522608,-62.5,4,2,30,70,0,0
522920,-62.5,4,2,32,70,0,0
522998,-62.5,4,2,30,70,0,0
523389,-62.5,4,2,32,70,0,0
523545,-66.6666666666667,4,2,30,70,0,0
523858,-250,4,2,31,70,0,0
523936,-250,4,2,30,70,0,0
524248,-250,4,2,31,70,0,0
524353,454.545454545455,4,2,40,70,1,0
524353,-38.4615384615385,4,2,40,70,0,0
524580,-35.7142857142857,4,2,40,70,0,0
524750,-35.7142857142857,4,2,40,5,0,0
524807,-31.25,4,2,40,70,0,0
525205,-31.25,4,2,40,5,0,0
525262,-83.3333333333333,4,2,40,70,0,0
525659,-83.3333333333333,4,2,40,5,0,0
525716,-38.4615384615385,4,2,40,70,0,0
526114,-38.4615384615385,4,2,40,5,0,0
526171,-62.5,4,2,40,70,0,0
526246,-62.5,4,2,40,5,0,0
526322,-31.25,4,2,40,70,0,0
526398,-31.25,4,2,40,5,0,0
526474,-62.5,4,2,40,70,0,0
526549,-62.5,4,2,40,5,0,0
526625,-31.25,4,2,40,70,0,0
526701,-31.25,4,2,40,5,0,0
526777,-62.5,4,2,40,70,0,0
526853,-62.5,4,2,40,5,0,0
526928,-62.5,4,2,40,70,0,0
527004,-62.5,4,2,40,5,0,0
527080,-31.25,4,2,40,70,0,0
527156,-31.25,4,2,40,5,0,0
527231,-62.5,4,2,40,70,0,0
527307,-62.5,4,2,40,5,0,0
527383,-62.5,4,2,40,70,0,0
527534,-31.25,4,2,40,70,0,0
527610,-31.25,4,2,40,5,0,0
527686,-62.5,4,2,40,70,0,0
527762,-62.5,4,2,40,5,0,0
527837,-62.5,4,2,40,70,0,0
527913,-62.5,4,2,40,5,0,0
527989,-38.4615384615385,4,2,40,70,0,0
528216,-35.7142857142857,4,2,40,70,0,0
528387,-35.7142857142857,4,2,40,5,0,0
528443,-31.25,4,2,40,70,0,0
528841,-31.25,4,2,40,5,0,0
528898,-125,4,2,40,70,0,0
529296,-125,4,2,40,5,0,0
529353,-50,4,2,40,70,0,0
529750,-50,4,2,40,5,0,0
529807,-50,4,2,40,70,0,0
529883,-50,4,2,40,5,0,0
529959,-27.7777777777778,4,2,40,70,0,0
530034,-27.7777777777778,4,2,40,5,0,0
530110,-50,4,2,40,70,0,0
530186,-50,4,2,40,5,0,0
530262,-27.7777777777778,4,2,40,70,0,0
530337,-27.7777777777778,4,2,40,5,0,0
530413,-50,4,2,40,70,0,0
530489,-50,4,2,40,5,0,0
530565,-50,4,2,40,70,0,0
530640,-50,4,2,40,5,0,0
530716,-27.7777777777778,4,2,40,70,0,0
530792,-27.7777777777778,4,2,40,5,0,0
530868,-50,4,2,40,70,0,0
530943,-50,4,2,40,5,0,0
531019,-50,4,2,40,70,0,0
531095,-50,4,2,40,5,0,0
531171,-27.7777777777778,4,2,40,70,0,0
531246,-27.7777777777778,4,2,40,5,0,0
531322,-50,4,2,40,70,0,0
531398,-50,4,2,40,5,0,0
531474,-50,4,2,40,70,0,0
531549,-50,4,2,40,5,0,0
531625,-38.4615384615385,4,2,40,70,0,0
531853,-35.7142857142857,4,2,40,70,0,0
532023,-35.7142857142857,4,2,40,5,0,0
532080,-31.25,4,2,40,70,0,0
532478,-31.25,4,2,40,5,0,0
532534,-125,4,2,40,70,0,0
532932,-125,4,2,40,5,0,0
532989,-50,4,2,40,70,0,0
533387,-50,4,2,40,5,0,0
533443,-62.5,4,2,40,70,0,0
533519,-62.5,4,2,40,5,0,0
533595,-31.25,4,2,40,70,0,0
533671,-31.25,4,2,40,5,0,0
533746,-62.5,4,2,40,70,0,0
533822,-62.5,4,2,40,5,0,0
533898,-31.25,4,2,40,70,0,0
533974,-31.25,4,2,40,5,0,0
534049,-62.5,4,2,40,70,0,0
534125,-62.5,4,2,40,5,0,0
534201,-62.5,4,2,40,70,0,0
534277,-62.5,4,2,40,5,0,0
534353,-31.25,4,2,40,70,0,0
534428,-31.25,4,2,40,5,0,0
534504,-62.5,4,2,40,70,0,0
534580,-62.5,4,2,40,5,0,0
534656,-62.5,4,2,40,70,0,0
534807,-31.25,4,2,40,70,0,0
534883,-31.25,4,2,40,5,0,0
534959,-62.5,4,2,40,70,0,0
535034,-62.5,4,2,40,5,0,0
535110,-62.5,4,2,40,70,0,0
535186,-62.5,4,2,40,5,0,0
535262,-38.4615384615385,4,2,40,70,0,0
535489,-35.7142857142857,4,2,40,70,0,0
535659,-35.7142857142857,4,2,40,5,0,0
535716,-31.25,4,2,40,70,0,0
536114,-31.25,4,2,40,5,0,0
536171,-125,4,2,40,70,0,0
536568,-125,4,2,40,5,0,0
536625,-35.7142857142857,4,2,40,70,0,0
537023,-35.7142857142857,4,2,40,5,0,0
537080,-50,4,2,40,70,0,0
537156,-50,4,2,40,5,0,0
537231,-27.7777777777778,4,2,40,70,0,0
537307,-27.7777777777778,4,2,40,5,0,0
537383,-50,4,2,40,70,0,0
537459,-50,4,2,40,5,0,0
537534,-27.7777777777778,4,2,40,70,0,0
537610,-27.7777777777778,4,2,40,5,0,0
537686,-50,4,2,40,70,0,0
537762,-50,4,2,40,5,0,0
537837,-50,4,2,40,70,0,0
537913,-50,4,2,40,5,0,0
537989,-27.7777777777778,4,2,40,70,0,0
538065,-27.7777777777778,4,2,40,5,0,0
538140,-50,4,2,40,70,0,0
538216,-50,4,2,40,5,0,0
538292,-50,4,2,40,70,0,0
538368,-50,4,2,40,5,0,0
538443,-50,4,2,40,70,0,0
538481,-50,4,2,40,5,0,0
538519,-55.5555555555556,4,2,40,70,0,0
538557,-55.5555555555556,4,2,40,5,0,0
538595,-62.5,4,2,40,70,0,0
538633,-62.5,4,2,40,5,0,0
538671,-71.4285714285714,4,2,40,70,0,0
538709,-71.4285714285714,4,2,40,5,0,0
538746,-83.3333333333333,4,2,40,70,0,0
538784,-83.3333333333333,4,2,40,5,0,0
538822,-100,4,2,40,70,0,0
538860,-100,4,2,40,5,0,0
538898,-25,4,2,40,70,0,0
539125,-25,4,2,40,5,0,0
539201,-22.2222222222222,4,2,40,70,0,0
539315,-22.2222222222222,4,2,40,70,0,0
539353,-125,4,2,40,70,0,0
539580,-125,4,2,40,5,0,0
539656,-40,4,2,40,70,0,0
539731,-40,4,2,40,5,0,0
539807,-33.3333333333333,4,2,40,70,0,0
539883,-33.3333333333333,4,2,40,5,0,0
539959,-33.3333333333333,4,2,40,70,0,0
540034,-33.3333333333333,4,2,40,5,0,0
540110,-100,4,2,40,70,0,0
540186,-100,4,2,40,5,0,0
540262,-25,4,2,40,70,0,0
540792,-25,4,2,40,5,0,0
540868,-50,4,2,40,70,0,0
541171,-50,4,2,40,70,0,0
541246,-50,4,2,40,5,0,0
541322,-50,4,2,40,70,0,0
541398,-50,4,2,40,5,0,0
541474,-50,4,2,40,70,0,0
541549,-50,4,2,40,5,0,0
541625,-25,4,2,40,70,0,0
541701,-25,4,2,40,5,0,0
541777,-50,4,2,40,70,0,0
541853,-50,4,2,40,5,0,0
541928,-181.818181818181,4,2,40,70,0,0
542004,-181.818181818181,4,2,40,5,0,0
542080,-50,4,2,40,70,0,0
542156,-50,4,2,40,5,0,0
542231,-50,4,2,40,70,0,0
542307,-50,4,2,40,5,0,0
542383,-50,4,2,40,70,0,0
542459,-50,4,2,40,5,0,0
542534,-25,4,2,40,70,0,0
542762,-25,4,2,40,5,0,0
542837,-22.2222222222222,4,2,40,70,0,0
542951,-22.2222222222222,4,2,40,70,0,0
542989,-125,4,2,40,70,0,0
543216,-125,4,2,40,5,0,0
543292,-35.7142857142857,4,2,40,70,0,0
543368,-35.7142857142857,4,2,40,5,0,0
543443,-33.3333333333333,4,2,40,70,0,0
543519,-33.3333333333333,4,2,40,5,0,0
543595,-33.3333333333333,4,2,40,70,0,0
543671,-33.3333333333333,4,2,40,5,0,0
543746,-100,4,2,40,70,0,0
543822,-100,4,2,40,5,0,0
543898,-40,4,2,40,70,0,0
544353,-25,4,2,40,70,0,0
544428,-25,4,2,40,5,0,0
544504,-66.6666666666667,4,2,40,70,0,0
544807,-50,4,2,40,70,0,0
544883,-50,4,2,40,5,0,0
544959,-50,4,2,40,70,0,0
545034,-50,4,2,40,5,0,0
545110,-50,4,2,40,70,0,0
545186,-50,4,2,40,5,0,0
545262,-25,4,2,40,70,0,0
545337,-25,4,2,40,5,0,0
545413,-66.6666666666667,4,2,40,70,0,0
545489,-66.6666666666667,4,2,40,5,0,0
545565,-181.818181818181,4,2,40,70,0,0
545640,-181.818181818181,4,2,40,5,0,0
545716,-33.3333333333333,4,2,40,70,0,0
545792,-33.3333333333333,4,2,40,5,0,0
545868,-50,4,2,40,70,0,0
545943,-50,4,2,40,5,0,0
546019,-50,4,2,40,70,0,0
546095,-50,4,2,40,5,0,0
546171,-25,4,2,40,70,0,0
546398,-25,4,2,40,5,0,0
546474,-22.2222222222222,4,2,40,70,0,0
546587,-22.2222222222222,4,2,40,70,0,0
546625,-125,4,2,40,70,0,0
546853,-125,4,2,40,5,0,0
546928,-40,4,2,40,70,0,0
547004,-40,4,2,40,5,0,0
547080,-33.3333333333333,4,2,40,70,0,0
547156,-33.3333333333333,4,2,40,5,0,0
547231,-33.3333333333333,4,2,40,70,0,0
547307,-33.3333333333333,4,2,40,5,0,0
547383,-100,4,2,40,70,0,0
547459,-100,4,2,40,5,0,0
547534,-40,4,2,40,70,0,0
547989,-25,4,2,40,70,0,0
548065,-25,4,2,40,5,0,0
548140,-50,4,2,40,70,0,0
548443,-50,4,2,40,70,0,0
548519,-50,4,2,40,5,0,0
548595,-50,4,2,40,70,0,0
548671,-50,4,2,40,5,0,0
548746,-50,4,2,40,70,0,0
548822,-50,4,2,40,5,0,0
548897,-25,4,2,40,70,0,0
548974,-25,4,2,40,5,0,0
549049,-50,4,2,40,70,0,0
549125,-50,4,2,40,5,0,0
549200,-66.6666666666667,4,2,40,70,0,0
549277,-66.6666666666667,4,2,40,5,0,0
549352,-50,4,2,40,70,0,0
549428,-50,4,2,40,5,0,0
549504,-50,4,2,40,70,0,0
549580,-50,4,2,40,5,0,0
549656,-50,4,2,40,70,0,0
549731,-50,4,2,40,5,0,0
549806,-25,4,2,40,70,0,0
550034,-25,4,2,40,5,0,0
550109,-22.2222222222222,4,2,40,70,0,0
550224,-22.2222222222222,4,2,40,70,0,0
550261,-125,4,2,40,70,0,0
550489,-125,4,2,40,5,0,0
550565,-35.7142857142857,4,2,40,70,0,0
550640,-35.7142857142857,4,2,40,5,0,0
550716,-33.3333333333333,4,2,40,70,0,0
550792,-33.3333333333333,4,2,40,5,0,0
550868,-33.3333333333333,4,2,40,70,0,0
550943,-33.3333333333333,4,2,40,5,0,0
551019,-100,4,2,40,70,0,0
551095,-100,4,2,40,5,0,0
551171,-25,4,2,40,70,0,0
551626,-25,4,2,40,70,0,0
551701,-25,4,2,40,5,0,0
551777,-50,4,2,40,70,0,0
551853,-50,4,2,40,70,0,0
552080,-50,4,2,40,70,0,0
552156,-50,4,2,40,5,0,0
552231,-50,4,2,40,70,0,0
552307,-50,4,2,40,5,0,0
552383,-50,4,2,40,70,0,0
552459,-50,4,2,40,5,0,0
552534,-25,4,2,40,70,0,0
552610,-25,4,2,40,5,0,0
552686,-50,4,2,40,70,0,0
552762,-50,4,2,40,5,0,0
552837,-181.818181818181,4,2,40,70,0,0
552913,-181.818181818181,4,2,40,5,0,0
552989,-50,4,2,40,70,0,0
553065,-33.3333333333333,4,2,40,5,0,0
553140,-50,4,2,40,70,0,0
553216,-33.3333333333333,4,2,40,5,0,0
553292,-50,4,2,40,70,0,0
553368,-50,4,2,40,5,0,0
553443,-50,4,2,40,70,0,0
553822,-50,4,2,40,5,0,0
553898,-33.3333333333333,4,2,40,70,0,0
554125,-33.3333333333333,4,2,40,5,0,0
554201,-33.3333333333333,4,2,40,70,0,0
554277,-33.3333333333333,4,2,40,5,0,0
554353,-33.3333333333333,4,2,40,70,0,0
554807,-100,4,2,40,70,0,0
554959,-100,4,2,40,5,0,0
555034,-25,4,2,40,70,0,0
555186,-25,4,2,40,5,0,0
555262,-200,4,2,40,70,0,0
555489,-200,4,2,40,5,0,0
555565,-200,4,2,40,70,0,0
555716,-50,4,2,40,70,0,0
555792,-50,4,2,40,5,0,0
555868,-50,4,2,40,70,0,0
555943,-50,4,2,40,5,0,0
556019,-50,4,2,40,70,0,0
556095,-50,4,2,40,5,0,0
556171,-33.3333333333333,4,2,40,70,0,0
556246,-33.3333333333333,4,2,40,5,0,0
556322,-37.037037037037,4,2,40,70,0,0
556398,-37.037037037037,4,2,40,5,0,0
556474,-41.6666666666667,4,2,40,70,0,0
556549,-41.6666666666667,4,2,40,5,0,0
556625,-50,4,2,40,70,0,0
557459,-50,4,2,40,5,0,0
557534,-200,4,2,40,70,0,0
557762,-200,4,2,40,5,0,0
557837,-200,4,2,40,70,0,0
557989,-100,4,2,40,70,0,0
558103,-100,4,2,40,5,0,0
558159,-30.3030303030303,4,2,40,70,0,0
558216,-30.3030303030303,4,2,40,5,0,0
558273,-30.3030303030303,4,2,40,70,0,0
558387,-30.3030303030303,4,2,40,5,0,0
558443,-24.390243902439,4,2,40,70,0,0
559353,-50,4,2,40,70,0,0
559428,-50,4,2,40,5,0,0
559504,-50,4,2,40,70,0,0
559580,-50,4,2,40,5,0,0
559656,-50,4,2,40,70,0,0
559731,-50,4,2,40,5,0,0
559807,-33.3333333333333,4,2,40,70,0,0
559883,-33.3333333333333,4,2,40,5,0,0
559959,-37.037037037037,4,2,40,70,0,0
560034,-37.037037037037,4,2,40,5,0,0
560110,-41.6666666666667,4,2,40,70,0,0
560186,-41.6666666666667,4,2,40,5,0,0
560262,-50,4,2,40,70,0,0
561095,-50,4,2,40,5,0,0
561171,-33.3333333333333,4,2,40,70,0,0
561398,-33.3333333333333,4,2,40,5,0,0
561474,-33.3333333333333,4,2,40,70,0,0
561549,-33.3333333333333,4,2,40,5,0,0
561625,-33.3333333333333,4,2,40,70,0,0
562080,-100,4,2,40,70,0,0
562231,-100,4,2,40,5,0,0
562307,-25,4,2,40,70,0,0
562459,-25,4,2,40,5,0,0
562534,-200,4,2,40,70,0,0
562762,-200,4,2,40,5,0,0
562837,-200,4,2,40,70,0,0
562989,-50,4,2,40,70,0,0
563065,-50,4,2,40,5,0,0
563140,-50,4,2,40,70,0,0
563216,-50,4,2,40,5,0,0
563292,-50,4,2,40,70,0,0
563368,-50,4,2,40,5,0,0
563443,-33.3333333333333,4,2,40,70,0,0
563519,-33.3333333333333,4,2,40,5,0,0
563595,-37.037037037037,4,2,40,70,0,0
563671,-37.037037037037,4,2,40,5,0,0
563746,-41.6666666666667,4,2,40,70,0,0
563822,-41.6666666666667,4,2,40,5,0,0
563898,-50,4,2,40,70,0,0
564731,-50,4,2,40,5,0,0
564807,-222.222222222222,4,2,40,70,0,0
565034,-222.222222222222,4,2,40,5,0,0
565110,-222.222222222222,4,2,40,70,0,0
565262,-100,4,2,40,70,0,0
565375,-100,4,2,40,5,0,0
565432,-30.3030303030303,4,2,40,70,0,0
565489,-30.3030303030303,4,2,40,5,0,0
565546,-30.3030303030303,4,2,40,70,0,0
565659,-30.3030303030303,4,2,40,5,0,0
565716,-24.0963855421687,4,2,40,70,0,0
566625,-50,4,2,40,70,0,0
566701,-50,4,2,40,5,0,0
566777,-50,4,2,40,70,0,0
566853,-50,4,2,40,5,0,0
566928,-50,4,2,40,70,0,0
567004,-50,4,2,40,5,0,0
567080,-33.3333333333333,4,2,40,70,0,0
567156,-41.6666666666667,4,2,40,5,0,0
567231,-37.037037037037,4,2,40,70,0,0
567307,-41.6666666666667,4,2,40,5,0,0
567383,-41.6666666666667,4,2,40,70,0,0
567459,-41.6666666666667,4,2,40,5,0,0
567534,-200,4,1,40,70,0,0
567685,-200,4,2,40,70,0,0
568292,-50,4,2,40,70,0,0
568368,-50,4,2,40,5,0,0
568443,-29.4117647058824,4,2,40,70,0,0
568671,-29.4117647058824,4,2,40,5,0,0
568746,-100,4,2,40,70,0,0
568822,-100,4,2,40,5,0,0
568898,-26.3157894736842,4,2,40,70,0,0
569353,-50,4,2,40,70,0,0
569731,-50,4,2,40,5,0,0
569807,-100,4,2,40,70,0,0
570262,-100,4,2,40,70,0,0
570337,-100,4,2,40,5,0,0
570413,-100,4,2,40,70,0,0
570489,-100,4,2,40,5,0,0
570565,-100,4,2,40,70,0,0
570640,-100,4,2,40,5,0,0
570716,-62.5,4,2,40,70,0,0
571171,-62.5,4,2,40,70,0,0
571246,-62.5,4,2,40,5,0,0
571322,-62.5,4,2,40,70,0,0
571398,-62.5,4,2,40,5,0,0
571474,-62.5,4,2,40,70,0,0
571549,-62.5,4,2,40,5,0,0
571625,-50,4,2,40,70,0,0
572004,-50,4,2,40,5,0,0
572080,-29.4117647058824,4,2,40,70,0,0
572307,-29.4117647058824,4,2,40,5,0,0
572383,-100,4,2,40,70,0,0
572459,-100,4,2,40,5,0,0
572534,-26.3157894736842,4,2,40,70,0,0
572989,-50,4,2,40,70,0,0
573216,-50,4,2,40,5,0,0
573292,-50,4,2,40,70,0,0
573443,-100,4,2,40,70,0,0
573898,-100,4,2,40,70,0,0
573974,-100,4,2,40,5,0,0
574049,-100,4,2,40,70,0,0
574125,-100,4,2,40,5,0,0
574201,-100,4,2,40,70,0,0
574277,-100,4,2,40,5,0,0
574353,-62.5,4,2,40,70,0,0
574807,-62.5,4,2,40,70,0,0
574883,-62.5,4,2,40,5,0,0
574959,-62.5,4,2,40,70,0,0
575034,-62.5,4,2,40,5,0,0
575110,-62.5,4,2,40,70,0,0
575186,-62.5,4,2,40,5,0,0
575262,-62.5,4,2,40,70,0,0
575565,-50,4,2,40,70,0,0
575640,-50,4,2,40,5,0,0
575716,-29.4117647058824,4,2,40,70,0,0
576019,-100,4,2,40,70,0,0
576095,-100,4,2,40,5,0,0
576171,-26.3157894736843,4,2,40,70,0,0
576625,-50,4,2,40,70,0,0
577080,-100,4,2,40,70,0,0
577534,-100,4,2,40,70,0,0
577610,-100,4,2,40,5,0,0
577686,-100,4,2,40,70,0,0
577762,-100,4,2,40,5,0,0
577837,-100,4,2,40,70,0,0
577913,-100,4,2,40,5,0,0
577989,-62.5,4,2,40,70,0,0
578443,-62.5,4,2,40,70,0,0
578519,-62.5,4,2,40,5,0,0
578595,-62.5,4,2,40,70,0,0
578671,-62.5,4,2,40,5,0,0
578746,-62.5,4,2,40,70,0,0
578822,-62.5,4,2,40,5,0,0
578898,-62.5,4,2,40,70,0,0
579277,-62.5,4,2,40,5,0,0
579353,-50,4,2,40,70,0,0
579731,-50,4,2,40,5,0,0
579807,-50,4,2,40,70,0,0
580262,-100,4,2,40,70,0,0
580640,-100,4,2,40,5,0,0
580716,-100,4,2,40,70,0,0
582516,344.827586206897,4,2,15,70,1,0
582516,-1000,4,2,15,70,0,0
583033,-156.25,4,2,15,70,0,0
585791,-142.857142857143,4,2,15,70,0,0
588550,-133.333333333333,4,2,15,70,0,0
590102,-200,4,2,15,70,0,0
591309,-133.333333333333,4,2,15,70,0,0
591826,-100,4,2,15,70,0,0
592860,-133.333333333333,4,2,15,70,0,0
594067,-100,4,2,15,70,0,0
599067,-95.2380952380952,4,2,15,70,0,0
601826,-95.2380952380952,4,2,0,30,0,0
604584,-37.037037037037,4,2,60,80,0,0
604842,-30.3030303030303,4,2,60,80,0,0
605101,-42.863266180883,4,2,60,80,0,0
605618,-25,4,2,60,80,0,0
605963,-37.0370370370372,4,2,61,80,0,0
606308,-55.5555555555556,4,2,60,80,0,0
606653,-27.7777777777778,4,2,60,80,0,0
606911,-52.6315789473684,4,2,60,80,0,0
607256,-37.037037037037,4,2,60,80,0,0
607687,-39.8406374501992,4,2,60,80,0,0
607860,-66.6666666666667,4,2,60,80,0,0
608291,-28.5714285714286,4,2,60,80,0,0
608635,-33.3333333333333,4,2,63,80,0,0
608980,-33.3333333333333,4,2,60,80,0,0
609239,-28.5714285714286,4,2,60,80,0,0
609497,-25,4,2,60,80,0,0
609842,-30.000300003,4,2,60,80,0,0
610101,-37.037037037037,4,2,60,80,0,0
610360,-28.5714285714286,4,2,60,80,0,0
610704,-37.037037037037,4,2,60,80,0,0
611135,-29.4117647058824,4,2,60,80,0,0
611394,-43.4782608695652,4,2,61,80,0,0
611739,-35.7142857142857,4,2,60,80,0,0
612170,-27.7777777777778,4,2,60,80,0,0
612429,-66.6666666666667,4,2,60,80,0,0
612601,-83.3333333333333,4,2,60,80,0,0
612773,-37.037037037037,4,2,60,80,0,0
613204,-27.7777777777778,4,2,60,80,0,0
613463,-42.863266180883,4,2,60,80,0,0
613894,-33.3333333333333,4,2,60,80,0,0
614153,-43.4782608695652,4,2,63,80,0,0
614584,-43.4782608695652,4,2,61,80,0,0
614757,-43.4782608695652,4,2,60,80,0,0
614929,-31.25,4,2,60,80,0,0
615360,-27.7777777777778,4,2,62,80,0,0
615619,-27.7777777777778,4,2,69,90,0,0
615964,-27.7777777777778,4,2,60,80,0,0
616050,-55.5555555555556,4,2,60,80,0,0
616222,-43.4782608695652,4,2,60,80,0,0
616481,-50,4,2,60,80,0,0
616740,-38.4615384615385,4,2,60,80,0,0
616998,-166.666666666667,4,2,61,80,0,0
617343,-66.6666666666667,4,2,60,80,0,0
617774,-35.7142857142857,4,2,60,80,0,0
618033,-66.6666666666667,4,2,60,80,0,0
618119,-31.25,4,2,60,80,0,0
618378,-42.9184549356223,4,2,60,80,0,0
618722,-25,4,2,60,80,0,0
618809,-66.6666666666667,4,2,60,80,0,0
618981,-27.7777777777778,4,2,60,80,0,0
619240,-50,4,2,60,80,0,0
619498,-28.5714285714286,4,2,60,80,0,0
619757,-142.857142857143,4,2,63,80,0,0
620188,-62.5,4,2,60,80,0,0
620447,-22.2222222222222,4,2,60,80,0,0
620878,-44.4444444444445,4,2,60,80,0,0
621136,-66.6666666666667,4,2,60,80,0,0
621740,-44.4444444444445,4,2,60,80,0,0
621998,-83.3333333333333,4,2,60,80,0,0
622257,-38.4615384615385,4,2,60,80,0,0
622516,-125,4,2,61,80,0,0
622860,-40,4,2,60,80,0,0
623291,-35.7142857142857,4,2,60,80,0,0
623895,-66.6666666666667,4,2,60,80,0,0
624240,-35.7142857142857,4,2,60,80,0,0
624498,-40,4,2,60,80,0,0
624757,-55.5555555555556,4,2,60,80,0,0
624929,-35.7142857142857,4,2,60,80,0,0
625274,-1000,4,2,63,80,0,0
626481,-50,4,2,60,80,0,0
626826,-50,4,2,60,80,0,0
627688,-55.5555555555556,4,2,60,80,0,0
627990,-38.4615384615385,4,2,60,80,0,0
628205,-38.4615384615385,4,2,60,80,0,0
628550,-58.8235294117647,4,2,60,80,0,0
628809,-142.857142857143,4,2,60,80,0,0
629240,-33.3333333333333,4,2,60,80,0,0
629412,-66.6666666666667,4,3,60,90,0,0
629757,-33.3333333333333,4,3,61,90,0,0
630016,-50,4,3,60,90,0,0
630188,-40,4,3,60,90,0,0
630447,-66.6666666666667,4,3,63,90,0,0
630619,-133.333333333333,4,3,61,90,0,0
630964,-50,4,3,61,90,0,0
631136,-33.3333333333333,4,3,63,90,0,0
631395,-166.666666666667,4,3,64,90,0,0
631653,-28.5714285714286,4,3,65,90,0,0
631826,-33.3333333333333,4,3,63,90,0,0
631998,-40,4,3,63,65,0,0
632171,-66.6666666666667,4,3,60,90,0,0
632516,-33.3333333333333,4,3,62,90,0,0
632774,-50,4,3,60,90,0,0
632947,-40,4,3,60,90,0,0
633205,-50,4,3,60,90,0,0
633464,-33.3333333333333,4,3,60,90,0,0
633636,-100,4,3,63,90,0,0
633895,-50,4,3,60,90,0,0
633981,-50,4,3,63,90,0,0
634240,-40,4,3,63,90,0,0
634412,-66.6666666666667,4,3,63,90,0,0
634757,-33.3333333333333,4,3,66,90,0,0
634929,-66.6666666666667,4,3,60,90,0,0
635274,-33.3333333333333,4,3,61,90,0,0
635533,-50,4,3,60,90,0,0
635705,-40,4,3,60,90,0,0
635964,-33.3333333333333,4,3,60,90,0,0
636481,-28.5714285714286,4,3,66,90,0,0
636912,-28.5714285714286,4,3,65,90,0,0
637084,-25,4,3,65,90,0,0
637170,-25,4,3,60,90,0,0
637343,-25,4,3,64,90,0,0
637516,-25,4,3,63,90,0,0
637688,-111.111111111111,4,3,60,90,0,0
638033,-50,4,3,62,90,0,0
638981,-23.2558139534884,4,3,66,90,0,0
639153,-83.3333333333333,4,3,66,90,0,0
639412,-62.5,4,3,60,90,0,0
639671,-38.4615384615385,4,3,60,90,0,0
639929,-66.6666666666667,4,3,60,90,0,0
640274,-100,4,3,60,90,0,0
640447,-66.6666666666667,4,3,60,90,0,0
640791,-50,4,3,61,90,0,0
641826,-133.333333333333,4,3,61,90,0,0
642171,-33.3333333333333,4,3,63,90,0,0
642516,-22.2222222222222,4,3,64,90,0,0
642688,-22.2222222222222,4,3,63,90,0,0
642947,-44.4444444444445,4,3,62,90,0,0
643205,-66.6666666666667,4,3,62,90,0,0
643550,-50,4,3,60,90,0,0
643809,-66.6666666666667,4,3,60,90,0,0
643981,-50,4,3,60,90,0,0
644498,-23.2558139534884,4,3,66,90,0,0
644671,-83.3333333333333,4,3,66,90,0,0
645016,-66.6666666666667,4,3,60,90,0,0
645188,-33.3333333333333,4,3,60,90,0,0
645619,-100,4,3,60,90,0,0
645964,-66.6666666666667,4,3,60,90,0,0
646309,-50,4,3,61,90,0,0
646567,-66.6666666666667,4,3,60,90,0,0
646740,-50,4,3,60,90,0,0
646998,-66.6666666666667,4,3,64,90,0,0
647171,-33.3333333333333,4,3,62,90,0,0
647343,-44.4444444444445,4,3,63,90,0,0
648205,-100,4,3,60,90,0,0
648722,-33.3333333333333,4,3,60,90,0,0
649067,-50,4,3,60,90,0,0
649412,-40,4,3,60,90,0,0
649843,-40,4,3,65,90,0,0
650188,-40,4,3,60,90,0,0
650447,-33.3333333333333,4,3,60,90,0,0
650619,-33.3333333333333,4,3,64,90,0,0
650791,-44.4444444444445,4,3,62,90,0,0
651136,-30.7692307692308,4,3,60,90,0,0
651309,-30.7692307692308,4,3,65,90,0,0
651481,-36.3636363636364,4,3,60,90,0,0
651826,-50,4,3,60,90,0,0
651998,-57.1428571428571,4,3,60,90,0,0
652171,-200,4,2,40,65,0,0
652516,-200,4,3,60,90,0,0
652602,-40,4,3,60,90,0,0
652860,-66.6666666666667,4,3,60,90,0,0
653205,-40,4,3,60,90,0,0
653378,-80,4,3,60,90,0,0
653550,-33.3333333333333,4,3,66,90,0,0
653809,-33.3333333333333,4,3,60,90,0,0
653895,-40,4,3,60,90,0,0
654067,-25,4,3,64,90,0,0
654240,-33.3333333333333,4,3,60,90,0,0
654584,-50,4,3,60,90,0,0
654929,-200,4,2,40,65,0,0
655274,-200,4,3,60,90,0,0
655360,-40,4,3,65,90,0,0
655619,-40,4,3,60,90,0,0
655964,-30.7692307692308,4,3,60,90,0,0
656136,-40,4,3,63,90,0,0
656309,-36.3636363636364,4,3,63,90,0,0
656610,-36.3636363636364,4,3,60,90,0,0
656653,-36.3636363636364,4,3,64,90,0,0
656826,-36.3636363636364,4,3,63,90,0,0
656998,-28.9855072463768,4,3,60,90,0,0
657343,-57.1428571428571,4,3,60,90,0,0
657516,-133.333333333333,4,3,60,90,0,0
657688,-200,4,2,40,65,0,0
658033,-40,4,3,60,95,0,0
658378,-30.7692307692308,4,3,63,95,0,0
658722,-66.6666666666667,4,3,60,95,0,0
658895,-31.7460317460317,4,3,60,95,0,0
659153,-57.1428571428571,4,3,60,95,0,0
659412,-36.3636363636364,4,3,60,95,0,0
659584,-66.6666666666667,4,3,60,95,0,0
659757,-40,4,3,60,95,0,0
659929,-58.8235294117647,4,3,60,95,0,0
660102,-200,4,3,60,90,0,0
660188,-200,4,2,40,60,0,0
660447,-200,4,2,40,90,0,0
660533,-36.3636363636364,4,3,40,95,0,0
660791,-36.3636363636364,4,3,60,95,0,0
660878,-66.6666666666667,4,3,65,95,0,0
661136,-40,4,3,60,95,0,0
661653,-33.3333333333333,4,3,61,95,0,0
661826,-33.3333333333333,4,3,63,95,0,0
662257,-27.027027027027,4,3,64,95,0,0
662516,-100,4,3,60,95,0,0
662860,-200,4,3,60,90,0,0
662946,-200,4,2,40,60,0,0
663205,-200,4,2,40,90,0,0
663291,-36.3636363636364,4,3,60,95,0,0
663636,-66.6666666666667,4,3,65,95,0,0
663895,-66.6666666666667,4,3,60,95,0,0
664240,-36.3636363636364,4,3,60,95,0,0
664412,-27.7777777777778,4,3,60,95,0,0
664929,-100,4,3,60,95,0,0
665274,-33.3333333333333,4,3,60,95,0,0
665619,-200,4,3,60,90,0,0
665705,-200,4,2,40,60,0,0
665964,-200,4,2,40,90,0,0
666050,-35.0877192982456,4,3,60,95,0,0
666309,-66.6666666666667,4,3,65,95,0,0
666653,-36.3636363636364,4,3,60,95,0,0
667171,-36.3636363636364,4,3,63,95,0,0
667688,-36.3636363636364,4,3,64,95,0,0
667860,-36.3636363636364,4,3,63,95,0,0
668033,-31.25,4,3,60,95,0,0
668378,-200,4,3,60,90,0,0
668464,-200,4,2,40,45,0,0
668722,-200,4,2,40,90,0,0
668809,-100,4,3,40,95,0,0
669067,-28.5714285714286,4,3,63,95,0,0
669412,-50,4,3,60,95,0,0
670102,-200,4,3,60,95,0,0
670791,342.857142857143,4,2,71,80,1,0
670791,-66.6666666666667,4,2,71,80,0,0
670876,-66.6666666666667,4,2,73,80,0,0
671048,-66.6666666666667,4,2,71,80,0,0
671133,-80.3212851405623,4,2,71,80,0,0
671219,-80.3212851405623,4,2,72,80,0,0
671391,-80.3212851405623,4,2,71,80,0,0
671476,-66.6666666666667,4,2,71,80,0,0
671562,-66.6666666666667,4,2,74,80,0,0
671819,-80.3212851405623,4,2,71,80,0,0
671991,-80.3212851405623,4,2,73,80,0,0
672162,-80.3212851405623,4,2,71,80,0,0
672505,-80.3212851405623,4,2,72,80,0,0
672676,-80.3212851405623,4,2,71,80,0,0
672848,-66.6666666666667,4,2,71,80,0,0
673191,-80.3212851405623,4,2,73,80,0,0
673533,-66.6666666666667,4,2,71,80,0,0
673705,-66.6666666666667,4,2,73,80,0,0
673876,-80.3212851405623,4,2,71,80,0,0
674048,-80.3212851405623,4,2,72,80,0,0
674219,-80.3212851405623,4,2,71,80,0,0
674391,-80.3212851405623,4,2,74,80,0,0
674562,-80.3212851405623,4,2,71,80,0,0
674733,-80.3212851405623,4,2,73,80,0,0
674905,-66.6666666666667,4,2,71,80,0,0
675248,-80.3212851405623,4,2,72,80,0,0
675419,-80.3212851405623,4,2,71,80,0,0
675591,-66.6666666666667,4,2,71,80,0,0
675934,-80.3212851405623,4,2,71,80,0,0
676276,-66.6666666666667,4,2,71,80,0,0
676362,-66.6666666666667,4,2,72,80,0,0
676533,-66.6666666666667,4,2,71,80,0,0
676619,-80.3212851405623,4,2,71,80,0,0
676705,-80.3212851405623,4,2,72,80,0,0
676791,-80.3212851405623,4,2,72,65,0,0
676876,-80.3212851405623,4,2,71,80,0,0
676962,-66.6666666666667,4,2,71,80,0,0
677048,-66.6666666666667,4,2,74,80,0,0
677305,-80.3212851405623,4,2,71,80,0,0
677476,-80.3212851405623,4,2,73,80,0,0
677648,-80.3212851405623,4,2,71,80,0,0
677991,-80.3212851405623,4,2,72,80,0,0
678162,-80.3212851405623,4,2,71,80,0,0
678333,-66.6666666666667,4,2,71,80,0,0
678676,-80.3212851405623,4,2,73,80,0,0
678762,-80.3212851405623,4,2,73,75,0,0
678848,-80.3212851405623,4,2,73,70,0,0
678933,-80.3212851405623,4,2,73,65,0,0
679019,-66.6666666666667,4,2,71,80,0,0
679191,-66.6666666666667,4,2,73,80,0,0
679362,-80.3212851405623,4,2,71,80,0,0
679533,-80.3212851405623,4,2,72,80,0,0
679705,-80.3212851405623,4,2,71,80,0,0
679876,-80.3212851405623,4,2,74,80,0,0
680048,-80.3212851405623,4,2,71,80,0,0
680391,-66.6666666666667,4,2,71,80,0,0
680733,-80.3212851405623,4,2,72,80,0,0
680905,-80.3212851405623,4,2,71,80,0,0
681076,-66.6666666666667,4,2,71,80,0,0
681419,-80.3212851405623,4,2,71,80,0,0
681762,-66.6666666666667,4,2,71,80,0,0
681933,-66.6666666666667,4,2,73,80,0,0
682105,-80.3212851405623,4,2,73,80,0,0
682276,-80.3212851405623,4,2,71,80,0,0
682447,-66.6666666666667,4,2,71,80,0,0
682619,-66.6666666666667,4,2,74,80,0,0
682790,-80.3212851405623,4,2,71,80,0,0
682962,-80.3212851405623,4,2,73,80,0,0
683133,-80.3212851405623,4,2,71,80,0,0
683476,-80.3212851405623,4,2,72,80,0,0
683648,-80.3212851405623,4,2,71,80,0,0
683819,-66.6666666666667,4,2,71,80,0,0
684162,-80.3212851405623,4,2,74,80,0,0
684504,-66.6666666666667,4,2,71,80,0,0
684676,-66.6666666666667,4,2,73,80,0,0
684847,-80.3212851405623,4,2,71,80,0,0
685019,-80.3212851405623,4,2,72,80,0,0
685191,-80.3212851405623,4,2,71,80,0,0
685362,-80.3212851405623,4,2,74,80,0,0
685533,-80.3212851405623,4,2,71,80,0,0
685705,-80.3212851405623,4,2,73,80,0,0
685876,-66.6666666666667,4,2,71,80,0,0
686219,-80.3212851405623,4,2,72,80,0,0
686391,-80.3212851405623,4,2,71,80,0,0
686562,-66.6666666666667,4,2,71,80,0,0
686905,-80.3212851405623,4,2,71,80,0,0
687247,-66.6666666666667,4,2,71,80,0,0
687333,-66.6666666666667,4,2,73,80,0,0
687505,-66.6666666666667,4,2,71,80,0,0
687590,-80.3212851405623,4,2,71,80,0,0
687676,-80.3212851405623,4,2,74,80,0,0
687933,-66.6666666666667,4,2,71,80,0,0
688105,-66.6666666666667,4,2,73,80,0,0
688276,-80.3212851405623,4,2,71,80,0,0
688448,-80.3212851405623,4,2,73,80,0,0
688619,-80.3212851405623,4,2,71,80,0,0
688962,-80.3212851405623,4,2,72,80,0,0
689133,-80.3212851405623,4,2,71,80,0,0
689304,-66.6666666666667,4,2,71,80,0,0
689647,-80.3212851405623,4,2,73,80,0,0
689990,-66.6666666666667,4,2,71,80,0,0
690162,-66.6666666666667,4,2,73,80,0,0
690333,-80.3212851405623,4,2,71,80,0,0
690505,-80.3212851405623,4,2,72,80,0,0
690676,-80.3212851405623,4,2,71,80,0,0
690848,-80.3212851405623,4,2,74,80,0,0
691019,-80.3212851405623,4,2,71,80,0,0
691191,-80.3212851405623,4,2,73,80,0,0
691362,-66.6666666666667,4,2,71,80,0,0
691705,-80.3212851405623,4,2,72,80,0,0
691876,-80.3212851405623,4,2,71,80,0,0
692047,-66.6666666666667,4,2,71,80,0,0
692219,-66.6666666666667,4,2,74,80,0,0
692390,-80.3212851405623,4,2,71,65,0,0
692433,-80.3212851405623,4,2,71,70,0,0
692476,-80.3212851405623,4,2,71,75,0,0
692519,-80.3212851405623,4,2,71,80,0,0
692562,-80.3212851405623,4,2,71,85,0,0
692605,-80.3212851405623,4,2,71,90,0,0
692733,-80,4,2,71,95,0,0
692819,-80,4,2,73,80,0,0
692991,-80,4,2,71,80,0,0
693162,-80,4,2,72,80,0,0
693333,-80,4,2,71,80,0,0
693505,-80,4,2,74,80,0,0
693591,-54.054054054054,4,2,74,80,0,0
693762,-54.054054054054,4,2,71,80,0,0
693933,-54.054054054054,4,2,73,80,0,0
694105,-80,4,2,71,80,0,0
694448,-80,4,2,72,80,0,0
694619,-80,4,2,71,80,0,0
695133,-80,4,2,74,80,0,0
695476,-80,4,2,71,80,0,0
695648,-80,4,2,73,80,0,0
695819,-80,4,2,71,80,0,0
695991,-80,4,2,72,80,0,0
696162,-80,4,2,71,80,0,0
696333,-80,4,2,74,80,0,0
696505,-54.054054054054,4,2,71,80,0,0
696676,-54.054054054054,4,2,73,80,0,0
696848,-80,4,2,71,80,0,0
697191,-80,4,2,72,80,0,0
697362,-80,4,2,71,80,0,0
697876,-80,4,2,73,80,0,0
698219,-80,4,2,71,80,0,0
698305,-80,4,2,73,80,0,0
698476,-80,4,2,71,80,0,0
698648,-80,4,2,72,80,0,0
698819,-80,4,2,71,80,0,0
698991,-80,4,2,74,80,0,0
699248,-80,4,2,71,80,0,0
699419,-80,4,2,73,80,0,0
699591,-80,4,2,71,80,0,0
699933,-80,4,2,72,80,0,0
700105,-80,4,2,71,80,0,0
700276,-60.6060606060606,4,2,71,80,0,0
700619,-60.6060606060606,4,2,73,80,0,0
700962,-60.6060606060606,4,2,71,80,0,0
701133,-60.6060606060606,4,2,73,80,0,0
701305,-80,4,2,71,80,0,0
701476,-80,4,2,72,80,0,0
701648,-80,4,2,71,80,0,0
701819,-80,4,2,74,80,0,0
701991,-80,4,2,71,80,0,0
702162,-80,4,2,73,80,0,0
702333,-80,4,2,71,80,0,0
702676,-80,4,2,72,80,0,0
702762,-54.054054054054,4,2,72,80,0,0
702848,-54.054054054054,4,2,71,80,0,0
703019,-80,4,2,71,80,0,0
703876,-80,4,2,73,80,0,0
704219,-80,4,2,71,80,0,0
704562,-54.054054054054,4,2,74,80,0,0
704733,-54.054054054054,4,2,71,80,0,0
704905,-54.054054054054,4,2,73,80,0,0
705076,-80,4,2,71,80,0,0
705419,-80,4,2,72,80,0,0
705591,-80,4,2,71,80,0,0
706105,-80,4,2,74,80,0,0
706447,-80,4,2,71,80,0,0
706619,-80,4,2,73,80,0,0
706790,-80,4,2,71,80,0,0
706962,-80,4,2,72,80,0,0
707134,-80,4,2,71,80,0,0
707305,-80,4,2,74,80,0,0
707476,-80,4,2,71,80,0,0
707648,-80,4,2,73,80,0,0
707819,-80,4,2,71,80,0,0
708162,-80,4,2,72,80,0,0
708334,-80,4,2,71,80,0,0
709276,-80,4,2,73,80,0,0
709448,-80,4,2,71,80,0,0
709619,-80,4,2,74,80,0,0
709876,-80,4,2,71,80,0,0
710048,-80,4,2,73,80,0,0
710219,-80,4,2,71,80,0,0
710391,-80,4,2,73,80,0,0
710562,-80,4,2,71,80,0,0
710905,-80,4,2,72,80,0,0
711076,-80,4,2,71,80,0,0
711590,-80,4,2,73,80,0,0
711933,-80,4,2,71,80,0,0
712105,-80,4,2,73,80,0,0
712276,-80,4,2,71,80,0,0
712448,-80,4,2,72,80,0,0
712619,-80,4,2,71,80,0,0
712791,-80,4,2,74,80,0,0
712962,-80,4,2,71,80,0,0
713134,-80,4,2,73,80,0,0
713305,-80,4,2,71,80,0,0
713648,-80,4,2,72,80,0,0
713819,-80,4,2,71,80,0,0
714505,-80,4,2,2,80,0,0
714676,326.086956521739,4,2,80,50,1,0
714676,-333.333333333333,4,2,80,50,0,0
715246,-333.333333333333,4,2,80,5,0,0
715328,-250.000000000001,4,2,80,50,0,0
715572,-250.000000000001,4,2,80,5,0,0
715654,-250.000000000001,4,2,80,50,0,0
715980,-100,4,2,80,50,0,0
716306,-100,4,2,80,5,0,0
716326,-100,4,2,80,50,0,0
716551,-250,4,2,80,5,0,0
716632,-125,4,2,80,50,0,0
716795,-125,4,2,80,5,0,0
716958,-125,4,2,80,50,0,0
717121,-125,4,2,80,5,0,0
717284,-100,4,2,80,50,0,0
718018,-100,4,2,80,15,0,0
718589,-111.111111111111,4,2,80,50,0,0
718915,-111.111111111111,4,2,80,5,0,0
718935,-111.111111111111,4,2,80,50,0,0
719241,-111.111111111111,4,2,80,5,0,0
719261,-111.111111111111,4,2,80,50,0,0
719567,-111.111111111111,4,2,80,5,0,0
719587,-111.111111111111,4,2,80,50,0,0
719811,-111.111111111111,4,2,80,5,0,0
719893,-249.999999999999,4,2,80,50,0,0
720219,-249.999999999999,4,2,80,5,0,0
720545,-249.999999999999,4,2,80,50,0,0
720790,-249.999999999999,4,2,80,5,0,0
720871,-249.999999999999,4,2,80,50,0,0
721197,-100,4,2,80,50,0,0
721523,-100,4,2,80,5,0,0
721544,-100,4,2,80,50,0,0
721768,-100,4,2,80,5,0,0
721849,-111.111111111111,4,2,80,50,0,0
722012,-111.111111111111,4,2,80,5,0,0
722176,-111.111111111111,4,2,80,50,0,0
722339,-111.111111111111,4,2,80,5,0,0
722502,-111.111111111111,4,2,80,40,0,0
723113,-111.111111111111,4,2,80,5,0,0
723154,-166.666666666666,4,2,80,40,0,0
723480,-166.666666666666,4,2,80,5,0,0
723806,-199.999999999999,4,2,80,30,0,0
724132,-199.999999999999,4,2,80,5,0,0
724458,-249.999999999999,4,2,80,20,0,0
724784,-249.999999999999,4,2,80,5,0,0
725110,-333.333333333331,4,2,80,40,0,0
725436,-333.333333333331,4,2,80,5,0,0
725457,-333.333333333331,4,2,80,40,0,0
725681,-333.333333333331,4,2,80,5,0,0
725762,-249.999999999999,4,2,80,40,0,0
726007,-249.999999999999,4,2,80,5,0,0
726089,-249.999999999999,4,2,80,40,0,0
726415,-100,4,2,80,40,0,0
726741,-100,4,2,80,5,0,0
726761,-100,4,2,80,40,0,0
726985,-100,4,2,80,5,0,0
727067,-125,4,2,80,40,0,0
727230,-125,4,2,80,5,0,0
727393,-125,4,2,80,40,0,0
727556,-125,4,2,80,5,0,0
727719,-166.666666666667,4,2,80,40,0,0
729023,-111.111111111111,4,2,80,40,0,0
729349,-111.111111111111,4,2,80,5,0,0
729370,-111.111111111111,4,2,80,40,0,0
729676,-111.111111111111,4,2,80,5,0,0
729696,-111.111111111111,4,2,80,40,0,0
730002,-111.111111111111,4,2,80,5,0,0
730022,-111.111111111111,4,2,80,40,0,0
730246,-111.111111111111,4,2,80,5,0,0
730328,-249.999999999999,4,2,80,40,0,0
730654,-249.999999999999,4,2,80,5,0,0
730980,-249.999999999999,4,2,80,40,0,0
731224,-249.999999999999,4,2,80,5,0,0
731306,-249.999999999999,4,2,80,40,0,0
731632,-100,4,2,80,40,0,0
731958,-100,4,2,80,5,0,0
731978,-100,4,2,80,40,0,0
732203,-100,4,2,80,5,0,0
732284,-125,4,2,80,40,0,0
732447,-125,4,2,80,5,0,0
732610,-125,4,2,80,40,0,0
732773,-125,4,2,80,5,0,0
732936,-166.666666666667,4,2,80,40,0,0
733589,-166.666666666667,4,2,80,40,0,0
733915,-166.666666666666,4,2,80,5,0,0
734241,-199.999999999999,4,2,80,30,0,0
734567,-199.999999999999,4,2,80,5,0,0
734893,-249.999999999999,4,2,80,20,0,0
735219,-249.999999999999,4,2,80,5,0,0
735571,384.615384615384,4,2,80,40,1,0
735571,-500,4,2,80,40,0,0
735955,-500,4,2,80,5,0,0
735979,-500,4,2,80,40,0,0
736244,-500,4,2,80,5,0,0
736340,410.958904109589,4,2,80,40,1,0
736340,-166.666666666667,4,2,80,40,0,0
736750,-166.666666666667,4,2,80,5,0,0
736776,-166.666666666667,4,2,80,40,0,0
737161,-166.666666666667,4,2,80,5,0,0
737187,-166.666666666667,4,2,80,40,0,0
737367,-166.666666666667,4,2,80,5,0,0
737572,399.999999999999,4,2,80,40,1,0
737572,-500,4,2,80,40,0,0
737972,-500,4,2,80,5,0,0
737997,-500,4,2,80,40,0,0
738072,-333.333333333333,4,2,80,5,0,0
738172,422.535211267604,4,2,80,40,1,0
738172,-166.666666666667,4,2,80,40,0,0
738594,-166.666666666667,4,2,80,5,0,0
738620,-166.666666666667,4,2,80,40,0,0
739017,-166.666666666667,4,2,80,5,0,0
739043,-166.666666666667,4,2,80,40,0,0
739333,-166.666666666667,4,2,80,5,0,0
739439,422.535211267604,4,2,80,40,1,0
739439,-333.333333333333,4,2,80,40,0,0
739861,-333.333333333333,4,2,80,5,0,0
739887,-333.333333333333,4,2,80,40,0,0
740072,-333.333333333333,4,2,80,5,0,0
740125,427.259132663961,4,2,80,40,1,0
740125,-238.095238095238,4,2,80,40,0,0
740552,-238.095238095238,4,2,80,5,0,0
740578,-238.095238095238,4,2,80,40,0,0
740979,-238.095238095238,4,2,80,5,0,0
741006,-238.095238095238,4,2,80,40,0,0
741406,-238.095238095238,4,2,80,5,0,0
741433,-238.095238095238,4,2,80,40,0,0
741834,-238.095238095238,4,2,80,5,0,0
741860,-238.095238095238,4,2,80,40,0,0
742261,-238.095238095238,4,2,80,5,0,0
742287,-238.095238095238,4,2,80,40,0,0
742688,-238.095238095238,4,2,80,5,0,0
742715,-238.095238095238,4,2,80,40,0,0
743115,-238.095238095238,4,2,80,5,0,0
743142,-238.095238095238,4,2,80,40,0,0
743543,-238.095238095238,4,2,80,5,0,0
743569,-238.095238095238,4,2,80,40,0,0
743970,-238.095238095238,4,2,80,5,0,0
743997,-238.095238095238,4,2,80,40,0,0
744397,-238.095238095238,4,2,80,5,0,0
744424,-238.095238095238,4,2,80,40,0,0
744824,-238.095238095238,4,2,80,5,0,0
744851,-238.095238095238,4,2,80,40,0,0
745252,-238.095238095238,4,2,80,5,0,0
745278,-238.095238095238,4,2,80,40,0,0
745679,-238.095238095238,4,2,80,5,0,0
745706,-238.095238095238,4,2,80,40,0,0
746106,-238.095238095238,4,2,80,5,0,0
746133,-238.095238095238,4,2,80,40,0,0
746533,333.333333333333,4,2,80,55,1,0
746865,326.086956521739,4,2,81,75,1,0
746865,-33.3333333333333,4,2,81,75,0,0
747191,-41.6666666666667,4,2,81,75,0,0
747435,-66.6666666666667,4,2,81,75,0,0
747843,-41.6666666666667,4,2,81,75,0,0
748984,-38.4615384615385,4,2,81,75,0,0
749473,-50,4,2,81,75,0,0
754038,-41.6666666666667,4,2,81,75,0,0
754283,-41.6666666666667,4,2,81,75,0,0
754365,-41.6666666666667,4,2,81,75,0,0
754528,-33.3333333333333,4,2,81,75,0,0
755017,-50,4,2,81,75,0,0
755180,-66.6666666666667,4,2,81,75,0,0
755995,-38.4615384615385,4,2,81,75,0,0
756076,-38.4615384615385,4,2,81,5,0,0
756158,-38.4615384615385,4,2,81,75,0,0
756240,-38.4615384615385,4,2,81,5,0,0
756321,-38.4615384615385,4,2,81,75,0,0
756403,-38.4615384615385,4,2,81,5,0,0
756484,-33.3333333333333,4,2,81,75,0,0
756566,-33.3333333333333,4,2,81,5,0,0
756647,-33.3333333333333,4,2,81,75,0,0
756729,-33.3333333333333,4,2,81,5,0,0
756810,-33.3333333333333,4,2,81,75,0,0
756892,-33.3333333333333,4,2,81,5,0,0
756973,-41.6666666666667,4,2,81,75,0,0
757055,-41.6666666666667,4,2,81,5,0,0
757136,-41.6666666666667,4,2,81,75,0,0
757218,-41.6666666666667,4,2,81,5,0,0
757299,-133.333333333333,4,2,81,75,0,0
757625,-33.3333333333333,4,2,81,75,0,0
757951,-41.6666666666667,4,2,81,75,0,0
758278,-66.6666666666667,4,2,81,75,0,0
758767,-33.3333333333333,4,2,81,75,0,0
759256,-50,4,2,81,75,0,0
759908,-133.333333333333,4,2,81,75,0,0
760234,-33.3333333333333,4,2,81,75,0,0
760560,-41.6666666666667,4,2,81,75,0,0
760886,-66.6666666666667,4,2,81,75,0,0
761212,-33.3333333333333,4,2,81,75,0,0
762843,-41.6666666666667,4,2,81,75,0,0
763087,-50,4,2,81,75,0,0
763495,-66.6666666666667,4,2,81,75,0,0
763821,-50,4,2,81,75,0,0
763984,-33.3333333333333,4,2,81,75,0,0
764473,-40,4,2,81,75,0,0
764636,-50,4,2,81,75,0,0
764799,-33.3333333333333,4,2,81,75,0,0
765125,-133.333333333333,4,2,81,75,0,0
765451,-33.3333333333333,4,2,81,75,0,0
765778,-41.6666666666667,4,2,81,75,0,0
766104,-33.3333333333333,4,2,81,75,0,0
766430,-133.333333333333,4,2,81,75,0,0
766511,-133.333333333333,4,2,81,5,0,0
766593,-133.333333333333,4,2,81,75,0,0
766674,-37.037037037037,4,2,81,5,0,0
766756,-41.6666666666667,4,2,81,75,0,0
766837,-41.6666666666667,4,2,81,5,0,0
766919,-50,4,2,81,75,0,0
767000,-50,4,2,81,5,0,0
767082,-100,4,2,81,75,0,0
767734,-133.333333333333,4,2,81,75,0,0
768060,-50,4,2,81,75,0,0
768386,-100,4,2,81,75,0,0
768712,-50,4,2,81,75,0,0
768875,-100,4,2,81,75,0,0
769201,-50,4,2,81,75,0,0
769365,-100,4,2,81,75,0,0
769691,-50,4,2,81,75,0,0
770017,-100,4,2,81,75,0,0
770180,-41.6666666666667,4,2,81,75,0,0
770669,-44.4444444444445,4,2,81,75,0,0
772625,-133.333333333333,4,2,81,75,0,0
772951,-66.6666666666667,4,2,81,75,0,0
773278,-50,4,2,81,75,0,0
775560,-40,4,2,81,75,0,0
776538,-66.6666666666667,4,2,81,75,0,0
776865,-1000,4,2,81,75,0,0
778087,-1000,4,2,0,70,0,0
778169,-66.6666666666667,4,2,81,75,0,0
778332,-100,4,2,81,75,0,0
778495,-50,4,2,81,75,0,0
778821,-200,4,2,81,75,0,0
779147,-50,4,2,81,75,0,0
779636,-100,4,2,81,75,0,0
780778,-66.6666666666667,4,2,81,75,0,0
780941,-100,4,2,81,75,0,0
781104,-50,4,2,81,75,0,0
781430,-200,4,2,81,75,0,0
781593,-50,4,2,81,75,0,0
783060,-100,4,2,81,75,0,0
783386,-66.6666666666667,4,2,81,75,0,0
783549,-100,4,2,81,75,0,0
783712,-50,4,2,81,75,0,0
784038,-200,4,2,81,75,0,0
784365,-50,4,2,81,75,0,0
784691,-200,4,2,81,75,0,0
784854,-50,4,2,81,75,0,0
786158,-66.6666666666667,4,2,81,75,0,0
786321,-400,4,2,81,75,0,0
786973,-600,4,2,81,75,0,0
787299,-400,4,2,81,75,0,0
787788,-33.3333333333333,4,2,81,75,0,0
788604,-33.3333333333333,4,2,80,75,0,0
788685,-33.3333333333333,4,2,80,75,0,0
791212,-33.3333333333333,4,2,81,60,0,0
799038,-200,4,2,81,45,0,0
800179,-200,4,2,81,5,0,0
800343,-125,4,2,81,45,0,0
801484,-125,4,2,81,5,0,0
801647,-90.9090909090909,4,2,82,45,0,0
803603,-90.9090909090909,4,2,82,5,0,0
803930,-90.9090909090909,4,2,82,45,0,0
804256,-125,4,2,82,45,0,0
806701,-125,4,2,82,5,0,0
806865,-125,4,2,81,45,0,0
807843,-125,4,2,81,5,0,0
808006,-125,4,2,81,45,0,0
808169,-125,4,2,81,45,0,0
809147,-125,4,2,82,50,0,0
809473,-125,4,2,89,50,0,0
809555,-125,4,2,82,50,0,0
819908,-90.9090909090909,4,2,82,50,0,0
820397,-105.263157894737,4,2,82,50,0,0
823821,-125,4,2,82,55,0,0
824636,-105.263157894737,4,2,82,55,0,0
825125,-76.9230769230769,4,2,82,65,0,0
825615,-90.9090909090909,4,2,82,65,0,0
827734,-83.3333333333333,4,2,82,75,0,0
830343,-222.222222222222,4,2,82,60,0,0
830587,-222.222222222222,4,2,82,45,0,0
831647,-222.222222222222,4,2,84,25,0,0
831728,-222.222222222222,4,2,82,5,0,0
831810,-222.222222222222,4,2,84,25,0,0
831891,-222.222222222222,4,2,82,5,0,0
831973,-222.222222222222,4,2,82,25,0,0
832380,-222.222222222222,4,2,82,5,0,0
832951,-222.222222222222,4,2,84,25,0,0
832992,-222.222222222222,4,2,82,25,0,0
833685,-222.222222222222,4,2,82,5,0,0
834256,-100,4,2,83,75,0,0
834419,-25,4,2,83,75,0,0
834908,-100,4,2,83,75,0,0
835071,-25,4,2,83,90,0,0
835886,-100,4,2,83,85,0,0
836130,-100,4,2,83,50,0,0
836212,-60.2409638554217,4,2,83,85,0,0
837517,-40,4,2,83,85,0,0
838006,-60.2409638554217,4,2,83,85,0,0
838169,-25,4,2,83,85,0,0
838495,-50,4,2,83,85,0,0
838658,-25,4,2,83,85,0,0
838821,-50,4,2,83,85,0,0
838903,-50,4,2,83,50,0,0
838984,-50,4,2,83,85,0,0
840451,-25,4,2,83,85,0,0
841348,-25,4,2,83,60,0,0
841430,-60.2409638554217,4,2,83,85,0,0
842734,-25,4,2,83,85,0,0
843712,-50,4,2,83,85,0,0
844120,-50,4,2,83,60,0,0
844201,-50,4,2,83,85,0,0
844691,-59.8802395209581,4,2,83,85,0,0
845995,-12.8700128700129,4,2,83,80,0,0
846240,-12.8700128700129,4,2,83,5,0,0
846321,-38.4615384615385,4,2,83,80,0,0
846565,-38.4615384615385,4,2,83,5,0,0
846647,-66.6666666666667,4,2,83,90,0,0
846688,-66.6666666666667,4,2,83,5,0,0
846729,-43.4782608695652,4,2,83,90,0,0
846769,-43.4782608695652,4,2,83,5,0,0
846810,-71.4285714285714,4,2,83,90,0,0
846851,-71.4285714285714,4,2,83,5,0,0
846892,-55.5555555555556,4,2,83,90,0,0
846932,-55.5555555555556,4,2,83,5,0,0
846973,-25,4,2,83,90,0,0
847014,-25,4,2,83,5,0,0
847055,-45.4545454545455,4,2,83,90,0,0
847095,-45.4545454545455,4,2,83,5,0,0
847136,-66.6666666666667,4,2,83,90,0,0
847177,-66.6666666666667,4,2,83,5,0,0
847218,-58.8235294117647,4,2,83,90,0,0
847259,-58.8235294117647,4,2,83,5,0,0
847299,-100,4,2,83,90,0,0
847340,-100,4,2,83,5,0,0
847381,-55.5555555555556,4,2,83,90,0,0
847422,-55.5555555555556,4,2,83,5,0,0
847462,-25,4,2,83,90,0,0
847503,-25,4,2,83,5,0,0
847544,-45.4545454545455,4,2,83,90,0,0
847585,-45.4545454545455,4,2,83,5,0,0
847625,-71.4285714285714,4,2,83,90,0,0
847666,-71.4285714285714,4,2,83,5,0,0
847707,-55.5555555555556,4,2,83,90,0,0
847748,-55.5555555555556,4,2,83,5,0,0
847788,-100,4,2,83,90,0,0
847829,-100,4,2,83,5,0,0
847870,-62.5,4,2,83,90,0,0
847911,-62.5,4,2,83,5,0,0
847951,-25,4,2,83,90,0,0
847992,-25,4,2,83,5,0,0
848033,-45.4545454545455,4,2,83,90,0,0
848074,-45.4545454545455,4,2,83,5,0,0
848115,-62.5,4,2,83,90,0,0
848155,-62.5,4,2,83,5,0,0
848196,-47.6190476190476,4,2,83,90,0,0
848237,-47.6190476190476,4,2,83,5,0,0
848278,-31.25,4,2,83,90,0,0
848318,-31.25,4,2,83,5,0,0
848359,-41.6666666666667,4,2,83,90,0,0
848400,-41.6666666666667,4,2,83,5,0,0
848441,-27.7777777777778,4,2,83,90,0,0
848481,-27.7777777777778,4,2,83,5,0,0
848522,-38.4615384615385,4,2,83,90,0,0
848563,-38.4615384615385,4,2,83,5,0,0
848604,-15.1515151515152,4,2,83,80,0,0
848848,-15.1515151515152,4,2,83,5,0,0
848930,-68.9655172413793,4,2,83,80,0,0
849038,-51.2820512820513,4,2,83,80,0,0
849256,-76.9230769230769,4,2,83,80,0,0
849582,-45.4545454545455,4,2,83,80,0,0
849826,-45.4545454545455,4,2,83,5,0,0
849908,-25,4,2,83,90,0,0
849949,-25,4,2,83,5,0,0
849990,-45.4545454545455,4,2,83,90,0,0
850030,-45.4545454545455,4,2,83,5,0,0
850071,-76.9230769230769,4,2,83,90,0,0
850112,-76.9230769230769,4,2,83,5,0,0
850153,-43.4782608695652,4,2,83,90,0,0
850193,-43.4782608695652,4,2,83,5,0,0
850234,-100,4,2,83,90,0,0
850275,-100,4,2,83,5,0,0
850316,-66.6666666666667,4,2,83,90,0,0
850356,-66.6666666666667,4,2,83,5,0,0
850397,-25,4,2,83,90,0,0
850438,-25,4,2,83,5,0,0
850479,-41.6666666666667,4,2,83,90,0,0
850519,-41.6666666666667,4,2,83,5,0,0
850560,-100,4,2,83,90,0,0
850601,-100,4,2,83,90,0,0
850642,-55.5555555555556,4,2,83,90,0,0
850682,-55.5555555555556,4,2,83,5,0,0
850723,-83.3333333333333,4,2,83,90,0,0
850764,-83.3333333333333,4,2,83,5,0,0
850805,-55.5555555555556,4,2,83,90,0,0
850845,-55.5555555555556,4,2,83,5,0,0
850886,-12.3915737298637,4,2,83,90,0,0
851212,-12.3915737298637,4,2,83,80,0,0
851538,-44.4444444444445,4,2,83,80,0,0
851783,-44.4444444444445,4,2,83,80,0,0
851865,-66.6666666666667,4,2,83,90,0,0
851905,-66.6666666666667,4,2,83,5,0,0
851946,-43.4782608695652,4,2,83,90,0,0
851987,-43.4782608695652,4,2,83,5,0,0
852028,-71.4285714285714,4,2,83,90,0,0
852068,-71.4285714285714,4,2,83,5,0,0
852109,-55.5555555555556,4,2,83,90,0,0
852150,-55.5555555555556,4,2,83,5,0,0
852191,-25,4,2,83,90,0,0
852231,-25,4,2,83,5,0,0
852272,-45.4545454545455,4,2,83,90,0,0
852313,-45.4545454545455,4,2,83,5,0,0
852354,-100,4,2,83,90,0,0
852394,-66.6666666666667,4,2,83,5,0,0
852435,-58.8235294117647,4,2,83,90,0,0
852476,-58.8235294117647,4,2,83,5,0,0
852517,-100,4,2,83,90,0,0
852557,-100,4,2,83,5,0,0
852598,-55.5555555555556,4,2,83,90,0,0
852639,-55.5555555555556,4,2,83,5,0,0
852680,-25,4,2,83,90,0,0
852720,-25,4,2,83,5,0,0
852761,-45.4545454545455,4,2,83,90,0,0
852802,-45.4545454545455,4,2,83,5,0,0
852843,-71.4285714285714,4,2,83,90,0,0
852884,-71.4285714285714,4,2,83,5,0,0
852924,-55.5555555555556,4,2,83,90,0,0
852965,-55.5555555555556,4,2,83,5,0,0
853006,-100,4,2,83,90,0,0
853047,-100,4,2,83,5,0,0
853087,-62.5,4,2,83,90,0,0
853128,-62.5,4,2,83,5,0,0
853169,-25,4,2,83,90,0,0
853210,-25,4,2,83,5,0,0
853250,-45.4545454545455,4,2,83,90,0,0
853291,-45.4545454545455,4,2,83,5,0,0
853332,-100,4,2,83,90,0,0
853373,-100,4,2,83,5,0,0
853413,-47.6190476190476,4,2,83,90,0,0
853454,-47.6190476190476,4,2,83,5,0,0
853495,-31.25,4,2,83,90,0,0
853536,-31.25,4,2,83,5,0,0
853576,-41.6666666666667,4,2,83,90,0,0
853617,-41.6666666666667,4,2,83,5,0,0
853658,-27.7777777777778,4,2,83,90,0,0
853699,-27.7777777777778,4,2,83,5,0,0
853740,-41.6666666666667,4,2,83,90,0,0
853780,-41.6666666666667,4,2,83,5,0,0
853821,-18.2481751824818,4,2,83,85,0,0
854065,-18.2481751824818,4,2,83,5,0,0
854147,-25.6410256410256,4,2,83,85,0,0
854310,-25.6410256410256,4,2,83,35,0,0
854392,-25.6410256410256,4,2,83,85,0,0
854555,-25.6410256410256,4,2,83,5,0,0
854636,-25.6410256410256,4,2,83,85,0,0
854799,-25.6410256410256,4,2,83,85,0,0
854881,-25.6410256410256,4,2,83,85,0,0
855044,-25.6410256410256,4,2,83,5,0,0
855125,-25.6410256410256,4,2,83,85,0,0
855288,-25.6410256410256,4,2,83,5,0,0
855370,-25.6410256410256,4,2,83,85,0,0
855533,-25.6410256410256,4,2,83,5,0,0
855615,-16.6666666666667,4,2,83,95,0,0
856267,-16.6666666666667,4,2,83,95,0,0
856430,-500,4,2,83,85,0,0
856674,-500,4,2,83,5,0,0
856756,-33.3333333333333,4,2,83,85,0,0
857000,-33.3333333333333,4,2,83,5,0,0
857082,-50,4,2,83,85,0,0
857448,-50,4,2,83,5,0,0
857571,-50,4,2,83,85,0,0
857937,-50,4,2,83,5,0,0
858060,-50,4,2,83,85,0,0
858426,-50,4,2,83,5,0,0
858549,-50,4,2,83,85,0,0
858712,-25,4,2,83,85,0,0
858875,-50,4,2,83,85,0,0
858956,-50,4,2,83,5,0,0
859038,-40,4,2,83,85,0,0
859160,-40,4,2,83,5,0,0
859201,-28.5714285714286,4,2,83,85,0,0
859282,-28.5714285714286,4,2,83,5,0,0
859365,-28.5714285714286,4,2,83,85,0,0
859528,-33.3333333333333,4,2,83,85,0,0
859650,-33.3333333333333,4,2,83,5,0,0
859691,-100,4,2,83,85,0,0
860017,-33.3333333333333,4,2,83,85,0,0
860261,-33.3333333333333,4,2,83,5,0,0
860343,-50,4,2,83,85,0,0
861239,-50,4,2,83,5,0,0
861321,-25,4,2,83,85,0,0
861973,-33.3333333333333,4,2,83,85,0,0
862217,-33.3333333333333,4,2,83,5,0,0
862299,-50,4,2,83,85,0,0
862665,-50,4,2,83,5,0,0
862788,-50,4,2,83,85,0,0
863155,-50,4,2,83,5,0,0
863278,-50,4,2,83,85,0,0
863644,-50,4,2,83,5,0,0
863767,-50,4,2,83,85,0,0
864011,-50,4,2,83,5,0,0
864093,-50,4,2,83,85,0,0
864174,-50,4,2,83,5,0,0
864256,-33.3333333333333,4,2,83,85,0,0
864378,-33.3333333333333,4,2,83,5,0,0
864419,-28.5714285714286,4,2,83,85,0,0
864500,-28.5714285714286,4,2,83,5,0,0
864582,-33.3333333333333,4,2,83,85,0,0
864745,-33.3333333333333,4,2,83,5,0,0
864826,-43.4782608695652,4,2,83,85,0,0
864989,-43.4782608695652,4,2,83,5,0,0
865071,-100,4,2,83,85,0,0
865315,-100,4,2,83,5,0,0
865397,-100,4,2,83,85,0,0
865560,-50,4,2,83,85,0,0
865600,-50,4,2,83,5,0,0
865723,-50,4,2,83,85,0,0
866089,-50,4,2,83,5,0,0
866212,-50,4,2,83,85,0,0
866538,-25,4,2,83,85,0,0
866865,-250,4,2,83,85,0,0
867109,-250,4,2,83,5,0,0
867191,-25,4,2,83,85,0,0
867435,-25,4,2,83,5,0,0
867517,-25,4,2,83,85,0,0
867843,-66.6666666666667,4,2,83,85,0,0
867883,-66.6666666666667,4,2,83,5,0,0
868006,-66.6666666666667,4,2,83,85,0,0
868332,-50,4,2,83,85,0,0
868372,-50,4,2,83,5,0,0
868495,-50,4,2,83,85,0,0
868821,-40,4,2,83,85,0,0
868861,-40,4,2,83,5,0,0
868984,-40,4,2,83,85,0,0
869147,-25,4,2,83,85,0,0
869310,-50,4,2,83,85,0,0
869391,-50,4,2,83,5,0,0
869473,-33.3333333333333,4,2,83,75,0,0
869595,-33.3333333333333,4,2,83,5,0,0
869636,-66.6666666666667,4,2,83,75,0,0
869717,-66.6666666666667,4,2,83,5,0,0
869799,-66.6666666666667,4,2,83,75,0,0
869962,-50,4,2,83,75,0,0
870084,-50,4,2,83,5,0,0
870125,-133.333333333333,4,2,83,75,0,0
870451,-50,4,2,83,75,0,0
870695,-50,4,2,83,5,0,0
870778,-100,4,2,83,65,0,0
870859,-100,4,2,83,5,0,0
870941,-100,4,2,83,65,0,0
871348,-100,4,2,83,5,0,0
871430,-100,4,2,83,65,0,0
871756,-33.3333333333333,4,2,83,65,0,0
872082,-33.3333333333333,4,2,83,55,0,0
872408,-50,4,2,83,55,0,0
872611,-50,4,2,83,5,0,0
872734,-50,4,2,83,55,0,0
873060,-100,4,2,83,55,0,0
873100,-100,4,2,83,5,0,0
873223,-100,4,2,83,55,0,0
873386,-100,4,2,83,45,0,0
873589,-100,4,2,83,5,0,0
873712,-100,4,2,83,45,0,0
874038,-800,4,2,83,45,0,0
874528,-66.6666666666667,4,2,83,45,0,0
874609,-66.6666666666667,4,2,83,5,0,0
874691,-33.3333333333333,4,2,83,90,0,0
874854,-33.3333333333333,4,2,83,5,0,0
874935,-33.3333333333333,4,2,83,90,0,0
875017,-50,4,2,83,90,0,0
875180,-50,4,2,83,5,0,0
875261,-57.1428571428571,4,2,83,90,0,0
875424,-57.1428571428571,4,2,81,90,0,0
875506,-66.6666666666667,4,2,81,90,0,0
875750,-80,4,2,81,90,0,0
875913,-80,4,2,81,5,0,0
875995,-100,4,2,81,75,0,0
876809,-100,4,2,81,5,0,0
876865,-200,4,2,81,75,0,0
877299,-476.190476190476,4,2,20,50,0,0
898169,-476.190476190476,4,2,0,5,0,0

[Colours]
Combo1 : 177,35,35
Combo2 : 238,237,234
Combo3 : 197,187,158
Combo4 : 64,128,128
Combo5 : 164,210,219
Combo6 : 192,148,126
Combo7 : 147,68,68
Combo8 : 125,125,125

[HitObjects]
65,52,6803,5,0,0:0:0:0:
149,91,7281,85,0,0:0:0:0:
100,84,7759,21,0,0:0:0:0:
192,68,8237,85,2,0:0:0:0:
182,38,8487,1,0,0:0:0:0:
269,136,8737,21,0,0:0:0:0:
262,155,8960,1,0,0:0:0:0:
381,190,9184,86,0,P|351:203|323:219,1,64.9999970245363
201,254,9669,2,0,P|231:267|260:283,1,64.9999970245363
385,178,10130,21,2,0:0:0:0:
510,13,10347,85,0,0:0:0:0:
473,13,10623,1,0,0:0:0:0:
427,33,10857,1,0,0:0:0:0:
384,92,11091,2,0,P|333:69|281:51,1,110.000003356934
380,85,11800,1,0,0:0:0:0:
189,78,12036,22,0,P|251:87|292:137,1,129.999994049073,2|0,0:0|0:0,0:0:0:0:
230,185,12753,1,0,0:0:0:0:
230,185,12992,2,0,P|241:247|249:313,1,129.999994049073
397,219,13948,2,0,P|374:263|371:294,1,64.9999970245363,2|0,0:0|0:0,0:0:0:0:
429,329,14426,85,0,0:0:0:0:
199,128,14904,21,0,0:0:0:0:
502,212,15382,85,0,0:0:0:0:
425,156,15860,22,0,P|425:112|484:29,1,129.999994049073,2|0,0:0|0:0,0:0:0:0:
401,76,16572,1,0,0:0:0:0:
401,76,16812,2,0,L|350:58,2,44.999998626709
353,210,17749,86,0,P|383:196|415:188,1,64.9999970245363,2|0,0:0|0:0,0:0:0:0:
256,49,18225,2,0,P|270:112|279:177,1,129.999994049073
279,177,19181,1,0,0:0:0:0:
51,75,19661,21,0,0:0:0:0:
45,67,19757,2,0,P|92:79|166:12,1,150.000005722046,2|0,0:0|0:0,0:0:0:0:
128,102,20478,2,0,P|137:133|141:162,1,55.0000016784668
266,185,21212,86,0,P|239:190|212:199,1,55.0000016784668
98,218,21692,2,0,P|194:237|292:262,1,200,2|0,0:0|0:0,0:0:0:0:
376,188,22777,21,0,0:0:0:0:
405,218,23332,85,0,0:0:0:0:
422,204,24033,22,0,L|428:171,1,25,2|0,0:0|0:0,0:0:0:0:
378,115,24533,2,0,L|369:68,1,34.9999989318848
443,26,24998,85,0,0:0:0:0:
311,180,25459,2,0,L|321:235,1,44.999998626709
379,274,25942,22,0,P|425:263|481:252,1,89.9999972534181,2|0,0:0|0:0,0:0:0:0:
344,153,26656,1,0,0:0:0:0:
344,153,26896,2,0,P|380:161|425:170,2,69.9999978637696,0|0|2,0:0|0:0|0:0,0:0:0:0:
193,71,28069,86,0,L|202:30,2,34.9999989318848
122,129,28779,2,0,P|111:94|99:62,1,64.9999970245363
26,101,29226,2,0,P|36:128|48:156,1,55.0000016784668
174,280,29726,2,0,P|179:236|189:192,1,89.9999972534181,2|0,0:0|0:0,0:0:0:0:
47,323,30700,21,0,0:0:0:0:
190,192,31279,2,0,P|204:197|218:227,1,44.999998626709
315,312,31945,85,0,0:0:0:0:
319,318,32029,1,2,0:0:0:0:
327,308,32341,21,0,0:0:0:0:
235,223,32606,1,0,0:0:0:0:
223,219,32939,1,0,0:0:0:0:
156,162,33169,86,0,L|161:133,3,25
145,101,34250,22,0,L|149:125,1,25,2|0,0:0|0:0,0:0:0:0:
41,154,34790,2,0,P|65:117|63:58,1,89.9999972534181
7,8,35851,85,0,0:0:0:0:
14,2,36117,1,0,0:0:0:0:
14,2,38862,21,0,0:0:0:0:
116,45,39349,85,0,0:0:0:0:
191,204,39837,21,0,0:0:0:0:
512,284,40325,86,0,B|430:255|395:328|408:338|375:410|295:377,1,259.999988098145,6|0,0:0|0:0,0:0:0:0:
223,309,41033,1,0,0:0:0:0:
284,230,41269,2,0,P|311:240|326:290,1,75.0000028610231
223,309,41727,2,0,P|175:313|148:324,1,75.0000028610231
150,17,42224,22,0,P|238:51|351:71,1,200,2|0,0:0|0:0,0:0:0:0:
432,34,42900,1,0,0:0:0:0:
384,159,43126,2,0,P|422:140|462:128,1,85.0000016212464
341,70,43584,2,0,P|320:38|270:36,1,85.0000016212464
150,271,44097,86,0,P|179:195|225:123,1,150,2|0,0:0|0:0,0:0:0:0:
73,201,44569,2,0,P|61:236|44:270,1,75.0000028610231
150,271,45041,2,0,P|175:243|207:223,1,75.0000028610231
73,201,45514,2,0,P|38:211|0:213,1,75.0000028610231
76,81,45986,22,0,P|144:118|223:137,1,150,2|0,0:0|0:0,0:0:0:0:
292,129,46469,85,2,0:0:0:0:
252,6,46932,21,0,0:0:0:0:
332,252,47395,85,0,0:0:0:0:
512,16,47860,22,0,B|492:-4|407:-17|386:48|416:63|382:117|274:175|257:63|273:64|321:36|168:6|61:183|217:100|261:124|116:197|59:119|128:84|150:112,1,479.999985351563,6|0,0:0|0:0,0:0:0:0:
321,1,49312,1,0,0:0:0:0:
142,106,49530,1,0,0:0:0:0:
168,122,49640,1,0,0:0:0:0:
189,100,49749,86,0,B|254:105|295:135|286:141|317:171|390:174,1,220.000006713867,2|0,0:0|0:0,0:0:0:0:
470,136,50464,1,0,0:0:0:0:
496,219,50703,2,0,P|462:236|431:269,1,75.0000028610231
380,335,51180,2,0,P|420:363|439:387,1,75.0000028610231
373,87,51657,22,0,B|307:85|294:125|301:132|286:183|216:177,1,194.999991073609,2|0,0:0|0:0,0:0:0:0:
130,227,52129,2,0,P|99:181|119:139,1,100
196,84,52601,2,0,P|223:58|236:24,1,75.0000028610231
134,3,53074,1,0,0:0:0:0:
0,57,53310,86,0,P|117:35|237:24,1,239.999992675781
430,147,54019,21,2,0:0:0:0:
279,165,54523,85,0,0:0:0:0:
340,319,54981,21,0,0:0:0:0:
49,382,55461,85,6,0:0:0:0:
49,382,55489,2,0,B|90:333|68:274|68:274|123:307|184:275,1,234.375
261,244,56155,1,0,0:0:0:0:
127,193,56387,1,0,0:0:0:0:
261,244,56619,1,0,0:0:0:0:
127,193,56850,2,0,P|141:132|159:72,1,125
497,0,57314,22,0,P|468:93|443:193,1,200,2|0,0:0|0:0,0:0:0:0:
369,153,58021,1,0,0:0:0:0:
502,132,58257,1,0,0:0:0:0:
398,267,58492,1,0,0:0:0:0:
218,181,58728,86,0,B|160:147|192:83|220:74|246:89|249:110,1,150
325,88,59243,22,0,P|243:121|118:143,1,202.500000772476,2|0,0:0|0:0,0:0:0:0:
123,2,59715,2,0,P|160:4|198:21,1,75.0000028610231
132,143,60187,2,0,P|92:127|68:103,1,75.0000028610231
195,19,60641,2,0,P|227:48|237:79,1,75.0000028610231
313,183,61096,86,0,P|244:191|168:229,1,150,2|0,0:0|0:0,0:0:0:0:
191,310,61584,21,0,0:0:0:0:
0,229,62052,85,0,0:0:0:0:
38,384,62536,21,0,0:0:0:0:
38,384,63021,86,0,P|41:307|74:299,1,120,6|0,0:0|0:0,0:0:0:0:
153,284,63468,22,0,P|157:313|178:367,1,80
280,341,63916,2,0,P|305:369|333:385,1,69.9999978637696
428,337,64416,2,0,P|457:342|487:341,1,59.9999981689454
280,341,64913,6,0,P|273:354|253:385,1,50,2|0,0:0|0:0,0:0:0:0:
174,360,65381,2,0,P|153:372|130:382,1,44.999998626709
41,251,65850,102,0,P|51:193|107:179,1,122.499996261597
180,226,66362,6,0,P|186:266|121:260,1,122.499996261597
107,179,66944,102,0,B|157:172|183:194|182:203|203:228|256:222,1,160,2|0,0:0|0:0,0:0:0:0:
328,184,67712,5,0,0:0:0:0:
285,123,68060,101,0,0:0:0:0:
256,192,68482,12,0,69713,0:0:0:0:
286,123,69818,6,0,P|357:119|453:115,1,150,2|0,0:0|0:0,0:0:0:0:
446,128,70151,1,0,0:0:0:0:
397,190,70318,1,0,0:0:0:0:
472,248,70484,1,0,0:0:0:0:
472,248,70651,2,0,P|454:321|446:366,2,100,2|2|2,0:0|0:0|0:0,0:0:0:0:
361,86,71151,6,0,P|290:72|229:53,1,100,2|0,0:0|0:0,0:0:0:0:
166,97,71484,1,0,0:0:0:0:
287,179,71651,1,0,0:0:0:0:
287,179,71734,1,0,0:0:0:0:
287,179,71818,1,0,0:0:0:0:
176,313,71984,2,0,P|194:240|202:195,2,100,2|2|2,0:0|0:0|0:0,0:0:0:0:
412,377,72484,102,0,B|416:356|433:341|433:341|383:378|324:366,1,150,0|0,1:0|0:0,0:0:0:0:
277,311,72818,2,0,L|265:238,1,50
287,302,72984,2,0,L|275:229,1,50
328,163,73151,2,0,P|261:100|241:56,1,100,0|0,1:0|0:0,0:0:0:0:
228,21,73401,1,0,0:0:0:0:
228,21,73484,1,0,0:0:0:0:
403,115,73651,6,0,P|311:117|265:100,1,100,0|0,0:0|1:0,0:0:0:0:
230,181,73984,1,0,0:0:0:0:
370,252,74151,2,0,L|358:179,1,50
380,243,74317,2,0,L|368:170,1,50
260,126,74484,2,0,L|272:199,1,50,0|0,1:0|0:0,0:0:0:0:
250,135,74650,2,0,L|262:208,1,50
372,77,74818,2,0,L|360:4,1,50,0|0,1:0|0:0,0:0:0:0:
382,68,74984,2,0,L|370:-5,1,50,0|0,1:0|0:0,0:0:0:0:
297,245,75151,102,0,P|396:255|403:157,1,200,4|0,1:2|0:0,0:0:0:0:
413,174,75651,1,0,0:0:0:0:
509,276,75818,2,0,P|440:272|368:273,1,100,0|0,1:0|0:0,0:0:0:0:
284,376,76151,2,0,P|333:375|383:371,1,100
202,259,76484,6,0,B|176:315|176:315|112:296|76:357,1,150,0|0,1:0|0:0,0:0:0:0:
56,368,76818,2,0,P|3:321|33:280,1,100
127,197,77151,1,0,1:0:0:0:
127,197,77317,1,4,1:2:0:0:
38,160,77484,1,0,1:0:0:0:
38,160,77651,2,0,L|30:93,1,50,0|0,1:0|1:0,0:0:0:0:
101,31,77817,102,0,P|51:64|-14:67,1,100,0|0,1:0|0:0,0:0:0:0:
202,157,78151,2,0,P|143:144|95:101,1,100
365,37,78484,6,0,P|315:70|250:73,2,100,0|0|0,1:0|0:0|0:0,0:0:0:0:
212,145,78984,2,0,P|162:112|97:109,2,100,0|4|0,0:0|1:2|0:0,0:0:0:0:
272,228,79484,1,0,0:0:0:0:
272,228,79651,1,0,0:0:0:0:
416,160,79817,1,0,1:0:0:0:
416,160,79984,2,0,B|444:127|444:127|418:40,2,100,0|0|0,0:0|0:0|1:0,0:0:0:0:
276,0,80484,102,0,B|304:33|304:33|278:120,1,100,0|0,1:0|0:0,0:0:0:0:
261,217,80817,1,0,0:0:0:0:
222,53,80984,1,0,0:0:0:0:
168,136,81151,2,0,L|101:129,2,50,0|0|0,1:0|0:0|0:0,0:0:0:0:
247,191,81484,2,0,L|314:184,2,50
139,292,81817,6,0,L|25:280,1,100,4|0,1:2|1:0,0:0:0:0:
0,345,82151,1,0,1:0:0:0:
200,341,82317,1,0,0:0:0:0:
109,313,82485,2,0,L|97:240,1,50,0|0,1:0|0:0,0:0:0:0:
119,304,82651,2,0,L|107:231,1,50,0|0,1:0|0:0,0:0:0:0:
25,384,82817,1,0,1:0:0:0:
0,179,82984,1,0,1:0:0:0:
0,179,83067,1,0,1:0:0:0:
0,179,83151,102,0,B|86:170|41:114|163:108,1,150,4|0,1:2|0:0,0:0:0:0:
173,131,83484,2,0,L|185:204,1,50
163,140,83650,2,0,L|175:213,1,50
137,337,83817,2,0,P|77:314|100:274,1,100,0|0,1:0|0:0,0:0:0:0:
80,292,84067,1,0,0:0:0:0:
80,292,84151,1,0,0:0:0:0:
239,352,84317,1,0,0:0:0:0:
239,352,84401,1,0,0:0:0:0:
239,352,84484,6,0,L|373:336,1,100,4|0,1:2|0:0,0:0:0:0:
448,224,84817,1,0,0:0:0:0:
448,224,84984,1,0,0:0:0:0:
480,320,85151,1,0,1:0:0:0:
480,320,85317,1,0,0:0:0:0:
380,308,85483,1,0,0:0:0:0:
410,136,85651,1,0,1:0:0:0:
410,136,85817,102,0,L|544:152,1,100,4|0,1:2|0:0,0:0:0:0:
356,190,86151,1,0,0:0:0:0:
313,128,86317,1,0,0:0:0:0:
367,74,86484,2,0,L|360:-1,1,50,0|0,1:0|0:0,0:0:0:0:
362,24,86651,1,0,0:0:0:0:
463,119,86817,1,0,0:0:0:0:
282,198,86984,1,0,0:0:0:0:
282,198,87151,6,0,B|220:192|220:192|197:158|197:158|81:151,1,200,4|0,1:2|0:0,0:0:0:0:
100,152,87651,1,0,0:0:0:0:
359,98,87817,2,0,B|297:104|297:104|274:138|274:138|158:145,1,200,0|0,1:0|0:0,0:0:0:0:
135,203,88234,1,0,1:0:0:0:
135,203,88317,1,0,1:0:0:0:
135,203,88401,1,0,1:0:0:0:
135,203,88484,102,0,P|145:103|142:24,1,150,0|0,1:0|0:0,0:0:0:0:
92,1,88817,1,8,1:2:0:0:
92,1,88984,1,0,0:0:0:0:
291,21,89151,1,0,1:0:0:0:
291,21,89317,2,0,P|277:78|247:149,1,100
357,204,89651,1,0,0:0:0:0:
357,204,89817,6,0,P|371:261|401:332,1,100,0|0,1:0|0:0,0:0:0:0:
314,380,90151,2,0,B|349:333|349:333|465:357,1,150,8|0,1:2|0:0,0:0:0:0:
487,362,90484,1,0,1:0:0:0:
487,362,90651,1,0,1:0:0:0:
444,234,90817,1,0,0:0:0:0:
365,293,90984,1,0,1:0:0:0:
279,162,91151,102,0,B|314:115|314:115|430:139,1,150,0|0,1:0|0:0,0:0:0:0:
452,144,91484,1,8,1:2:0:0:
452,144,91651,1,0,0:0:0:0:
409,16,91817,1,0,1:0:0:0:
330,75,91984,1,0,0:0:0:0:
204,57,92151,1,0,0:0:0:0:
78,39,92317,1,0,0:0:0:0:
277,5,92484,5,0,1:0:0:0:
277,5,92817,1,0,0:0:0:0:
307,194,92984,1,0,0:0:0:0:
330,117,93317,1,0,0:0:0:0:
32,160,93817,102,0,P|19:86|34:160,1,225.000008583069,0|0,1:0|0:0,0:0:0:0:
52,165,94151,2,0,P|76:141|76:100,1,75,10|0,1:2|0:0,0:0:0:0:
211,199,94484,6,0,P|153:151|240:171,1,240,0|0,1:0|0:0,0:0:0:0:
249,137,94817,2,0,P|234:114|188:100,1,75,8|0,1:2|0:0,0:0:0:0:
341,295,95151,102,0,P|309:227|395:279,1,225.000008583069,0|0,1:0|0:0,0:0:0:0:
375,190,95484,2,0,P|339:188|309:210,1,75,8|0,1:2|0:0,0:0:0:0:
233,287,95817,6,2,B|301:290|301:290|355:307|355:307|348:307|348:307|416:329|416:329|482:330,1,262.500002503395,0|0,1:2|0:2,1:2:0:0:
444,287,96150,102,0,P|428:324|417:374,1,75.0000028610231,8|0,1:2|0:0,0:0:0:0:
315,333,96317,2,0,P|327:297|336:255,1,75.0000028610231,0|0,1:0|0:0,0:0:0:0:
425,123,96484,6,0,B|352:85|290:137|324:155|263:199|162:175,1,225.000008583069,6|2,1:2|0:0,0:0:0:0:
225,190,96817,2,0,P|264:182|304:160,1,75,8|0,1:2|0:0,0:0:0:0:
173,44,97151,102,0,P|151:149|138:308,1,225.000008583069,0|0,1:0|0:0,0:0:0:0:
127,287,97484,2,0,L|112:253,1,25,8|0,1:2|0:0,0:0:0:0:
112,132,97651,2,0,L|122:110,1,25
224,261,97817,5,0,1:0:0:0:
0,208,97984,1,2,0:0:0:0:
124,379,98151,1,8,1:2:0:0:
297,164,98317,2,0,B|456:53|538:194|448:271|382:206,1,300.000011444092,0|0,1:0|0:0,0:0:0:0:
345,95,98734,101,0,3:0:0:0:
339,54,98817,1,8,1:2:0:0:
305,30,98901,1,0,3:0:0:0:
269,32,98984,1,0,3:0:0:0:
227,23,99067,1,0,3:0:0:0:
185,0,99151,6,0,B|133:25|133:25|138:31|138:31|174:173|174:173|137:146,1,225.000008583069,0|0,1:0|0:0,0:0:0:0:
162,180,99484,2,0,B|147:145|147:145|161:99,1,75,8|0,1:2|0:0,0:0:0:0:
251,257,99817,102,0,B|235:313|235:313|57:266|57:266,1,225.000008583069,0|2,1:0|0:0,0:0:0:0:
59,268,100151,2,0,B|96:252,1,25,8|0,1:2|0:0,0:0:0:0:
152,320,100317,2,0,B|161:342,1,25,0|0,1:0|0:0,0:0:0:0:
292,384,100484,6,0,B|316:352|316:352|312:320|312:320|315:315|315:315|361:142,1,225.000008583069,0|0,1:0|0:0,0:0:0:0:
364,176,100817,2,0,B|354:215|354:215|304:240,1,75,8|0,1:2|0:0,0:0:0:0:
493,91,101151,102,0,B|540:86|540:86|495:147|495:147|359:88,1,262.500002503395,0|0,1:0|0:0,0:0:0:0:
305,44,101484,2,0,B|262:47|262:47|226:79,1,75.0000028610231,8|0,1:2|0:0,0:0:0:0:
245,212,101651,2,0,B|252:171|252:171|225:126,1,75.0000028610231,0|0,1:0|0:0,0:0:0:0:
28,0,101817,6,0,B|-3:46|31:90|77:92|77:92|141:97|209:106,1,225.000008583069,0|0,1:1|1:1,1:1:0:0:
211,114,102151,2,0,B|136:106,1,75.0000028610231,10|0,1:2|0:1,0:0:0:0:
27,280,102484,102,0,B|43:225|109:215|109:215|177:163|99:83,1,225.000008583069,0|0,1:0|0:0,0:0:0:0:
118,125,102818,2,0,B|135:144|135:161|135:161|153:161|174:174,1,75,8|0,1:2|0:0,0:0:0:0:
254,285,103151,5,8,1:2:0:0:
11,111,103317,1,0,1:0:0:0:
25,89,103484,1,0,1:0:0:0:
321,148,103651,101,8,1:2:0:0:
22,244,103817,1,0,1:0:0:0:
42,268,103984,1,0,1:0:0:0:
196,9,104151,5,8,1:2:0:0:
148,339,104317,1,0,1:0:0:0:
148,339,104401,1,0,1:0:0:0:
148,339,104484,102,0,B|252:271|88:104|35:260|112:286,1,262.500002503395,0|0,1:0|0:0,0:0:0:0:
204,281,104817,2,0,P|200:242|172:209,1,75,8|0,1:2|0:0,0:0:0:0:
321,239,105151,6,0,B|388:233|418:296|401:303|437:362|507:352,1,225.000008583069,0|0,1:0|0:0,0:0:0:0:
490,326,105484,102,0,L|467:336,1,25,8|0,1:2|0:0,0:0:0:0:
372,321,105651,2,0,L|378:296,1,25,2|0,0:2|0:0,0:0:0:0:
465,221,105817,6,0,B|443:182|395:177|395:177|335:117|391:44,1,225.000008583069,0|0,1:0|0:0,0:0:0:0:
395,56,106151,2,0,B|380:78|378:93|378:93|362:90|344:97,1,75,8|0,1:2|0:0,0:0:0:0:
256,192,106484,102,0,B|162:175|162:175|120:144|120:144|26:127,1,225.000008583069,0|0,1:0|0:0,0:0:0:0:
15,198,106817,6,0,L|88:211,1,75.0000028610231,8|0,1:2|0:0,0:0:0:0:
270,122,106984,2,0,L|196:108,1,75.0000028610231,0|0,1:0|0:0,0:0:0:0:
56,104,107151,102,0,B|109:113|109:113|125:136|125:136|130:138|145:159|139:155|153:177|158:177|158:177|179:208|179:208|244:218,1,225.000008583069,4|2,0:0|0:0,1:1:0:0:
265,215,107484,2,0,B|279:214|296:193|296:193|280:206|258:209,1,75,8|0,1:2|0:0,0:0:0:0:
143,276,107817,6,0,B|51:305|116:340|1:375,2,150.000005722046,0|0|8,1:0|0:0|1:2,0:0:0:0:
15,346,108317,1,2,0:2:0:0:
222,377,108484,102,0,L|238:304,1,75.0000028610231,0|0,1:0|0:0,0:0:0:0:
213,373,108651,2,0,L|229:300,1,75.0000028610231,0|0,1:0|0:0,0:0:0:0:
419,196,108817,6,0,L|344:206,1,75.0000028610231,8|0,1:2|0:0,0:0:0:0:
417,184,108984,2,0,L|343:195,1,75.0000028610231,0|0,1:0|0:0,0:0:0:0:
152,110,109151,102,0,L|207:160,1,75.0000028610231,0|0,1:2|0:0,0:0:0:0:
144,117,109318,2,0,L|200:168,1,75.0000028610231,0|0,1:0|0:0,0:0:0:0:
334,331,109484,5,8,1:2:0:0:
351,298,109567,1,0,1:0:0:0:
376,281,109651,1,0,1:0:0:0:
398,278,109734,1,0,1:0:0:0:
412,284,109817,102,0,B|354:278|299:335|299:335|306:283|287:231,1,225.000008583069,0|0,1:0|0:0,0:0:0:0:
283,244,110151,2,0,P|294:288|294:318,1,75,8|0,1:2|0:0,0:0:0:0:
66,359,110484,6,0,B|114:326|189:350|189:350|159:308|151:253,1,225.000008583069,0|0,1:0|0:0,0:0:0:0:
161,262,110818,2,0,P|171:306|186:332,1,75,8|0,1:2|0:0,0:0:0:0:
116,70,111151,102,0,B|112:128|170:181|170:181|118:175|67:196,1,225,0|0,1:0|0:0,0:0:0:0:
80,201,111485,2,0,P|123:188|153:187,1,75,8|0,1:2|0:0,0:0:0:0:
245,41,111817,6,0,B|274:91|246:164|246:164|290:136|345:131,1,225,0|0,1:0|0:0,0:0:0:0:
332,141,112151,2,0,P|310:145|296:151,1,25,8|0,1:2|0:0,0:0:0:0:
233,182,112317,2,0,P|225:191|219:202,1,25,0|0,1:0|0:0,0:0:0:0:
258,382,112484,102,2,B|326:183|212:226|136:153|149:63|149:63|205:95|263:95,1,475,0|0,1:0|0:0,0:0:0:0:
261,106,114151,5,2,0:0:0:0:
332,5,114484,1,2,0:0:0:0:
433,76,114817,1,2,0:0:0:0:
273,103,115151,101,2,0:0:0:0:
334,17,115317,1,2,0:0:0:0:
420,78,115484,1,2,0:0:0:0:
359,163,115651,2,0,P|349:187|341:210,1,50,2|0,0:0|0:0,0:0:0:0:
447,74,115984,1,2,0:0:0:0:
447,74,116151,2,0,P|426:87|406:102,1,50
237,259,116484,5,2,0:0:0:0:
288,372,116650,1,2,0:0:0:0:
402,319,116817,1,2,0:0:0:0:
348,205,116984,2,0,P|336:161|333:116,1,75.0000028610231,2|0,0:0|0:0,0:0:0:0:
416,322,117317,102,0,L|440:328,2,25
192,57,117817,5,4,1:0:0:0:
131,5,117901,1,2,0:0:0:0:
71,25,117984,1,2,0:0:0:0:
51,79,118067,1,2,0:0:0:0:
71,121,118151,1,8,1:2:0:0:
105,138,118234,1,2,0:0:0:0:
131,166,118317,1,2,0:0:0:0:
141,200,118401,1,2,0:0:0:0:
136,233,118484,101,0,1:0:0:0:
102,231,118567,1,0,0:0:0:0:
106,254,118651,1,0,0:0:0:0:
69,243,118734,1,0,0:0:0:0:
72,274,118817,1,8,1:2:0:0:
42,264,118901,1,0,0:0:0:0:
42,290,118984,1,2,0:0:0:0:
13,267,119067,1,0,0:0:0:0:
3,294,119151,5,0,1:0:0:0:
53,259,119234,1,2,0:0:0:0:
105,265,119317,1,2,0:0:0:0:
143,299,119401,1,2,0:0:0:0:
151,341,119484,1,8,1:2:0:0:
129,375,119567,1,2,0:0:0:0:
94,383,119651,1,2,0:0:0:0:
68,375,119734,1,2,0:0:0:0:
57,359,119817,102,0,B|41:225|41:225|44:229|44:229|36:145,1,225.000008583069,6|0,1:3|0:0,1:1:0:0:
37,145,120151,2,0,P|60:153|84:161,1,50,8|0,1:2|0:0,0:0:0:0:
83,81,120317,2,0,P|106:89|130:97,1,50,8|0,1:2|0:0,0:0:0:0:
307,293,120484,6,0,P|337:287|368:282,1,62.5,6|0,1:2|0:0,0:0:0:0:
496,346,120651,1,2,0:0:0:0:
295,305,120817,1,8,1:2:0:0:
414,172,120984,2,0,P|495:162|490:244,1,187.5,2|0,0:0|0:0,0:0:0:0:
475,255,121317,1,0,0:0:0:0:
394,29,121484,2,0,P|452:52|512:68,1,125,8|0,1:2|0:0,0:0:0:0:
353,109,121817,102,0,P|322:113|291:119,1,62.5,2|0,1:2|0:0,0:0:0:0:
149,142,121984,1,2,0:0:0:0:
364,120,122151,1,10,0:2:0:0:
104,62,122317,2,0,P|126:152|145:244,1,187.5,2|0,0:2|0:0,0:0:0:0:
151,259,122651,1,0,0:0:0:0:
218,75,122817,2,0,P|224:44|230:13,1,62.5,10|0,0:0|0:0,0:0:0:0:
235,0,122984,1,0,1:0:0:0:
225,299,123151,5,0,1:0:0:0:
216,315,123234,1,2,0:0:0:0:
196,333,123317,1,2,0:0:0:0:
163,346,123401,1,2,0:0:0:0:
122,343,123484,1,8,1:2:0:0:
87,317,123567,1,2,0:0:0:0:
76,265,123651,1,2,0:0:0:0:
102,217,123734,1,2,0:0:0:0:
136,176,123817,101,0,1:0:0:0:
144,147,123901,1,0,0:0:0:0:
141,118,123984,1,0,0:0:0:0:
130,90,124067,1,0,0:0:0:0:
144,70,124151,5,8,1:2:0:0:
126,29,124235,1,0,0:0:0:0:
92,6,124317,1,0,0:0:0:0:
48,0,124401,1,0,0:0:0:0:
4,17,124484,102,0,P|6:36|10:54,1,37.5000014305115,8|0,1:2|0:0,0:0:0:0:
45,237,124651,1,0,1:0:0:0:
48,251,124817,1,0,1:0:0:0:
144,69,124984,6,0,P|146:88|150:106,1,37.5000014305115,8|0,1:2|0:0,0:0:0:0:
185,289,125151,1,0,1:0:0:0:
188,303,125317,1,0,1:0:0:0:
318,33,125484,101,2,1:3:0:0:
321,46,125567,1,2,3:0:0:0:
345,121,125651,5,2,1:2:0:0:
348,134,125734,1,2,3:0:0:0:
334,19,125817,102,0,P|328:50|324:81,1,62.5,6|0,1:2|0:0,0:0:0:0:
299,206,125984,1,2,0:0:0:0:
338,7,126151,1,10,0:0:0:0:
397,250,126317,2,0,P|482:251|489:166,1,187.5,2|0,0:0|0:0,0:0:0:0:
477,154,126651,1,2,1:2:0:0:
336,337,126817,2,0,P|344:279|402:270,1,125,10|0,0:0|0:0,0:0:0:0:
239,99,127151,6,0,P|269:94|300:90,1,62.5,6|0,1:2|0:0,0:0:0:0:
471,64,127317,1,2,0:0:0:0:
228,90,127484,1,10,0:0:0:0:
336,337,127651,2,0,P|421:328|426:242,1,187.5,2|0,0:0|0:0,0:0:0:0:
416,228,127984,1,2,0:0:0:0:
252,306,128151,2,0,P|246:336|240:367,1,62.5,10|0,0:0|0:0,0:0:0:0:
251,384,128317,1,0,1:0:0:0:
373,137,128484,101,2,1:2:0:0:
315,189,128567,1,2,0:0:0:0:
263,159,128651,1,2,0:0:0:0:
221,198,128734,1,2,0:0:0:0:
181,176,128817,1,10,0:0:0:0:
156,204,128901,1,2,0:0:0:0:
124,190,128984,1,2,0:0:0:0:
101,208,129067,1,2,0:0:0:0:
76,200,129151,5,2,1:2:0:0:
53,164,129234,1,2,0:0:0:0:
75,117,129317,1,2,0:0:0:0:
114,104,129401,1,2,0:0:0:0:
144,80,129484,1,10,0:0:0:0:
152,50,129567,1,2,0:0:0:0:
140,21,129651,1,2,0:0:0:0:
113,6,129734,1,2,0:0:0:0:
89,13,129817,101,2,1:2:0:0:
79,21,129901,1,2,0:0:0:0:
69,29,129984,2,0,P|73:53|77:78,1,50,2|0,1:2|0:0,0:0:0:0:
0,155,130151,5,2,1:2:0:0:
10,163,130235,1,2,0:0:0:0:
19,171,130318,2,0,P|14:195|10:220,1,50,2|0,1:2|0:0,0:0:0:0:
98,348,130484,101,10,1:2:0:0:
183,314,130595,1,2,0:3:0:0:
245,383,130706,1,2,0:3:0:0:
185,302,130817,5,0,1:2:0:0:
187,289,130900,1,0,1:0:0:0:
189,277,130983,1,0,1:0:0:0:
192,265,131066,1,0,1:0:0:0:
129,203,131151,102,0,B|100:190|100:190|121:212,1,62.5,6|0,1:2|0:0,0:0:0:0:
321,325,131317,1,2,0:0:0:0:
133,216,131484,1,10,0:0:0:0:
322,339,131651,2,0,P|407:335|408:250,1,187.5,2|0,0:0|0:0,0:0:0:0:
396,237,131984,1,0,1:0:0:0:
245,383,132151,2,0,P|239:320|233:258,1,125,10|0,0:0|0:0,0:0:0:0:
498,43,132484,6,0,B|527:30|527:30|505:52,1,62.5,6|0,1:2|0:0,0:0:0:0:
335,153,132650,1,2,0:0:0:0:
494,56,132817,1,10,0:0:0:0:
334,167,132984,2,0,P|248:163|247:78,1,187.5,2|0,0:0|0:0,0:0:0:0:
262,66,133317,1,2,1:2:0:0:
395,237,133484,2,0,P|454:233|476:287,1,125,10|0,0:0|0:0,0:0:0:0:
167,384,133817,102,0,B|156:329|187:294|196:305|238:268|228:217,1,187.5,6|0,1:2|0:0,0:0:0:0:
225,202,134151,1,8,0:0:0:0:
346,340,134317,2,0,P|283:325|225:311,1,125,2|0,0:0|1:0,0:0:0:0:
120,146,134651,5,2,0:0:0:0:
147,231,134817,2,0,P|86:217|26:203,1,125,10|0,0:0|0:0,0:0:0:0:
230,67,135151,102,0,P|260:75|290:83,1,62.5,8|0,0:0|0:0,0:0:0:0:
426,119,135318,1,0,1:0:0:0:
426,119,135485,1,0,1:0:0:0:
290,83,135651,6,0,P|320:91|350:99,1,62.5,8|0,0:0|0:0,0:0:0:0:
504,140,135817,1,0,1:0:0:0:
504,140,135984,1,0,1:0:0:0:
178,0,136151,102,0,B|118:25|118:25|344:87,1,300,6|0,0:0|0:0,0:0:0:0:
341,77,136484,6,0,B|355:45|413:6|497:102|390:201|390:201|418:219|313:170|234:261|270:341|270:341|347:272|433:260|433:260|452:272|452:272|342:222|227:181|227:181|240:183|240:183|190:232|190:279,1,1049.99996795654,0|2,0:0|0:0,0:0:0:0:
85,211,139151,102,0,B|78:197|78:197|106:166|106:166|109:207|109:207|95:215,1,112.500004291535,2|0,1:0|0:0,0:0:0:0:
17,114,139484,6,0,B|7:122|7:122|12:196|93:198|94:195|98:189|165:183|185:254|185:254|175:270,1,269.999991760254,12|0,1:2|0:0,0:0:0:0:
173,344,139817,2,0,B|144:351|144:351|127:326,1,59.9999981689454
224,164,139984,1,0,1:0:0:0:
52,310,140151,2,0,B|50:291|40:275|40:275|159:123|159:123|146:101|142:77,1,269.999991760254,8|0,1:2|0:0,0:0:0:0:
73,24,140484,102,0,P|49:40|77:41,1,75.0000028610231,8|0,1:2|0:0,0:0:0:0:
177,14,140651,1,0,1:0:0:0:
204,25,140734,1,0,1:0:0:0:
214,50,140817,1,0,1:0:0:0:
61,189,140984,6,0,P|42:160|75:172,1,89.9999972534181,8|0,1:2|0:0,0:0:0:0:
176,273,141151,1,0,1:0:0:0:
208,273,141234,1,0,1:0:0:0:
230,250,141317,1,0,1:0:0:0:
264,125,141484,101,10,1:2:0:0:
232,133,141567,1,0,0:0:0:0:
201,141,141651,1,0,0:0:0:0:
214,156,141734,1,0,0:0:0:0:
229,170,141817,2,0,P|258:172|281:191,1,59.9999981689454,0|0,1:0|0:0,0:0:0:0:
306,271,141984,5,0,1:0:0:0:
303,282,142067,1,0,0:0:0:0:
361,328,142151,101,8,1:2:0:0:
427,333,142234,1,0,0:0:0:0:
476,308,142317,1,0,0:0:0:0:
497,264,142401,1,0,0:0:0:0:
502,254,142484,5,0,0:0:0:0:
477,213,142567,1,0,0:0:0:0:
478,173,142651,2,0,P|492:155|514:144,1,44.999998626709,0|0,1:0|0:0,0:0:0:0:
506,246,142817,101,8,1:2:0:0:
446,233,142901,1,0,0:0:0:0:
392,222,142984,1,0,0:0:0:0:
338,209,143067,1,0,0:0:0:0:
283,198,143151,6,0,B|268:224|268:224|289:203,1,59.9999981689454,12|0,1:2|0:0,0:0:0:0:
377,7,143317,1,0,1:0:0:0:
388,61,143401,1,0,1:0:0:0:
401,115,143484,2,0,P|378:134|385:104,1,75.0000028610231,4|0,1:2|0:0,0:0:0:0:
512,20,143651,102,0,B|468:56|403:37|403:37|356:23|317:61|317:61|292:83|260:73,1,269.999991760254,0|0,1:0|0:0,0:0:0:0:
127,3,143984,2,0,P|161:16|180:47,1,75.0000028610231,0|0,1:0|0:0,0:0:0:0:
129,319,144151,1,8,1:2:0:0:
197,123,144317,6,0,L|176:182,1,59.9999981689454,2|2,0:0|0:0,0:0:0:0:
158,250,144484,2,0,B|164:263|164:263|136:294|136:294|133:253|133:253|147:245,1,112.500004291535,0|0,1:0|0:0,0:0:0:0:
79,152,144817,102,0,B|32:168|32:168|240:242,1,269.999991760254,12|0,1:2|0:0,0:0:0:0:
316,337,145151,2,0,P|286:333|268:311,1,59.9999981689454
289,181,145317,1,0,1:0:0:0:
390,281,145484,2,0,B|367:336|452:361|453:196|291:170,1,269.999991760254,8|0,1:2|0:0,0:0:0:0:
257,101,145817,6,0,P|227:105|198:143,1,75.0000028610231,6|0,1:2|0:0,0:0:0:0:
166,253,145984,2,0,B|220:373|220:373|232:370|232:370|245:240,1,269.999991760254,2|0,1:2|0:0,0:0:0:0:
295,28,146317,102,0,P|331:52|338:96,1,89.9999972534181,8|0,1:2|0:0,0:0:0:0:
159,236,146484,2,0,B|-36:307|-42:301|152:216,1,314.999990386963,0|0,1:0|0:0,0:0:0:0:
250,238,146817,6,0,L|298:250,1,50,6|0,0:0|0:0,0:0:0:0:
389,275,146984,2,0,L|437:287,1,50,6|0,0:0|0:0,0:0:0:0:
382,381,147151,101,0,1:0:0:0:
373,368,147234,1,0,0:0:0:0:
340,352,147317,5,0,1:0:0:0:
338,337,147401,1,0,0:0:0:0:
308,303,147484,101,8,1:2:0:0:
305,255,147567,1,0,0:0:0:0:
326,211,147651,1,0,0:0:0:0:
363,192,147734,1,0,0:0:0:0:
422,204,147817,5,0,0:0:0:0:
466,195,147901,1,0,0:0:0:0:
493,147,147984,1,0,1:0:0:0:
462,91,148067,1,0,0:0:0:0:
493,45,148151,101,8,1:2:0:0:
440,14,148234,1,0,0:0:0:0:
392,35,148317,1,0,0:0:0:0:
378,82,148401,1,0,0:0:0:0:
384,92,148484,6,0,B|377:98|377:98|326:89|288:131,1,104.999996795654,0|0,1:0|0:0,0:0:0:0:
417,209,148817,102,0,B|390:213|390:213|283:104|137:134|137:134|175:137|202:158,1,375.000014305115,14|0,1:2|0:0,0:0:0:0:
190,42,149317,5,0,0:0:0:0:
199,101,149401,1,0,0:0:0:0:
208,160,149484,1,2,0:0:0:0:
217,219,149567,1,2,0:0:0:0:
226,278,149650,1,2,0:0:0:0:
235,337,149734,1,2,0:0:0:0:
229,342,149817,102,0,P|169:331|108:326,1,119.999996337891,0|0,1:0|0:0,0:0:0:0:
79,174,150151,2,0,P|-7:191|46:261,1,209.999993591309,8|0,1:2|0:0,0:0:0:0:
126,242,150484,1,0,0:0:0:0:
31,343,150651,1,0,1:0:0:0:
79,168,150817,2,0,P|107:159|137:154,1,59.9999981689454,8|0,1:2|0:0,0:0:0:0:
210,154,150984,1,0,0:0:0:0:
241,333,151151,6,0,B|220:336|208:350|208:350|207:332|195:312,1,75.0000028610231,10|0,1:2|0:0,0:0:0:0:
342,276,151317,1,2,1:2:0:0:
348,305,151401,1,0,1:0:0:0:
336,330,151484,2,0,P|325:302|302:283,1,59.9999981689454,0|0,1:0|0:0,0:0:0:0:
131,245,151651,2,0,P|158:232|187:235,1,59.9999981689454,10|0,1:2|0:0,0:0:0:0:
308,111,151817,101,2,1:2:0:0:
297,139,151901,1,0,1:0:0:0:
286,167,151984,2,0,P|273:197|252:246,1,59.9999981689454,0|0,1:0|0:0,0:0:0:0:
427,277,152151,5,10,1:2:0:0:
431,246,152234,1,2,0:0:0:0:
416,222,152317,1,2,0:0:0:0:
395,213,152401,1,2,0:0:0:0:
383,204,152484,2,0,P|373:175|385:141,1,59.9999981689454,0|0,1:0|0:0,0:0:0:0:
512,70,152651,101,0,1:0:0:0:
509,82,152734,1,0,0:0:0:0:
494,155,152817,5,8,1:2:0:0:
454,133,152901,1,0,0:0:0:0:
438,101,152984,2,0,P|402:74|358:79,1,59.9999981689454
340,7,153151,101,0,0:0:0:0:
289,30,153234,1,0,0:0:0:0:
270,70,153317,5,0,1:0:0:0:
277,78,153401,1,0,0:0:0:0:
258,72,153484,101,8,1:2:0:0:
224,117,153567,1,0,0:0:0:0:
180,125,153651,1,0,0:0:0:0:
144,111,153734,1,0,0:0:0:0:
126,59,153817,6,0,B|119:34|157:17|187:47|171:67,1,89.9999972534181,10|0,1:2|0:0,0:0:0:0:
108,199,153984,1,2,1:2:0:0:
92,229,154067,1,0,1:0:0:0:
87,264,154151,2,0,P|107:223|133:186,1,89.9999972534181,2|0,1:0|0:0,0:0:0:0:
21,178,154317,102,0,B|19:168|5:165|5:165|13:230|95:226|89:219|82:211|174:215|200:299|200:299|189:296|177:297,1,300,8|0,1:2|0:0,0:0:0:0:
166,293,154651,2,0,P|182:259|203:229,1,75.0000028610231,0|0,1:2|0:0,0:0:0:0:
361,138,154817,1,10,1:2:0:0:
245,325,154984,6,0,P|257:298|274:274,1,59.9999981689454
340,224,155151,2,0,B|348:212|348:212|389:221|389:221|355:244|355:244|341:236,1,112.500004291535,0|0,1:0|0:0,0:0:0:0:
424,339,155484,102,0,B|400:318|362:323|362:323|282:223|282:223|260:196|265:170|286:155,1,269.999991760254,8|0,1:2|0:0,0:0:0:0:
352,111,155817,2,0,B|366:115|380:108|380:108|367:117|361:133,1,59.9999981689454,2|0,0:2|0:0,0:0:0:0:
200,226,155984,1,2,1:2:0:0:
463,268,156151,2,0,B|455:301|455:301|261:350|261:350|239:324,1,269.999991760254,8|0,1:2|0:0,0:0:0:0:
170,358,156484,6,0,P|163:347|162:317,1,29.9999990844727,12|0,1:2|1:0,0:0:0:0:
148,362,156567,2,0,P|144:352|143:342,1,20,0|0,1:0|1:0,0:0:0:0:
129,358,156651,1,0,1:0:0:0:
114,351,156734,1,0,1:0:0:0:
106,340,156817,2,0,P|109:304|114:266,1,59.9999981689454,0|0,1:0|0:0,0:0:0:0:
190,228,156984,2,0,P|187:192|182:155,1,59.9999981689454,8|0,1:2|0:0,0:0:0:0:
109,102,157151,2,0,B|87:90|72:69|72:69|75:91|85:105|85:105|173:123|265:133,1,269.999991760254,0|0,1:0|0:0,0:0:0:0:
319,77,157484,102,0,P|345:68|380:87,1,50,8|0,1:2|0:0,0:0:0:0:
440,54,157651,2,0,P|456:75|449:115,1,50,0|0,1:0|0:0,0:0:0:0:
394,152,157817,5,0,1:0:0:0:
388,163,157901,1,0,0:0:0:0:
402,185,157984,101,0,1:0:0:0:
402,198,158067,1,0,0:0:0:0:
423,212,158151,5,8,1:2:0:0:
449,241,158234,1,0,0:0:0:0:
454,279,158317,1,0,0:0:0:0:
443,304,158401,1,0,0:0:0:0:
440,354,158484,101,0,0:0:0:0:
401,315,158567,1,0,0:0:0:0:
362,306,158651,1,0,1:0:0:0:
324,312,158734,1,0,0:0:0:0:
284,351,158817,5,8,1:2:0:0:
229,345,158901,1,0,0:0:0:0:
211,299,158984,1,0,0:0:0:0:
222,263,159067,1,0,0:0:0:0:
242,265,159151,102,0,P|229:152|218:23,1,225.000008583069,8|0,1:2|0:0,0:0:0:0:
344,63,159484,2,0,B|401:141|305:233|218:173|231:155|247:134|165:65|56:151|84:226|84:226|69:66,1,524.999983978272,6|0,1:2|0:0,0:0:0:0:
141,44,159984,5,0,1:0:0:0:
148,100,160067,1,0,1:0:0:0:
154,155,160151,1,0,1:0:0:0:
159,211,160234,1,0,1:0:0:0:
164,267,160310,85,2,1:2:0:0:
17,305,160463,6,0,P|71:302|112:332,1,100,0|0,1:0|0:0,0:0:0:0:
46,381,160770,102,0,P|134:312|242:290,1,225.000008583069,8|0,1:0|0:0,0:0:0:0:
301,385,161078,2,0,L|227:371,1,75.0000028610231,0|0,1:0|0:0,0:0:0:0:
124,228,161232,2,0,L|1:204,1,125,8|0,1:0|0:0,0:0:0:0:
124,228,161539,6,0,B|159:196|159:196|148:118,1,125,2|0,1:2|0:0,0:0:0:0:
141,130,161770,1,0,0:0:0:0:
134,141,161847,1,2,1:2:0:0:
18,297,162001,102,0,B|86:309|86:309|96:306|96:306|164:318,1,150.000005722046,8|0,1:0|0:0,0:0:0:0:
453,369,162309,1,0,1:0:0:0:
235,276,162463,2,0,B|200:308|200:308|211:386,1,125,8|0,1:0|0:0,0:0:0:0:
453,369,162770,1,2,1:2:0:0:
393,315,162924,6,0,P|434:289|483:293,1,100,0|0,0:0|1:0,0:0:0:0:
316,384,163232,102,0,P|318:272|371:174,1,225.000008583069,8|0,1:0|0:0,0:0:0:0:
443,137,163539,2,0,P|457:170|445:205,1,75.0000028610231,0|0,1:0|0:0,0:0:0:0:
300,133,163693,2,0,L|280:27,1,62.5,8|0,1:0|0:0,0:0:0:0:
391,11,163847,1,0,0:0:0:0:
389,21,163924,1,0,0:0:0:0:
387,31,164001,2,0,L|367:137,1,62.5,2|0,1:2|0:0,0:0:0:0:
445,205,164155,5,0,0:0:0:0:
398,186,164232,1,0,0:0:0:0:
350,199,164309,1,2,1:2:0:0:
319,238,164386,1,0,0:0:0:0:
323,258,164463,102,0,L|153:226,1,150.000005722046,8|0,1:0|0:0,0:0:0:0:
12,269,164693,1,0,0:0:0:0:
12,269,164770,2,0,B|1:306|1:306|20:338,1,75.0000028610231,0|0,1:0|0:0,0:0:0:0:
180,250,164924,2,0,B|198:281|198:281|187:318,1,75.0000028610231,8|0,1:0|0:0,0:0:0:0:
99,354,165078,6,0,L|111:293,1,62.5
75,221,165232,1,2,1:2:0:0:
95,375,165386,102,0,L|194:363,1,100,0|0,0:0|1:0,0:0:0:0:
275,368,165693,6,0,B|347:327|339:216|236:227|238:294,1,225.000008583069,8|0,1:0|0:0,0:0:0:0:
388,355,166001,2,0,P|402:320|397:283,1,75.0000028610231,0|0,1:0|0:0,0:0:0:0:
143,174,166155,2,0,P|176:188|213:184,1,75.0000028610231,8|0,1:0|0:0,0:0:0:0:
290,84,166309,102,0,L|346:95,2,37.5000014305115
270,80,166463,6,0,L|282:142,1,62.5,2|0,1:2|0:0,0:0:0:0:
317,270,166616,2,0,L|329:209,1,62.5
403,176,166770,1,2,1:2:0:0:
509,350,166924,102,0,B|470:309|470:309|378:323,1,150.000005722046,8|0,1:0|0:0,0:0:0:0:
43,377,167232,1,0,1:0:0:0:
378,324,167386,2,0,B|345:357|345:357|269:345,1,125,8|0,1:0|0:0,0:0:0:0:
100,319,167693,1,2,1:2:0:0:
193,382,167847,6,0,L|175:283,1,100,0|0,0:0|1:0,0:0:0:0:
306,188,168155,102,0,B|372:195|369:298|258:292|228:214,1,225.000008583069,8|0,1:0|0:0,0:0:0:0:
244,135,168463,2,0,L|262:40,1,75.0000028610231,0|0,1:0|0:0,0:0:0:0:
84,239,168616,2,0,L|110:373,1,125,8|0,1:0|0:0,0:0:0:0:
84,239,168924,6,0,L|10:224,1,75.0000028610231,2|0,1:2|0:0,0:0:0:0:
428,239,169232,102,0,L|502:224,1,75.0000028610231,2|0,1:2|0:0,0:0:0:0:
252,368,169539,6,0,B|263:296|263:296|249:270|249:270|260:198,2,175.00000166893,2|0|0,1:2|0:0|1:0,0:0:0:0:
252,368,169924,1,0,0:0:0:0:
252,368,170001,1,0,1:0:0:0:
375,72,170155,101,6,1:2:0:0:
429,132,170309,2,0,P|384:152|335:142,1,100,0|0,0:0|1:0,0:0:0:0:
170,118,170616,2,0,B|202:112|240:126|260:171|260:171|251:135|257:96|296:73,1,225.000008583069,8|0,1:0|0:0,0:0:0:0:
241,11,170924,2,0,P|204:16|173:36,1,75.0000028610231,0|0,1:0|0:0,0:0:0:0:
59,212,171078,2,0,L|195:196,1,125,8|0,1:0|0:0,0:0:0:0:
388,304,171386,6,0,P|343:307|284:254,1,100,2|0,1:2|0:0,0:0:0:0:
360,228,171693,1,2,1:2:0:0:
416,380,171847,2,0,B|429:272|429:272|434:265|434:265|447:158,1,225.000008583069,8|0,1:0|0:0,0:0:0:0:
457,78,172155,1,0,1:0:0:0:
360,228,172309,2,0,P|334:190|359:105,1,125,8|0,1:0|0:0,0:0:0:0:
364,102,172539,1,0,0:0:0:0:
364,102,172616,101,2,1:2:0:0:
248,217,172770,2,0,L|184:229,1,50
98,64,172924,2,0,L|162:76,1,50,0|0,1:0|0:0,0:0:0:0:
253,99,173078,2,0,L|261:54,6,37.5000014305115,8|0|0|0|0|0|0,1:0|0:0|0:0|0:0|0:0|0:0|0:0,0:0:0:0:
247,136,173386,2,0,L|157:152,1,75.0000028610231,0|0,1:0|0:0,0:0:0:0:
72,284,173539,2,0,P|31:263|11:219,1,62.5,8|0,1:0|0:0,0:0:0:0:
77,143,173693,1,0,0:0:0:0:
77,143,173770,1,0,0:0:0:0:
77,143,173847,6,0,L|93:233,1,62.5,2|0,1:2|0:0,0:0:0:0:
123,348,174001,1,0,0:0:0:0:
151,307,174077,1,0,0:0:0:0:
197,291,174154,1,2,1:2:0:0:
244,305,174231,1,0,0:0:0:0:
256,325,174309,2,0,B|327:332|327:332|335:329|335:329|427:339,1,150.000005722046,8|0,1:0|0:0,0:0:0:0:
485,210,174539,1,0,0:0:0:0:
485,210,174616,2,0,B|484:245|484:245|454:271,1,75.0000028610231,0|0,1:0|0:0,0:0:0:0:
334,250,174770,2,0,B|314:215|314:215|327:178,1,75.0000028610231,8|0,1:0|0:0,0:0:0:0:
414,146,174924,2,0,L|400:224,1,62.5,0|0,0:3|0:0,0:0:0:0:
404,336,175078,101,2,1:2:0:0:
257,305,175232,2,0,P|304:325|331:385,1,100,0|0,0:0|1:0,0:0:0:0:
166,358,175539,2,0,B|182:265|182:265|210:238|210:238|198:138,1,225.000008583069,8|0,1:0|0:0,0:0:0:0:
189,66,175847,1,0,1:0:0:0:
13,193,176001,2,0,P|61:222|136:198,1,125,8|0,1:0|0:0,0:0:0:0:
189,66,176309,5,2,1:2:0:0:
114,37,176463,2,0,P|112:93|161:142,1,100,0|2,0:0|3:2,0:0:0:0:
273,190,176693,1,0,0:0:0:0:
273,190,176770,2,0,B|201:196|201:196|193:200|193:200|121:207,1,150.000005722046,8|0,1:0|0:2,0:0:0:0:
13,193,177078,1,0,1:0:0:0:
324,126,177232,2,0,B|360:158|360:158|344:262,1,125,8|0,1:0|0:0,0:0:0:0:
288,376,177539,101,2,1:2:0:0:
125,228,177693,2,0,P|109:276|120:349,1,100,0|0,0:0|1:0,0:0:0:0:
270,297,178001,2,0,B|295:240|227:205|178:242|172:308|211:352,1,225.000008583069,8|0,1:0|0:0,0:0:0:0:
288,376,178309,1,0,1:0:0:0:
348,233,178463,2,0,B|407:227|407:227|415:223|415:223|475:217,1,125,8|0,1:0|0:0,0:0:0:0:
491,216,178693,1,0,0:0:0:0:
491,216,178770,5,2,1:2:0:0:
402,41,179539,101,2,0:0:0:0:
385,121,179693,1,2,0:0:0:0:
465,138,179847,1,2,0:0:0:0:
482,58,180001,1,2,0:0:0:0:
304,217,180155,6,0,L|289:144,1,62.5,6|0,1:2|0:0,0:0:0:0:
383,201,180309,2,0,L|368:128,1,62.5,2|0,1:2|0:0,0:0:0:0:
376,128,180463,1,8,1:0:0:0:
219,51,180616,102,0,B|209:37|211:18|211:18|147:17|109:99|192:148,1,187.5,2|0,0:2|0:0,0:0:0:0:
176,127,180924,2,0,P|192:137|191:197,1,62.5,0|0,1:0|0:0,0:0:0:0:
187,315,181078,6,0,B|108:296|108:296|91:238|91:238|9:219,1,225.000008583069,8|0,1:0|0:0,0:0:0:0:
2,232,181386,1,2,0:2:0:0:
294,143,181539,101,0,1:0:0:0:
348,368,181693,1,8,1:0:0:0:
299,304,181847,5,0,0:0:0:0:
346,203,182001,1,0,0:0:0:0:
393,61,182155,102,0,B|416:67|430:102|430:102|360:70|255:61,1,187.5,0|0,1:2|0:0,0:0:0:0:
248,19,182463,1,2,0:0:0:0:
234,32,182539,1,0,0:0:0:0:
232,54,182616,5,2,1:2:0:0:
269,229,182770,1,2,1:2:0:0:
312,369,182924,101,8,1:0:0:0:
349,194,183078,1,2,0:0:0:0:
447,190,183232,5,2,0:2:0:0:
358,204,183386,1,0,1:0:0:0:
293,141,183539,101,8,1:0:0:0:
349,211,183693,1,2,0:0:0:0:
219,311,183847,5,2,0:0:0:0:
150,340,184001,2,0,P|143:312|126:279,1,62.5,0|0,1:0|0:0,0:0:0:0:
205,248,184155,2,0,P|212:276|229:309,1,62.5,8|0,1:0|0:0,0:0:0:0:
81,220,184309,102,0,P|101:199|121:168,1,62.5
163,107,184463,5,0,3:0:0:0:
143,98,184539,1,0,3:0:0:0:
126,87,184616,1,0,1:2:0:0:
111,72,184693,1,0,0:0:0:0:
106,58,184770,101,8,1:0:0:0:
172,13,184846,1,0,0:0:0:0:
249,36,184923,1,0,0:0:0:0:
281,111,185000,1,0,0:0:0:0:
274,124,185078,6,0,P|289:147|322:160,1,62.5,2|0,1:2|0:0,0:0:0:0:
376,220,185232,2,0,P|403:218|431:196,1,62.5,2|0,1:2|0:0,0:0:0:0:
429,185,185386,1,8,1:0:0:0:
493,51,185539,102,0,B|481:32|485:9|485:9|424:1|390:55|425:113,1,187.5,2|0,0:0|0:0,3:3:0:0:
501,228,185847,2,0,P|516:256|507:293,1,62.5,0|0,1:0|0:0,0:0:0:0:
496,287,186001,5,8,1:0:0:0:
290,340,186155,1,0,0:0:0:0:
309,263,186309,101,2,0:0:0:0:
298,188,186463,1,0,1:0:0:0:
317,265,186616,1,8,1:0:0:0:
133,325,186770,1,0,0:0:0:0:
354,384,186924,5,0,0:0:0:0:
288,192,187078,1,0,1:0:0:0:
412,44,187232,101,8,1:0:0:0:
278,197,187386,1,0,0:0:0:0:
195,175,187539,5,2,1:2:0:0:
164,100,187693,1,2,1:2:0:0:
186,182,187847,101,0,1:0:0:0:
136,246,188001,2,0,P|106:238|71:232,1,62.5,2|0,0:2|0:0,0:0:0:0:
73,244,188309,6,0,P|103:249|133:257,1,62.5,0|0,1:0|0:0,0:0:0:0:
216,341,188463,2,0,P|246:335|276:327,1,62.5,8|0,1:0|0:0,0:0:0:0:
353,334,188616,1,0,3:0:0:0:
355,317,188693,1,0,3:0:0:0:
349,304,188770,101,0,0:0:0:0:
266,104,188924,1,0,1:0:0:0:
310,34,189078,5,8,1:0:0:0:
225,174,189232,2,0,P|193:161|156:154,1,62.5
164,165,189539,102,0,P|194:171|223:183,1,62.5,0|0,1:0|0:0,0:0:0:0:
247,255,189693,2,0,P|234:283|228:314,1,62.5,8|0,1:0|0:0,0:0:0:0:
234,321,189847,2,0,P|240:290|252:261,1,62.5,0|0,1:0|0:0,0:0:0:0:
305,198,190001,5,2,0:0:0:0:
68,286,190463,101,2,0:0:0:0:
323,191,190770,5,2,0:0:0:0:
105,147,191078,102,0,L|8:130,1,87.500000834465,2|0,0:0|0:0,0:0:0:0:
407,237,191386,6,0,L|504:255,1,87.500000834465,2|0,0:0|0:0,0:0:0:0:
105,237,191693,102,0,L|8:255,1,87.500000834465,2|0,0:0|0:0,0:0:0:0:
407,147,192001,6,0,L|504:129,1,87.500000834465,2|0,0:0|0:0,0:0:0:0:
175,103,192309,102,0,B|276:86|276:86|233:218,1,225.000008583069,4|0,1:0|0:0,0:0:0:0:
272,273,192617,2,0,P|210:278|179:260,1,75.0000028610231,2|0,1:2|0:0,0:0:0:0:
147,213,192771,2,0,P|123:267|160:341,1,125,8|0,1:0|0:0,0:0:0:0:
59,333,193078,5,2,0:0:0:0:
218,364,193232,1,2,1:2:0:0:
50,348,193386,101,8,1:1:0:0:
38,217,193540,1,2,0:0:0:0:
201,272,193693,5,2,3:3:0:0:
293,194,193847,1,2,1:3:0:0:
331,93,194001,1,10,1:2:0:0:
379,189,194155,1,2,0:0:0:0:
487,267,194309,101,0,0:0:0:0:
487,267,194385,1,0,0:0:0:0:
487,267,194463,2,0,L|401:250,1,62.5,0|0,1:0|0:0,0:0:0:0:
189,187,194616,1,8,1:0:0:0:
241,174,194692,1,0,0:0:0:0:
293,194,194770,2,0,P|300:237|294:281,1,62.5
244,322,194924,6,0,P|200:312|163:318,1,62.5,2|0,1:2|0:0,0:0:0:0:
370,165,195078,2,0,P|414:175|451:169,1,62.5,2|0,1:2|0:0,0:0:0:0:
147,189,195232,101,8,1:0:0:0:
315,275,195386,1,0,0:0:0:0:
340,90,195540,2,0,L|347:15,1,62.5,2|0,0:0|0:0,0:0:0:0:
486,237,195694,5,2,1:2:0:0:
292,153,195848,1,8,1:0:0:0:
424,168,196002,101,2,3:3:0:0:
360,211,196156,1,10,3:3:0:0:
430,173,196309,1,0,1:2:0:0:
255,61,196463,1,8,1:1:0:0:
246,249,196616,5,2,0:0:0:0:
277,153,196770,1,0,0:0:0:0:
239,260,196924,101,0,1:0:0:0:
117,288,197078,1,10,1:2:0:0:
251,261,197232,5,0,0:0:0:0:
353,384,197386,1,2,0:0:0:0:
485,228,197540,101,2,1:2:0:0:
357,289,197693,1,8,1:0:0:0:
470,141,197847,6,0,B|459:275|459:275|490:220,1,187.5,2|0,1:2|0:0,0:0:0:0:
486,229,198155,102,0,P|456:234|426:242,1,62.5,0|0,1:0|0:0,0:0:0:0:
221,308,198308,2,0,P|251:314|281:322,1,62.5,8|0,1:0|0:0,0:0:0:0:
365,337,198462,1,0,0:0:0:0:
368,320,198539,1,0,0:0:0:0:
364,306,198616,5,0,0:0:0:0:
394,157,198770,102,0,P|421:151|391:155,1,125,2|0,0:0|0:0,0:0:0:0:
293,135,199078,6,0,P|224:190|129:168,1,150.000005722046,2|0,0:0|0:0,0:0:0:0:
100,242,199386,102,0,P|26:291|87:318,1,175.00000166893,2|0,0:0|0:0,0:0:0:0:
286,349,199847,5,4,0:1:0:0:
451,210,200191,2,0,P|457:230|435:228,1,50,0|2,1:0|0:0,0:0:0:0:
428,229,200536,2,0,P|422:249|396:227,1,59.9999981689454,0|2,0:0|0:0,0:0:0:0:
385,239,200881,2,0,P|370:254|350:216,1,69.9999978637696,0|2,1:0|0:0,0:0:0:0:
387,151,201226,101,0,0:0:0:0:
286,349,201398,1,2,0:0:0:0:
440,331,201571,1,0,1:0:0:0:
286,349,201743,1,2,0:0:0:0:
356,285,201915,1,2,0:0:0:0:
252,259,202088,1,2,0:0:0:0:
191,343,202261,1,0,1:0:0:0:
252,259,202433,1,2,0:0:0:0:
140,137,202605,5,0,0:0:0:0:
27,269,202950,2,0,P|21:249|43:251,1,50,0|2,1:0|0:0,0:0:0:0:
50,250,203295,2,0,P|56:230|82:252,1,59.9999981689454,0|2,0:0|0:0,0:0:0:0:
93,240,203640,2,0,P|108:225|128:263,1,59.9999981689454,0|2,1:0|0:0,0:0:0:0:
91,328,203985,101,0,0:0:0:0:
1,167,204157,1,2,0:0:0:0:
91,328,204329,1,0,1:0:0:0:
220,266,204502,1,2,0:0:0:0:
210,280,204847,2,0,L|319:294,1,100,2|2,0:0|0:0,0:0:0:0:
256,192,205364,12,0,209502,0:0:0:0:
323,117,209674,5,2,0:0:0:0:
330,119,209847,1,2,0:0:0:0:
330,126,210019,1,2,0:0:0:0:
203,180,210191,1,2,0:0:0:0:
330,126,210364,1,2,0:0:0:0:
142,237,210536,102,0,P|42:217|126:153,1,255.000004863739,8|0,1:0|0:0,0:0:0:0:
203,180,210881,6,0,L|271:171,1,60,4|0,0:1|0:0,0:0:0:0:
233,263,211226,102,0,P|319:183|437:179,1,239.999992675781,2|0,1:0|0:0,0:0:0:0:
436,178,211743,2,0,P|318:173|232:93,1,239.999992675781,2|0,1:0|0:0,0:0:0:0:
434,67,212260,6,0,P|467:209|396:338,1,300.000011444092,2|0,1:0|0:0,0:0:0:0:
395,338,212778,102,0,P|317:249|308:131,1,239.999992675781,2|0,1:0|0:0,0:0:0:0:
125,268,213295,6,0,P|130:189|181:129,1,160,2|0,1:0|0:0,0:0:0:0:
490,334,213984,102,0,P|372:329|286:249,1,239.999992675781,2|0,1:0|0:0,0:0:0:0:
286,249,214502,2,0,P|397:212|505:258,1,239.999992675781,2|0,1:0|0:0,0:0:0:0:
269,363,215019,6,0,P|161:239|196:79,1,340.000006484985,2|0,1:0|0:0,0:0:0:0:
195,79,215536,102,0,P|322:149|342:294,1,300.000011444092,2|0,1:0|0:0,0:0:0:0:
111,361,216053,6,0,P|129:235|240:174,1,259.999988098145,2|0,1:0|0:0,0:0:0:0:
478,209,216743,102,0,P|465:93|368:30,1,239.999992675781,2|0,1:0|0:0,0:0:0:0:
368,30,217260,2,0,P|270:93|258:208,1,239.999992675781,2|0,1:0|0:0,0:0:0:0:
409,275,217778,6,0,P|306:170|159:159,1,300.000011444092,2|0,1:0|0:0,0:0:0:0:
1,352,218295,102,0,P|118:344|200:260,1,239.999992675781,2|0,1:0|0:0,0:0:0:0:
306,327,218812,6,0,P|296:180|191:77,1,300.000011444092,2|0,1:0|0:0,0:0:0:0:
294,326,219502,102,0,P|257:172|143:127,1,269.999991760254,2|0,1:0|0:0,0:0:0:0:
88,151,219847,2,0,L|42:170,1,50,2|0,0:0|0:0,0:0:0:0:
275,74,220019,2,0,L|321:55,1,50,2|0,0:0|0:0,0:0:0:0:
106,273,220191,6,0,P|138:212|203:236,1,150,2|0,1:0|0:0,0:0:0:0:
217,248,220536,102,0,P|365:192|396:73,1,269.999991760254,2|0,1:0|0:0,0:0:0:0:
367,21,220881,2,0,L|386:67,1,50,2|0,0:0|0:0,0:0:0:0:
243,173,221053,2,0,L|224:127,1,50,2|0,0:0|0:0,0:0:0:0:
292,65,221226,2,0,L|311:110,1,50,2|0,0:0|0:0,0:0:0:0:
154,182,221398,2,0,L|134:136,1,50,2|0,0:0|0:0,0:0:0:0:
397,194,221571,6,0,P|328:197|324:265,1,150.000005722046,0|8,1:0|1:0,0:0:0:0:
432,336,221915,102,0,P|407:311|381:333,1,75,8|0,1:0|0:0,0:0:0:0:
257,373,222260,2,0,P|268:340|302:350,1,75,10|0,1:0|0:0,0:0:0:0:
324,265,222605,6,0,P|332:231|366:238,1,75,8|0,1:0|0:0,0:0:0:0:
499,230,222950,2,0,P|472:252|448:227,1,75,10|0,1:0|0:0,0:0:0:0:
405,154,223295,102,0,B|317:141|317:141|276:166|276:166|188:152,1,225.000008583069,10|0,1:0|0:0,0:0:0:0:
152,84,223640,6,0,B|189:71|189:71|209:79|209:79|246:66,1,100,8|2,1:0|0:1,0:0:0:0:
52,271,223984,2,0,B|89:258|89:258|109:265|109:265|146:253,1,100,8|0,1:0|0:0,0:0:0:0:
405,319,224329,102,0,B|360:333|360:333|336:324|336:324|291:339,1,120,10|0,1:0|0:0,0:0:0:0:
208,311,224674,6,0,P|175:299|184:266,1,75,8|0,1:0|0:0,0:0:0:0:
266,198,225019,2,0,P|290:222|268:248,1,75,10|0,1:0|0:0,0:0:0:0:
90,259,225364,102,0,P|57:247|66:214,1,75,8|0,1:0|0:0,0:0:0:0:
156,134,225709,2,0,P|187:148|175:180,1,75,10|0,1:0|0:0,0:0:0:0:
61,95,226053,6,0,B|129:33|129:33|280:79|280:79|294:168,1,340.000006484985,10|0,1:0|1:0,0:0:0:0:
81,196,226571,1,2,0:1:0:0:
376,179,226743,102,0,B|239:197|316:237|170:258,1,225.000008583069,8|0,1:0|0:0,0:0:0:0:
81,196,227088,6,0,B|34:108|86:134|42:53,1,150.000005722046,10|0,1:0|0:0,0:0:0:0:
188,123,227433,101,0,1:0:0:0:
58,336,227605,1,0,1:0:0:0:
81,196,227778,1,2,1:0:0:0:
169,258,227950,1,0,1:0:0:0:
115,16,228122,5,0,1:0:0:0:
328,146,228294,1,2,1:0:0:0:
188,123,228467,1,0,1:0:0:0:
250,35,228639,1,0,1:0:0:0:
309,281,228812,102,0,P|298:262|297:241,1,40,10|0,1:0|0:0,0:0:0:0:
152,135,228984,2,0,P|170:123|192:122,1,40,10|0,1:0|0:0,0:0:0:0:
200,241,229157,2,0,P|204:219|219:204,1,40,8|0,1:0|0:0,0:0:0:0:
194,27,229329,2,0,P|215:31|230:46,1,40,10|0,1:0|0:0,0:0:0:0:
111,218,229502,5,10,1:0:0:0:
295,137,229674,1,0,1:0:0:0:
60,294,229847,1,2,1:0:0:0:
152,135,230019,1,8,1:0:0:0:
309,281,230191,101,10,1:0:0:0:
285,283,230278,1,8,1:0:0:0:
258,270,230364,1,8,1:0:0:0:
232,245,230450,1,8,1:0:0:0:
223,210,230536,1,10,1:0:0:0:
239,171,230622,1,8,1:0:0:0:
270,136,230709,1,8,1:0:0:0:
283,84,230795,1,8,1:0:0:0:
263,34,230881,6,8,L|236:10,1,32.4999985122681,10|8,1:0|1:0,1:1:0:0:
237,57,230967,2,8,L|205:40,1,29.9999990844727,10|8,1:0|1:0,1:1:0:0:
223,89,231053,2,8,L|190:80,1,27.5000008392334,10|8,1:0|1:0,1:1:0:0:
221,123,231140,2,8,L|175:127,1,25,10|8,1:0|1:0,1:1:0:0:
235,156,231226,2,8,L|200:176,1,22.4999993133545,10|8,1:0|1:0,1:1:0:0:
260,180,231312,2,8,L|246:198,1,20,10|8,1:0|1:0,1:1:0:0:
292,193,231398,2,8,L|287:221,1,17.4999994659424,10|8,1:0|1:0,1:1:0:0:
327,192,231484,2,8,L|334:214,1,14.9999995422363,10|8,1:0|1:0,1:1:0:0:
359,177,231570,101,12,0:1:0:0:
111,226,231743,1,0,1:0:0:0:
308,237,231915,5,8,0:0:0:0:
60,286,232088,1,0,1:0:0:0:
253,301,232260,101,10,1:0:0:0:
222,308,232347,1,8,1:0:0:0:
152,325,232433,5,8,1:0:0:0:
121,332,232520,1,8,1:0:0:0:
27,383,232605,102,0,B|25:294|64:325|66:225,1,149.999995422363,10|0,3:3|0:0,0:0:0:0:
0,142,232950,6,2,B|-14:192|-14:192|26:232|26:232|224:192,1,300,4|0,1:2|0:0,0:1:0:0:
315,58,233295,2,0,L|343:-36,1,50,8|0,0:1|0:0,0:0:0:0:
274,150,233467,2,0,B|273:130|273:130|263:119|263:119|248:131|248:131|274:228,1,150,2|0,0:0|0:0,0:0:0:0:
244,297,233640,102,0,P|310:295|347:255,1,100,2|0,0:0|0:0,0:0:0:0:
114,185,233812,6,0,L|193:202,1,50,0|0,1:0|0:0,0:0:0:0:
413,238,233984,1,8,0:1:0:0:
272,223,234157,102,0,P|317:174|315:120,1,100,2|0,0:0|0:0,0:0:0:0:
386,95,234329,5,0,1:2:0:0:
335,278,234502,2,0,L|363:372,1,50,2|0,0:0|0:0,0:0:0:0:
238,149,234674,102,0,P|236:83|196:45,1,100,8|0,0:1|0:0,0:0:0:0:
349,325,234847,6,0,B|367:320|367:320|429:334,1,75,2|0,0:0|0:0,0:0:0:0:
161,116,235019,2,0,B|143:121|143:121|81:107,1,75,2|0,0:0|0:0,0:0:0:0:
261,362,235191,102,0,L|281:264,1,100,2|0,1:2|0:0,0:0:0:0:
348,187,235364,5,8,0:1:0:0:
105,237,235536,1,2,0:0:0:0:
348,187,235709,102,2,B|365:165|365:165|271:182|271:182|195:221|195:221|100:239,1,300,4|0,1:2|0:0,0:1:0:0:
45,296,236053,6,0,P|24:230|74:163,1,100,8|0,0:1|0:0,0:0:0:0:
105,237,236226,101,2,0:0:0:0:
237,149,236398,6,0,P|258:215|208:282,1,100,2|0,0:0|0:0,0:0:0:0:
32,125,236571,102,0,L|102:135,1,50,2|0,1:2|0:0,0:0:0:0:
181,203,236743,1,8,0:1:0:0:
32,202,236915,6,0,P|17:253|55:331,1,125,2|0,0:0|0:0,0:0:0:0:
298,367,237088,101,2,1:2:0:0:
122,342,237260,2,0,L|210:351,1,50,2|0,0:0|0:0,0:0:0:0:
255,289,237433,6,0,P|267:214|235:146,1,150.000005722046,8|0,0:1|0:0,0:0:0:0:
100,263,237605,101,2,0:0:0:0:
187,82,237778,1,2,0:0:0:0:
32,202,237950,6,0,P|13:274|39:345,1,150.000005722046,2|0,1:2|0:0,0:0:0:0:
105,384,238122,101,8,0:1:0:0:
447,269,238295,6,0,P|465:196|439:125,1,150.000005722046,2|0,1:2|0:0,0:0:0:0:
368,71,238467,102,2,B|356:130|356:130|377:186|377:186|345:381,1,300,4|0,1:2|0:0,0:1:0:0:
347,363,238812,6,0,B|291:375|291:375|346:321,1,100,8|0,0:1|0:0,0:0:0:0:
255,289,238984,2,0,B|199:301|199:301|254:247,1,100,2|0,0:0|0:0,0:0:0:0:
181,89,239157,102,0,P|257:102|288:140,1,100,2|0,0:0|0:0,0:0:0:0:
229,271,239329,5,2,1:2:0:0:
132,155,239502,2,0,L|70:145,1,50,8|0,0:1|0:0,0:0:0:0:
368,71,239674,102,0,P|412:133|407:182,1,100,2|0,0:0|0:0,0:0:0:0:
318,236,239847,6,0,L|306:171,1,50,2|0,1:2|0:0,0:0:0:0:
368,71,240019,1,2,0:0:0:0:
512,203,240191,102,0,P|499:279|461:310,1,100,8|0,0:1|0:0,0:0:0:0:
231,347,240364,6,0,B|239:333|239:333|336:312,1,100,2|0,0:0|0:0,0:0:0:0:
410,283,240536,2,0,B|402:297|402:297|305:318,1,100,2|0,0:0|0:0,0:0:0:0:
179,227,240709,102,0,B|311:253|311:253|289:319|329:385|406:386,1,300,2|0,1:2|0:0,0:0:0:0:
436,205,241053,6,0,L|423:136,1,50,8|0,0:1|0:0,0:0:0:0:
179,227,241226,102,2,L|156:114,1,115.000002193451,4|0,1:2|0:0,0:1:0:0:
9,42,241398,1,0,0:0:0:0:
9,42,241484,1,2,0:0:0:0:
9,42,241571,6,0,P|61:60|143:14,1,150.000005722046,8|0,0:1|0:0,0:0:0:0:
230,63,241829,2,0,B|268:106|350:86|350:-3,1,150.000005722046,2|0,1:2|0:0,0:0:0:0:
430,109,242088,2,0,B|449:180|532:157|510:80,1,150.000005722046,2|2,1:2|0:3,0:0:0:0:
257,190,242433,102,0,B|267:251|290:248|278:185,1,100,2|0,0:3|0:0,0:0:0:0:
165,176,242605,6,0,B|214:34|273:56|253:259,1,230.000004386902,10|0,0:3|0:0,0:0:0:0:
349,204,242864,2,0,B|300:346|241:324|261:121,1,230.000004386902,10|0,0:3|0:0,0:0:0:0:
177,69,243122,102,0,B|228:-53|292:-53|245:304,1,300.000011444092,10|0,0:3|0:0,0:0:0:0:
338,311,243381,2,0,B|287:433|223:433|270:76,1,300.000011444092,10|0,0:3|0:0,0:0:0:0:
70,215,243640,6,2,L|493:159,1,375,6|0,1:1|0:0,0:3:0:0:
440,80,243984,102,2,B|388:77|351:119|348:173|348:173|346:227|309:269|249:272,1,300,4|0,1:2|0:0,0:1:0:0:
184,320,244329,6,0,P|168:284|172:240,1,75.0000028610231,8|0,0:1|0:0,0:0:0:0:
240,108,244502,2,0,P|256:144|252:188,1,75.0000028610231,2|0,0:0|0:0,0:0:0:0:
184,328,244674,102,0,L|144:332,1,37.5000014305115
48,340,244847,1,2,1:2:0:0:
172,80,245019,6,0,P|211:84|247:109,1,75.0000028610231,8|0,0:1|0:0,0:0:0:0:
172,244,245191,102,0,L|132:248,1,37.5000014305115,2|0,0:0|0:0,0:0:0:0:
40,272,245364,6,0,B|28:308|28:308|48:340,1,75.0000028610231,2|0,1:2|0:0,0:0:0:0:
272,316,245536,2,0,B|284:280|284:280|264:248,1,75.0000028610231,2|0,0:0|0:0,0:0:0:0:
160,164,245709,102,0,L|122:167,1,37.5000014305115,8|0,0:1|0:0,0:0:0:0:
36,176,245881,6,0,P|40:136|64:104,1,75.0000028610231,2|0,0:0|0:0,0:0:0:0:
124,16,246053,2,0,P|160:0|200:4,1,75.0000028610231,2|0,0:0|0:0,0:0:0:0:
304,174,246226,102,0,B|255:179|255:179|212:157|212:157|159:163,2,150.000005722046,2|8|2,1:2|0:1|0:0,0:0:0:0:
468,180,246743,6,2,P|500:136|396:168,1,300,4|0,1:2|0:0,0:1:0:0:
472,188,247088,102,0,P|496:168|508:112,1,80,8|0,0:1|0:0,0:0:0:0:
372,112,247260,2,0,P|371:143|407:188,1,80,2|0,0:0|0:0,0:0:0:0:
468,56,247433,6,0,L|424:52,1,42.5000008106232,2|0,0:0|0:0,0:0:0:0:
373,193,247605,102,0,P|382:152|372:112,1,85.0000016212464,2|0,1:2|0:0,0:0:0:0:
232,174,247777,2,0,P|249:203|307:227,1,85.0000016212464,8|0,0:1|0:0,0:0:0:0:
293,67,247950,6,0,L|248:87,1,44.999998626709,2|0,0:0|0:0,0:0:0:0:
267,252,248122,102,0,P|259:208|232:174,1,89.9999972534181,2|0,1:2|0:0,0:0:0:0:
113,316,248294,2,0,P|148:336|223:326,1,89.9999972534181,2|0,0:0|0:0,0:0:0:0:
112,168,248467,6,0,L|78:215,1,50,8|0,0:1|0:0,0:0:0:0:
183,371,248640,102,0,P|156:334|113:316,1,94.9999974632264,2|0,0:0|0:0,0:0:0:0:
132,44,248812,2,0,P|176:43|242:-6,1,94.9999974632264,2|0,0:0|0:0,0:0:0:0:
231,173,248984,6,0,L|236:228,1,55.0000016784668,2|0,1:2|0:0,0:0:0:0:
312,360,249157,102,0,B|364:356|364:356|332:320,1,100,8|0,0:1|0:0,0:0:0:0:
158,336,249329,2,0,B|132:376|132:376|184:372,1,100,8|0,0:1|0:0,0:0:0:0:
344,216,249502,6,2,B|320:174|277:168|277:168|261:166|261:166|253:174|253:174|237:172|237:172|161:180|161:180|180:224|235:227,1,300,4|0,1:2|0:1,0:1:0:0:
236,248,249847,102,0,L|244:324,1,75.0000028610231,8|0,0:1|0:0,0:0:0:0:
220,100,250019,2,0,L|212:25,1,75.0000028610231,2|0,0:0|0:0,0:0:0:0:
96,100,250191,6,0,P|116:104|140:104,1,37.5000014305115,2|0,0:0|0:0,0:0:0:0:
308,88,250364,1,2,1:2:0:0:
308,257,250536,102,0,B|272:260|272:260|236:248,1,75.0000028610231,8|0,0:1|0:0,0:0:0:0:
308,88,250709,6,0,P|326:88|345:92,1,37.5000014305115,2|0,0:0|0:0,0:0:0:0:
432,68,250881,102,0,P|436:88|424:140,1,75.0000028610231,2|0,1:2|0:0,0:0:0:0:
220,112,251053,2,0,P|216:92|228:40,1,75.0000028610231,2|0,0:0|0:0,0:0:0:0:
336,176,251226,6,0,P|317:175|298:171,1,37.5000014305115,8|0,0:1|0:0,0:0:0:0:
136,72,251398,102,0,L|61:79,1,75.0000028610231,2|0,0:0|0:0,0:0:0:0:
8,184,251571,2,0,P|32:211|66:227,1,75.0000028610231,2|0,0:0|0:0,0:0:0:0:
204,296,251743,6,0,B|151:301|151:301|119:332|119:332|67:338,2,150.000005722046,2|8|2,1:2|0:1|0:0,0:0:0:0:
232,192,252260,102,2,P|256:111|280:192,1,225.000008583069,6|0,1:2|0:0,0:1:0:0:
220,196,252605,6,0,P|204:172|308:132,1,187.5,8|0,0:1|0:0,0:0:0:0:
308,132,252950,102,0,P|312:168|308:180,1,50,2|0,0:0|0:0,0:0:0:0:
292,316,253122,6,0,B|272:280|272:280|320:284|320:284|332:280|332:280|345:285|345:285|391:289|391:289|368:320,1,200,2|8,0:3|0:0,0:0:0:0:
446,341,253381,2,0,B|466:377|466:377|418:373|418:373|406:377|406:377|393:372|393:372|347:368|347:368|370:337,1,200,2|0,0:3|0:0,0:0:0:0:
428,156,253640,102,0,B|376:160|376:160|360:176|360:176|308:180|308:180|288:168|288:168|236:172,1,200,14|0,0:3|0:0,0:0:0:0:
80,264,253898,2,0,B|132:260|132:260|148:244|148:244|200:240|200:240|220:252|220:252|272:248,1,200,10|0,0:3|0:0,0:0:0:0:
420,84,254157,6,0,B|370:87|370:87|350:75|350:75|298:79|298:79|282:95|282:95|230:99,1,200,10|0,0:3|0:0,0:0:0:0:
84,336,254415,2,0,B|133:332|133:332|153:344|153:344|205:340|205:340|221:324|221:324|273:320,1,200,10|0,0:3|0:0,0:0:0:0:
400,368,254674,102,0,L|405:294,1,75.0000028610231,8|0,1:0|0:0,0:0:0:0:
408,287,254760,2,0,L|413:213,1,62.5,2|0,1:2|0:0,0:0:0:0:
416,219,254847,2,0,L|421:145,1,50,2|0,1:2|0:0,0:0:0:0:
424,163,254933,1,2,1:2:0:0:
431,158,255019,6,2,B|453:175|510:144|516:69|337:12|278:132|462:246|55:171|227:14|281:69,1,419.999987182618,6|0,1:2|0:0,0:1:0:0:
278,71,255364,2,0,P|262:218|248:355,1,255.000004863739,8|0,0:1|0:0,0:0:0:0:
260,335,255709,102,0,B|271:285|246:258|242:265|217:236|232:186,1,155.000001182556,8|0,0:1|0:0,0:0:0:0:
321,128,255881,2,0,P|372:139|418:148,1,89.9999972534181,2|0,0:0|0:0,0:0:0:0:
196,16,256053,6,0,P|152:27|137:91,1,100,2|0,1:2|0:0,0:0:0:0:
125,48,256226,2,0,P|130:88|151:98,1,55.0000016784668
231,98,256398,102,0,P|328:77|427:64,1,200,2|0,0:0|0:0,0:0:0:0:
491,10,256657,1,2,0:0:0:0:
491,10,256743,2,0,P|508:40|516:70,1,50,2|0,1:2|0:0,0:0:0:0:
409,153,256915,6,0,B|341:139|316:39|393:13|447:52|430:104,1,200,2|8,0:0|0:1,0:0:0:0:
501,176,257174,1,0,0:0:0:0:
501,176,257260,2,0,P|484:206|476:236,1,50,2|0,0:0|0:0,0:0:0:0:
322,189,257433,102,0,P|259:198|284:325,1,220.000006713867,2|2,0:0|0:0,0:0:0:0:
359,345,257691,1,0,0:0:0:0:
359,345,257778,6,2,P|336:228|283:-11,1,330.000010070801,6|0,1:2|0:0,0:1:0:0:
212,58,258122,102,0,P|210:139|285:89,1,189.999994926453,2|2,0:0|0:0,0:0:0:0:
139,20,258381,1,2,0:0:0:0:
139,20,258467,2,0,P|118:53|115:97,1,59.9999981689454,8|0,0:1|0:0,0:0:0:0:
175,144,258640,6,0,B|193:183|179:227|139:242|139:236|141:231|89:253|84:315|131:363,1,220.000006713867,0|2,0:0|1:2,0:0:0:0:
179,376,258898,1,2,0:0:0:0:
179,376,258984,2,0,P|190:347|185:313,1,64.9999970245363,2|0,0:0|0:0,0:0:0:0:
33,338,259157,102,0,P|158:304|285:275,1,259.999988098145,2|2,0:0|0:0,0:0:0:0:
93,156,259415,1,2,0:0:0:0:
87,160,259502,2,0,P|53:168|19:175,1,69.9999978637696,2|0,1:2|0:0,0:0:0:0:
138,227,259674,6,0,B|153:193|139:149|99:134|99:140|101:145|49:123|44:61|68:31,1,230.000004386902,2|8,0:0|0:1,0:0:0:0:
77,33,259933,1,0,0:0:0:0:
86,36,260019,2,0,P|112:43|139:49,1,50,2|2,0:0|0:0,0:0:0:0:
216,115,260191,2,0,P|336:81|462:54,1,250,6|0,3:3|0:0,0:0:0:0:
466,60,260450,101,2,0:0:0:0:
474,64,260536,2,2,B|534:103|504:-48|352:-55|420:64|323:139|422:155|407:101|485:172|374:257|331:173|366:146,1,375,4|0,1:2|0:0,0:1:0:0:
370,155,260881,6,0,P|391:253|418:350,1,200,2|2,0:2|0:0,0:0:0:0:
322,309,261140,1,2,0:0:0:0:
322,309,261226,2,0,P|310:268|301:226,1,85.0000016212464,8|0,0:1|0:0,0:0:0:0:
230,269,261398,102,0,P|147:268|129:376,1,209.999993591309,0|2,0:0|1:2,0:0:0:0:
28,328,261657,1,2,0:2:0:0:
28,328,261743,2,0,P|39:287|48:245,1,85.0000016212464,2|0,0:0|0:0,0:0:0:0:
207,349,261915,6,0,P|190:223|166:98,1,250
236,50,262174,1,2,0:0:0:0:
236,50,262260,2,0,P|263:81|232:128,1,69.9999978637696,0|0,1:0|0:0,0:0:0:0:
142,222,262433,102,0,P|73:219|58:139,1,160,2|8,0:0|0:1,0:0:0:0:
301,226,262691,1,2,0:0:0:0:
301,226,262778,2,0,P|292:270|286:314,1,89.9999972534181,2|0,0:0|0:0,0:0:0:0:
162,337,262950,2,0,B|115:279|171:219|173:224|176:227|235:149|165:101,1,259.999988098145,2|0,0:0|0:0,0:0:0:0:
76,159,263209,5,2,0:0:0:0:
76,159,263295,2,2,B|20:158|64:279|161:256|200:181|270:207|194:164|223:101|382:86|452:178|337:298|257:212,1,471.749989877343,4|0,1:2|0:0,0:1:0:0:
301,226,263640,2,0,P|318:127|335:29,1,200,2|2,0:0|0:0,0:0:0:0:
260,11,263898,1,2,0:0:0:0:
260,11,263984,2,0,P|222:17|185:24,1,75.0000028610231,8|0,0:1|0:0,0:0:0:0:
409,67,264157,102,0,P|395:145|381:223,1,160,2|2,0:0|1:2,0:0:0:0:
456,261,264415,1,2,0:0:0:0:
456,261,264502,2,0,P|483:256|511:251,1,55.0000016784668,2|0,0:0|0:0,0:0:0:0:
143,332,264674,5,2,1:2:0:0:
120,325,264760,1,2,0:3:0:0:
100,304,264847,1,2,0:3:0:0:
89,253,264933,1,2,0:3:0:0:
127,185,265019,2,0,P|175:195|235:205,1,85.0000016212464,8|0,0:1|0:0,0:0:0:0:
396,177,265191,101,2,1:2:0:0:
430,157,265278,1,2,0:3:0:0:
445,119,265364,1,2,0:3:0:0:
428,60,265450,1,2,0:3:0:0:
357,29,265536,2,0,P|309:39|249:49,1,100,8|0,0:1|0:0,0:0:0:0:
234,126,265709,6,2,B|235:130|235:130|235:135|235:135|237:139|237:139|236:145|236:145|238:152|238:152|236:159|236:159|240:166|240:166|237:174|237:174|240:182|240:182|239:187|239:187|242:193|242:193|242:199|242:199|244:205|244:205|242:211|242:211|245:216|245:216|244:223|244:223|246:231|246:231|247:236|247:236|246:242|246:242|249:248|249:248|248:254|248:254|251:259|251:259|249:264|249:264|251:268|250:267,1,150,2|0,3:2|0:0,0:3:0:0:
255,296,266053,102,2,B|203:246|70:223|17:331|77:393|179:414|206:320|142:234,1,389.999982147218,4|0,1:2|0:0,0:1:0:0:
14,183,266398,6,0,B|-16:234|-16:234|42:285,1,110.000003356934,8|0,0:1|0:0,0:0:0:0:
143,48,266571,1,2,0:0:0:0:
109,55,266657,1,2,0:0:0:0:
71,62,266743,102,0,B|62:106|62:106|84:125|84:125|94:98|94:98|67:61,1,145.000004425049,2|0,0:0|0:0,0:0:0:0:
119,276,266915,2,0,B|128:232|128:232|106:213|106:213|96:240|96:240|123:277,1,145.000004425049,2|0,1:2|0:0,0:0:0:0:
302,33,267088,6,0,B|274:65|274:65|134:36,1,145.000004425049,8|0,0:1|0:0,0:0:0:0:
308,25,267260,2,0,L|345:33,1,20,2|0,0:0|0:0,0:0:0:0:
494,70,267433,102,0,B|431:44|431:44|368:116,1,135.000000514984,2|0,1:2|0:0,0:0:0:0:
485,306,267605,5,2,0:0:0:0:
477,275,267691,1,2,0:0:0:0:
470,242,267778,102,0,B|505:218|505:218|532:228|532:228|513:250|513:250|469:241,1,145.000004425049,8|0,0:1|0:0,0:0:0:0:
386,94,267950,6,0,B|383:138|383:138|379:138|379:138|392:195|392:195|395:193|395:193|385:254|385:254|382:253|382:253|400:310|400:310|402:307|402:307|398:365,2,290.000008850098,2|0|2,0:0|0:0|1:2,0:0:0:0:
319,325,268381,101,0,0:0:0:0:
319,325,268467,2,0,L|286:321,1,29.9999990844727,12|0,0:1|0:0,0:0:0:0:
213,308,268640,2,0,L|184:304,1,29.9999990844727,2|0,0:0|0:0,0:0:0:0:
72,146,268812,6,2,B|38:200|38:200|73:244|73:244|322:194,1,359.999989013672,4|0,1:2|0:0,0:1:0:0:
417,340,269157,102,0,B|469:295|469:295|432:228,1,129.999994049073,8|0,0:1|0:0,0:0:0:0:
218,168,269329,5,0,0:0:0:0:
212,205,269415,1,0,0:0:0:0:
205,242,269502,102,0,B|214:286|214:286|192:305|192:305|182:278|182:278|209:241,1,145.000004425049,2|0,0:0|0:0,0:0:0:0:
347,76,269674,2,0,B|381:47|381:47|409:56|409:56|390:77|390:77|345:73,1,145.000004425049,2|0,1:2|0:0,0:0:0:0:
134,44,269847,2,0,B|92:33|92:33|81:3|81:3|113:6|113:6|132:47,1,145.000004425049,8|0,0:1|0:0,0:0:0:0:
204,241,270019,2,0,L|198:278,1,25,2|0,0:0|0:0,0:0:0:0:
0,6,270191,6,0,B|-28:57|-28:57|20:95,1,119.999996337891,2|0,1:2|0:0,0:0:0:0:
218,168,270364,1,2,0:0:0:0:
226,130,270450,1,2,0:0:0:0:
234,99,270536,102,0,B|225:55|225:55|247:36|247:36|257:63|257:63|230:100,1,145.000004425049,8|0,0:1|0:0,0:0:0:0:
137,376,270709,6,0,P|192:328|419:333,2,290.000008850098,2|0|2,0:0|0:0|1:2,0:0:0:0:
490,353,271226,102,0,P|502:375|485:353,1,89.9999972534181,8|0,0:1|0:0,0:0:0:0:
362,222,271571,6,2,B|398:161|470:170|470:170|385:166|331:91|347:31|347:31|353:96|407:111,1,412.500003933907,4|0,1:2|0:0,0:1:0:0:
381,350,271915,102,0,B|339:308|339:308|273:335,1,115.000002193451,8|0,0:1|0:0,0:0:0:0:
5,276,272088,1,2,0:0:0:0:
39,283,272174,1,2,0:0:0:0:
80,289,272260,6,0,B|95:315|95:315|67:361|67:361|79:289,1,150.000005722046,2|0,0:0|0:0,0:0:0:0:
113,135,272433,2,0,B|98:109|98:109|126:63|126:63|114:135,1,150.000005722046,0|0,1:0|0:0,0:0:0:0:
80,289,272605,102,0,B|66:265|66:265|130:165|130:165|93:100,1,179.999994506836,8|0,0:1|0:0,0:0:0:0:
12,135,272778,2,0,L|36:140,1,20,2|0,0:0|0:0,0:0:0:0:
347,33,272950,6,0,B|294:5|294:5|230:67,1,119.999996337891,2|0,1:2|0:0,0:0:0:0:
209,235,273122,1,2,0:0:0:0:
215,198,273209,1,2,0:0:0:0:
222,160,273295,102,0,B|252:187|252:187|371:157,1,125,8|0,0:1|0:0,0:0:0:0:
411,374,273467,6,0,B|408:330|408:330|404:330|404:330|417:273|417:273|420:275|420:275|410:214|410:214|407:215|407:215|425:158|425:158|427:161|427:161|423:103,2,290.000008850098,2|0|2,0:0|0:0|1:2,0:0:0:0:
197,319,273898,101,2,0:0:0:0:
197,319,273984,2,0,L|229:310,1,29.9999990844727,8|0,0:1|0:0,0:0:0:0:
299,286,274157,2,0,L|332:276,1,29.9999990844727,2|0,0:0|0:0,0:0:0:0:
1,255,274329,6,2,B|23:315|23:315|95:325|95:325|117:308|117:308|194:318|194:318|217:389,1,300,4|0,1:2|0:0,0:1:0:0:
88,229,274674,102,0,P|105:180|167:170,1,100,8|0,0:1|0:0,0:0:0:0:
261,117,274846,1,2,0:0:0:0:
246,111,274933,1,2,0:0:0:0:
236,105,275019,2,0,P|216:128|246:110,1,100,2|0,0:0|0:0,0:0:0:0:
277,0,275191,6,0,P|309:52|360:38,1,100,0|0,1:0|0:0,0:0:0:0:
414,98,275363,1,8,0:1:0:0:
422,96,275450,1,2,0:0:0:0:
435,90,275536,2,2,P|420:70|437:89,1,75.0000028610231,0|0,0:0|0:0,0:0:0:0:
99,44,275709,102,0,L|133:52,1,34.9999989318848,12|0,0:1|0:0,0:0:0:0:
156,26,275881,6,0,L|133:52,1,34.9999989318848
143,84,276053,102,0,L|133:52,1,34.9999989318848,0|0,0:1|0:0,0:0:0:0:
0,31,276226,6,0,P|5:44|-1:36,1,50,12|0,1:0|0:0,0:0:0:0:
8,127,276743,102,0,B|95:118|125:246|94:286|28:273|27:206|121:203,1,255.000004863739,0|0,1:0|0:0,0:0:0:0:
136,307,277081,22,0,L|117:385,1,80,4|0,1:2|0:0,0:0:0:0:
117,384,279904,1,0,0:0:0:0:
70,256,281316,1,2,0:0:0:0:
28,68,282728,6,0,P|8:86|0:119,1,59.9999981689454,0|0,1:0|0:0,0:0:0:0:
61,154,282992,1,0,0:0:0:0:
69,155,283081,2,0,P|89:137|97:104,1,59.9999981689454,0|0,3:0|0:0,0:0:0:0:
171,23,283433,1,2,0:0:0:0:
162,27,283522,1,2,0:0:0:0:
159,37,283610,2,0,P|164:63|189:86,2,59.9999981689454,0|0|0,1:0|3:0|0:0,0:0:0:0:
246,145,284139,102,0,P|275:144|300:160,1,59.9999981689454,0|0,1:0|0:0,0:0:0:0:
284,233,284404,1,0,0:0:0:0:
278,235,284492,2,0,P|248:235|223:219,1,59.9999981689454,0|0,3:0|0:0,0:0:0:0:
339,325,284845,1,2,0:0:0:0:
334,318,284933,1,2,0:0:0:0:
337,306,285022,2,0,P|352:280|378:266,1,59.9999981689454,0|0,1:0|3:0,0:0:0:0:
443,221,285375,6,0,L|448:202,2,14.9999995422363
430,324,285551,102,0,P|415:350|389:364,1,59.9999981689454,0|0,1:0|0:0,0:0:0:0:
337,315,285816,1,0,0:0:0:0:
337,306,285904,2,0,P|352:280|378:266,1,59.9999981689454,0|0,3:0|0:0,0:0:0:0:
227,315,286257,1,2,0:0:0:0:
238,317,286345,1,2,0:0:0:0:
246,322,286433,2,0,P|261:347|259:377,2,59.9999981689454,0|0|0,1:0|3:0|0:0,0:0:0:0:
150,290,286963,6,0,P|118:276|98:239,1,69.9999978637696,0|0,1:0|0:0,0:0:0:0:
138,184,287228,1,0,0:0:0:0:
149,181,287316,2,0,P|181:195|201:232,1,69.9999978637696,0|0,3:0|0:0,0:0:0:0:
197,109,287669,102,0,P|216:78|208:27,1,80,0|0,1:0|1:0,0:0:0:0:
136,19,288022,2,0,P|117:50|125:101,1,80,0|0,3:0|3:0,0:0:0:0:
59,384,288375,6,0,P|26:290|-15:249,1,139.999995727539,8|0,1:3|0:0,0:0:0:0:
0,275,288639,1,0,3:0:0:0:
75,291,288728,2,0,P|93:262|90:210,1,59.9999981689454,0|0,1:0|0:0,0:0:0:0:
61,165,288904,1,0,3:0:0:0:
258,342,289081,101,2,0:0:0:0:
267,355,289169,1,2,0:0:0:0:
275,367,289257,1,0,3:0:0:0:
422,315,289433,1,0,3:0:0:0:
425,290,289522,1,0,3:0:0:0:
408,266,289610,1,0,3:0:0:0:
379,258,289698,1,0,3:0:0:0:
357,269,289786,6,0,P|380:325|392:394,1,119.999996337891,0|0,1:0|0:0,0:0:0:0:
279,265,290051,1,0,3:0:0:0:
274,248,290139,2,0,P|289:215|313:200,1,59.9999981689454,0|0,1:0|0:0,0:0:0:0:
423,149,290316,101,0,3:0:0:0:
434,157,290404,1,0,3:0:0:0:
442,173,290492,1,0,3:0:0:0:
442,192,290581,1,2,3:2:0:0:
430,206,290669,2,0,B|387:205|373:166|382:161|365:122|322:128,1,139.999995727539,0|0,1:0|0:0,0:0:0:0:
261,73,290933,1,0,3:0:0:0:
246,69,291022,1,0,3:0:0:0:
233,81,291110,1,0,3:0:0:0:
178,158,291198,5,0,1:0:0:0:
190,165,291286,2,0,P|208:201|208:232,1,69.9999978637696,0|0,0:0|1:0,0:0:0:0:
112,187,291463,2,0,P|113:221|130:252,1,69.9999978637696,0|0,0:0|1:0,0:0:0:0:
40,310,291639,102,0,P|102:332|161:391,1,139.999995727539,0|0,0:0|3:0,0:0:0:0:
230,358,291904,1,0,3:0:0:0:
226,322,291992,1,0,3:0:0:0:
199,308,292081,1,0,3:0:0:0:
5,115,292257,5,2,3:2:0:0:
0,123,292345,1,2,3:2:0:0:
4,135,292433,1,0,3:0:0:0:
15,140,292522,1,0,3:0:0:0:
29,136,292610,102,0,L|70:118,2,40,0|0|2,3:0|0:0|0:0,0:0:0:0:
104,54,292875,2,0,L|144:65,1,40,0|0,1:0|0:0,0:0:0:0:
213,29,293051,6,0,L|252:57,2,40,0|0|0,3:0|3:0|3:0,0:0:0:0:
323,37,293316,102,0,L|344:76,3,40,2|0|0|0,0:0|1:0|1:0|1:0,0:0:0:0:
418,87,293669,2,0,L|428:136,3,40,0|2|2|2,3:0|3:2|3:2|3:2,3:3:0:0:
512,185,294022,6,0,B|537:107|476:17|425:93|398:-3,1,240,8|0,1:3|0:0,0:0:0:0:
471,17,294375,1,0,3:0:0:0:
418,87,294551,1,0,1:0:0:0:
311,105,294728,1,0,3:0:0:0:
189,49,294904,1,0,1:0:0:0:
56,74,295081,1,0,3:0:0:0:
8,197,295257,1,0,1:0:0:0:
99,313,295433,101,0,3:0:0:0:
85,231,295610,1,0,1:0:0:0:
176,302,295786,5,0,3:0:0:0:
155,167,295963,1,0,1:0:0:0:
252,290,296139,101,0,3:0:0:0:
220,90,296316,1,0,1:0:0:0:
334,283,296492,5,0,3:0:0:0:
300,28,296669,1,0,3:0:0:0:
484,248,296845,101,0,1:0:0:0:
489,266,296933,1,0,3:0:0:0:
482,297,297022,1,0,1:0:0:0:
454,327,297110,1,0,1:0:0:0:
409,328,297198,1,0,1:0:0:0:
370,293,297286,1,0,3:0:0:0:
375,238,297375,1,0,1:0:0:0:
419,193,297463,1,0,1:0:0:0:
487,189,297551,5,2,1:2:0:0:
429,212,297639,1,0,3:0:0:0:
364,196,297728,1,0,3:0:0:0:
328,148,297816,1,0,3:0:0:0:
302,92,297904,1,2,1:2:0:0:
243,70,297992,1,0,3:0:0:0:
184,83,298081,1,0,3:0:0:0:
144,128,298169,1,0,3:0:0:0:
88,203,298257,102,0,L|101:234,1,30,12|0,1:3|0:0,0:0:0:0:
23,45,298610,6,0,L|29:24,1,20,0|0,1:0|0:0,0:0:0:0:
91,63,298786,2,0,L|99:37,1,20,0|0,1:0|0:0,0:0:0:0:
14,212,298963,102,0,P|18:172|51:143,1,69.9999978637696,0|0,3:0|0:0,0:0:0:0:
225,192,299139,2,0,L|238:158,2,34.9999989318848,0|0|0,1:0|0:0|0:0,0:0:0:0:
0,384,299316,6,0,P|15:295|239:81,1,359.999989013672,6|0,0:0|0:0,0:0:0:0:
320,38,299669,102,0,L|347:43,1,14.9999995422363,2|0,0:0|0:0,0:0:0:0:
326,209,299845,6,0,P|317:179|295:141,1,69.9999978637696,2|0,0:0|0:0,0:0:0:0:
395,175,300022,2,0,P|386:145|364:107,1,69.9999978637696,2|0,0:0|0:0,0:0:0:0:
260,247,300198,101,0,1:0:0:0:
267,261,300286,1,0,0:0:0:0:
213,339,300375,101,8,2:2:0:0:
173,290,300463,1,2,3:2:0:0:
174,234,300551,1,2,0:0:0:0:
201,193,300639,1,0,0:0:0:0:
241,180,300728,2,0,L|238:200,1,14.9999995422363,0|0,1:0|0:0,0:0:0:0:
147,245,300904,21,2,0:0:0:0:
135,237,300992,1,0,0:0:0:0:
83,265,301081,85,0,0:0:0:0:
46,243,301169,1,0,0:0:0:0:
40,201,301257,2,0,L|45:181,1,14.9999995422363,0|0,1:0|1:0,0:0:0:0:
18,379,301433,21,2,0:0:0:0:
53,335,301522,1,0,0:0:0:0:
100,324,301610,1,2,0:0:0:0:
140,333,301698,1,0,0:0:0:0:
215,369,301786,86,0,P|223:339|231:277,1,69.9999978637696,10|0,0:0|0:0,0:0:0:0:
293,384,301963,2,0,P|301:354|309:292,1,69.9999978637696,2|0,1:2|0:0,0:0:0:0:
197,121,302139,22,0,P|211:157|241:214,1,89.9999972534181,2|0,0:0|0:0,0:0:0:0:
118,170,302316,2,0,P|132:206|162:263,1,89.9999972534181,2|0,1:2|0:0,0:0:0:0:
477,323,302492,86,0,L|462:325,1,14.9999995422363,2|0,1:2|1:0,0:0:0:0:
350,220,302669,21,2,0:0:0:0:
348,164,302757,1,2,0:0:0:0:
383,130,302845,1,0,0:0:0:0:
424,130,302933,1,0,0:0:0:0:
453,149,303022,2,0,L|456:168,1,14.9999995422363,2|0,1:2|1:0,0:0:0:0:
183,99,303198,85,8,0:0:0:0:
161,106,303286,2,0,P|163:135|169:165,1,59.9999981689454,2|0,0:0|1:0,0:0:0:0:
247,305,303463,1,0,0:0:0:0:
250,295,303551,2,0,P|248:287|246:280,1,14.9999995422363,2|0,1:2|1:0,0:0:0:0:
63,291,303728,21,2,0:0:0:0:
112,295,303816,1,0,0:0:0:0:
149,319,303904,1,0,0:0:0:0:
107,281,303992,1,0,0:0:0:0:
103,268,304081,2,0,P|131:262|162:250,1,59.9999981689454,8|0,1:2|1:0,0:0:0:0:
336,213,304257,85,0,1:0:0:0:
277,207,304345,1,0,0:0:0:0:
247,248,304433,1,0,0:0:0:0:
251,268,304522,1,0,0:0:0:0:
322,323,304610,21,2,0:0:0:0:
332,336,304698,2,0,P|366:321|408:310,2,75.0000028610231,0|0|0,3:0|1:0|0:0,0:0:0:0:
208,372,304963,86,0,B|221:367|221:367|195:356|195:356|192:350|192:350|180:353|180:353|168:347|168:347|163:352|163:352|139:354|139:354|152:371,1,119.999996337891,6|0,1:2|1:0,0:0:0:0:
176,377,305228,22,0,L|185:309,1,50
235,205,305316,86,0,L|231:187,1,14.9999995422363,0|0,1:0|1:0,0:0:0:0:
179,128,305492,1,2,0:0:0:0:
166,122,305581,1,2,0:0:0:0:
89,155,305669,21,0,0:0:0:0:
139,162,305757,1,0,0:0:0:0:
166,122,305845,2,0,L|143:121,1,14.9999995422363,0|0,1:0|1:0,0:0:0:0:
88,269,306022,85,10,0:0:0:0:
139,291,306110,1,0,0:0:0:0:
185,275,306198,1,0,0:0:0:0:
187,261,306286,1,0,0:0:0:0:
234,229,306375,22,0,L|229:248,1,14.9999995422363,0|0,1:0|1:0,0:0:0:0:
305,310,306551,1,2,0:0:0:0:
319,316,306639,1,2,0:0:0:0:
402,278,306728,85,0,0:0:0:0:
348,279,306816,1,0,0:0:0:0:
319,316,306904,2,0,L|316:342,1,14.9999995422363,0|0,1:0|1:0,0:0:0:0:
176,384,307081,21,2,0:0:0:0:
198,340,307169,1,0,0:0:0:0:
196,298,307257,1,2,0:0:0:0:
182,291,307345,1,0,0:0:0:0:
47,307,307433,86,0,P|80:315|119:328,1,69.9999978637696,8|0,3:2|0:0,0:0:0:0:
49,229,307610,2,0,P|82:237|121:250,1,69.9999978637696,8|0,3:2|0:0,0:0:0:0:
301,342,307786,22,0,P|286:299|267:258,1,89.9999972534181,8|0,3:2|0:0,0:0:0:0:
367,294,307963,2,0,P|352:251|333:210,1,89.9999972534181,8|0,3:2|0:0,0:0:0:0:
84,108,308139,86,0,L|66:113,1,14.9999995422363,0|0,1:0|1:0,0:0:0:0:
88,206,308316,21,2,0:0:0:0:
140,190,308404,1,2,0:0:0:0:
174,155,308492,1,0,0:0:0:0:
168,175,308581,1,0,0:0:0:0:
177,192,308669,2,0,L|186:208,1,14.9999995422363,0|0,1:0|1:0,0:0:0:0:
401,129,308845,85,10,0:0:0:0:
340,110,308933,1,0,0:0:0:0:
287,129,309022,1,2,0:0:0:0:
262,171,309110,1,2,0:0:0:0:
265,212,309198,2,0,L|277:234,1,14.9999995422363,0|0,1:0|1:0,0:0:0:0:
407,327,309375,21,2,0:2:0:0:
424,285,309463,1,0,0:0:0:0:
458,278,309551,1,0,0:0:0:0:
481,275,309639,1,0,0:0:0:0:
405,233,309728,85,2,0:0:0:0:
336,283,309816,2,2,L|315:362,1,69.9999978637696,2|2,1:2|3:2,0:0:0:0:
241,223,309992,21,0,0:0:0:0:
265,212,310081,2,0,L|254:251,1,40,0|0,1:0|0:0,0:0:0:0:
71,340,310257,86,0,L|34:333,2,29.9999990844727,8|0|0,0:0|0:0|0:0,0:0:0:0:
87,357,310522,21,0,0:0:0:0:
122,284,310610,1,2,0:0:0:0:
85,237,310698,1,2,0:0:0:0:
108,199,310786,1,2,0:0:0:0:
94,176,310875,1,2,0:0:0:0:
100,168,310963,86,0,L|99:128,1,29.9999990844727,4|0,1:0|1:0,0:0:0:0:
243,20,311139,1,0,0:0:0:0:
245,50,311228,1,0,0:0:0:0:
197,90,311316,21,2,0:0:0:0:
155,84,311404,1,2,0:0:0:0:
141,60,311492,2,0,L|159:26,1,29.9999990844727,0|0,1:0|1:0,0:0:0:0:
290,128,311669,85,10,0:0:0:0:
233,173,311757,1,0,0:0:0:0:
247,235,311845,1,0,0:0:0:0:
287,253,311933,1,2,0:0:0:0:
310,248,312022,2,0,P|322:249|353:264,1,29.9999990844727,0|0,1:0|1:0,0:0:0:0:
471,384,312198,2,0,P|475:349|465:316,1,69.9999978637696,0|0,0:0|1:0,0:0:0:0:
506,152,312375,21,0,0:0:0:0:
458,191,312463,1,0,0:0:0:0:
398,172,312551,2,0,P|369:169|352:179,1,29.9999990844727,0|0,1:0|1:0,0:0:0:0:
232,304,312728,85,0,0:0:0:0:
190,330,312816,1,0,0:0:0:0:
145,306,312904,1,2,0:0:0:0:
143,291,312992,1,2,0:0:0:0:
193,224,313081,21,2,0:0:0:0:
258,257,313169,1,10,0:0:0:0:
301,198,313257,1,10,0:0:0:0:
366,231,313345,1,2,0:0:0:0:
431,264,313433,85,0,1:0:0:0:
486,235,313522,1,0,1:0:0:0:
501,194,313610,1,0,1:0:0:0:
494,167,313698,1,0,0:0:0:0:
457,137,313786,21,0,1:0:0:0:
429,144,313875,1,0,1:0:0:0:
410,123,313963,2,0,P|392:94|435:21,1,75.0000028610231
509,20,314139,85,2,0:0:0:0:
493,33,314228,2,0,L|369:65,1,75.0000028610231,2|0,0:0|1:0,0:0:0:0:
347,97,314404,21,0,0:0:0:0:
331,110,314493,2,0,L|207:142,1,75.0000028610231,8|0,0:0|1:0,0:0:0:0:
381,294,314669,1,2,0:0:0:0:
365,307,314758,2,0,L|241:339,1,75.0000028610231,0|0,0:0|1:0,0:0:0:0:
204,258,314934,85,2,0:0:0:0:
188,271,315023,2,0,L|64:303,1,75.0000028610231,2|0,0:0|1:0,0:0:0:0:
9,227,315198,21,0,0:0:0:0:
30,228,315286,1,0,0:0:0:0:
47,213,315375,2,0,L|62:162,1,29.9999990844727,0|0,1:0|0:0,0:0:0:0:
36,37,315551,2,0,B|37:53|37:53|28:66|28:66|40:91,1,59.9999981689454,0|0,1:0|0:0,0:0:0:0:
48,27,315728,2,0,P|66:29|79:35,1,29.9999990844727
229,141,315904,85,10,0:0:0:0:
198,88,315992,1,2,0:0:0:0:
139,102,316081,1,2,0:0:0:0:
132,163,316169,1,2,0:0:0:0:
188,186,316257,2,0,P|197:206|193:242,1,29.9999990844727,0|0,1:0|0:0,0:0:0:0:
80,296,316433,2,0,P|92:278|125:263,1,29.9999990844727,10|0,0:0|0:0,0:0:0:0:
174,287,316610,22,0,L|183:334,1,29.9999990844727,0|0,1:0|1:0,0:0:0:0:
322,359,316786,1,2,0:0:0:0:
291,355,316875,1,2,0:0:0:0:
257,295,316963,85,2,0:0:0:0:
270,255,317051,1,2,0:0:0:0:
294,241,317139,2,0,L|337:248,1,29.9999990844727,0|0,1:0|1:0,0:0:0:0:
414,324,317316,21,8,0:0:0:0:
485,308,317404,1,0,0:0:0:0:
512,256,317492,1,0,0:0:0:0:
498,210,317581,1,2,0:0:0:0:
482,193,317669,2,0,P|448:185|436:186,1,29.9999990844727,2|0,1:2|0:0,0:0:0:0:
297,120,317845,2,0,P|332:161|381:168,1,75.0000028610231,2|0,0:0|1:0,0:0:0:0:
512,45,318022,85,0,0:0:0:0:
452,23,318110,1,0,0:0:0:0:
406,73,318198,2,0,P|382:90|362:99,1,29.9999990844727,0|0,1:0|1:0,0:0:0:0:
223,21,318375,21,0,0:0:0:0:
174,9,318463,1,2,0:0:0:0:
133,39,318551,1,2,0:0:0:0:
134,56,318639,1,0,0:0:0:0:
68,98,318728,85,10,0:0:0:0:
120,148,318816,1,2,0:0:0:0:
72,203,318904,1,10,0:0:0:0:
124,253,318992,1,2,0:0:0:0:
176,303,319081,21,0,1:0:0:0:
239,272,319169,1,0,1:0:0:0:
254,225,319257,1,0,1:0:0:0:
245,192,319345,1,0,0:0:0:0:
233,177,319433,85,0,1:0:0:0:
202,204,319522,1,2,0:0:0:0:
196,246,319610,2,0,P|207:293|252:329,1,75.0000028610231,2|0,0:0|1:0,0:0:0:0:
363,343,319786,21,2,0:0:0:0:
333,327,319875,2,0,L|313:220,1,75.0000028610231,2|0,0:0|0:0,0:0:0:0:
467,286,320051,85,2,0:0:0:0:
437,270,320140,2,0,L|417:163,1,75.0000028610231,10|0,0:0|0:0,0:0:0:0:
345,178,320316,21,2,1:2:0:0:
315,162,320405,2,0,L|295:55,1,75.0000028610231,2|0,0:0|0:0,0:0:0:0:
449,121,320581,85,2,0:0:0:0:
419,105,320670,2,0,L|399:-2,1,75.0000028610231,2|0,0:0|1:0,0:0:0:0:
226,5,320845,21,0,1:0:0:0:
205,11,320933,1,2,0:0:0:0:
185,25,321022,1,2,0:0:0:0:
173,42,321110,1,2,0:0:0:0:
146,51,321198,85,0,1:0:0:0:
135,70,321286,1,0,0:0:0:0:
114,82,321375,1,0,0:0:0:0:
93,88,321463,1,0,0:0:0:0:
52,155,321551,22,0,B|77:182|76:281|31:251|77:195|145:185,1,150,8|0,1:2|0:0,0:0:0:0:
204,192,321938,85,0,0:0:0:0:
221,303,322041,1,0,0:0:0:0:
269,241,322144,1,0,1:0:0:0:
346,275,322264,6,0,B|330:112|482:188|451:-4,1,299.999990844727,0|0,1:0|0:0,0:0:0:0:
445,0,322574,2,0,P|427:8|418:26,1,29.9999990844727,2|0,0:0|0:0,0:0:0:0:
457,268,322884,6,0,B|450:104|310:200|314:5,1,299.999990844727,0|0,1:0|0:0,0:0:0:0:
320,4,323195,2,0,P|339:14|350:30,1,29.9999990844727,2|0,0:0|0:0,0:0:0:0:
329,361,323505,102,0,B|410:355|410:355|427:335|427:335|421:260|421:260|243:271|243:271|228:284|228:284|233:352,1,449.99998626709,8|0,1:0|0:0,0:0:0:0:
214,372,324332,2,0,B|207:279|207:279|228:260|228:260|435:247|435:247|443:341|443:341|422:365|422:365|323:372,1,489.999985046387,0|0,1:0|0:0,0:0:0:0:
364,376,324746,6,0,L|322:380,1,29.9999990844727,8|0,1:0|0:0,0:0:0:0:
120,298,324953,2,0,B|123:340|123:340|118:346|118:346|120:383,1,80,0|0,1:0|0:0,0:0:0:0:
42,384,325160,102,0,B|39:323|39:323|43:317|43:317|39:215|39:215|52:190|52:190|108:187,1,240,4|0,1:0|0:0,0:0:0:0:
198,21,325574,6,0,P|318:107|460:167,1,299.999990844727,0|0,1:0|0:0,0:0:0:0:
479,167,325884,2,0,P|469:146|454:134,1,29.9999990844727,2|0,0:0|0:0,0:0:0:0:
183,132,326195,102,0,P|316:67|466:32,1,299.999990844727,0|0,1:0|0:0,0:0:0:0:
485,36,326505,2,0,P|472:54|455:63,1,29.9999990844727,2|0,0:0|0:0,0:0:0:0:
91,56,326815,6,0,B|91:39|91:39|78:28|78:28|18:31|18:31|23:139|23:139|29:149|29:149|34:238|34:238|49:249|49:249|108:245,1,375,8|0,1:0|0:0,0:0:0:0:
131,248,327643,2,0,B|125:156|125:156|107:142|107:142|5:147|5:147|11:248|11:248|31:264|31:264|111:259,1,419.999987182618,0|0,1:0|0:0,0:0:0:0:
229,245,328057,101,8,1:0:0:0:
216,323,328160,1,0,0:0:0:0:
154,368,328264,2,0,B|132:377|104:360|104:360|130:364|151:349,1,100,0|0,1:0|0:0,0:0:0:0:
309,305,328470,6,0,P|314:315|322:326,1,25,8|0,1:0|0:0,0:0:0:0:
338,342,328574,2,0,P|352:350|367:356,1,29.9999990844727
390,355,328677,2,0,P|406:353|431:342,1,34.9999989318848,0|0,1:0|1:0,0:0:0:0:
452,322,328781,2,0,P|459:307|464:277,1,40,0|0,1:0|1:0,0:0:0:0:
342,236,328884,102,0,B|343:264|343:264|346:328|429:328|423:256|423:256|412:131,1,299.999990844727,0|0,1:0|0:0,0:0:0:0:
435,115,329195,2,0,L|431:75,1,29.9999990844727,2|0,0:0|0:0,0:0:0:0:
229,245,329505,6,0,B|230:273|230:273|233:337|316:337|310:265|310:265|299:140,1,299.999990844727,0|0,1:0|0:0,0:0:0:0:
322,124,329816,2,0,L|318:84,1,29.9999990844727,2|0,0:0|0:0,0:0:0:0:
50,251,330126,102,0,B|52:287|52:287|75:298|75:298|183:292|183:292|204:270|204:270|197:142|197:142|118:146|118:146|121:207,1,449.99998626709,8|0,1:0|0:0,0:0:0:0:
109,177,330953,2,0,B|107:139|107:139|203:133|203:133|212:277|212:277|188:302|188:302|71:308|71:308|43:297|43:297|40:257,1,489.999985046387,0|0,1:0|0:0,0:0:0:0:
25,278,331367,6,0,L|24:238,1,29.9999990844727,8|0,1:0|0:0,0:0:0:0:
140,59,331574,2,0,B|164:72|165:104|165:104|152:82|112:65,1,100,0|0,1:0|0:0,0:0:0:0:
0,58,331781,102,0,B|-4:116|50:116|50:116|238:107|238:107|287:100|276:44,1,359.999989013672,12|0,1:0|0:0,0:0:0:0:
506,49,332195,6,0,B|443:55|443:55|418:57|415:79|415:79|400:184|400:184|397:202|374:205|374:205|291:214,1,299.999990844727,0|0,1:0|0:0,0:0:0:0:
289,214,332506,2,0,L|283:172,1,29.9999990844727,2|0,0:0|0:0,0:0:0:0:
512,210,332815,102,0,B|449:204|449:204|424:202|421:180|421:180|406:75|406:75|403:57|380:54|380:54|297:45,1,299.999990844727,0|0,1:0|0:0,0:0:0:0:
295,45,333126,2,0,L|289:87,1,29.9999990844727,2|0,0:0|0:0,0:0:0:0:
503,373,333436,6,0,B|421:366|421:366|411:371|411:371|312:364,1,179.999994506836,8|0,1:0|0:0,0:0:0:0:
413,276,333850,2,0,B|406:339|406:339|335:334,1,119.999996337891,0|0,1:0|0:0,0:0:0:0:
338,254,334160,1,0,1:0:0:0:
338,254,334264,1,8,1:0:0:0:
213,29,334470,101,0,1:0:0:0:
136,39,334574,2,0,L|90:43,2,29.9999990844727,0|0|8,1:0|1:0|1:0,1:1:0:0:
431,6,334884,1,0,1:0:0:0:
323,18,335091,6,0,B|321:41|321:41|318:46|318:46|316:73,2,44.999998626709,0|2|0,0:0|0:2|0:0,0:0:0:0:
382,223,335505,102,0,B|384:182|368:150|331:122|260:152|260:152|295:155|315:182,1,220.000006713867,4|2,1:0|0:0,0:0:0:0:
301,178,335815,2,0,B|338:186|366:168|375:139|370:137|366:134|374:105|400:80|448:87|469:110,1,189.999994926453,8|0,1:0|0:0,0:0:0:0:
512,193,336022,6,0,P|519:223|506:254,2,59.9999981689454,2|0|2,1:2|3:2|3:2,0:0:0:0:
393,349,336229,101,2,3:2:0:0:
401,342,336332,2,0,B|417:322|408:287|390:268|339:275|339:275|226:294|226:294|180:303|158:294|136:253|166:220,1,350.00000333786,0|2,1:0|0:0,0:0:0:0:
131,94,336643,2,0,B|151:98|170:113|170:146|170:146|163:228,1,150.000005722046,8|0,1:0|0:0,0:0:0:0:
27,153,336850,6,0,P|18:123|27:100,2,50,2|0|2,3:2|3:2|3:2,0:0:0:0:
210,8,337057,101,2,3:2:0:0:
203,21,337160,2,0,B|176:57|181:101|208:141|241:154|280:147|283:139|285:131|319:122|347:132|375:156|388:194|392:226|360:270,1,369.999998588562,0|2,1:0|0:0,0:0:0:0:
391,356,337470,2,0,P|355:312|386:248,1,100,8|0,1:0|0:0,0:0:0:0:
487,208,337677,6,0,P|504:179|498:152,1,50,2|0,3:2|0:0,3:3:0:0:
488,90,337781,2,0,P|471:60|445:52,1,50,2|0,3:2|0:2,0:0:0:0:
364,31,337884,101,0,1:2:0:0:
364,31,337936,1,0,1:2:0:0:
364,31,337988,2,0,P|319:148|262:343,1,300.000011444092,0|0,1:0|0:0,0:0:0:0:
280,10,338298,2,0,P|233:130|174:330,1,330.000010070801,8|0,1:0|0:0,0:0:0:0:
181,332,338712,2,0,L|193:287,1,25,2|0,3:2|0:0,0:0:0:0:
121,118,338815,6,0,B|119:157|119:157|134:187|134:187|172:206|172:206|207:202|207:202|237:185|237:185|213:183|213:183|184:157,1,220.000006713867,4|2,1:0|0:0,0:0:0:0:
201,170,339126,2,0,B|178:161|178:161|154:162|154:162|140:173|140:173|131:195|131:195|129:212|129:212|117:232|117:232|101:240|101:240|82:240|82:240|65:234|65:234|50:222,1,184.999999294281,8|0,1:0|0:0,0:0:0:0:
8,162,339332,102,0,B|-5:131|-5:131|3:85,2,59.9999981689454,2|2|2,3:2|3:2|3:2,0:0:0:0:
111,0,339539,5,2,3:2:0:0:
106,8,339643,2,0,B|92:27|92:27|95:62|95:62|110:78|110:78|173:71|173:71|185:63|185:63|261:56|261:56|276:48|276:48|314:46|314:46|334:56|334:56|348:91|348:91|335:113,1,369.999998588562,0|2,1:2|0:0,0:0:0:0:
324,243,339953,2,0,B|298:217|298:217|291:178|291:178|306:140|306:140|351:109,1,150,8|0,1:0|0:0,0:0:0:0:
455,257,340160,102,0,B|448:288|448:288|430:299,2,50,0|0|2,3:2|3:2|3:2,3:3:0:0:
280,361,340367,5,2,3:2:0:0:
289,355,340470,2,0,B|313:334|313:334|318:305|318:305|308:281|308:281|286:256|286:256|252:243|252:243|217:249|215:253|210:262|177:261|177:261|152:253|152:253|129:234|129:234|118:207|118:207|123:170|123:170|147:140,1,369.999998588562,0|2,1:0|0:0,0:0:0:0:
115,66,340781,2,0,B|138:83|138:83|149:107|149:107|148:123|148:123|124:170,1,100,8|0,1:0|0:0,0:0:0:0:
31,158,340988,102,0,B|10:182|10:182|16:209,1,50,0|0,3:2|0:0,3:3:0:0:
16,278,341091,2,0,B|26:308|26:308|52:316,1,50,0|0,3:2|0:0,0:0:0:0:
128,347,341194,5,0,1:2:0:0:
128,347,341246,1,0,1:2:0:0:
128,347,341298,2,0,B|163:302|163:302|164:295|164:295|186:255|186:255|186:250|186:250|204:210|204:210|203:205|203:205|216:164|216:164|212:161|212:161|226:110|226:110|225:104|225:104|230:35,1,300.000011444092,0|0,1:0|0:0,0:0:0:0:
208,375,341608,2,0,B|243:329|243:329|244:321|244:321|267:281|267:281|267:276|267:276|285:235|285:235|284:230|284:230|297:188|297:188|293:185|293:185|307:133|307:133|306:127|306:127|312:56,1,330.000010070801,12|0,1:0|0:0,0:0:0:0:
324,81,342022,2,0,L|320:129,1,25,0|0,3:2|0:0,0:0:0:0:
373,205,342126,102,0,P|267:175|132:147,1,200,4|2,1:0|0:0,0:0:0:0:
170,165,342436,2,0,P|194:172|231:181,1,50,0|0,0:2|1:0,0:0:0:0:
277,328,342643,5,0,3:2:0:0:
218,280,342746,1,0,3:2:0:0:
141,284,342850,2,0,B|104:289|71:335,1,59.9999981689454,0|0,3:2|0:0,0:0:0:0:
150,364,342953,102,0,P|173:255|212:50,1,300.000011444092,4|2,1:0|0:0,0:0:0:0:
220,61,343264,2,0,L|207:141,1,75.0000028610231,0|0,3:2|1:0,0:0:0:0:
328,214,343470,5,0,3:2:0:0:
406,221,343574,1,0,3:2:0:0:
469,175,343677,2,0,P|470:146|457:99,1,75.0000028610231,0|0,3:2|0:0,0:0:0:0:
410,36,343781,102,0,P|419:131|464:330,1,300.000011444092,4|2,1:0|0:0,0:0:0:0:
484,338,344091,2,0,L|463:269,1,50,0|0,3:2|1:0,0:0:0:0:
297,293,344298,5,0,3:2:0:0:
233,335,344402,1,0,3:2:0:0:
157,317,344505,2,0,P|151:301|159:304,1,37.5000014305115,0|0,3:2|0:0,0:0:0:0:
109,384,344608,102,0,P|127:273|218:118,1,250,4|2,1:0|0:0,0:0:0:0:
202,148,344919,2,0,P|198:115|178:145,1,75.0000028610231,2|0,3:2|1:0,0:0:0:0:
57,188,345126,5,0,3:2:0:0:
37,116,345230,1,0,3:2:0:0:
86,56,345332,2,0,P|92:40|84:43,1,37.5000014305115,0|0,3:2|0:0,0:0:0:0:
11,0,345436,102,0,P|95:30|253:32,1,225.000008583069,4|2,1:0|0:0,0:0:0:0:
248,30,345643,2,0,B|260:46|272:63|272:63|273:41|260:26,1,75.0000028610231,0|0,1:0|0:0,0:0:0:0:
395,19,345850,6,0,P|366:115|340:289,1,225.000008583069,0|2,1:0|0:0,0:0:0:0:
349,249,346057,2,0,B|354:265|371:272|371:272|359:262|358:243,1,59.9999981689454,0|0,1:0|0:0,0:0:0:0:
250,357,346264,101,0,1:0:0:0:
151,351,346367,5,0,1:0:0:0:
88,286,346470,101,0,1:0:0:0:
104,211,346574,5,0,1:0:0:0:
164,166,346677,101,0,1:0:0:0:
230,133,346781,5,0,1:0:0:0:
268,88,346884,101,0,1:0:0:0:
273,58,346988,5,0,1:0:0:0:
264,48,347091,101,4,1:2:0:0:
140,81,347298,5,0,3:2:0:0:
180,19,347401,101,0,3:2:0:0:
125,88,347505,2,0,L|85:83,1,25,0|0,3:2|3:0,0:0:0:0:
97,96,347608,2,0,L|57:91,1,25,0|0,3:2|3:0,0:0:0:0:
67,102,347712,2,0,L|27:97,1,25,0|0,3:2|3:0,0:0:0:0:
34,105,347815,2,0,L|-6:100,1,25,0|0,3:2|3:0,0:0:0:0:
0,109,347919,5,8,1:0:0:0:
81,284,348367,101,8,0:3:0:0:
94,293,348436,1,8,0:3:0:0:
162,333,348539,6,0,L|166:308,1,25,8|0,0:3|0:0,0:0:0:0:
174,342,348643,102,0,L|178:317,1,25,4|0,0:3|0:0,0:0:0:0:
186,351,348746,102,0,B|192:291|192:291|247:241|301:285|301:285|350:317|419:288,1,287.500005483627,4|0,1:0|0:0,0:0:0:0:
480,220,349057,2,0,B|459:214|426:160|426:160|454:243|402:293,1,226.000000689697
352,217,349574,21,8,1:0:0:0:
317,142,349677,1,2,0:0:0:0:
364,74,349781,1,2,0:0:0:0:
448,81,349884,2,0,P|456:88|460:93,1,14.9999995422363
446,1,350091,2,0,P|471:4|493:13,2,50
278,18,350401,85,0,1:0:0:0:
222,77,350505,1,2,0:0:0:0:
228,101,350608,1,2,0:0:0:0:
156,9,350712,21,0,1:0:0:0:
100,68,350816,1,2,0:0:0:0:
106,92,350919,1,2,0:0:0:0:
91,165,351022,1,0,0:0:0:0:
73,238,351126,1,0,0:0:0:0:
125,309,351229,86,0,P|114:330|94:352,2,50,8|0|0,1:0|0:0|1:0,0:0:0:0:
189,244,351539,22,0,L|164:213,1,25,8|0,1:0|0:0,0:0:0:0:
215,249,351642,1,0,0:0:0:0:
241,254,351746,1,2,0:0:0:0:
293,325,351850,86,0,P|282:346|262:368,1,50,0|0,1:0|0:0,0:0:0:0:
392,343,352057,2,0,P|443:358|499:326,1,100,4|0,1:0|0:0,0:0:0:0:
512,250,352367,2,0,B|478:231|478:231|485:345,1,150
423,167,352574,2,0,B|406:134|406:134|327:124,1,100,0|0,0:0|0:0,2:2:0:0:
291,38,352781,1,2,0:0:0:0:
468,62,352884,2,0,B|412:10|412:10|291:37,1,200,8|0,1:0|0:0,2:2:0:0:
207,220,353195,2,0,P|209:196|209:220,1,50
235,119,353401,21,2,0:0:0:0:
198,42,353504,1,2,0:0:0:0:
122,2,353608,1,2,0:0:0:0:
35,17,353712,86,0,B|4:123|4:123|56:113|56:113|104:136|143:126,1,250,4|0,1:0|0:0,0:0:0:0:
164,286,354022,22,0,B|199:302|215:337|215:337|178:411|81:400|69:299,1,250,12|0,1:0|0:0,0:0:0:0:
113,223,354332,2,0,P|159:206|206:219,1,100,0|0,1:0|0:0,0:0:0:0:
437,241,354488,1,0,0:0:0:0:
437,241,354539,86,0,B|413:267|417:313|417:313|393:236|321:220,1,200,8|0,1:0|0:0,0:0:0:0:
373,82,354850,22,0,B|363:36|443:16|462:74|445:133|397:168,1,200,8|0,1:0|1:0,0:0:0:0:
211,81,355160,85,0,1:0:0:0:
216,101,355264,1,0,0:0:0:0:
281,36,355367,2,0,P|183:-1|129:61,1,200,4|0,1:0|0:0,0:0:0:0:
0,23,355677,2,0,B|41:-14|41:-14|36:50|36:50|41:53|41:53|35:57|35:57|25:156,1,226.000000689697,0|0,1:0|0:0,0:0:0:0:
173,233,356195,21,8,1:0:0:0:
98,198,356298,1,2,0:0:0:0:
30,245,356402,1,2,1:2:0:0:
37,329,356505,2,0,P|44:337|49:341,1,14.9999995422363,8|0,1:0|0:0,0:0:0:0:
145,337,356712,2,0,P|142:362|130:386,2,50,0|0|0,1:0|1:0|0:0,0:0:0:0:
250,332,357022,2,0,B|288:292|288:292|444:304,1,200,0|0,1:0|0:0,0:0:0:0:
500,349,357332,2,0,P|352:350|460:215,1,400,0|0,1:0|3:0,3:3:0:0:
432,303,357850,85,8,1:0:0:0:
499,255,357953,1,2,0:0:0:0:
493,173,358057,1,2,1:2:0:0:
416,137,358160,2,0,L|438:30,2,100,8|0|0,1:0|0:0|0:0,0:0:0:0:
224,146,358470,2,0,L|202:253,1,100,0|0,1:0|0:0,0:0:0:0:
321,144,358677,21,0,1:0:0:0:
321,144,358729,1,0,1:0:0:0:
321,144,358781,2,0,L|342:36,2,100,0|0|0,1:0|1:0|1:0,0:0:0:0:
119,302,359091,86,0,B|173:345|173:345|5:365,1,218.75,12|0,1:0|0:0,0:0:0:0:
48,262,359505,2,0,B|22:250|12:225|12:225|37:172|105:179|122:239,1,187.500007152558,0|0,1:0|0:0,0:0:0:0:
283,317,359815,2,0,B|434:300|434:300|394:244,1,218.750002086163,8|0,1:0|0:0,0:0:0:0:
462,205,360126,22,0,P|411:166|348:179,1,131.250001251698,0|0,1:0|0:0,0:0:0:0:
242,18,360332,2,0,B|192:38|190:127|190:127|279:133|309:82,1,250,0|0,1:0|0:0,0:0:0:0:
459,34,360643,2,0,B|476:60|476:60|385:58|385:58|342:18|342:18|239:17,1,281.250010728836,8|0,1:0|0:0,0:0:0:0:
103,118,360953,86,0,P|107:208|186:210,1,168.750006437302,0|0,1:0|0:0,0:0:0:0:
267,247,361160,2,0,P|181:144|73:216,1,281.250010728836,8|0,1:0|0:0,0:0:0:0:
64,323,361470,21,0,1:0:0:0:
51,326,361574,2,0,L|22:328,4,16.6666666666667,8|0|0|0|0,1:3|0:0|0:0|0:0|0:0,0:0:0:0:
162,363,361781,1,4,0:0:0:0:
64,113,361988,86,0,B|148:26|295:65|325:191|325:191|285:205|278:255,1,412.500003933907,4|0,1:0|0:0,0:0:0:0:
361,24,362401,2,0,B|411:45|409:125|409:125|312:73|235:140,1,300,0|0,1:0|0:0,0:0:0:0:
29,297,362815,22,0,B|0:317|-21:237|65:257|32:295,1,100,8|2,1:0|0:0,0:0:0:0:
150,342,363022,2,0,L|205:324,2,50,2|0|0,0:0|0:0|0:0,0:0:0:0:
35,303,363229,86,0,B|26:244|26:244|27:241|27:241|14:161,1,125,0|0,1:0|1:0,0:0:0:0:
167,56,363436,2,0,P|236:95|230:145,1,125,0|0,1:0|0:0,0:0:0:0:
23,173,363643,21,8,1:3:0:0:
101,198,363746,1,2,0:0:0:0:
50,224,363850,1,2,0:0:0:0:
74,147,363953,1,2,0:0:0:0:
196,166,364057,85,8,1:3:0:0:
246,263,364160,1,2,0:0:0:0:
172,240,364264,1,2,0:0:0:0:
269,189,364367,1,2,0:0:0:0:
362,309,364470,22,0,P|436:293|437:233,1,125,8|0,1:0|0:0,0:0:0:0:
242,0,364677,2,0,P|168:16|167:76,1,125
428,180,364884,86,0,B|455:160|500:154|500:154|401:146|308:110,1,262.500002503395,0|0,1:0|0:0,0:0:0:0:
255,81,365091,2,0,P|243:77|255:87,1,37.5,0|0,1:0|0:0,0:0:0:0:
0,220,365298,22,0,B|-1:238|-10:254|-10:254|58:277|84:377|84:377|76:274|137:231|137:231|119:218|115:200,1,400,12|0,1:0|0:0,0:0:0:0:
169,149,365557,1,0,0:0:0:0:
175,142,365608,2,0,P|133:87|69:110,1,125,0|0,0:0|1:0,0:0:0:0:
163,382,365815,85,0,0:0:0:0:
236,251,365919,2,0,P|237:231|239:219,1,25
245,263,366022,2,0,P|244:283|242:295,1,25
346,343,366126,22,0,B|400:370|442:325|439:310|434:299|476:241|540:269,1,225.000008583069,8|0,1:0|0:0,0:0:0:0:
501,360,366332,1,0,0:0:0:0:
501,360,366436,2,0,P|438:333|438:249,1,150.000005722046,0|0,0:0|1:0,0:0:0:0:
512,64,366643,85,2,0:0:0:0:
426,111,366746,1,2,0:0:0:0:
482,179,366850,1,2,0:0:0:0:
482,179,366953,22,0,P|459:79|301:81,1,250,4|0,1:0|0:0,0:0:0:0:
68,211,367264,2,0,B|181:189|181:189|176:200|176:200|316:173,1,250,0|0,1:0|0:0,0:0:0:0:
197,2,367574,2,0,L|139:116,1,125,0|0,1:0|0:0,0:0:0:0:
265,352,367781,86,0,B|345:389|345:389|295:158,1,300.000011444092,8|0,1:0|0:0,0:0:0:0:
47,94,368091,2,0,B|10:160|10:160|62:222,1,150.000005722046,0|8,0:0|1:0,0:0:0:0:
127,281,368298,1,0,1:0:0:0:
127,281,368401,1,0,1:0:0:0:
496,39,368608,22,0,B|412:-1|376:83|372:94|368:106|333:207|216:135,1,300,4|0,1:0|0:0,0:0:0:0:
295,71,369022,2,0,B|362:53|377:120|378:129|379:138|390:218|486:182,1,225.000008583069,0|0,1:0|0:0,0:0:0:0:
485,204,369436,86,0,P|513:168|458:84,1,150,8|0,1:3|0:0,0:0:0:0:
459,88,369643,1,2,0:0:0:0:
454,97,369695,1,2,0:0:0:0:
458,105,369746,1,2,0:0:0:0:
372,275,369850,21,2,1:2:0:0:
499,303,369953,1,0,1:0:0:0:
378,267,370057,2,0,B|332:281|332:281|342:270|342:270|292:287,1,100,0|0,1:0|0:0,0:0:0:0:
105,53,370264,86,0,B|131:216|131:216|136:249|185:276|185:276|235:302|240:335|240:335|247:379|247:379|220:203|220:203|208:173|172:163,1,595.000011348725,4|0,1:0|0:0,0:0:0:0:
276,78,370677,22,0,B|207:100|207:100|169:112|169:150|169:150|168:188|130:200|130:200|31:233,1,300.000011444092,0|0,1:0|0:0,0:0:0:0:
15,41,371091,86,0,L|10:4,3,25,0|2|2|2,1:0|0:0|0:0|0:0,0:0:0:0:
103,68,371505,2,0,P|180:45|178:-10,1,125,0|0,1:0|0:0,0:0:0:0:
340,322,371712,22,0,B|316:228|316:228|317:220|317:220|300:160,1,150,4|0,0:0|0:0,0:0:0:0:
280,102,371919,85,0,1:0:0:0:
284,96,371970,1,0,1:0:0:0:
289,100,372022,1,0,1:0:0:0:
484,18,372126,2,0,L|463:120,1,100,0|0,1:0|1:0,0:0:0:0:
460,329,372332,22,0,B|509:265|509:265|208:197,1,375,4|0,1:0|0:0,0:0:0:0:
35,82,372746,86,0,B|9:137|72:194|138:163|138:163|164:107|229:125,1,250,4|0,1:0|0:0,0:0:0:0:
219,346,373057,2,0,B|257:389|257:389|211:145,1,250,4|0,1:0|0:0,0:0:0:0:
189,44,373367,22,0,P|175:7|186:44,1,125,8|0,1:0|0:0,0:0:0:0:
104,291,373574,86,0,L|427:194,1,300.000011444092,4|0,1:0|0:0,0:0:0:0:
464,0,373884,2,0,L|96:296,1,450.000017166138,4|0,1:0|0:0,0:0:0:0:
13,364,374298,21,0,1:0:0:0:
13,364,374350,1,0,1:0:0:0:
13,364,374401,2,0,P|1:256|283:233,1,450.000017166138,8|0,1:0|0:0,0:0:0:0:
317,269,374815,86,0,L|356:275,7,39.9999987792969,8|0|0|2|2|2|0|0,1:3|0:0|0:0|0:0|0:0|0:0|0:0|0:0,0:0:0:0:
433,261,375176,38,0,B|429:200|470:181|530:170|556:223|561:331|422:374|363:260|358:246|360:319|265:269|259:151|259:151|189:231|295:347|351:277|359:387|359:387|392:291|298:288|343:74|406:183|494:137|447:84|433:51|438:-14|438:-14|424:158|338:176|118:247|83:-101|297:-33|335:4|338:87|318:132,1,1792.000021875,4|8,0:0|0:2,0:0:0:0:
256,192,386318,12,0,388783,0:0:0:0:
0,295,388890,70,0,B|50:287|62:332|59:333|55:334|69:382|117:374,1,155.999999047852,8|0,1:0|0:0,0:0:0:0:
210,323,389318,2,0,P|200:353|192:384,1,64,8|0,1:0|0:0,0:0:0:0:
134,299,389747,1,8,1:0:0:0:
342,240,390176,1,8,1:0:0:0:
342,240,390604,38,0,P|364:299|385:360,1,128,8|8,1:0|1:0,0:0:0:0:
303,365,391461,2,0,P|295:333|285:303,1,64,8|0,1:0|0:0,0:0:0:0:
431,254,391890,2,0,P|440:284|448:315,1,64,8|0,1:0|0:0,0:0:0:0:
170,240,392318,70,0,P|147:299|126:360,1,128,8|8,1:0|1:0,0:0:0:0:
209,365,393175,2,0,P|216:333|226:303,1,64,8|0,1:0|0:0,0:0:0:0:
81,254,393604,2,0,P|71:284|63:315,1,64,8|0,1:0|0:0,0:0:0:0:
256,256,394033,38,0,P|255:319|255:383,1,128,8|8,1:0|1:0,0:0:0:0:
176,347,394890,2,0,P|176:315|178:284,1,64,8|0,1:0|0:0,0:0:0:0:
337,363,395318,1,8,1:0:0:0:
332,288,395426,2,0,P|330:319|330:350,1,64
256,384,395747,70,0,P|242:379|225:374,1,32,8|0,1:0|0:0,0:0:0:0:
200,337,395961,2,0,P|185:337|168:339,1,32,8|0,1:0|0:0,0:0:0:0:
129,317,396176,2,0,P|115:323|100:331,1,32,8|0,1:0|0:0,0:0:0:0:
56,328,396390,2,0,P|45:339|36:353,1,32,8|0,1:0|0:0,0:0:0:0:
256,384,396604,38,0,P|268:376|284:368,1,32,8|0,1:0|0:0,0:0:0:0:
290,312,396818,2,0,P|304:310|322:309,1,32,8|0,1:0|0:0,0:0:0:0:
351,260,397033,2,0,P|365:264|381:271,1,32,8|0,1:0|0:0,0:0:0:0:
426,237,397247,2,0,P|436:247|449:259,1,32,8|0,1:0|0:0,0:0:0:0:
256,384,397461,70,0,P|245:373|232:361,1,32,8|0,1:0|0:0,0:0:0:0:
238,290,397676,2,0,P|224:284|207:279,1,32,8|0,1:0|0:0,0:0:0:0:
182,210,397890,2,0,P|167:210|149:212,1,32,8|0,1:0|0:0,0:0:0:0:
99,160,398104,2,0,P|85:166|70:175,1,32,8|0,1:0|0:0,0:0:0:0:
256,384,398318,38,0,P|263:371|273:356,1,32,8|0,1:0|0:0,0:0:0:0:
270,278,398533,2,0,P|282:269|297:259,1,32,8|0,1:0|0:0,0:0:0:0:
327,188,398747,2,0,P|341:184|359:182,1,32,8|0,1:0|0:0,0:0:0:0:
414,128,398961,2,0,P|428:131|445:135,1,32,8|0,1:0|0:0,0:0:0:0:
256,384,399176,69,8,1:0:0:0:
245,371,399283,1,8,1:0:0:0:
223,355,399390,1,8,1:0:0:0:
194,343,399497,1,8,1:0:0:0:
153,340,399604,1,8,1:0:0:0:
108,352,399711,1,8,1:0:0:0:
58,343,399818,1,8,1:0:0:0:
32,299,399926,1,8,1:0:0:0:
52,252,400033,1,8,1:0:0:0:
101,231,400140,1,8,1:0:0:0:
154,238,400247,1,8,1:0:0:0:
196,283,400354,1,8,1:0:0:0:
234,333,400461,1,8,1:0:0:0:
300,340,400568,1,8,1:0:0:0:
352,293,400676,1,8,1:0:0:0:
334,225,400783,1,8,1:0:0:0:
396,190,400890,1,8,1:0:0:0:
390,119,400997,1,8,1:0:0:0:
451,78,401104,38,8,P|444:94|439:102,1,25.9999998413086,8|8,1:0|1:0,1:1:0:0:
446,150,401211,2,8,P|433:162|426:167,1,25.9999998413086,8|8,1:0|1:0,1:1:0:0:
414,209,401318,2,8,P|397:215|389:216,1,25.9999998413086,8|8,1:0|1:0,1:1:0:0:
365,247,401426,2,8,P|347:246|338:243,1,25.9999998413086,8|8,1:0|1:0,1:1:0:0:
313,260,401533,2,8,P|297:252|290:247,1,25.9999998413086,8|8,1:0|1:0,1:1:0:0:
269,242,401640,2,8,P|242:242|232:245,1,25.9999998413086,8|8,1:0|1:0,1:1:0:0:
231,253,401747,2,8,P|218:259|209:269,1,25.9999998413086,8|8,1:0|1:0,1:1:0:0:
206,282,401854,2,8,P|202:295|202:308,1,25.9999998413086,8|8,1:0|1:0,1:1:0:0:
210,317,401961,2,8,P|228:338|237:339,1,25.9999998413086,8|8,1:0|1:0,1:1:0:0:
232,339,402068,2,8,P|258:333|260:328,1,25.9999998413086,8|8,1:0|1:0,1:1:0:0:
258,333,402176,70,0,B|256:241|247:205|247:205|235:154|200:80,1,261.000002190399,12|0,1:0|0:0,0:0:0:0:
137,32,402604,38,0,B|127:10|115:-4|115:-4|126:-10|136:-21|136:-21|130:5|138:31,1,119.000000726318,2|0,1:0|0:0,0:0:0:0:
80,363,403461,5,8,1:0:0:0:
80,363,403676,2,0,L|63:250,1,100
313,101,403890,2,0,L|295:216,1,100
157,322,404104,1,0,0:0:0:0:
157,322,404211,1,0,0:0:0:0:
157,322,404318,2,0,L|273:336,1,100,0|0,1:0|0:0,0:0:0:0:
116,107,404533,2,0,L|4:120,1,100
139,242,404747,2,0,L|250:255,1,100
407,278,404961,2,0,L|518:291,1,100
277,61,405176,102,0,L|286:172,1,100,8|0,1:0|0:0,0:0:0:0:
55,293,405390,2,0,L|63:193,1,100
201,302,405604,6,0,B|207:376,1,75.0000028610231
157,155,405818,2,0,B|150:80,1,75.0000028610231
343,240,406033,101,0,1:0:0:0:
363,243,406140,1,2,0:0:0:0:
366,217,406247,1,2,0:0:0:0:
339,222,406354,1,2,0:0:0:0:
350,260,406461,1,0,0:0:0:0:
391,246,406568,1,2,0:0:0:0:
379,207,406676,2,0,P|366:186|347:165,1,50,2|2,1:0|0:0,0:0:0:0:
84,38,406890,5,8,1:0:0:0:
84,38,407104,2,0,L|72:144,1,100
259,347,407318,2,0,L|247:247,1,100
171,77,407533,1,0,0:0:0:0:
171,77,407640,1,0,0:0:0:0:
171,77,407747,2,0,L|276:56,1,100,0|0,1:0|0:0,0:0:0:0:
103,228,407961,2,0,L|4:208,1,100
226,146,408176,2,0,L|331:125,1,100
413,109,408390,2,0,L|518:88,1,100
319,384,408604,102,0,L|331:280,1,100,8|0,1:0|0:0,0:0:0:0:
136,56,408818,6,0,L|147:155,1,100
403,154,409033,102,0,B|388:184|388:184|296:207,1,125
0,280,409247,2,0,B|15:250|15:250|107:227,1,125
408,259,409461,6,0,B|429:285|438:338|438:338|428:302|408:277,1,150,4|0,1:2|0:0,0:0:0:0:
308,245,409890,102,0,B|296:213|310:187|310:187|320:217|308:245,1,116.666667779287,2|0,0:0|0:0,0:0:0:0:
176,281,410033,6,0,B|157:258|160:234|160:234|177:254|176:281,1,100.000003814697,2|0,0:0|0:0,0:0:0:0:
108,340,410176,102,0,B|86:329|80:309|80:309|100:319|108:340,1,83.3333333333333,2|0,0:0|0:0,0:0:0:0:
505,277,410318,5,8,1:0:0:0:
505,277,410533,2,0,L|518:171,1,100
237,4,410747,2,0,L|249:103,1,100
429,228,410961,1,0,0:0:0:0:
429,228,411068,1,0,0:0:0:0:
429,228,411176,2,0,L|326:251,1,100,0|0,1:0|0:0,0:0:0:0:
62,59,411390,2,0,L|165:82,1,100
356,162,411604,2,0,L|253:185,1,100
97,222,411818,2,0,L|-6:245,1,100
267,364,412033,102,0,L|272:264,1,100,8|0,1:0|0:0,0:0:0:0:
62,48,412247,2,0,L|67:148,1,100
195,148,412461,6,0,B|199:73,1,75.0000028610231
157,298,412675,2,0,B|152:372,1,75.0000028610231
390,293,412890,101,0,1:0:0:0:
419,282,412997,1,2,0:0:0:0:
411,255,413104,1,2,0:0:0:0:
372,261,413211,1,2,0:0:0:0:
412,230,413318,1,0,0:0:0:0:
448,272,413426,1,2,0:0:0:0:
401,307,413533,2,0,P|375:292|346:285,1,50,2|2,1:0|0:0,0:0:0:0:
115,380,413747,5,8,1:0:0:0:
115,380,413961,2,0,L|96:274,1,100
300,94,414176,2,0,L|282:192,1,100
190,330,414390,1,0,0:0:0:0:
190,330,414497,1,0,0:0:0:0:
190,330,414604,2,0,L|301:344,1,100,0|0,1:0|0:0,0:0:0:0:
118,116,414818,2,0,L|7:130,1,100
221,257,415033,2,0,L|332:271,1,100
413,283,415247,2,0,L|524:297,1,100
285,53,415461,102,0,P|349:76|376:142,1,125,8|0,1:0|0:0,0:0:0:0:
99,378,415676,2,0,P|86:311|130:254,1,125
385,353,415890,6,0,L|370:242,1,100
180,88,416104,2,0,L|166:187,1,100
468,193,416318,102,0,L|439:190,1,30,2|0,1:0|0:0,0:0:0:0:
285,53,416747,6,0,L|279:94,9,41.6666666666667,2|0|0|0|0|0|0|0|0|0,0:3|0:3|0:3|0:3|0:3|0:3|0:3|0:3|0:3|0:3,0:0:0:0:
240,332,417176,101,8,1:0:0:0:
240,332,417390,2,0,L|141:345,1,100
80,74,417604,2,0,L|179:87,1,100
60,285,417818,2,0,B|45:238|45:238|68:192,1,100
363,256,418033,6,0,L|305:250,1,50,0|0,1:0|0:0,0:0:0:0:
371,262,418247,102,0,L|377:163,1,100
140,345,418461,2,0,L|146:246,1,100
279,152,418676,2,0,L|285:53,1,100
68,193,418890,5,8,1:0:0:0:
68,193,419104,2,0,P|99:231|146:245,1,100
147,11,419318,2,0,L|42:-1,1,100
384,63,419533,2,0,L|279:51,1,100
229,260,419747,101,0,1:0:0:0:
245,248,419854,1,2,0:0:0:0:
274,242,419961,1,2,0:0:0:0:
319,257,420068,1,2,0:0:0:0:
377,302,420176,1,0,0:0:0:0:
460,306,420283,1,2,0:0:0:0:
512,237,420390,2,0,L|501:159,1,75.0000028610231,2|2,1:0|0:0,0:0:0:0:
281,350,420604,5,8,1:0:0:0:
281,350,420818,2,0,L|179:341,1,100
48,166,421033,2,0,L|150:157,1,100
251,146,421247,2,0,L|353:137,1,100
76,352,421461,102,0,L|27:347,1,50,0|0,1:0|0:0,0:0:0:0:
89,357,421676,6,0,L|78:256,1,100
251,146,421890,2,0,L|240:46,1,100
418,265,422104,2,0,L|316:256,1,100
54,60,422318,102,0,L|156:69,1,100,8|0,1:0|0:0,0:0:0:0:
350,137,422533,2,0,L|452:146,1,100
147,157,422747,6,0,L|25:185,1,125
351,44,422961,2,0,L|472:15,1,125
397,347,423176,102,0,B|287:331|259:224|259:224|268:330|168:380,1,389.999982147218,4|0,1:2|0:0,0:0:0:0:
418,265,423604,6,0,B|442:253|442:253|447:231|447:231|424:239|424:239|418:265,1,100.000003814697,2|0,0:0|0:0,0:0:0:0:
323,180,423747,102,0,B|332:150|332:150|319:128|319:128|306:153|306:153|323:180,1,116.666667779287,2|0,0:0|0:0,0:0:0:0:
187,204,423890,6,0,B|181:167|181:167|151:157|151:157|156:185|156:185|187:204,1,133.333333333333,2|0,0:0|0:0,0:0:0:0:
89,357,424033,101,8,1:0:0:0:
89,357,424247,2,0,L|78:256,1,100
252,53,424461,2,0,L|153:68,1,100
0,162,424676,2,0,L|115:180,1,100
299,332,424890,6,0,L|294:268,1,50,0|0,1:0|0:0,0:0:0:0:
301,342,425104,102,0,L|199:324,1,100
448,121,425318,2,0,L|350:137,1,100
176,240,425533,2,0,L|77:257,1,100
252,53,425747,5,8,1:0:0:0:
252,53,425961,2,0,B|270:102|270:102|257:148,1,100
434,327,426176,2,0,L|419:228,1,100
176,240,426390,2,0,L|274:257,1,100
155,27,426604,101,0,1:0:0:0:
131,17,426711,1,2,0:0:0:0:
85,21,426818,1,2,0:0:0:0:
37,54,426925,1,2,0:0:0:0:
8,124,427033,1,0,0:0:0:0:
31,202,427140,1,2,0:0:0:0:
101,247,427247,2,0,L|183:239,1,75.0000028610231,2|2,1:0|0:0,0:0:0:0:
448,121,427461,5,8,1:0:0:0:
448,121,427676,2,0,L|341:109,1,100
230,346,427890,2,0,L|329:334,1,100
481,370,428104,2,0,L|464:271,1,100
281,8,428318,102,0,P|260:44|261:86,1,85.0000016212464,8|0,1:0|0:0,0:0:0:0:
116,53,428533,6,0,P|127:93|167:126,1,89.9999972534181,0|0,1:0|0:0,0:0:0:0:
42,208,428747,102,0,P|78:228|138:222,1,94.9999974632264,0|0,1:0|0:0,0:0:0:0:
112,383,428961,6,0,P|152:371|190:320,1,100,0|0,1:0|0:0,0:0:0:0:
349,127,429176,101,8,1:0:0:0:
349,127,429283,1,0,1:0:0:0:
349,127,429390,1,0,1:0:0:0:
349,127,429497,5,0,1:0:0:0:
349,127,429604,102,0,P|356:101|359:71,1,50,0|0,1:0|0:0,0:0:0:0:
261,86,429711,6,0,P|247:64|228:39,1,50,0|0,1:0|0:0,0:0:0:0:
163,124,429818,102,0,P|135:116|107:114,1,50,8|0,1:0|0:0,0:0:0:0:
131,226,429926,6,0,P|109:237|91:255,1,50,8|0,1:0|0:0,0:0:0:0:
200,341,430033,102,0,B|445:433|517:272|335:171|298:344|276:390,1,411.249993724823,2|0,1:0|0:0,0:0:0:0:
303,357,430461,6,0,B|365:347|391:320|353:306|308:356,1,134.999995880127,2|0,0:3|0:0,0:0:0:0:
0,384,430890,101,14,1:0:0:0:
0,384,431104,2,0,B|2:332|2:332|5:335|5:335|7:266,1,117.499998207092,2|0,0:0|0:0,0:0:0:0:
302,182,431318,1,2,0:0:0:0:
232,213,431426,1,0,0:0:0:0:
174,164,431533,2,0,B|122:161|122:161|125:158|125:158|56:156,1,117.499998207092,2|0,0:0|0:0,0:0:0:0:
103,368,431747,1,4,1:0:0:0:
147,302,431854,1,0,0:0:0:0:
200,360,431961,2,0,B|252:357|252:357|249:354|249:354|318:352,1,117.499998207092,2|0,0:0|0:0,0:0:0:0:
401,80,432176,6,0,B|393:152|393:152|396:142|396:142|385:225,1,117.499998207092,2|0,0:0|0:0,0:0:0:0:
327,1,432390,2,0,B|319:73|319:73|322:63|322:63|311:146,1,117.499998207092,2|0,0:0|0:0,0:0:0:0:
475,325,432604,102,0,B|492:270|492:270|465:217,1,117.499998207092,14|0,1:0|0:0,0:0:0:0:
305,173,432818,2,0,B|287:227|287:227|314:280,1,117.499998207092,2|0,0:0|0:0,0:0:0:0:
393,384,433033,6,0,L|399:297,1,75.0000028610231,2|0,0:0|0:0,0:0:0:0:
384,223,433247,2,0,L|389:148,1,75.0000028610231,2|0,0:0|0:0,0:0:0:0:
43,19,433461,102,0,L|97:21,1,52.4999983978272,4|0,1:0|0:0,0:0:0:0:
7,264,434318,5,14,1:0:0:0:
7,264,434533,2,0,B|2:211|2:211|5:215|5:215|-1:148,1,117.499998207092,2|0,0:0|0:0,0:0:0:0:
231,276,434747,2,0,B|225:335|225:335|228:331|228:331|223:384,1,117.499998207092,2|0,0:0|0:0,0:0:0:0:
86,120,434961,1,2,0:0:0:0:
154,85,435068,1,0,0:0:0:0:
212,134,435176,2,0,B|265:129|265:129|261:132|261:132|328:126,1,117.499998207092,4|0,1:0|0:0,0:0:0:0:
452,31,435390,2,0,B|392:25|392:25|396:28|396:28|343:23,1,117.499998207092,2|0,0:0|0:0,0:0:0:0:
434,378,435604,101,2,0:0:0:0:
489,320,435711,1,0,0:0:0:0:
412,299,435818,2,0,B|351:303|351:303|354:308|354:308|260:317,1,117.499998207092,2|0,0:0|0:0,0:0:0:0:
71,194,436033,6,0,B|106:198|106:198|108:197|108:197|150:200,1,75.0000028610231,14|0,1:0|0:0,0:0:0:0:
341,229,436247,2,0,B|303:231|303:231|301:230|301:230|266:234,1,75.0000028610231,2|0,0:0|0:0,0:0:0:0:
23,364,436461,102,0,B|17:314|17:314|19:317|19:317|13:261,1,100,2|0,0:0|0:0,0:0:0:0:
397,146,436676,2,0,B|403:96|403:96|401:99|401:99|407:43,1,100,2|0,0:0|0:0,0:0:0:0:
124,271,436890,6,0,B|113:306|144:326|144:326|143:334|143:334|150:331|150:331|231:306|215:190|105:200|126:99|126:99|123:95|123:95|128:92|128:92|141:121|170:132,1,412.500003933907,4|0,1:2|0:0,0:0:0:0:
269,18,437318,102,0,B|249:22|235:30|235:30|229:29|229:29|230:35|230:35|208:52|183:88,1,91.6666675408681,2|0,0:0|0:0,0:0:0:0:
236,136,437461,6,0,B|225:151|221:168|221:168|216:171|216:171|221:175|221:175|217:202|225:244,1,91.6666675408681,2|0,0:0|0:0,0:0:0:0:
297,241,437604,102,0,B|301:259|309:273|309:273|308:279|308:279|314:278|314:278|331:300|367:325,1,91.6666675408681,2|0,0:0|0:0,0:0:0:0:
490,136,437747,5,14,1:0:0:0:
441,197,437854,1,0,0:0:0:0:
478,265,437961,2,0,B|475:322|475:322|477:318|477:318|471:394,1,117.499998207092,2|0,0:0|0:0,0:0:0:0:
413,124,438176,2,0,B|408:68|408:68|410:72|410:72|407:15,1,117.499998207092,2|0,0:0|0:0,0:0:0:0:
303,339,438390,2,0,B|307:283|307:283|305:287|305:287|308:230,1,117.499998207092,2|0,0:0|0:0,0:0:0:0:
271,8,438604,101,4,1:0:0:0:
304,76,438711,1,0,0:0:0:0:
254,133,438818,2,0,B|201:141|201:141|205:138|205:138|138:149,1,117.499998207092,2|0,0:0|0:0,0:0:0:0:
0,0,439033,2,0,B|52:8|52:8|48:5|48:5|115:16,1,117.499998207092,2|0,0:0|0:0,0:0:0:0:
224,284,439247,2,0,B|276:275|276:275|272:278|272:278|339:267,1,117.499998207092,2|0,0:0|0:0,0:0:0:0:
304,76,439461,6,0,B|295:107|295:107|297:109|297:109|291:125|291:125|301:213,1,117.499998207092,14|0,1:0|0:0,0:0:0:0:
121,366,439676,2,0,B|130:335|130:335|128:333|128:333|134:317|134:317|124:229,1,117.499998207092,2|0,0:0|0:0,0:0:0:0:
332,270,439890,102,0,L|189:254,1,117.499998207092,2|0,0:0|0:0,0:0:0:0:
116,132,440104,2,0,L|-27:148,1,117.499998207092,2|0,0:0|0:0,0:0:0:0:
115,0,440318,5,4,1:0:0:0:
130,11,440425,1,2,0:0:0:0:
142,26,440532,1,2,0:0:0:0:
148,45,440639,1,2,0:0:0:0:
186,112,440747,101,2,0:0:0:0:
258,129,440854,1,2,0:0:0:0:
310,75,440961,1,2,0:0:0:0:
288,4,441068,1,2,0:0:0:0:
148,45,441176,6,0,B|91:53|91:53|97:54|97:54|18:66,1,117.499998207092,14|0,1:0|0:0,0:0:0:0:
322,178,441390,2,0,B|375:169|375:169|369:168|369:168|426:160,1,117.499998207092,2|0,0:0|0:0,0:0:0:0:
145,227,441604,2,0,B|202:235|202:235|196:236|196:236|250:245,1,117.499998207092,2|0,0:0|0:0,0:0:0:0:
490,223,441818,2,0,B|498:276|498:276|499:270|499:270|507:327,1,117.499998207092,2|0,0:0|0:0,0:0:0:0:
236,253,442033,102,0,B|182:244|182:244|188:243|188:243|131:235,1,117.499998207092,4|0,1:0|0:0,0:0:0:0:
289,0,442247,2,0,B|281:53|281:53|280:47|280:47|272:104,1,117.499998207092,2|0,0:0|0:0,0:0:0:0:
322,328,442461,2,0,B|376:319|376:319|370:318|370:318|427:310,1,117.499998207092,2|0,0:0|0:0,0:0:0:0:
131,235,442676,2,0,B|188:243|188:243|182:244|182:244|236:253,1,117.499998207092,2|0,0:0|0:0,0:0:0:0:
502,31,442890,6,0,B|518:52|518:52|504:180,1,117.499998207092,14|0,1:0|0:0,0:0:0:0:
65,288,443104,2,0,B|49:267|49:267|63:139,1,117.499998207092,2|0,0:0|0:0,0:0:0:0:
386,369,443318,102,0,L|259:385,1,117.499998207092,2|0,0:0|0:0,0:0:0:0:
321,56,443533,2,0,L|437:70,1,117.499998207092,2|0,0:0|0:0,0:0:0:0:
231,223,443747,6,0,B|216:280|128:280|99:188|152:137|229:111|301:130|329:186,1,352.499994621277,6|0,1:0|0:0,0:0:0:0:
341,260,444176,2,0,B|351:282|382:289|415:278|439:256|426:217|388:217|381:241,1,150,2|0,0:0|0:0,0:0:0:0:
393,138,444604,102,0,P|369:107|384:48,1,100,14|0,1:0|0:0,0:0:0:0:
461,45,444818,2,0,P|485:76|470:135,1,100,2|0,0:0|0:0,0:0:0:0:
341,260,445033,6,0,B|335:267|335:267|234:257,1,100,2|0,0:0|0:0,0:0:0:0:
118,148,445247,2,0,B|102:112|102:112|30:68|30:68|74:-3|74:-3|146:40|146:40|102:112,1,375,2|0,0:0|0:0,0:0:0:0:
142,221,445676,2,0,P|165:242|135:224,1,104.999996795654,2|0,0:0|0:0,0:0:0:0:
266,56,445890,102,0,B|271:63|271:63|257:169,1,104.999996795654,2|0,0:0|0:0,0:0:0:0:
237,360,446104,2,0,B|232:353|232:353|246:247,1,104.999996795654,2|0,0:0|0:0,0:0:0:0:
335,197,446318,6,0,P|368:176|407:182,1,80,14|0,1:0|0:0,0:0:0:0:
142,221,446533,2,0,P|108:241|69:235,1,80,2|0,0:0|0:0,0:0:0:0:
347,271,446747,102,0,P|386:278|420:257,1,80,2|0,0:0|0:0,0:0:0:0:
129,146,446961,2,0,P|90:139|56:160,1,80,2|0,0:0|0:0,0:0:0:0:
249,229,447176,6,0,L|255:181,2,40,4|0|2,1:0|0:0|0:0,0:0:0:0:
239,306,447818,1,0,0:0:0:0:
263,106,448033,102,0,P|239:64|191:57,1,100,14|0,1:0|0:0,0:0:0:0:
154,258,448247,2,0,P|129:300|147:344,1,100,2|0,0:0|0:0,0:0:0:0:
332,265,448461,2,0,P|381:265|410:227,1,100,2|0,0:0|0:0,0:0:0:0:
417,231,448676,6,0,P|384:272|331:272,1,110.000003356934,2|0,0:0|0:0,0:0:0:0:
142,349,448890,2,0,P|122:300|148:254,1,110.000003356934,4|0,1:0|0:0,0:0:0:0:
191,49,449104,2,0,P|243:56|269:102,1,110.000003356934,2|0,0:0|0:0,0:0:0:0:
88,208,449318,102,0,P|49:198|-14:190,1,89.9999972534181,2|0,0:0|0:0,0:0:0:0:
15,116,449533,2,0,P|59:122|103:133,1,89.9999972534181,2|0,0:0|0:0,0:0:0:0:
142,349,449747,6,0,L|230:331,1,80,14|0,1:0|0:0,0:0:0:0:
209,187,449961,2,0,L|297:169,1,89.9999972534181,2|0,0:0|0:0,0:0:0:0:
351,343,450176,102,0,L|452:323,1,100,2|0,0:0|0:0,0:0:0:0:
405,81,450390,2,0,L|519:58,1,110.000003356934,2|0,0:0|0:0,0:0:0:0:
142,349,450604,6,0,B|126:218|6:175|-80:210|-36:382|86:306|119:273,1,389.999982147218,4|0,1:2|0:0,0:0:0:0:
219,271,451033,102,0,B|229:280|229:280|219:271|219:271|228:259|228:259|219:271|219:271|207:260|207:260|219:271|219:271|208:281|208:281|208:281,1,100.000003814697,2|0,0:0|0:0,0:0:0:0:
297,168,451176,6,0,B|309:163|309:163|297:168|297:168|292:154|292:154|297:168|297:168|283:171|283:171|297:168|297:168|300:180|300:180|300:180,1,100.000003814697,2|0,0:0|0:0,0:0:0:0:
191,49,451318,102,0,B|192:34|192:34|191:49|191:49|176:46|176:46|191:49|191:49|188:62|188:62|191:49|191:49|204:50|204:50|204:50,1,100.000003814697,2|0,0:0|0:0,0:0:0:0:
37,135,451461,5,14,1:0:0:0:
45,143,451676,101,2,0:0:0:0:
45,143,451783,1,2,0:0:0:0:
45,143,451890,2,0,P|103:157|150:178,1,100,2|0,0:0|0:0,0:0:0:0:
315,98,452104,2,0,P|373:84|420:63,1,100,2|0,0:0|0:0,0:0:0:0:
105,247,452318,6,0,P|164:261|201:221,1,100,4|0,1:0|0:0,0:0:0:0:
231,98,452533,2,0,P|241:41|251:-3,1,100,2|0,0:0|0:0,0:0:0:0:
405,335,452747,102,0,P|346:349|309:309,1,100,2|0,0:0|0:0,0:0:0:0:
252,189,452962,2,0,P|242:132|232:88,1,100,2|0,0:0|0:0,0:0:0:0:
432,261,453176,6,0,P|478:289|480:345,1,100,14|0,1:0|0:0,0:0:0:0:
253,365,453390,2,0,P|235:313|270:269,1,100,2|0,0:0|0:0,0:0:0:0:
78,173,453604,102,0,P|32:201|30:257,1,100,2|0,0:0|0:0,0:0:0:0:
257,277,453818,2,0,P|274:225|239:181,1,100,2|0,0:0|0:0,0:0:0:0:
94,30,454033,6,0,P|72:38|62:57,2,40,4|0|2,1:0|0:0|0:0,0:0:0:0:
361,194,454676,1,0,0:0:0:0:
124,99,454890,102,0,P|150:154|190:157,1,100,14|0,1:0|0:0,0:0:0:0:
159,237,455104,2,0,P|219:241|242:208,1,100,2|0,0:0|0:0,0:0:0:0:
296,275,455318,2,0,P|330:224|313:188,1,100,2|0,0:0|0:0,0:0:0:0:
201,81,455533,6,0,P|190:34|223:0,1,100,2|2,0:0|0:0,0:0:0:0:
277,57,455747,2,0,P|312:24|359:36,1,100,6|0,1:0|0:0,0:0:0:0:
337,115,455961,2,0,P|383:128|397:175,1,100,2|0,0:0|0:0,0:0:0:0:
122,307,456176,102,0,P|76:278|87:223,1,110.000003356934,2|0,0:0|0:0,0:0:0:0:
319,188,456390,2,0,P|336:238|301:278,1,110.000003356934,2|0,0:0|0:0,0:0:0:0:
44,130,456604,5,14,1:0:0:0:
44,130,456818,2,0,L|151:108,1,110.000003356934,2|0,0:0|0:0,0:0:0:0:
203,298,457033,2,0,L|310:276,1,100,2|0,0:0|0:0,0:0:0:0:
359,36,457247,2,0,L|466:14,1,89.9999972534181,2|0,0:0|0:0,0:0:0:0:
512,204,457461,101,0,0:0:0:0:
256,192,457488,12,0,461984,0:0:0:0:
217,80,462335,5,4,1:0:0:0:
217,80,462452,2,0,L|249:90,1,29.9999990844727,0|0,3:0|0:0,0:0:0:0:
297,155,462686,101,2,0:0:0:0:
297,155,462803,2,0,B|301:188|301:188|220:278|220:278|226:322,1,179.999994506836,2|0,0:0|0:0,0:0:0:0:
292,341,463272,6,0,B|323:335|323:335|322:331|322:331|357:325,1,67.4999979400635,4|0,0:0|0:0,0:0:0:0:
418,377,463858,102,0,B|443:351|443:351|377:83|377:83|416:46,1,350,2|0,3:1|0:0,0:0:0:0:
478,100,464327,6,0,L|445:232,1,129.999994049073,0|0,1:0|0:0,0:0:0:0:
318,161,464678,101,0,3:0:0:0:
318,161,464795,2,0,L|263:172,1,44.999998626709,0|0,1:0|2:0,0:0:0:0:
194,73,465030,6,0,L|101:42,1,97.4999955368044,0|0,3:0|0:0,0:0:0:0:
86,50,465264,1,0,1:0:0:0:
24,208,465381,2,0,P|41:147|141:149,1,160,0|0,3:0|0:0,0:0:0:0:
175,261,465733,102,0,B|191:279|191:279|162:343|162:343|181:370,2,115.000002193451,4|0|0,1:0|0:0|0:0,0:0:0:0:
258,342,466084,1,0,3:0:0:0:
258,342,466202,2,0,P|307:324|359:314,1,104.999996795654,0|0,1:0|0:0,0:0:0:0:
431,335,466436,6,0,P|442:358|441:374,1,27.5000008392334,10|0,0:3|0:0,0:0:0:0:
447,323,466553,2,0,P|465:340|464:360,1,27.5000008392334,10|0,0:3|0:0,0:0:0:0:
495,256,466670,102,0,B|458:44|458:44|405:25,1,250,2|0,1:3|0:0,0:0:0:0:
344,250,467022,6,0,P|350:263|361:272,1,27.5000008392334,8|0,0:3|0:0,0:0:0:0:
409,211,467139,2,0,B|390:100|390:100|377:94,1,125,2|0,1:3|0:0,0:0:0:0:
261,122,467373,102,0,P|250:145|251:161,1,27.5000008392334,10|0,0:3|0:0,0:0:0:0:
245,110,467490,2,0,P|227:127|228:147,1,27.5000008392334,10|0,0:3|0:0,0:0:0:0:
326,175,467608,6,0,B|300:150|300:150|32:216|32:216|-5:177,1,350,4|0,1:0|0:0,0:0:0:0:
0,103,468077,102,0,P|61:104|90:159,1,129.999994049073,0|0,1:0|0:0,0:0:0:0:
163,262,468428,5,0,3:0:0:0:
163,263,468545,2,0,B|213:251,1,44.999998626709,0|0,1:0|0:0,0:0:0:0:
296,333,468780,102,0,L|396:360,1,97.4999955368044,0|0,3:0|0:0,0:0:0:0:
404,356,469014,1,0,1:0:0:0:
466,198,469131,2,0,P|449:259|349:257,1,160,0|0,3:0|0:0,0:0:0:0:
326,151,469483,6,0,B|310:133|310:133|339:69|339:69|320:42,2,115.000002193451,4|0|0,1:0|0:0|0:0,0:0:0:0:
251,70,469834,1,0,3:0:0:0:
251,70,469952,2,0,P|171:94|121:103,1,104.999996795654,0|0,1:0|0:0,0:0:0:0:
87,57,470186,102,0,P|76:80|77:96,1,27.5000008392334,10|0,0:3|0:0,0:0:0:0:
63,57,470303,2,0,P|62:80|71:93,1,27.5000008392334,10|0,0:3|0:0,0:0:0:0:
0,128,470420,6,0,B|21:117|21:117|253:168,1,250,2|0,1:3|0:0,0:0:0:0:
51,282,470772,102,0,P|38:288|25:288,1,27.5000008392334,10|0,0:3|0:0,0:0:0:0:
19,211,470889,2,0,B|39:203|39:203|159:229,1,125,2|0,1:3|0:0,0:0:0:0:
270,266,471123,6,0,P|269:279|264:292,1,27.5000008392334,10|0,0:3|0:0,0:0:0:0:
296,277,471240,2,0,P|292:290|282:299,1,27.5000008392334,10|0,0:3|0:0,0:0:0:0:
199,344,471358,102,0,B|185:302|185:302|346:97|346:97|328:29,1,350,4|0,1:0|0:0,0:0:0:0:
254,25,471827,6,0,P|233:79|286:126,1,129.999994049073,0|0,1:0|0:0,0:0:0:0:
398,197,472178,101,0,3:0:0:0:
398,197,472295,2,0,L|410:257,1,44.999998626709,0|0,1:0|0:0,0:0:0:0:
343,337,472530,6,0,L|231:310,1,97.4999955368044,0|0,3:0|0:0,0:0:0:0:
236,323,472764,1,0,1:0:0:0:
107,276,472881,2,0,P|81:344|145:381,1,160,0|0,3:0|0:0,0:0:0:0:
196,162,473233,102,0,B|208:141|208:141|168:83|168:83|185:54,2,115.000002193451,4|0|0,1:0|0:0|0:0,0:0:0:0:
49,136,473584,1,0,3:0:0:0:
49,136,473702,2,0,P|98:148|142:168,1,69.9999978637696,0|0,1:0|0:0,0:0:0:0:
309,273,473936,6,0,P|322:272|335:267,1,27.5000008392334,10|0,0:3|0:0,0:0:0:0:
320,299,474053,2,0,P|333:295|342:285,1,27.5000008392334,10|0,0:3|0:0,0:0:0:0:
419,261,474170,102,0,B|471:52|471:52|428:17,1,250,2|0,1:3|0:0,0:0:0:0:
298,111,474522,6,0,P|318:129|326:130,1,27.5000008392334,10|0,0:3|0:0,0:0:0:0:
357,192,474639,2,0,B|385:85|385:85|355:57,1,125,2|0,1:3|0:0,0:0:0:0:
207,157,474873,102,0,P|205:169|208:183,1,27.5000008392334,10|0,0:3|0:0,0:0:0:0:
183,168,474990,2,0,P|184:181|193:191,1,27.5000008392334,10|0,0:3|0:0,0:0:0:0:
278,200,475108,6,0,B|62:149|62:149|137:182|146:262,1,350,4|0,1:0|0:0,0:0:0:0:
142,319,475577,102,0,P|214:318|204:259,1,129.999994049073,0|0,1:0|0:0,0:0:0:0:
289,121,475928,5,0,3:0:0:0:
289,121,476045,2,0,B|271:106|271:106|236:104,1,44.999998626709,0|0,1:0|0:0,0:0:0:0:
66,17,476280,102,0,L|41:112,1,97.4999955368044,0|0,3:0|0:0,0:0:0:0:
41,123,476514,1,0,1:0:0:0:
190,165,476631,2,0,P|205:87|131:73,1,160,0|0,3:0|0:0,0:0:0:0:
100,274,476983,6,0,B|110:291|110:291|70:349|70:349|82:370,2,115.000002193451,4|0|0,1:0|0:0|0:0,0:0:0:0:
163,361,477334,1,0,3:0:0:0:
163,361,477452,2,0,P|218:345|312:328,1,139.999995727539,0|0,1:0|0:0,0:0:0:0:
314,319,477744,102,0,B|305:284,4,31.25
387,287,477920,5,0,0:0:0:0:
208,235,478077,2,0,P|213:216|225:195,1,29.9999990844727,8|0,0:0|0:0,0:0:0:0:
183,216,478233,2,0,P|195:201|211:189,1,29.9999990844727,2|0,0:0|0:0,0:0:0:0:
310,279,478389,101,0,0:0:0:0:
163,361,478545,2,0,P|148:347|138:328,1,29.9999990844727,8|0,0:0|0:0,0:0:0:0:
134,374,478701,2,0,P|126:356|126:336,1,29.9999990844727,2|0,0:0|0:0,0:0:0:0:
3,382,478858,5,4,1:0:0:0:
33,287,479014,102,0,L|36:244,1,33.3333333333333
51,283,479170,2,0,L|68:243,1,33.3333333333333
110,351,479326,5,0,1:0:0:0:
142,263,479483,102,0,P|151:237|144:208,1,50.0000019073487
160,257,479639,2,0,P|176:238|200:230,1,50.0000019073487
218,374,479795,5,0,1:0:0:0:
283,194,479951,101,8,0:0:0:0:
296,271,480108,1,0,0:0:0:0:
395,366,480264,5,0,1:0:0:0:
375,249,480420,101,0,0:0:0:0:
398,240,480576,1,2,0:0:0:0:
512,378,480733,5,4,1:0:0:0:
512,292,480889,102,0,L|509:249,1,33.3333333333333
494,288,481045,2,0,L|476:248,1,33.3333333333333
395,366,481201,5,0,1:0:0:0:
375,249,481358,102,0,P|382:216|413:203,1,50.0000019073487
352,238,481514,2,0,P|332:211|342:179,1,50.0000019073487
244,360,481670,5,0,1:0:0:0:
327,313,481826,101,4,0:3:0:0:
181,255,481983,1,0,0:0:0:0:
154,343,482139,5,8,1:3:0:0:
265,255,482295,102,0,L|185:276,1,66.6666666666667
10,297,482451,2,0,B|-16:321|-16:321|8:363,1,66.6666666666667
77,379,482608,5,4,1:0:0:0:
88,284,482764,102,0,L|76:242,1,33.3333333333333
103,274,482920,2,0,L|106:230,1,33.3333333333333
154,343,483076,5,0,1:0:0:0:
286,259,483233,102,0,P|296:240|331:245,1,50.0000019073487
307,264,483389,2,0,P|327:260|347:289,1,50.0000019073487,0|0,0:0|0:0,3:3:0:0:
316,372,483545,5,0,1:0:0:0:
238,332,483701,101,2,0:0:0:0:
202,259,483858,1,0,0:0:0:0:
404,345,484014,5,0,1:0:0:0:
444,275,484170,101,8,0:0:0:0:
446,260,484326,1,0,0:0:0:0:
494,380,484483,5,4,1:0:0:0:
473,276,484639,102,0,L|515:271,1,33.3333333333333
480,293,484795,2,0,L|522:303,1,33.3333333333333
404,345,484951,5,0,1:0:0:0:
327,298,485108,102,0,P|308:287|313:252,1,50.0000019073487
301,294,485264,2,0,P|285:275|261:278,1,50.0000019073487,0|0,0:0|0:0,3:3:0:0:
255,361,485420,5,0,1:0:0:0:
391,245,485576,101,0,3:0:0:0:
181,305,485733,1,0,0:0:0:0:
133,376,485889,5,8,1:3:0:0:
0,352,486045,102,0,L|63:333,1,66.6666666666667
242,230,486201,2,0,B|269:243|269:243|260:278,1,66.6666666666667
181,305,486358,6,0,B|144:90|144:90|100:97,1,233.333326212565,6|0,1:0|0:0,0:0:0:0:
100,306,486826,101,0,1:0:0:0:
39,237,486983,6,0,L|-3:232,1,33.3333333333333
32,254,487139,2,0,L|-10:264,1,33.3333333333333
0,352,487295,101,0,1:0:0:0:
150,245,487451,6,0,P|171:219|161:197,1,50.0000019073487,8|0,0:0|0:0,0:0:0:0:
129,223,487608,2,0,P|123:190|99:183,1,50.0000019073487
211,304,487764,101,0,1:0:0:0:
39,237,487920,5,2,0:0:0:0:
100,306,488076,1,0,0:0:0:0:
232,380,488233,102,0,B|252:162|252:162|207:158,1,233.333326212565,6|0,1:0|0:0,0:0:0:0:
144,384,488701,5,0,1:0:0:0:
150,245,488858,101,0,0:0:0:0:
130,223,489014,1,2,0:0:0:0:
67,285,489170,5,0,1:0:0:0:
278,231,489326,101,8,0:0:0:0:
202,308,489483,1,8,0:0:0:0:
317,365,489639,5,8,1:3:0:0:
512,292,489795,102,0,L|424:291,1,66.6666666666667
278,231,489951,2,0,B|268:254|268:254|310:286,1,66.6666666666667
365,238,490108,6,0,B|309:27|309:27|346:15,1,233.333326212565,6|0,1:0|0:0,0:0:0:0:
444,203,490576,101,0,1:0:0:0:
378,337,490733,6,0,L|371:369,1,33.3333333333333
369,319,490889,2,0,L|351:347,1,33.3333333333333
459,384,491045,101,0,1:0:0:0:
365,238,491201,5,8,0:0:0:0:
512,317,491358,1,0,0:0:0:0:
460,242,491514,101,0,1:0:0:0:
424,314,491670,5,2,0:0:0:0:
282,384,491826,1,0,0:0:0:0:
241,307,491983,102,0,B|258:89|258:89|303:92,1,233.333326212565,6|0,1:0|0:0,0:0:0:0:
325,313,492451,5,0,1:0:0:0:
153,280,492608,1,0,0:0:0:0:
147,261,492764,1,0,0:0:0:0:
37,379,492920,102,0,B|17:379|17:379|-5:335,1,46.6666652425131,2|0,1:0|0:0,0:0:0:0:
59,146,493076,2,0,B|71:149|71:149|47:291,1,139.999995727539,2|0,0:0|0:0,0:0:0:0:
155,177,493389,6,0,B|183:175|183:175|191:158,1,33.3333333333333,2|0,1:2|0:0,0:0:0:0:
149,99,493545,2,0,B|165:76|165:76|157:59,1,33.3333333333333
85,57,493701,2,0,B|78:29|78:29|60:24,1,33.3333333333333,0|0,3:0|0:0,3:3:0:0:
0,77,493858,102,0,B|17:98|17:98|261:53|261:53|284:85,1,299.999990844727,6|0,1:0|0:0,0:0:0:0:
347,45,494326,5,10,1:0:0:0:
267,157,494483,102,0,L|285:209,1,53.3333333333333,2|0,0:1|0:0,0:0:0:0:
356,182,494639,2,0,L|338:131,1,53.3333333333333,2|0,0:1|0:0,0:0:0:0:
353,49,494795,5,0,1:0:0:0:
494,127,494951,102,0,L|511:76,1,53.3333333333333,2|0,0:1|0:0,0:0:0:0:
441,52,495107,2,0,L|423:102,1,53.3333333333333,2|0,0:1|0:0,0:0:0:0:
359,53,495264,5,8,1:0:0:0:
494,268,495420,102,0,L|512:218,1,53.3333333333333,2|0,0:1|0:0,0:0:0:0:
440,192,495576,2,0,L|423:243,1,53.3333333333333,2|0,0:1|0:0,0:0:0:0:
452,338,495733,6,0,B|435:317|435:317|191:362|191:362|168:330,1,299.999990844727,6|0,1:0|0:0,0:0:0:0:
226,278,496201,101,8,1:0:0:0:
34,352,496358,5,2,0:1:0:0:
107,384,496514,1,2,0:1:0:0:
221,271,496670,101,0,1:0:0:0:
31,264,496826,5,2,0:1:0:0:
104,296,496982,1,2,0:1:0:0:
216,264,497139,102,0,B|201:243|201:243|163:248,1,53.3333333333333,8|0,1:0|0:0,0:0:0:0:
28,176,497295,5,2,0:1:0:0:
101,208,497451,1,2,0:1:0:0:
198,62,497608,102,0,B|218:76|218:76|173:320|173:320|194:337,1,299.999990844727,6|0,1:0|0:0,0:0:0:0:
273,315,498076,5,8,1:0:0:0:
334,143,498233,102,0,L|282:161,1,53.3333333333333,2|0,0:1|0:0,0:0:0:0:
309,232,498389,2,0,L|360:214,1,53.3333333333333,2|0,0:1|0:0,0:0:0:0:
277,307,498545,5,0,1:0:0:0:
340,366,498701,102,0,L|391:384,1,53.3333333333333,2|0,0:1|0:0,0:0:0:0:
416,312,498857,2,0,L|366:295,1,53.3333333333333,2|0,0:1|0:0,0:0:0:0:
281,299,499014,5,8,1:0:0:0:
149,207,499170,102,0,L|131:258,1,53.3333333333333,2|0,0:1|0:0,0:0:0:0:
203,284,499326,2,0,L|220:233,1,53.3333333333333,2|0,0:1|0:0,0:0:0:0:
275,127,499483,6,0,B|261:107|261:107|17:152|17:152|0:131,1,299.999990844727,6|0,1:0|0:0,0:0:0:0:
42,65,499951,101,8,1:0:0:0:
147,14,500108,6,0,L|198:31,1,53.3333333333333,2|0,0:1|0:0,0:0:0:0:
172,103,500264,2,0,L|121:85,1,53.3333333333333,2|0,0:1|0:0,0:0:0:0:
278,29,500420,101,0,1:0:0:0:
369,155,500576,6,0,L|420:138,1,53.3333333333333,2|0,0:1|0:0,0:0:0:0:
394,66,500732,2,0,L|343:84,1,53.3333333333333,2|0,0:1|0:0,0:0:0:0:
499,142,500889,102,0,B|505:113|505:113|486:98,1,53.3333333333333,8|0,1:0|0:0,0:0:0:0:
399,294,501045,6,0,L|450:311,1,53.3333333333333,2|0,0:1|0:0,0:0:0:0:
476,240,501201,2,0,L|425:222,1,53.3333333333333,2|0,0:1|0:0,0:0:0:0:
512,363,501358,102,0,B|498:343|498:343|254:388|254:388|237:367,1,299.999990844727,6|0,1:0|0:0,0:0:0:0:
162,345,501826,5,8,1:0:0:0:
313,255,501983,102,0,L|296:306,1,53.3333333333333,2|0,0:1|0:0,0:0:0:0:
224,280,502139,2,0,L|242:229,1,53.3333333333333,2|0,0:1|0:0,0:0:0:0:
155,337,502295,5,0,1:0:0:0:
132,199,502451,102,0,L|150:250,1,53.3333333333333,2|0,0:1|0:0,0:0:0:0:
78,276,502607,2,0,L|61:225,1,53.3333333333333,2|0,0:1|0:0,0:0:0:0:
5,307,502764,6,0,B|72:318|72:318|77:315|77:315|148:328,2,146.666671142578,8|2|2,1:0|0:1|0:1,0:0:0:0:
248,362,503233,102,0,B|227:345|227:345|272:101|272:101|252:87,1,299.999990844727,6|0,1:0|0:0,0:0:0:0:
187,135,503701,5,8,1:0:0:0:
99,60,503858,101,2,0:1:0:0:
41,117,504015,1,2,0:1:0:0:
181,145,504170,5,0,1:0:0:0:
66,201,504326,101,2,0:1:0:0:
144,222,504483,1,2,0:1:0:0:
174,154,504639,6,0,B|155:139|155:139|161:110,1,53.3333333333333,8|0,1:0|0:0,0:0:0:0:
97,53,504795,101,2,0:1:0:0:
34,114,504952,1,2,0:1:0:0:
177,36,505108,6,0,B|194:15|194:15|438:60|438:60|452:40,1,299.999990844727,6|0,1:0|0:0,0:0:0:0:
512,85,505576,101,8,1:0:0:0:
376,213,505733,6,0,L|358:162,1,53.3333333333333,2|0,0:1|0:0,0:0:0:0:
430,136,505889,2,0,L|447:187,1,53.3333333333333,2|0,0:1|0:0,0:0:0:0:
505,93,506045,101,0,1:0:0:0:
292,59,506201,6,0,L|309:8,1,53.3333333333333,2|0,0:1|0:0,0:0:0:0:
381,34,506357,2,0,L|363:85,1,53.3333333333333,2|0,0:1|0:0,0:0:0:0:
498,101,506514,101,8,1:0:0:0:
493,340,506670,6,0,L|511:289,1,53.3333333333333,2|0,0:1|0:0,0:0:0:0:
439,263,506826,2,0,L|422:314,1,53.3333333333333,2|0,0:1|0:0,0:0:0:0:
466,178,506983,102,0,L|-15:239,1,466.666652425131,14|0,1:0|0:0,0:0:0:0:
110,115,507451,6,0,B|191:127|191:127|261:313|261:313|345:324,1,366.666677856446,8|0,1:0|0:0,0:0:0:0:
319,236,507920,101,2,1:0:0:0:
170,298,508389,5,2,1:2:0:0:
256,16,508858,101,6,1:0:0:0:
320,114,509014,1,2,0:1:0:0:
399,114,509170,1,2,0:1:0:0:
229,182,509326,5,8,1:0:0:0:
327,118,509482,1,2,0:1:0:0:
327,39,509638,1,2,0:1:0:0:
395,209,509795,101,0,1:0:0:0:
331,111,509951,1,2,0:1:0:0:
252,111,510107,1,2,0:1:0:0:
422,43,510264,5,8,1:0:0:0:
324,107,510420,1,2,0:1:0:0:
388,205,510576,1,2,0:1:0:0:
490,147,510733,102,0,L|487:180,2,33.3333333333333,6|0|2,1:0|0:0|0:1,0:0:0:0:
478,186,510967,2,0,L|480:152,2,33.3333333333333,0|2|0,0:0|0:1|0:0,0:0:0:0:
504,281,511201,5,8,1:0:0:0:
316,377,511358,1,2,0:1:0:0:
396,377,511514,1,2,0:1:0:0:
400,370,511670,101,0,1:0:0:0:
212,274,511826,1,2,0:1:0:0:
260,211,511982,1,2,0:1:0:0:
290,284,512139,6,0,L|307:279,1,16.6666666666667,8|0,1:0|0:0,0:0:0:0:
134,381,512295,102,0,L|162:372,1,21.6666656748454,2|0,0:1|0:0,0:0:0:0:
37,225,512451,6,0,L|54:220,1,11.6666663106283,2|0,0:1|0:0,0:0:0:0:
35,317,512608,102,0,L|38:349,2,33.3333333333333,6|0|2,1:0|0:0|0:1,0:0:0:0:
30,357,512842,2,0,L|25:323,2,33.3333333333333,0|2|0,0:0|0:1|0:0,0:0:0:0:
30,218,513076,5,8,1:0:0:0:
176,290,513233,1,2,0:1:0:0:
176,211,513389,1,2,0:1:0:0:
314,143,513545,101,0,1:0:0:0:
168,215,513702,1,2,0:1:0:0:
168,136,513858,1,2,0:1:0:0:
30,68,514014,5,8,1:0:0:0:
176,140,514171,1,2,0:1:0:0:
176,61,514327,1,2,0:1:0:0:
176,220,514483,102,0,L|169:279,2,33.3333333333333,6|0|2,1:0|0:0|0:1,0:0:0:0:
180,261,514717,2,0,L|184:228,2,33.3333333333333,0|2|0,0:0|0:1|0:0,0:0:0:0:
256,176,514951,5,8,1:0:0:0:
397,143,515108,1,2,0:1:0:0:
397,222,515264,1,2,0:1:0:0:
391,227,515342,1,0,0:0:0:0:
385,233,515420,101,0,1:0:0:0:
253,168,515576,1,2,0:1:0:0:
318,35,515733,1,2,0:1:0:0:
249,72,515889,6,0,L|233:70,1,16.6666666666667,8|0,1:0|0:0,0:0:0:0:
466,184,516045,102,0,L|489:186,1,21.6666656748454,2|0,0:1|0:0,0:0:0:0:
392,125,516201,6,0,L|408:127,1,11.6666663106283,2|0,0:1|0:0,0:0:0:0:
385,233,516358,102,0,L|348:238,2,33.3333333333333,6|0|2,1:0|0:0|0:1,0:0:0:0:
349,247,516592,2,0,L|383:243,2,33.3333333333333,0|2|0,0:0|0:1|0:0,0:0:0:0:
459,296,516826,5,8,1:0:0:0:
319,384,516983,1,2,0:1:0:0:
297,308,517139,1,2,0:1:0:0:
328,384,517295,101,0,1:0:0:0:
188,296,517452,1,2,0:1:0:0:
166,372,517608,1,2,0:1:0:0:
197,296,517764,5,8,1:0:0:0:
58,384,517920,1,2,0:1:0:0:
192,296,518076,1,2,0:1:0:0:
81,259,518233,102,0,L|23:244,2,33.3333333333333,6|0|2,1:0|0:0|0:1,0:0:0:0:
44,240,518467,2,0,L|76:248,2,33.3333333333333,0|2|0,0:0|0:1|0:0,0:0:0:0:
3,320,518701,5,8,1:0:0:0:
100,168,518858,1,2,0:1:0:0:
21,168,519014,1,2,0:1:0:0:
248,192,519170,101,0,1:0:0:0:
96,95,519327,1,2,0:1:0:0:
96,174,519483,1,2,0:1:0:0:
187,53,519639,6,0,L|184:27,1,16.6666666666667,8|0,1:0|0:0,0:0:0:0:
256,200,519795,102,0,L|253:174,1,21.6666656748454,2|0,0:1|0:0,0:0:0:0:
374,114,519951,6,0,L|371:93,1,11.6666663106283,2|0,0:1|0:0,0:0:0:0:
359,238,520108,102,0,L|357:195,2,33.3333333333333,6|0|2,1:0|0:0|0:1,0:0:0:0:
348,210,520342,2,0,L|350:244,2,33.3333333333333,0|2|0,0:0|0:1|0:0,0:0:0:0:
390,336,520576,5,8,1:0:0:0:
481,188,520733,1,2,0:1:0:0:
481,267,520889,1,2,0:1:0:0:
332,170,521045,101,0,1:0:0:0:
475,267,521201,1,2,0:1:0:0:
475,188,521357,1,2,0:1:0:0:
312,349,521514,5,8,1:0:0:0:
469,188,521670,1,2,0:1:0:0:
469,267,521826,1,2,0:1:0:0:
325,164,521983,102,0,B|317:195|317:195|118:219|118:219|110:251,1,266.666666666667,6|0,1:0|0:0,0:0:0:0:
33,183,522451,5,8,1:0:0:0:
34,179,522608,1,2,0:1:0:0:
35,175,522764,1,2,0:1:0:0:
109,252,522920,101,2,0:0:0:0:
100,244,522998,1,0,0:1:0:0:
110,248,523076,5,0,1:0:0:0:
98,247,523154,1,2,0:1:0:0:
109,244,523233,101,2,0:1:0:0:
99,251,523311,1,2,0:1:0:0:
106,242,523389,5,2,0:2:0:0:
216,379,523545,2,0,B|229:359|229:359|210:253,1,100.000003814697
216,285,523858,102,0,B|205:286|200:290|200:290|194:289|184:290|184:290|194:288|198:284|198:284|205:286|216:285,1,66.6666666666667,6|0,0:0|0:0,0:0:0:0:
226,282,524353,54,0,B|237:281|242:277|242:277|248:278|258:277|258:277|248:279|244:283|244:283|237:281|226:282,3,64.9999970245363,6|2|2|2,1:1|0:2|0:2|0:2,0:0:0:0:
238,384,524580,2,2,B|241:338|249:276|302:346|287:252|301:177,1,209.999993591309,0|0,0:0|0:0,1:2:0:0:
262,48,524807,6,0,B|261:118|360:145|357:117|347:73|461:122|433:195|372:298|261:296|239:262|239:262|237:280|143:209|261:118,1,560,8|0,0:1|0:0,3:0:0:0:
339,29,525262,102,0,B|353:17|355:0|355:0|391:33|404:7|418:55|418:55|383:25|355:48|339:29,1,209.999993591309,0|0,1:0|1:0,1:0:0:0:
407,183,525716,6,2,B|480:192|455:144|519:148|519:148|549:127|448:34|295:77|380:174|250:178,1,454.999979171754,8|0,0:1|0:0,0:2:0:0:
91,202,526171,102,0,B|67:206|67:206|67:205|67:205|40:209,1,53.3333333333333,0|0,1:0|0:0,0:0:0:0:
165,252,526322,2,0,B|168:216|168:216|171:213|171:213|178:134,1,106.666666666667,8|0,3:0|0:0,0:0:0:0:
187,74,526474,2,0,B|214:70|214:70|214:71|214:71|238:67,1,53.3333333333333,4|0,3:3|0:0,0:0:0:0:
113,24,526625,6,0,B|110:60|110:60|107:63|107:63|100:142,1,106.666666666667,8|0,1:1|0:0,0:0:0:0:
244,231,526777,2,0,B|246:197|246:197|247:196|247:196|249:178,1,53.3333333333333,4|0,3:0|0:0,0:0:0:0:
37,17,526928,2,0,B|35:35|35:35|34:36|34:36|31:69,1,53.3333333333333,0|0,3:3|0:0,0:0:0:0:
86,279,527080,102,0,B|83:315|83:315|80:318|80:318|73:397,1,106.666666666667,0|0,1:3|0:0,0:0:0:0:
160,307,527231,2,0,B|157:340|157:340|156:341|156:341|154:359,1,53.3333333333333,4|0,3:3|0:0,0:0:0:0:
234,335,527383,5,4,3:0:0:0:
0,357,527534,102,2,B|3:321|3:321|6:318|6:318|11:251,1,106.666666666667,8|0,1:1|0:0,0:1:0:0:
150,228,527686,2,0,B|152:210|152:210|153:209|153:209|156:176,1,53.3333333333333,0|0,3:0|0:0,0:0:0:0:
322,148,527837,2,0,B|324:130|324:130|325:129|325:129|328:96,1,53.3333333333333,0|0,3:0|0:0,0:0:0:0:
410,220,527989,6,0,B|409:231|405:236|405:236|406:242|405:252|405:252|407:242|411:238|411:238|409:231|410:220,3,64.9999970245363,2|2|2|2,1:1|0:2|0:2|0:2,0:0:0:0:
478,184,528216,2,2,B|415:164|361:206|400:210|343:254|282:223,1,209.999993591309,0|0,0:0|0:0,1:2:0:0:
93,132,528443,102,0,B|89:117|89:117|-2:102|-2:102|-20:114|-20:114|150:330|150:330|128:343|128:343|18:308|18:308|15:293,1,560,8|0,1:0|0:0,3:0:0:0:
212,140,528898,6,0,B|270:123|270:123|276:132|276:132|210:151,1,140,0|0,1:0|0:0,1:0:0:0:
16,294,529353,102,2,B|82:272|82:272|79:265|79:265|149:82|149:82|145:77|145:77|213:57,1,350,8|0,0:1|0:0,0:2:0:0:
306,21,529807,6,0,P|330:2|370:1,1,66.6666666666667,0|0,1:0|0:0,0:0:0:0:
489,134,529959,2,0,P|450:80|375:81,1,119.999996337891,8|0,3:0|0:0,0:0:0:0:
319,185,530110,2,0,P|322:154|350:125,1,66.6666666666667,4|0,0:3|0:0,0:0:0:0:
501,244,530262,102,0,P|443:233|392:262,1,119.999996337891,8|0,1:0|0:0,0:0:0:0:
328,355,530413,2,0,P|324:322|302:297,1,66.6666666666667,4|0,3:0|0:0,0:0:0:0:
458,325,530565,2,0,P|457:358|438:385,1,66.6666666666667,0|0,3:0|0:0,0:0:0:0:
401,72,530716,6,0,P|458:85|490:135,1,119.999996337891,0|0,1:0|0:0,0:0:0:0:
319,185,530868,2,0,P|322:154|350:125,1,66.6666666666667,4|0,0:3|0:0,0:0:0:0:
306,21,531019,102,0,P|330:2|370:1,1,66.6666666666667,0|0,3:0|0:0,0:0:0:0:
392,262,531171,6,2,P|443:233|501:244,1,119.999996337891,8|0,1:0|0:0,0:1:0:0:
458,325,531322,2,0,P|456:358|437:385,1,66.6666666666667,4|0,3:0|0:0,0:0:0:0:
328,355,531474,2,0,P|324:322|302:297,1,66.6666666666667,0|0,3:0|0:0,0:0:0:0:
415,160,531625,102,0,B|416:170|421:175|421:175|420:181|422:191|422:191|419:181|415:178|415:178|416:170|415:160,3,64.9999970245363,6|2|2|2,1:1|0:2|0:2|0:2,0:0:0:0:
490,135,531853,2,2,B|426:147|332:132|402:185|340:193|294:193,1,209.999993591309,0|0,0:0|0:0,1:2:0:0:
104,158,532080,6,0,B|-31:121|91:-44|-88:68|-51:218|210:247|188:214|188:214|178:139|235:105|235:105|234:90,1,560,8|0,1:0|0:0,3:0:0:0:
133,0,532534,102,0,B|126:4|126:4|120:46|120:46|129:74|146:49|146:49|153:6|153:6|149:1,1,140,0|0,1:0|0:0,1:0:0:0:
18,307,532989,6,2,B|39:323|69:325|69:325|170:229|299:259|299:259|312:240|332:228,1,350,8|0,0:1|0:0,0:2:0:0:
417,174,533443,102,0,B|441:170|441:170|441:171|441:171|468:167,1,53.3333333333333,0|0,1:0|0:0,0:0:0:0:
343,124,533595,2,0,B|340:160|340:160|337:163|337:163|330:242,1,106.666666666667,8|0,3:0|0:0,0:0:0:0:
321,302,533746,2,0,B|294:306|294:306|294:305|294:305|270:309,1,53.3333333333333,4|0,0:3|0:0,0:0:0:0:
395,352,533898,6,0,B|398:316|398:316|401:313|401:313|408:234,1,106.666666666667,8|0,1:0|0:0,0:0:0:0:
264,145,534049,2,0,B|262:179|262:179|261:180|261:180|259:198,1,53.3333333333333,0|0,0:0|0:0,3:0:0:0:
471,359,534201,2,2,B|473:341|473:341|474:340|474:340|477:307,1,53.3333333333333,0|0,3:0|0:0,0:2:0:0:
422,105,534353,102,0,B|425:69|425:69|428:66|428:66|435:-13,1,106.666666666667,0|0,1:3|0:0,0:0:0:0:
348,77,534504,2,0,B|351:44|351:44|352:43|352:43|354:25,1,53.3333333333333,4|0,0:3|0:0,0:0:0:0:
274,49,534656,1,0,3:0:0:0:
508,27,534807,6,2,B|505:63|505:63|502:66|502:66|497:133,1,106.666666666667,8|0,1:0|0:0,0:1:0:0:
358,156,534959,2,0,B|356:174|356:174|355:175|355:175|352:208,1,53.3333333333333,4|0,3:0|0:0,0:0:0:0:
186,236,535110,2,0,B|184:254|184:254|183:255|183:255|180:288,1,53.3333333333333,0|0,3:0|0:0,0:0:0:0:
100,169,535262,102,0,B|101:158|105:153|105:153|104:147|105:137|105:137|103:147|99:151|99:151|101:158|100:169,3,64.9999970245363,2|2|2|2,1:0|0:2|0:2|0:2,0:0:0:0:
30,201,535489,2,2,B|93:221|147:179|108:175|165:131|226:162,1,209.999993591309,0|0,0:0|0:0,1:2:0:0:
296,240,535716,6,0,B|311:261|311:261|387:270|387:270|401:286|401:286|284:43|284:43|290:32|290:32|401:79|401:79|406:118,1,560,8|0,1:0|0:0,3:0:0:0:
284,157,536171,102,0,B|279:164|279:164|223:161|223:161|228:152|228:152|302:140,1,140,0|0,1:0|0:0,1:0:0:0:
476,44,536625,6,2,B|509:43|509:43|521:58|521:58|504:115|504:115|403:149|403:149|354:263|354:263|363:275|363:275|294:311|294:311|295:317|295:317|271:371,1,489.999985046387,8|0,0:1|0:0,0:2:0:0:
138,355,537080,102,0,P|108:346|91:317,1,66.6666666666667,0|0,1:0|0:0,0:0:0:0:
170,256,537231,2,0,P|194:300|139:358,1,119.999996337891,8|0,3:3|0:0,0:0:0:0:
11,324,537383,2,0,P|8:293|30:265,1,66.6666666666667,4|0,0:3|0:0,0:0:0:0:
53,189,537534,6,0,P|111:178|167:156,1,119.999996337891,8|0,1:0|0:0,0:0:0:0:
218,95,537686,2,0,P|229:67|219:35,1,66.6666666666667,4|0,0:3|0:0,0:0:0:0:
123,19,537837,2,0,P|104:46|108:78,1,66.6666666666667,0|0,3:0|0:0,0:0:0:0:
170,256,537989,102,0,P|194:300|139:358,1,119.999996337891,0|0,1:0|0:0,0:0:0:0:
11,324,538140,2,0,P|8:293|30:265,1,66.6666666666667,4|0,0:3|0:0,0:0:0:0:
91,317,538292,2,0,P|107:345|139:356,1,66.6666666666667,0|0,3:0|0:0,0:0:0:0:
242,333,538443,6,0,L|273:340,1,33.3333333333333,2|0,0:3|0:0,0:0:0:0:
283,356,538519,2,0,L|311:339,1,29.9999990844727,2|0,0:3|0:0,0:0:0:0:
326,341,538595,2,0,L|333:307,1,26.6666666666667,2|0,0:3|0:0,0:0:0:0:
344,299,538671,2,0,L|331:277,1,23.3333326212565,2|0,0:3|0:0,0:0:0:0:
330,261,538746,2,0,L|306:254,1,19.9999993896485,2|0,0:3|0:0,0:0:0:0:
301,245,538822,2,0,L|280:257,1,16.6666666666667,2|0,0:3|0:0,0:0:0:0:
412,231,538898,102,0,B|406:233|406:233|412:218|412:218|406:226|406:226|414:208|414:208|417:210|417:210|421:208|421:208|419:205|419:205|414:204|414:204|418:182|418:182|414:193|414:193|416:171|416:171|411:171|411:171|409:169|409:169|411:166|411:166|416:167|416:167|425:147|425:147|420:155|420:155|425:136|425:136|430:137|430:137|433:134|433:134|430:133|430:133|426:131|426:131|429:111|429:111|424:121|424:121|428:99|428:99|423:99|423:99|420:97|420:97|423:94|423:94|428:94|428:94|437:74|437:74|430:82|430:82|437:63|437:63|443:64|443:64|445:62|445:62|442:60|442:60|437:58|437:58|441:46|441:46|436:49|436:49|440:39|440:39|435:36|435:36|439:33|439:33|433:39,1,400,2|0,1:1|0:0,0:0:0:0:
464,127,539201,70,2,B|465:96|523:113|508:175|428:156|428:156|299:128,1,225.000008583069,8|0,3:3|0:0,0:2:0:0:
246,16,539353,38,0,B|238:18|238:18|243:38|243:38|249:41|249:41|242:43|242:43|248:45|248:45|254:67|254:67|245:70,1,80,8|0,0:1|0:0,3:2:0:0:
227,59,539656,70,0,L|246:182,1,83.3333333333333,8|0,0:3|0:0,0:0:0:0:
255,283,539807,38,0,B|265:277|265:277|241:237|196:254|196:254|200:265,1,100.000003814697,0|0,1:0|0:0,0:0:0:0:
148,323,539959,2,0,B|158:329|158:329|134:368|89:351|89:351|93:341,1,100.000003814697,4|0,3:3|0:0,0:0:0:0:
44,280,540110,70,0,L|51:242,1,33.3333333333333,8|0,0:3|0:0,0:0:0:0:
73,87,540262,38,0,B|40:8|157:-17|78:0|-108:40|-45:26|-4:17|0:106,2,266.666666666667,8|4|8,1:1|3:3|0:3,1:2:0:0:
512,309,540716,70,0,B|452:313|452:313|461:319|461:319|378:329,1,133.333333333333,0|0,1:0|0:0,0:0:0:0:
423,304,540868,1,6,0:3:0:0:
423,304,540943,2,0,B|457:299|457:299|451:298|451:298|499:291,1,66.6666666666667,2|8,3:0|3:3,0:0:0:0:
339,209,541171,38,0,B|307:204|307:204|303:207|303:207|259:198,1,66.6666666666667,8|0,1:0|0:0,0:0:0:0:
263,277,541322,2,0,B|231:272|231:272|227:275|227:275|198:269,1,66.6666666666667,8|0,0:3|0:0,0:0:0:0:
414,143,541474,2,0,B|382:138|382:138|378:141|378:141|349:135,1,66.6666666666667,4|0,0:3|0:0,0:0:0:0:
0,59,541625,70,0,B|60:51|60:51|50:47|50:47|130:38,1,133.333333333333,0|0,1:0|0:0,0:0:0:0:
111,40,541777,2,0,P|121:67|106:102,1,66.6666666666667,8|0,0:3|0:0,0:0:0:0:
59,230,541928,38,0,L|56:215,2,9.16666694641114,4|0|0,0:3|3:0|0:0,0:0:0:0:
59,230,542080,70,2,B|82:218|82:218|81:208|81:208|119:187,1,66.6666666666667,8|0,1:1|0:0,0:1:0:0:
59,230,542231,2,0,B|58:257|58:257|67:260|67:260|67:304,1,66.6666666666667,8|0,0:3|0:0,0:0:0:0:
59,230,542383,2,0,B|36:217|36:217|29:222|29:222|-8:200,1,66.6666666666667,4|0,0:3|0:0,0:0:0:0:
245,75,542534,38,0,B|251:73|251:73|245:88|245:88|251:80|251:80|243:98|243:98|240:96|240:96|236:98|236:98|238:101|238:101|243:102|243:102|239:124|239:124|243:113|243:113|241:135|241:135|246:135|246:135|248:137|248:137|246:140|246:140|241:139|241:139|232:159|232:159|237:151|237:151|232:170|232:170|227:169|227:169|224:172|224:172|227:173|227:173|231:175|231:175|228:195|228:195|233:185|233:185|229:207|229:207|234:207|234:207|237:209|237:209|234:212|234:212|229:212|229:212|220:232|220:232|227:224|227:224|220:243|220:243|214:242|214:242|212:244|212:244|215:246|215:246|220:248|220:248|216:260|216:260|221:257|221:257|217:267|217:267|222:270|222:270|218:273|218:273|224:267,1,400,2|0,1:0|0:0,0:2:0:0:
276,164,542837,70,2,B|277:133|335:150|320:212|240:193|240:193|111:165,1,225.000008583069,8|0,0:3|0:0,0:2:0:0:
13,26,542989,38,0,B|15:34|15:34|35:29|35:29|38:22|38:22|40:29|40:29|42:24|42:24|64:18|64:18|67:27,1,80,8|0,1:1|0:0,3:0:0:0:
52,44,543292,70,0,L|150:29,1,93.3333304850261,8|0,0:3|0:0,0:0:0:0:
149,173,543443,38,0,B|159:163|159:163|209:173|199:236,1,100.000003814697,0|0,1:0|0:0,0:0:0:0:
276,164,543595,2,0,B|286:174|286:174|336:164|326:101,1,100.000003814697,4|0,3:3|0:0,0:0:0:0:
411,95,543746,70,0,P|436:80|453:80,1,33.3333333333333,8|0,0:3|0:0,0:0:0:0:
475,331,543898,38,0,B|503:309|488:320|347:291|332:304|358:284,2,166.666666666667,8|12|8,1:0|3:3|0:3,1:0:0:0:
402,368,544353,70,0,B|418:314|418:314|409:320|409:320|436:222,1,133.333333333333,0|0,1:0|0:0,0:0:0:0:
445,243,544504,37,2,3:0:0:0:
440,271,544580,2,0,L|424:221,1,50.0000019073487,2|8,3:3|3:3,0:0:0:0:
328,106,544807,70,0,B|332:74|332:74|337:69|337:69|345:21,1,66.6666666666667,8|0,1:1|0:0,0:0:0:0:
423,73,544959,2,0,B|427:41|427:41|432:36|432:36|440:-12,1,66.6666666666667,4|0,3:3|0:0,0:0:0:0:
228,147,545110,2,0,B|232:115|232:115|237:110|237:110|245:62,1,66.6666666666667,8|0,0:3|0:0,0:0:0:0:
57,0,545262,38,0,B|73:58|73:58|77:47|77:47|120:187,1,133.333333333333,0|0,1:0|0:0,0:0:0:0:
95,105,545413,2,0,P|72:139|54:141,1,50.0000019073487,4|0,3:3|0:0,0:0:0:0:
8,237,545565,70,0,L|-3:234,2,9.16666694641114,8|0|0,0:3|3:0|0:0,0:0:0:0:
8,237,545716,38,2,B|84:226|84:226|108:246,1,100.000003814697,8|0,1:0|0:0,0:1:0:0:
174,280,545868,70,0,B|233:271|233:271|252:287,1,66.6666666666667,4|0,3:3|0:0,0:0:0:0:
130,347,546019,2,0,B|70:355|70:355|51:339,1,66.6666666666667,8|0,0:3|0:0,0:0:0:0:
270,180,546171,38,0,B|268:173|268:173|282:180|282:180|275:174|275:174|292:183|292:183|290:186|290:186|292:190|292:190|295:188|295:188|296:183|296:183|318:188|318:188|307:183|307:183|329:187|329:187|329:182|329:182|332:180|332:180|334:182|334:182|333:187|333:187|353:197|353:197|345:191|345:191|364:197|364:197|362:202|362:202|365:206|365:206|366:203|366:203|369:199|369:199|388:203|388:203|379:197|379:197|400:202|400:202|401:197|401:197|403:195|403:195|406:198|406:198|405:203|405:203|425:213|425:213|417:205|417:205|436:213|436:213|435:219|435:219|437:221|437:221|439:218|439:218|441:214|441:214|453:218|453:218|450:213|450:213|460:218|460:218|463:213|463:213|466:217|466:217|460:211,1,400,2|0,1:0|0:0,0:0:0:0:
375,243,546474,70,2,B|412:248|384:317|310:290|344:195|344:195|365:135,1,225.000008583069,8|0,0:3|0:0,0:2:0:0:
507,106,546625,38,0,B|498:106|498:106|496:86|496:86|500:81|500:81|493:82|493:82|498:78|498:78|496:55|496:55|486:55,1,80,8|0,1:0|0:0,3:0:0:0:
470,83,546928,70,0,L|457:1,1,83.3333333333333,8|0,3:3|0:0,0:0:0:0:
364,136,547080,38,0,B|375:146|375:146|367:186|313:197|290:161,1,100.000003814697,0|0,1:0|0:0,0:0:0:0:
246,113,547231,2,0,B|257:103|257:103|249:63|195:52|172:88,1,100.000003814697,4|0,3:3|0:0,0:0:0:0:
102,44,547383,70,0,P|85:63|83:82,1,33.3333333333333,8|0,0:3|0:0,0:0:0:0:
20,291,547534,38,0,B|101:274|41:286|-9:393|177:160|130:272|74:286|169:264,2,166.666666666667,8|4|8,1:0|0:3|0:3,1:0:0:0:
364,116,547989,70,0,B|416:121|416:121|408:124|408:124|526:138,1,133.333333333333,0|0,1:0|0:0,0:0:0:0:
456,101,548140,1,6,3:0:0:0:
456,101,548216,2,0,B|425:97|425:97|420:93|420:93|356:85,1,66.6666666666667,2|8,3:3|3:0,0:0:0:0:
322,199,548443,38,0,B|327:230|327:230|333:234|333:234|340:278,1,66.6666666666667,8|0,1:0|0:0,0:0:0:0:
423,232,548595,2,0,B|428:263|428:263|434:267|434:267|441:311,1,66.6666666666667,4|0,3:3|0:0,0:0:0:0:
257,284,548746,2,0,B|262:315|262:315|268:319|268:319|275:363,1,66.6666666666667,8|0,3:3|0:0,0:0:0:0:
150,203,548898,70,0,B|165:142|165:142|172:146|172:146|191:71,1,133.333333333333,0|0,1:0|0:0,0:0:0:0:
187,85,549049,2,0,P|161:52|122:50,1,66.6666666666667,8|0,3:3|0:0,0:0:0:0:
29,6,549201,38,0,B|33:28|33:28|38:24|38:24|47:56,1,50.0000019073487,8|0,3:3|0:0,0:0:0:0:
139,192,549353,70,2,B|197:183|197:183|179:176,1,66.6666666666667,8|0,1:0|0:0,0:1:0:0:
246,238,549504,2,0,B|304:229|304:229|286:222,1,66.6666666666667,4|0,3:3|0:0,0:0:0:0:
356,285,549656,2,0,B|414:276|414:276|396:269,1,66.6666666666667,8|0,3:0|0:0,0:0:0:0:
505,90,549807,38,0,B|506:95|506:95|491:90|491:90|499:96|499:96|481:88|481:88|483:85|483:85|481:81|481:81|478:83|478:83|477:88|477:88|456:84|456:84|466:88|466:88|444:86|444:86|444:91|444:91|442:93|442:93|439:91|439:91|440:86|440:86|421:77|421:77|429:82|429:82|410:77|410:77|411:72|411:72|407:69|407:69|406:72|406:72|404:75|404:75|384:73|384:73|395:78|395:78|372:74|372:74|372:79|372:79|370:82|370:82|367:79|367:79|367:73|367:73|347:64|347:64|355:72|355:72|336:65|336:65|337:59|337:59|335:57|335:57|334:60|334:60|331:65|331:65|320:61|320:61|322:66|322:66|313:62|313:62|310:66|310:66|306:63|306:63|312:69,1,400,2|0,3:1|0:0,0:0:0:0:
435,38,550110,70,2,B|470:56|477:-13|417:-23|398:25|398:25|371:139,1,225.000008583069,8|0,0:3|0:0,0:2:0:0:
293,172,550262,38,0,B|285:174|285:174|291:194|291:194|298:196|298:196|291:199|291:199|296:200|296:200|303:222|303:222|294:225,1,80,8|0,0:1|0:0,3:2:0:0:
266,231,550565,70,0,L|287:338,1,93.3333304850261,8|0,0:3|0:0,0:0:0:0:
185,326,550716,38,0,B|176:344|176:344|122:362|98:313,1,100.000003814697,2|0,0:3|0:0,0:0:0:0:
25,242,550868,2,0,B|34:224|34:224|88:206|112:255,1,100.000003814697,4|0,0:3|0:0,0:0:0:0:
172,186,551019,70,0,P|191:174|194:155,1,33.3333333333333,8|0,0:3|0:0,0:0:0:0:
0,27,551171,38,0,B|31:137|-46:156|45:36|197:91|99:117|72:-12,2,266.666666666667,8|4|8,0:1|0:3|0:3,1:0:0:0:
321,136,551625,70,0,B|311:195|311:195|315:204|315:204|302:295,1,133.333333333333,0|0,3:0|0:0,0:0:0:0:
337,245,551777,1,6,0:3:0:0:
337,245,551853,2,0,B|342:216|342:216|339:212|339:212|346:175,1,66.6666666666667,2|8,0:3|0:3,0:0:0:0:
444,99,552080,38,0,B|474:90|474:90|482:94|482:94|526:80,1,66.6666666666667,8|0,0:1|0:0,0:0:0:0:
449,191,552231,2,0,B|479:182|479:182|487:186|487:186|531:172,1,66.6666666666667,4|0,0:3|0:0,0:0:0:0:
356,33,552383,2,0,B|386:24|386:24|394:28|394:28|438:14,1,66.6666666666667,8|0,0:3|0:0,0:0:0:0:
241,150,552534,70,0,B|186:141|186:141|174:148|174:148|83:134,1,133.333333333333,2|0,3:3|0:0,0:0:0:0:
111,138,552686,2,0,P|95:110|107:65,1,66.6666666666667,4|0,0:3|0:0,0:0:0:0:
47,249,552837,38,0,L|51:263,2,9.16666694641114,8|0|0,0:3|3:0|0:0,0:0:0:0:
47,249,552989,70,2,B|93:228|93:228|114:236,1,66.6666666666667,8|0,0:1|0:0,0:1:0:0:
47,249,553140,2,0,B|42:299|42:299|23:313,1,66.6666666666667,4|0,0:3|0:0,0:0:0:0:
47,249,553292,2,0,B|5:219|5:219|2:196,1,66.6666666666667,8|0,0:3|0:0,0:0:0:0:
242,33,553443,5,6,1:1:0:0:
242,33,553519,1,2,0:2:0:0:
242,33,553595,1,2,0:2:0:0:
242,33,553671,1,2,0:2:0:0:
242,33,553746,2,2,B|260:56|260:56|236:97,1,66.6666666666667,8|0,3:0|0:0,0:2:0:0:
34,54,553898,54,0,B|27:47|27:47|47:-1|47:-1|61:-4|61:-4|126:37|126:37|128:73|128:73|84:114|84:114|76:117|76:117|58:144|58:144|62:165,1,300.000011444092,8|0,1:0|0:0,3:2:0:0:
239,245,554201,2,2,B|252:259|252:259|313:272|313:272|329:264,1,100.000003814697,8|0,0:3|0:0,0:2:0:0:
507,290,554353,2,0,B|500:274|500:274|143:196|143:196|113:154,1,400.00001525879,0|8,1:0|0:3,1:2:0:0:
246,112,554807,54,0,P|277:116|291:145,1,66.6666666666667,8|0,1:0|0:3,0:0:0:0:
391,124,555034,2,2,P|365:48|297:151,1,266.666666666667,2|0,0:2|0:0,1:0:0:0:
398,384,555262,54,0,L|448:368,1,50,4|0,1:0|0:0,0:0:0:0:
462,361,555565,53,10,3:0:0:0:
186,345,555716,54,0,B|150:339|150:339|113:381,1,66.6666666666667,8|0,1:0|0:0,0:0:0:0:
55,343,555868,2,0,B|19:337|19:337|-17:379,1,66.6666666666667,4|0,3:3|0:0,0:0:0:0:
318,347,556019,2,0,B|282:341|282:341|245:383,1,66.6666666666667,8|0,3:3|0:0,0:0:0:0:
6,78,556171,54,0,B|68:85|68:85|72:90|72:90|187:103,1,100.000003814697,0|0,1:0|0:0,0:0:0:0:
251,256,556322,2,0,B|294:260|294:260|296:264|296:264|375:273,1,90.0000003433228,4|0,3:3|0:0,0:0:0:0:
395,182,556474,2,0,B|424:185|424:185|425:187|425:187|479:193,1,79.9999975585938,8|0,3:3|0:0,0:0:0:0:
500,292,556625,53,8,1:0:0:0:
500,292,556777,1,8,3:3:0:0:
500,292,556928,1,8,3:0:0:0:
158,193,557080,53,2,1:1:0:0:
158,193,557156,1,2,0:2:0:0:
158,193,557231,1,2,0:2:0:0:
158,193,557307,1,2,0:2:0:0:
158,193,557383,2,2,B|179:203|179:203|256:164,1,66.6666666666667,8|0,3:0|0:0,0:2:0:0:
396,32,557534,54,0,B|407:27|407:27|418:33|418:33|421:30|421:30|442:26,1,50,8|0,1:0|0:0,3:0:0:0:
512,9,557837,53,8,3:3:0:0:
179,64,557989,54,0,P|162:70|141:108,1,50,0|0,1:0|0:0,0:0:0:0:
158,193,558159,54,0,P|139:176|158:190,1,82.5000007867813,2|0,3:2|0:0,0:0:0:0:
344,217,558273,54,0,P|304:147|225:136,1,165.000001573563,8|0,0:3|0:0,1:0:0:0:
156,326,558443,54,2,B|140:344|140:344|44:357|44:357|28:366|28:366|-22:369|-37:304|5:279|5:279|262:314|262:314|262:318|262:318|262:314|262:314|324:322|324:322|324:326|324:326|324:322|324:322|382:329|382:329|382:333|382:333|382:329|382:329|477:340|477:340|482:372|511:386,1,820.000012512207,8|4,1:0|1:0,1:2:0:0:
508,384,559201,53,10,3:3:0:0:
436,186,559353,54,0,B|430:150|430:150|472:113,1,66.6666666666667,8|0,1:1|0:0,0:0:0:0:
434,55,559505,2,0,B|428:19|428:19|470:-17,1,66.6666666666667,4|0,3:0|0:0,0:0:0:0:
438,318,559656,2,0,B|432:282|432:282|474:245,1,66.6666666666667,8|0,3:0|0:0,0:0:0:0:
103,0,559807,54,0,B|110:61|110:61|115:65|115:65|128:180,1,100.000003814697,0|0,1:0|0:0,0:0:0:0:
350,152,559959,2,0,B|354:195|354:195|358:197|358:197|367:276,1,90.0000003433228,4|0,3:0|0:0,0:0:0:0:
240,306,560111,2,0,B|243:335|243:335|245:336|245:336|251:390,1,79.9999975585938,8|0,3:0|0:0,0:0:0:0:
336,384,560262,53,8,1:0:0:0:
336,384,560414,1,4,3:0:0:0:
336,384,560565,1,8,3:0:0:0:
220,117,560717,53,2,1:0:0:0:
220,117,560793,1,2,0:2:0:0:
220,117,560868,1,2,0:2:0:0:
220,117,560944,1,2,0:2:0:0:
220,117,561019,2,2,B|235:145|235:145|217:218,1,66.6666666666667,8|0,3:0|0:0,0:2:0:0:
26,333,561171,54,0,B|3:345|3:345|49:250|49:250|76:243|76:243|158:279|158:279|160:289|160:289|138:318|138:318|95:319,1,300.000011444092,8|0,1:0|0:0,3:0:0:0:
2,189,561474,2,2,B|15:175|15:175|76:162|76:162|92:170,1,100.000003814697,8|0,3:3|0:0,0:2:0:0:
402,206,561626,2,0,B|395:190|395:190|38:112|38:112|8:70,1,400.00001525879,0|8,1:0|3:3,1:0:0:0:
184,65,562080,54,0,P|216:96|219:127,1,66.6666666666667,8|0,1:0|0:0,0:0:0:0:
336,97,562307,2,2,P|263:13|220:116,1,266.666666666667,2|0,0:2|0:0,1:0:0:0:
441,283,562535,54,0,L|491:267,1,50,4|0,1:1|0:0,0:0:0:0:
505,260,562838,53,2,3:0:0:0:
215,366,562989,54,0,B|224:338|224:338|220:326|220:326|241:261,1,66.6666666666667,8|0,1:0|0:0,0:0:0:0:
84,364,563140,2,0,B|93:336|93:336|89:324|89:324|110:259,1,66.6666666666667,4|0,3:0|0:0,0:0:0:0:
346,368,563292,2,0,B|355:340|355:340|351:328|351:328|372:263,1,66.6666666666667,8|0,3:0|0:0,0:0:0:0:
8,72,563444,54,0,B|24:64|24:64|88:80|88:80|96:96,1,100.000003814697,0|0,1:0|0:0,0:0:0:0:
257,231,563595,2,0,B|271:238|271:238|327:223|327:223|334:209,1,90.0000003433228,4|0,3:0|0:0,0:0:0:0:
421,155,563746,2,0,B|433:148|433:148|483:161|483:161|489:173,1,79.9999975585938,8|0,3:0|0:0,0:0:0:0:
505,260,563898,53,8,1:0:0:0:
505,260,564050,1,4,3:0:0:0:
505,260,564201,1,8,3:0:0:0:
195,125,564353,53,2,1:0:0:0:
195,125,564429,1,2,0:2:0:0:
195,125,564504,1,2,0:2:0:0:
195,125,564580,1,2,0:2:0:0:
195,125,564656,2,2,B|203:145|203:145|157:214,1,66.6666666666667,8|0,3:0|0:0,0:2:0:0:
112,363,564807,54,0,B|100:368|100:368|89:361|89:361|86:365|86:365|65:369,1,44.999998626709,8|0,1:0|0:0,3:0:0:0:
0,384,565110,53,8,3:0:0:0:
264,268,565262,54,0,P|274:289|273:314,1,50,0|0,1:0|0:0,0:0:0:0:
177,315,565432,54,0,P|182:287|174:314,1,82.5000007867813,2|0,3:2|0:0,0:0:0:0:
1,285,565546,54,0,P|7:324|139:340,1,165.000001573563,8|0,0:3|0:0,1:0:0:0:
393,126,565716,54,2,B|400:121|400:121|446:59|399:-53|259:-43|233:73|278:123|278:123|301:142|301:142|304:167|304:167|294:190|294:190|345:211|363:318|363:318|365:337|365:337|363:318|363:318|353:211|396:176|396:176|379:155|379:155|377:137|377:137|392:127,1,829.999985752106,8|4,1:0|1:0,1:2:0:0:
338,74,566474,53,8,3:3:0:0:
512,253,566625,54,0,B|484:243|484:243|472:248|472:248|407:227,1,66.6666666666667,8|0,1:0|0:0,0:0:0:0:
508,384,566777,2,0,B|480:375|480:375|468:379|468:379|403:358,1,66.6666666666667,4|0,3:0|0:0,0:0:0:0:
512,122,566928,2,0,B|484:112|484:112|472:117|472:117|407:96,1,66.6666666666667,8|0,3:0|0:0,0:0:0:0:
140,384,567080,54,0,B|132:368|132:368|148:304|148:304|164:296,1,100.000003814697,0|0,1:0|0:0,0:0:0:0:
343,184,567231,2,0,B|350:170|350:170|335:114|335:114|321:107,1,90.0000003433228,4|0,3:0|0:0,0:0:0:0:
191,80,567383,2,0,B|184:68|184:68|197:18|197:18|209:12,1,79.9999975585938,8|0,3:0|0:0,0:0:0:0:
291,0,567534,54,0,L|287:33,2,33.3333333333333,8|4|8,1:0|0:3|0:3,0:0:0:0:
191,80,567989,85,6,1:0:0:0:
200,85,568065,1,2,0:2:0:0:
211,107,568140,1,2,0:2:0:0:
212,117,568216,1,2,0:2:0:0:
198,132,568292,2,2,B|193:136|193:136|244:147|273:184,1,66.6666666666667,8|0,3:3|0:0,0:2:0:0:
92,246,568443,70,0,B|153:238|153:238|203:171|203:171|180:142|180:142|111:165|111:165|71:136|71:136|81:72,1,340.000006484985,8|0,1:0|0:0,3:2:0:0:
19,26,568746,2,0,L|81:8,1,33.3333333333333,8|0,3:3|0:0,0:0:0:0:
176,275,568898,38,2,B|115:300|149:380|149:380|136:275|115:230|-35:232|18:211|18:211|77:144|19:-19|19:-19|35:53|87:78|87:78|74:159,1,759.999979705811,0|8,1:0|1:0,1:2:0:0:
92,246,569504,69,4,3:3:0:0:
1,358,569656,2,2,B|34:353|34:353|63:305,1,66.6666666666667,8|0,3:3|0:0,1:0:0:0:
165,184,569807,38,0,B|212:124|212:124|199:122|199:122|150:144,1,133.333333333333,4|8,1:0|3:3,0:0:0:0:
0,0,570262,70,0,P|12:9|25:20,1,33.3333333333333,8|0,1:0|0:0,0:0:0:0:
40,101,570413,2,0,P|49:113|59:127,1,33.3333333333333,4|0,3:0|0:0,0:0:0:0:
78,209,570565,2,0,P|83:223|89:239,1,33.3333333333333,8|0,3:0|0:0,0:0:0:0:
44,345,570716,38,0,P|9:361|37:331,2,106.666666666667,0|4|8,1:0|3:0|3:0,0:0:0:0:
170,335,571171,70,2,P|178:296|173:250,1,53.3333333333333,8|0,1:0|0:0,0:1:0:0:
282,357,571323,2,0,P|290:318|285:272,1,53.3333333333333,4|0,3:0|0:0,0:0:0:0:
389,379,571474,2,0,P|397:340|392:294,1,53.3333333333333,8|0,3:0|0:0,0:0:0:0:
476,278,571625,37,2,1:0:0:0:
482,283,571701,1,2,0:2:0:0:
499,266,571777,1,2,0:2:0:0:
505,263,571853,1,2,0:2:0:0:
504,241,571928,2,2,P|488:222|493:252,1,66.6666666666667,8|0,3:0|0:0,0:2:0:0:
394,384,572080,70,0,B|514:346|514:346|487:296|487:296|415:289|415:289|373:252|373:252|421:213,1,340.000006484985,8|0,1:0|0:0,3:0:0:0:
398,138,572383,2,0,L|433:146,1,33.3333333333333,8|0,3:3|0:0,0:0:0:0:
491,62,572534,38,0,B|421:76|411:214|511:135|529:279|428:307,2,253.333326568604,0|4|8,1:0|3:3|3:3,1:2:0:0:
293,104,572989,70,2,B|264:94|264:94|262:21|262:21|326:54|326:54|328:89,1,200,8|0,1:0|0:0,0:1:0:0:
362,157,573292,1,8,3:0:0:0:
287,292,573443,38,0,P|243:316|210:345,1,66.6666666666667,4|4,1:0|3:0,0:0:0:0:
339,365,573746,69,8,3:0:0:0:
265,319,573898,2,0,P|255:306|244:293,1,33.3333333333333,8|0,1:0|0:0,0:0:0:0:
159,282,574049,2,0,P|146:272|132:262,1,33.3333333333333,4|0,3:0|0:0,0:0:0:0:
47,261,574201,2,0,P|32:255|16:249,1,33.3333333333333,8|0,3:0|0:0,0:0:0:0:
0,361,574353,38,0,P|23:388|12:350,2,106.666666666667,0|4|8,1:0|3:0|3:0,0:0:0:0:
47,261,574807,70,0,P|40:235|39:209,1,53.3333333333333,8|0,1:0|0:0,0:0:0:0:
154,239,574958,2,0,P|147:213|146:187,1,53.3333333333333,4|0,3:0|0:0,0:0:0:0:
271,215,575110,2,0,P|264:189|263:163,1,53.3333333333333,8|0,3:0|0:0,0:0:0:0:
319,8,575262,37,2,1:0:0:0:
324,16,575337,1,2,0:2:0:0:
303,40,575413,1,2,0:2:0:0:
301,47,575489,1,2,0:2:0:0:
264,54,575565,2,2,P|230:53|206:11,1,66.6666666666667,8|0,3:0|0:0,0:2:0:0:
33,173,575716,70,0,B|26:163|26:163|25:154|25:154|58:97|58:97|52:18|52:18|87:91|87:91|146:126|146:126|147:135|147:135|136:177,1,340.000006484985,8|0,1:0|0:0,3:2:0:0:
122,258,576019,2,0,L|59:268,1,33.3333333333333,8|0,3:0|0:0,0:0:0:0:
52,18,576171,38,2,B|78:26|109:-11|64:-76|-27:-42|-48:98|62:52|121:28|166:62|222:206|55:166|123:367|123:367|97:196|15:189|15:189|42:150,1,759.999979705811,0|8,1:0|1:0,1:2:0:0:
73,93,576777,69,4,3:0:0:0:
215,249,576928,2,2,B|251:254|251:254|267:279,1,66.6666666666667,8|0,3:0|0:0,1:0:0:0:
88,347,577080,38,0,B|40:420|-43:363|6:338|15:362,1,133.333333333333,4|8,1:0|3:3,0:0:0:0:
42,277,577534,70,0,P|45:260|50:244,1,33.3333333333333,8|0,1:0|0:0,0:0:0:0:
122,198,577686,2,0,P|129:183|138:168,1,33.3333333333333,4|0,3:0|0:0,0:0:0:0:
215,132,577837,2,0,P|226:120|238:108,1,33.3333333333333,8|0,3:0|0:0,0:0:0:0:
363,28,577989,38,0,P|435:79|482:77,2,106.666666666667,0|4|8,1:0|3:0|3:0,0:0:0:0:
251,57,578443,70,0,P|244:82|243:109,1,53.3333333333333,8|0,1:0|0:0,0:0:0:0:
137,34,578595,2,0,P|130:59|129:86,1,53.3333333333333,4|0,3:0|0:0,0:0:0:0:
29,12,578746,2,0,P|22:37|21:64,1,53.3333333333333,8|0,3:0|0:0,0:0:0:0:
28,170,578898,37,2,0:1:0:0:
33,178,578974,1,2,0:2:0:0:
20,209,579049,1,2,0:2:0:0:
26,215,579125,1,2,0:2:0:0:
32,244,579201,2,0,L|103:262,1,53.3333333333333,8|0,3:3|0:0,0:0:0:0:
167,193,579353,70,0,B|213:206|213:206|225:271|225:271|174:291|174:291|115:279|115:279|68:336|68:336|107:356,1,333.333333333333,8|0,0:1|0:0,3:0:0:0:
190,323,579807,38,0,P|219:378|280:367,2,133.333333333333,0|4|8,3:0|0:3|0:3,0:2:0:0:
80,134,580262,70,0,B|49:90|49:90|22:89|22:89|78:163,1,166.666666666667,8|0,0:1|0:0,1:0:0:0:
58,267,580716,38,0,B|26:271|26:271|5:302,1,66.6666666666667,4|4,0:1|0:3,0:0:0:0:
77,359,581019,1,8,0:3:0:0:
190,323,581171,69,8,0:1:0:0:
247,374,581322,1,4,0:3:0:0:
314,338,581474,1,8,0:3:0:0:
474,291,581625,37,2,3:0:0:0:
375,266,581777,1,4,0:3:0:0:
476,267,581928,1,8,0:3:0:0:
282,249,582080,69,8,0:1:0:0:
434,185,582231,1,4,0:3:0:0:
410,357,582383,1,8,0:3:0:0:
375,266,582516,38,0,L|382:286,1,20,4|0,1:1|0:0,0:0:0:0:
486,31,583033,86,0,B|498:13|498:13|405:-22|313:31|307:131|307:131|392:59|510:99|552:193|517:273|506:249|477:274|477:318|497:365|497:365|422:182|422:182|445:140,1,960,2|0,0:0|0:0,0:0:0:0:
228,86,585791,22,0,B|219:114|129:137|101:17|181:-42|263:14|241:74|241:74|224:127|223:192|273:255|273:255|268:248|268:248|2:190|2:190|-2:193|-2:193|-16:235|5:276|43:281|43:281|92:236|165:228|224:246,1,1049.99996795654,2|8,0:0|0:0,0:0:0:0:
337,202,588550,86,0,P|373:225|366:252,1,75.0000028610231,2|0,0:0|0:0,0:0:0:0:
478,320,588895,2,0,P|435:321|427:348,1,75.0000028610231,0|8,0:0|0:0,0:0:0:0:
451,235,589240,1,0,0:0:0:0:
492,17,589412,22,0,L|478:95,2,75.0000028610231,0|0|8,0:0|0:0|0:0,0:0:0:0:
407,57,590016,85,2,0:0:0:0:
407,57,590102,2,0,L|398:106,2,50,0|0|8,1:0|0:0|0:0,0:0:0:0:
256,189,590619,21,0,0:0:0:0:
451,235,590791,1,0,0:0:0:0:
262,198,590964,1,0,0:0:0:0:
442,241,591136,1,8,0:0:0:0:
86,292,591309,86,0,B|62:204|62:204|63:266,1,150.000005722046,2|0,0:0|0:0,0:0:0:0:
166,317,591826,22,0,L|200:326,1,25,8|0,0:0|0:0,0:0:0:0:
86,292,592171,85,0,0:0:0:0:
166,317,592343,1,0,0:0:0:0:
288,316,592516,22,0,L|322:325,1,25,8|0,0:0|0:0,0:0:0:0:
386,341,592688,1,0,0:0:0:0:
512,321,592860,2,0,L|502:285,2,37.5000014305115
166,317,593205,86,0,L|189:310,1,18.7500007152558,8|0,0:0|0:0,0:0:0:0:
269,320,593378,22,0,L|292:313,1,18.7500007152558,0|0,1:2|0:0,0:0:0:0:
392,240,593550,86,0,L|398:263,1,18.7500007152558,0|0,1:2|0:0,0:0:0:0:
401,246,593722,2,0,L|407:269,1,18.7500007152558,0|0,1:2|0:0,0:0:0:0:
410,252,593895,2,0,L|416:275,1,18.7500007152558,8|0,1:2|0:0,0:0:0:0:
460,68,594067,22,0,P|438:42|444:64,2,100,2|0|0,0:0|0:0|0:0,0:0:0:0:
357,38,594584,2,0,P|314:34|270:68,1,100,8|0,0:0|0:0,0:0:0:0:
273,78,594929,1,0,0:0:0:0:
199,120,595188,85,0,0:0:0:0:
127,108,595274,2,0,L|179:117,1,50,8|0,0:0|0:0,0:0:0:0:
3,216,595533,22,0,B|12:222|12:222|106:205,1,100
182,370,595878,1,0,0:0:0:0:
139,342,595964,1,8,0:0:0:0:
232,366,596050,1,0,0:0:0:0:
295,296,596222,85,0,0:0:0:0:
295,296,596309,2,0,L|302:245,1,50
492,87,596567,21,0,0:0:0:0:
453,114,596654,1,8,0:0:0:0:
426,76,596740,1,0,0:0:0:0:
470,3,596912,85,0,0:0:0:0:
256,192,596998,12,0,598981,0:0:0:0:
106,272,599067,22,0,B|152:7|152:7|417:53|417:53|370:318|370:318|205:336|205:336|164:103|164:103|317:77|317:77|339:223|339:223|273:243|273:243|250:176|250:176|296:162,1,1679.99994873047,4|0,1:0|0:0,0:0:0:0:
375,168,604584,69,4,1:2:0:0:
375,168,604671,2,0,B|354:144|354:144|369:92|360:39|360:39|372:92|410:133|410:133|402:160,1,270.000001029968
459,218,604929,38,0,B|523:255|488:341|488:341|407:256|312:273,1,330.000003147125,8|0,0:2|0:0,0:0:0:0:
245,320,605188,2,0,B|253:330|253:330|199:356|156:313,1,116.650000516182,0|0,1:0|0:0,0:0:0:0:
266,201,605360,1,0,1:0:0:0:
266,201,605447,2,0,B|277:194|277:194|239:155|181:176,1,116.650000516182,0|0,1:0|0:0,0:0:0:0:
99,226,605619,5,8,0:0:0:0:
42,136,605705,2,0,B|54:115|78:103|78:103|8:115|-22:176|11:235|11:235|175:183,1,400
312,71,605964,53,4,1:2:0:0:
312,71,606050,2,0,B|373:51|373:51|377:51|377:51|429:35|429:35|467:78|452:141|400:160,1,270.000001029968
303,300,606309,37,8,0:0:0:0:
303,300,606395,2,0,P|273:336|275:381,2,89.9999972534181,0|0|0,0:0|0:0|1:0,0:0:0:0:
403,322,606653,1,0,1:0:0:0:
403,322,606740,2,0,B|441:332|441:332|487:304|487:304|469:251|469:251|416:237|416:237|413:239|413:239|254:197,1,359.999989013672
196,65,606998,5,8,0:0:0:0:
196,65,607084,2,0,B|203:36|203:36|156:108|156:108|179:188,1,189.999994926453
152,341,607343,53,4,1:2:0:0:
148,353,607429,2,0,B|49:380|49:380|71:300|71:300|82:256|132:242,1,270.000001029968,0|0,1:0|0:0,0:0:0:0:
267,194,607688,37,8,0:0:0:0:
266,201,607774,2,0,B|272:210|272:210|372:238|372:238|381:231,1,125.500000765991
321,372,607947,2,0,B|324:365|324:365|306:308|306:308|299:305,1,75.0000028610231,0|0,1:0|0:0,0:0:0:0:
390,113,608119,1,0,1:0:0:0:
390,113,608205,2,0,B|383:109|383:109|326:127|326:127|323:134,1,75.0000028610231,0|0,1:0|0:0,0:0:0:0:
103,84,608378,5,8,0:0:0:0:
100,74,608464,2,0,B|123:37|123:37|165:173|165:173|169:175|169:175|205:291|205:291|168:279,1,350.00000333786
93,303,608722,53,4,1:2:0:0:
93,303,608809,1,0,0:0:0:0:
93,303,608895,2,0,B|76:264|22:260|22:260|54:265|78:304,1,150.000005722046
4,347,609067,38,0,B|-11:369|-11:369|88:297|211:301|211:301|178:291,1,300.000011444092,8|0,0:0|0:0,0:0:0:0:
161,188,609326,6,0,B|136:161|136:161|257:229|396:240|396:240|359:250,1,350.00000333786,0|0,1:0|0:0,0:0:0:0:
288,117,609584,2,0,B|310:-11|310:-11|332:-18|332:-18|345:0|345:0|288:115,1,300,0|0,1:0|0:0,0:0:0:0:
286,126,609757,101,8,0:0:0:0:
283,135,609843,1,0,0:0:0:0:
280,144,609929,2,0,P|260:199|276:143,1,166.665003051409
95,265,610102,69,4,1:2:0:0:
95,265,610188,2,0,B|116:286|116:286|72:316|65:375|65:375|53:320|3:294|3:294|30:267,1,270.000001029968,0|0,1:0|0:0,0:0:0:0:
158,215,610447,37,8,0:0:0:0:
157,215,610533,2,0,B|128:174|74:181|74:181|146:169|183:227|183:227|221:288|296:271,1,350.00000333786
446,316,610791,2,0,B|461:285|501:280|501:280|466:293|455:337,1,135.000000514984,0|0,1:0|0:0,0:0:0:0:
390,223,610964,2,0,B|374:192|334:187|334:187|369:200|380:244,1,135.000000514984,0|0,1:0|1:0,0:0:0:0:
512,76,611136,5,8,0:0:0:0:
427,115,611222,2,0,B|337:132|303:89|278:29|302:-8|347:-28|391:-23|424:31|423:72|413:89,1,340.000006484985
256,174,611481,53,4,1:2:0:0:
256,174,611567,2,0,B|199:102|108:131|108:131|135:148|143:184,1,230.000004386902,0|0,1:0|0:0,0:0:0:0:
65,203,611826,38,0,B|21:329|21:329|23:326|23:326|92:362|156:303|156:303|215:249|284:284,1,419.999987182618,8|0,0:0|0:0,0:0:0:0:
471,342,612171,1,0,1:0:0:0:
471,342,612257,2,0,B|506:296|471:247|471:247|467:251|467:251|393:258|342:205|373:142|373:142|362:176|385:208,1,359.999989013672
508,112,612516,6,0,P|491:141|448:164,1,75.0000028610231,8|0,0:0|0:0,0:0:0:0:
387,209,612688,2,0,P|361:208|330:189,1,59.9999981689454
281,106,612860,53,4,1:2:0:0:
281,106,612947,2,0,B|245:149|188:147|188:147|190:145|190:145|141:140|120:96|120:96|151:71|153:24,1,270.000001029968
64,28,613205,37,8,0:0:0:0:
64,28,613291,2,0,B|64:9|74:-6|74:-6|3:32|-12:109|37:168|37:168|152:136,1,359.999989013672,0|0,0:0|1:0,0:0:0:0:
370,89,613550,1,0,0:0:0:0:
370,89,613636,2,0,B|374:80|374:80|465:55|465:55|476:62,1,116.650000516182,0|0,1:0|0:0,0:0:0:0:
408,224,613809,1,0,1:0:0:0:
408,224,613895,5,8,0:0:0:0:
408,224,613981,2,0,B|395:231|395:231|295:203|295:203|267:154|267:154|169:125|169:125|148:137,1,300.000011444092
85,214,614240,54,0,B|36:200|36:200|34:195|34:195|39:193|39:193|86:206|86:206|88:210,1,115.000002193451,4|0,1:2|0:0,0:0:0:0:
246,358,614412,37,4,0:0:0:0:
246,358,614498,1,0,0:0:0:0:
246,358,614584,2,0,B|364:325|364:325|371:300|371:300|310:315|310:315|305:332,2,230.000004386902,8|0|0,0:0|0:0|0:0,0:0:0:0:
149,383,615016,2,0,B|136:361|136:361|166:259|166:259|217:230|217:230|246:126|246:126|231:104,1,320,0|0,1:0|0:0,0:0:0:0:
27,6,615274,5,8,0:0:0:0:
27,6,615360,1,0,1:0:0:0:
27,6,615447,2,0,B|19:40|19:40|25:52|25:52|104:74|104:74|108:73|108:73|158:87,1,179.999994506836,0|0,1:0|0:0,0:0:0:0:
484,167,615619,1,2,0:0:0:0:
512,175,615705,1,2,0:0:0:0:
502,157,615792,1,2,0:0:0:0:
494,184,615878,1,2,0:0:0:0:
459,84,615964,54,0,B|479:69|471:42|471:42|450:59|458:84,1,89.9999972534181,12|0,1:2|0:0,0:0:0:0:
452,96,616050,2,0,L|335:133,1,89.9999972534181
152,86,616222,38,0,B|233:106|233:106|305:127|258:184|366:213,1,230.000004386902,0|0,1:0|0:0,0:0:0:0:
418,220,616481,2,0,P|403:275|331:260,1,100,0|0,1:0|0:0,0:0:0:0:
258,90,616653,5,8,0:0:0:0:
274,78,616740,2,0,B|258:33|266:-1|266:-1|117:-35|67:73,1,259.999988098145
1,0,616998,54,0,P|-16:14|11:4,1,89.9999972534181,4|0,1:2|0:0,0:0:0:0:
15,141,617343,37,8,0:0:0:0:
23,135,617429,2,0,L|122:154,1,75.0000028610231
272,360,617602,2,0,P|280:345|275:366,1,75.0000028610231,0|0,1:0|0:0,0:0:0:0:
385,324,617774,6,0,B|322:336|322:336|284:268|284:268|287:265|287:265|284:268|284:268|246:198|246:198|167:211,1,279.999991455078,0|0,1:0|0:0,0:0:0:0:
416,229,618033,85,8,0:0:0:0:
410,241,618119,2,0,B|61:306,1,320
45,369,618378,85,4,1:2:0:0:
57,377,618464,2,0,B|83:388|83:388|146:377|146:377|163:358,1,116.500004666329,0|0,1:0|0:0,0:0:0:0:
280,250,618636,37,0,0:0:0:0:
347,300,618722,1,8,0:0:0:0:
311,370,618809,2,0,L|227:387,1,75.0000028610231
84,188,618981,6,0,B|75:122|41:141|33:96|33:96|25:35|25:35|23:6|54:-21|94:-3|97:28|97:28|111:131,1,359.999989013672,0|0,1:0|0:0,0:0:0:0:
89,264,619240,2,0,P|87:299|96:266,1,100
0,242,619412,85,8,0:0:0:0:
2,230,619498,2,0,B|68:120|196:131|196:131|203:131|203:131|201:133|201:133|165:175|177:259,1,350.00000333786
263,214,619757,86,4,P|293:209|261:211,1,104.999996795654,4|0,1:2|0:0,0:0:0:0:
388,306,620102,37,8,0:0:0:0:
408,292,620188,2,0,L|398:198,1,80
286,41,620360,1,0,1:0:0:0:
280,19,620447,6,0,B|214:50|214:50|374:73,1,225.000008583069
451,62,620619,2,0,B|457:-10|457:-10|357:116,1,225.000008583069
319,178,620791,1,8,0:0:0:0:
328,188,620878,2,0,B|387:229|387:229|327:79,1,225.000008583069
502,141,621136,53,4,1:2:0:0:
473,134,621222,2,0,L|461:220,1,75.0000028610231
373,377,621395,37,0,0:0:0:0:
344,384,621481,2,0,L|332:298,1,75.0000028610231,8|0,0:0|0:0,0:0:0:0:
461,230,621653,1,0,0:0:0:0:
475,320,621740,6,0,B|418:306|418:306|342:283|380:225|281:208,1,225.000008583069,0|0,1:0|0:0,0:0:0:0:
221,173,621998,2,0,P|207:202|222:235,1,59.9999981689454,0|0,1:0|0:0,0:0:0:0:
492,321,622171,85,8,0:0:0:0:
461,230,622257,2,0,B|385:246|385:246|318:266|347:321|281:336|281:336|200:348,1,259.999988098145
62,301,622516,86,0,B|50:275|30:270|30:270|69:265|93:317,1,120,4|0,1:2|0:0,0:0:0:0:
21,376,622860,38,0,B|10:317|10:317|114:233|114:233|100:157,1,250,8|0,0:0|0:0,0:0:0:0:
85,97,623119,1,0,1:0:0:0:
71,15,623205,5,0,1:0:0:0:
71,15,623291,2,0,B|30:-16|-23:14|-8:114|139:105|87:10|147:-21|251:28,1,279.999991455078
319,85,623550,85,8,0:2:0:0:
388,131,623636,2,0,B|429:162|482:132|467:32|320:41|372:136|312:167|208:118,1,279.999991455078
181,98,623895,85,4,1:2:0:0:
181,98,623981,2,0,P|165:139|176:170,1,75.0000028610231,0|0,1:0|0:0,0:0:0:0:
295,256,624153,37,0,0:0:0:0:
351,201,624240,2,0,B|385:217|419:220|419:220|390:240|372:271,1,139.999995727539,8|0,0:0|0:0,0:0:0:0:
178,274,624412,5,0,0:0:0:0:
210,265,624498,2,0,L|480:312,1,250,0|0,1:0|0:0,0:0:0:0:
512,234,624757,2,0,B|502:229|473:233|473:233|504:239|524:266,1,89.9999972534181,0|0,1:0|0:0,0:0:0:0:
490,375,624929,86,0,B|520:300|469:179|423:323|332:136|364:42|497:42|581:127|452:180,1,419.999987182618,8|0,0:0|0:0,0:0:0:0:
389,176,625274,86,0,L|328:169,1,60,4|0,1:2|0:0,0:0:0:0:
411,163,626481,6,0,L|313:184,1,100
98,349,626653,5,0,1:2:0:0:
98,349,626826,2,0,B|95:333|95:333|89:329|89:329|85:317|85:317|80:316|80:316|75:305|75:305|63:302|63:302|73:299|73:299|80:304|80:304|90:303|90:303|92:313|92:313|99:311|99:311|103:319|103:319|106:329|106:329|117:328|117:328|134:344|134:344|169:341|169:341|161:349|161:349|195:323|195:323|205:332|205:332|204:308|204:308|214:309|214:309|215:301|215:301|220:299|220:299|220:291|220:291|225:286|225:286|230:268|230:268|236:262|236:262|229:254|229:254|232:238|232:238|217:228|217:228|223:223|223:223|206:215|206:215|203:204|203:204|197:207|197:207|184:211|184:211|182:206|182:206|175:207|175:207|166:213|166:213|172:226,1,500,2|0,0:0|0:0,0:0:0:0:
434,330,627688,86,0,B|439:337|439:337|438:313|438:313|446:323|446:323|440:293|440:293|456:299|456:299|434:277|434:277|448:278|448:278|423:257|423:257|432:256|432:256|414:251|414:251|419:246|419:246|394:248|394:248|377:258|377:258|368:278,1,269.999991760254,2|0,0:0|0:0,0:0:0:0:
436,215,627990,22,0,B|484:242|484:242|473:317|473:317|360:348|360:348|353:305|353:305|371:272,1,324.999985122681,2|0,0:0|0:0,0:0:0:0:
451,24,628550,86,0,B|442:19|442:19|436:21|436:21|431:26|431:26|426:25|426:25|422:26|422:26|416:31|416:31|411:31|411:31|406:36|406:36|408:42|408:42|395:51|395:51|396:58|396:58|391:60|391:60|391:66|391:66|385:63|385:63|384:72|384:72|387:86|387:86|382:89|382:89|385:103|385:103|381:100|381:100|388:113|388:113|384:122|384:122|395:134|395:134|390:134|390:134|402:144,1,212.500004053116
330,206,628809,22,0,L|334:188,1,17.4999994659424
300,159,628895,2,0,B|297:154|297:154|294:153|294:153|291:154|291:154|289:152|289:152|287:152|287:152|283:152|283:152|281:150|281:150|279:150|279:150|277:154|277:154|270:154|270:154|268:156|268:156|266:156|266:156|265:159|265:159|262:155|262:155|260:159|260:159|258:165|258:165|254:164|254:164|252:171|252:171|251:169|251:169|251:176|251:176|246:178|246:178|247:185|247:185|245:184|245:184|247:192,1,104.999996795654
177,301,629240,102,0,B|137:354|137:354|177:280,1,150.000005722046,2|0,0:0|0:0,0:0:0:0:
153,116,629412,53,4,1:2:0:0:
120,79,629498,1,0,0:0:0:0:
151,41,629584,2,0,P|187:39|211:66,1,75.0000028610231
247,193,629757,2,0,B|263:278|263:278|217:169|217:169|226:140|262:122|293:134,1,300.000011444092,10|0,0:2|0:0,0:0:0:0:
303,42,630016,38,0,B|301:17|283:4|283:4|276:35|300:55,1,100,0|0,1:0|0:0,0:0:0:0:
495,136,630188,2,0,B|520:96|485:57|485:57|420:73|399:134|430:183,1,250,0|0,1:0|1:0,0:0:0:0:
366,361,630447,69,8,0:2:0:0:
437,331,630533,1,0,0:0:0:0:
403,262,630619,2,0,B|390:257|390:257|373:274,1,37.5000014305115
234,289,630791,37,4,1:2:0:0:
196,309,630878,1,0,1:0:0:0:
217,346,630964,2,0,P|247:306|240:258,1,100
287,89,631136,70,0,B|267:22|170:24|127:109|196:137|191:190|165:217|128:226,1,300.000011444092,10|0,3:2|0:0,0:0:0:0:
54,206,631395,38,0,P|36:193|58:193,1,59.9999981689454,2|0,1:2|0:0,0:0:0:0:
100,71,631653,70,0,B|118:5|118:5|77:30|77:30|97:85,1,175.00000166893,2|0,1:2|0:0,0:0:0:0:
42,319,631826,38,0,B|113:377|113:377|76:331,1,150.000005722046,10|0,3:2|0:0,0:0:0:0:
129,225,631998,70,0,B|156:182|156:182|125:249,1,125,2|0,1:2|0:0,0:0:0:0:
175,319,632171,37,4,1:2:0:0:
175,319,632257,2,0,P|200:344|237:342,1,75.0000028610231,0|0,1:0|0:0,0:0:0:0:
326,184,632429,69,0,0:0:0:0:
291,114,632516,2,0,B|276:82|276:82|262:53|221:50|197:83|210:112|210:112|241:177|241:177|284:178|304:220,1,300.000011444092,10|0,3:2|0:0,0:0:0:0:
319,348,632774,38,0,P|361:326|355:280,1,100,0|0,1:0|0:0,0:0:0:0:
423,111,632947,1,0,1:0:0:0:
401,99,633033,2,0,B|332:116|396:167|326:183,1,125,0|0,1:0|0:0,0:0:0:0:
154,247,633205,70,0,B|97:225|97:225|180:244|180:244|195:295,1,200,8|0,0:2|0:0,0:0:0:0:
175,319,633464,2,0,L|203:171,1,150.000005722046,0|0,0:2|1:0,0:0:0:0:
168,16,633636,37,4,0:2:0:0:
161,29,633722,1,0,0:0:0:0:
155,43,633809,1,0,0:0:0:0:
166,69,633895,69,8,0:2:0:0:
91,95,633981,2,0,B|37:128|24:86|88:84,2,100,2|0|0,3:2|0:0|0:0,0:0:0:0:
246,87,634240,38,0,B|268:37|268:37|271:50|271:50|248:101,1,125,0|0,3:2|0:0,0:0:0:0:
202,171,634412,2,0,B|230:197|230:197|265:183,1,75.0000028610231,0|0,3:2|0:0,0:0:0:0:
325,256,634584,69,8,0:2:0:0:
337,310,634671,1,0,0:0:0:0:
295,345,634757,2,0,B|253:352|253:352|217:325|217:325|250:272,1,150.000005722046,2|0,3:2|0:0,0:0:0:0:
376,125,634929,37,4,1:2:0:0:
394,111,635016,1,0,0:0:0:0:
411,98,635102,2,0,P|394:130|392:167,1,75.0000028610231
427,324,635274,2,0,B|404:370|350:313|388:233|481:270|517:174|490:107,1,300.000011444092,10|0,3:2|0:0,0:0:0:0:
437,5,635533,70,0,P|484:-3|512:34,1,100,0|0,1:0|0:0,0:0:0:0:
507,221,635705,1,0,1:0:0:0:
507,221,635791,2,0,B|442:194|462:272|395:246,1,125
194,202,635964,38,0,B|96:41|96:41|341:17|341:17|388:68|388:68|371:161,1,600.000022888185,12|0,0:2|1:2,0:0:0:0:
255,332,636395,69,0,0:0:0:0:
255,332,636481,2,0,B|269:257|269:257|278:251|278:251|284:260|284:260|269:334,1,175.00000166893,2|0,3:2|0:0,0:0:0:0:
257,129,636653,38,0,B|230:32|230:32|401:107|401:107|370:161,1,350.00000333786,10|0,3:2|0:0,0:0:0:0:
410,166,636912,2,0,B|293:201|293:201|277:251,1,175.00000166893,2|0,3:2|0:0,0:0:0:0:
130,264,637084,70,0,P|47:275|77:197,1,200,0|0,1:0|0:0,0:0:0:0:
88,115,637257,37,0,1:0:0:0:
88,115,637343,2,0,B|72:-10|158:1|104:116,1,200,10|0,3:2|0:0,0:0:0:0:
201,354,637516,70,0,P|152:268|168:171,1,200,2|0,3:2|0:0,0:0:0:0:
228,118,637688,38,0,L|259:129,5,29.9999990844727,4|0|0|0|0|0,1:2|0:0|0:0|0:0|0:0|0:0,0:0:0:0:
341,117,638033,70,0,B|366:102|354:70|394:45|394:45|384:25|347:25|317:64|339:83|343:106,1,200,10|0,3:2|0:0,0:0:0:0:
377,273,638291,38,0,B|393:269|400:293|407:316|392:321|377:325|370:301|363:277|377:273,1,100,0|0,1:0|0:0,0:0:0:0:
438,162,638464,2,0,B|418:187|418:187|352:190|290:223|290:223|258:211,1,200,0|0,1:0|0:0,0:0:0:0:
442,143,638722,70,0,B|448:121|470:110|470:110|468:93|428:111|434:134,2,100,8|0|0,0:2|0:0|0:0,0:0:0:0:
273,324,638981,38,0,B|270:308|270:308|205:283|205:283|156:353|156:353|210:372,1,215.00000328064,2|0,3:2|1:0,0:0:0:0:
70,346,639153,70,0,P|32:364|69:343,1,119.999996337891,4|0,1:3|0:0,0:0:0:0:
181,189,639412,37,8,0:2:0:0:
176,174,639498,2,0,B|123:166|157:160|99:151,1,80
115,264,639671,70,0,B|64:227|92:159|141:152|149:160|155:167|196:155|220:100|173:61,1,259.999988098145,0|0,1:0|0:0,0:0:0:0:
90,61,639929,2,0,P|55:75|15:85,1,75.0000028610231,8|0,1:2|0:0,0:0:0:0:
202,290,640102,37,8,0:0:0:0:
239,257,640188,1,0,0:0:0:0:
287,243,640274,2,0,P|285:235|285:245,1,25
336,249,640360,1,0,0:0:0:0:
427,334,640447,69,4,1:2:0:0:
470,345,640533,1,0,0:0:0:0:
499,313,640619,2,0,P|490:277|457:262,1,75.0000028610231
247,169,640791,38,0,B|240:159|240:159|263:121|253:74|253:74|268:121|307:140|307:140|306:152,1,200,10|0,3:2|0:0,0:0:0:0:
323,328,641050,70,0,B|309:332|316:356|323:380|338:376|353:371|346:348|339:324|323:328,1,100,0|0,1:0|0:0,0:0:0:0:
205,260,641223,2,0,B|237:272|237:272|296:238|365:236|365:236|385:211,1,200,0|0,1:0|0:0,0:0:0:0:
177,260,641481,38,0,B|170:236|150:218|150:218|170:235|195:241,1,100,8|0,0:2|0:0,0:0:0:0:
464,178,641653,70,0,B|470:176|470:176|462:171|462:171|468:169|468:169|460:165|460:165|466:163|466:163|458:159|458:159|464:157|464:157|456:152|456:152|462:150|462:150|454:146|454:146|460:144|460:144|452:140|452:140|458:138,1,100
349,47,641826,38,0,P|334:10|360:41,1,112.500004291535,4|0,1:2|0:0,0:0:0:0:
461,49,642171,70,0,B|499:64|509:88|537:253|455:86|371:105|286:164,1,300.000011444092,10|0,3:2|0:0,0:0:0:0:
82,22,642429,37,0,0:0:0:0:
67,25,642516,2,0,B|-3:45|-3:45|80:58|151:93,1,225.000008583069,2|0,1:2|0:0,0:0:0:0:
229,94,642688,2,0,B|246:23|246:23|198:81|127:132,1,225.000008583069,2|0,1:2|0:0,0:0:0:0:
80,188,642860,1,8,0:2:0:0:
88,200,642947,2,0,B|139:249|139:249|113:170|104:92,1,225.000008583069,2|0,3:2|0:0,0:0:0:0:
70,364,643205,69,4,1:2:0:0:
26,371,643291,1,0,0:0:0:0:
0,336,643377,2,0,P|12:300|46:288,1,75.0000028610231
225,202,643550,38,0,B|255:200|255:200|294:212|301:252|301:252|292:252|292:252|271:228|241:214|197:218,1,200,8|0,0:2|0:0,0:0:0:0:
149,379,643809,70,0,B|160:340|160:340|139:304,1,75.0000028610231,0|0,1:0|0:0,0:0:0:0:
45,288,643981,2,0,B|95:294|95:294|98:293|98:293|222:307|222:307|239:328,1,200,0|0,1:0|0:0,0:0:0:0:
103,206,644240,38,0,B|107:170|138:166|138:166|141:170|141:170|125:184|125:211,2,100,8|0|0,0:2|0:0|0:0,0:0:0:0:
314,282,644498,70,0,B|340:296|340:296|345:345|345:345|264:367|264:367|235:323,1,215.00000328064,2|0,3:2|1:0,0:0:0:0:
232,192,644671,38,0,P|263:220|225:204,1,119.999996337891,4|0,1:3|0:0,0:0:0:0:
371,215,644929,69,8,0:2:0:0:
381,223,645016,2,0,B|420:219|420:219|422:217|422:217|461:214,1,75.0000028610231
502,297,645188,38,0,B|487:281|487:281|464:287|493:352|398:375|378:286|402:279|402:279|416:249|412:201|412:201|418:198|418:198|432:170|432:116|432:116|441:167|467:203|467:203|456:221,1,450.000017166138,0|0,1:0|1:0,0:0:0:0:
183,50,645619,69,8,0:2:0:0:
220,17,645705,1,0,0:0:0:0:
268,3,645791,2,0,P|266:-5|266:5,1,25
317,9,645877,1,0,0:0:0:0:
419,113,645964,37,4,1:2:0:0:
462,124,646050,1,0,0:0:0:0:
491,92,646136,2,0,P|482:56|449:41,1,75.0000028610231
267,87,646309,70,0,B|252:99|252:99|266:122|266:122|266:127|266:127|271:126|271:126|274:131|278:175|278:175|301:142|307:139|307:139|312:141|312:141|313:137|313:137|340:123|340:123|333:110,1,200,10|0,3:2|0:0,0:0:0:0:
183,50,646567,38,0,B|147:58|147:58|127:101,1,75.0000028610231,0|0,1:0|0:0,0:0:0:0:
16,95,646740,2,0,B|99:106|99:106|102:103|102:103|172:114|172:114|191:156,1,200,0|0,1:0|0:0,0:0:0:0:
37,318,646998,70,0,B|26:313|26:313|23:305|23:305|20:287|20:287|17:273|17:273|16:266|16:266|26:255,1,75.0000028610231,10|0,3:2|0:0,0:0:0:0:
94,211,647171,2,0,B|105:216|105:216|114:218|114:218|117:225|117:225|117:237|117:237|119:242|119:242|121:257|121:257|124:267|124:267|124:272|124:272|127:290|127:290|129:295|129:295|128:304|128:304|131:312|131:312|131:316|131:316|120:325|120:325|114:336,1,150.000005722046,2|0,3:2|0:0,0:0:0:0:
282,337,647343,38,0,B|274:342|274:342|271:346|271:346|246:345|246:345|226:335|226:335|228:330|228:330|212:312|212:312|212:305|212:305|216:288|216:288|220:283|220:283|218:267|218:267|235:252|235:252|242:252|242:252|253:243|253:243|271:243|271:243|288:241|288:241|294:239|294:239|311:241|311:241|317:247|317:247|322:251|322:251|340:256|340:256|348:261|348:261|354:277|354:277|359:286|359:286|366:288|366:288|366:292|366:292|374:305|374:305|388:315|388:315|388:318|388:318|407:319|407:319|419:322|419:322|426:320|426:320|460:313|460:313|463:297|463:297|479:279|479:279|479:274|479:274|491:261|491:261|496:248|496:248|495:241|495:241|500:234|500:234|501:219|501:219|500:195|500:195|502:192|502:192|501:170|501:170|498:164|498:164|485:142|485:142|484:131|484:131|461:112|461:112|455:109|455:109|432:113|432:113|428:113|428:113|404:122|404:122|385:143|385:143|381:144|381:144|365:168|365:168|363:197|363:197|360:198|360:198|358:222|358:222|360:225|360:225|360:246|360:246|363:258|363:258|362:264|362:264|365:276|365:276|370:277|370:277|373:282,1,900.000034332277,4|0,1:2|0:0,0:0:0:0:
192,174,648205,70,0,L|178:122,1,50
360,47,648378,37,0,3:2:0:0:
309,60,648464,1,0,3:2:0:0:
278,101,648550,1,0,1:2:0:0:
279,152,648636,1,0,1:2:0:0:
266,281,648722,70,0,B|288:241|235:155|177:242|139:172|148:113|148:113|153:110|153:110|166:19|285:60|217:82|217:82|217:86|217:86|189:94|178:127,1,450.000017166138,4|0,1:2|0:0,0:0:0:0:
129,243,649067,2,0,P|146:201|198:172,1,100,8|0,0:2|0:0,0:0:0:0:
359,131,649240,37,0,0:0:0:0:
359,131,649326,1,0,0:0:0:0:
444,123,649412,70,0,B|445:165|477:193|477:193|514:224|537:188|495:97|421:110,1,250,0|0,1:0|0:0,0:0:0:0:
338,17,649671,37,0,0:0:0:0:
420,4,649757,1,8,0:2:0:0:
420,4,649843,70,0,B|413:39|413:39|409:38|409:38|416:46|416:46|407:50|407:50|411:51|411:51|378:240,1,250,2|0,3:2|0:2,0:0:0:0:
466,363,650102,37,0,1:0:0:0:
495,294,650188,1,4,0:2:0:0:
452,268,650274,1,0,0:0:0:0:
422,302,650360,1,0,0:0:0:0:
349,310,650447,70,0,B|340:345|340:345|270:374|270:374|235:359,1,150.000005722046,8|0,0:2|0:0,0:0:0:0:
234,358,650619,2,0,B|212:264|212:264|207:261|207:261|207:244|207:244|198:202,1,150.000005722046,2|0,3:2|0:0,0:0:0:0:
255,134,650791,38,0,B|269:168|291:222|211:266|210:211|183:70|47:149|42:240,1,337.500012874604,2|0,0:2|0:0,0:0:0:0:
44,226,651136,2,0,B|38:287|105:288|105:288|107:253|127:233,1,162.500004649162,8|0,0:2|0:0,0:0:0:0:
173,85,651309,2,0,B|175:70|185:61|185:61|137:21|137:21|101:40|97:81,1,162.500004649162,2|0,3:2|0:0,0:0:0:0:
182,285,651481,70,0,B|231:279|238:225|226:227|228:170|295:158|295:158|298:153|298:153|397:136|397:136|387:210|387:210|379:186|356:175,1,412.500003933907,4|0,1:2|0:0,0:0:0:0:
295,215,651826,2,0,P|258:181|258:124,1,100,8|0,0:2|0:0,0:0:0:0:
422,12,651998,2,0,L|407:98,1,87.500000834465,0|0,1:2|0:0,0:0:0:0:
470,230,652171,38,0,L|476:219,1,12.5,2|0,0:3|0:0,0:0:0:0:
464,202,652257,2,0,L|466:189,1,12.5,2|2,0:3|0:3,0:0:0:0:
389,198,652343,2,0,L|385:218,1,12.5,2|2,0:3|0:3,0:0:0:0:
367,222,652429,2,0,L|371:242,1,12.5,2|2,0:3|0:3,0:0:0:0:
409,299,652516,69,8,0:0:0:0:
510,302,652602,38,0,B|475:308|475:308|476:312|476:312|468:305|468:305|464:314|464:314|463:311|463:311|274:343,1,250
182,285,652860,70,0,B|154:155|146:231|134:160|178:150|193:221|154:155|182:285,1,225.000008583069,4|0,3:2|0:0,0:0:0:0:
178,357,653205,38,0,P|254:287|214:220,1,187.5,8|0,0:0|0:0,0:0:0:0:
239,150,653378,70,0,B|233:146|241:119|264:112|266:136|244:153|239:150,1,62.5,0|0,1:0|0:0,0:0:0:0:
279,343,653550,38,0,B|221:327|233:281|160:261|160:261|161:257|161:257|68:232,1,225.000008583069,2|0,0:2|0:0,0:0:0:0:
32,192,653722,69,0,1:0:0:0:
32,192,653809,1,0,0:0:0:0:
20,266,653895,38,0,B|31:279|32:299|32:299|81:286|90:235,1,125,8|0,0:0|0:0,0:0:0:0:
161,181,654067,70,0,B|137:47|265:130|114:-89|49:168|137:47|161:181,1,300.000011444092,2|0,3:2|0:0,0:0:0:0:
223,225,654240,38,0,B|247:250|246:229|291:245|291:245|347:266|347:266|352:263|352:263|408:284|408:284|423:289|446:285|432:267|417:261|417:261|361:241|361:241|358:236|358:236|302:215|302:215|257:199|271:183|232:186,1,450.000017166138,4|0,1:2|0:0,0:0:0:0:
332,129,654584,70,0,L|428:100,1,100,8|0,0:2|0:0,0:0:0:0:
508,73,654757,38,0,B|517:97|517:97|495:169,1,100
236,279,654929,70,0,L|232:264,1,12.5,2|0,1:3|0:0,0:0:0:0:
226,237,655015,2,0,L|222:222,1,12.5,2|2,0:3|0:3,0:0:0:0:
298,207,655101,2,0,L|301:221,1,12.5,2|2,0:3|0:3,0:0:0:0:
308,249,655188,2,0,L|311:263,1,12.5,2|2,0:3|0:3,0:0:0:0:
291,338,655274,37,8,1:2:0:0:
199,380,655360,70,0,B|233:373|233:373|232:369|232:369|240:376|240:376|244:367|244:367|245:370|245:370|429:335,1,250,2|0,3:2|0:0,0:0:0:0:
495,167,655619,37,4,1:2:0:0:
508,246,655705,1,0,0:0:0:0:
460,262,655791,1,0,0:0:0:0:
434,219,655878,1,0,0:0:0:0:
375,149,655964,70,0,B|374:198|316:162|347:295|316:162|279:216|258:175,1,162.500004649162,8|0,0:2|0:0,0:0:0:0:
225,104,656136,38,0,B|180:31|167:114|180:31|205:29|225:104,1,125,2|0,3:2|0:0,0:0:0:0:
233,297,656309,70,0,B|188:286|165:314|186:359|63:354|36:274|62:185|134:114|238:163|244:236|244:236|247:284|280:296,1,481.250004589558,4|0,1:3|0:0,0:0:0:0:
341,271,656653,38,0,B|346:227|346:227|342:222|342:222|347:219|347:219|350:195|350:195|346:191|346:191|351:187|351:187|368:67,1,206.250001966953,10|0,3:2|0:0,0:0:0:0:
400,1,656826,70,0,B|406:-10|406:-10|462:-2|462:-2|466:54|466:54|454:59,1,137.500001311302,2|0,1:2|0:0,0:0:0:0:
366,74,656998,38,0,B|323:53|319:0|319:0|308:75|308:75|325:126|386:140|379:111|447:103|508:155|504:247|430:255|430:255|434:218,1,517.499987168312,4|0,1:2|0:0,0:0:0:0:
509,333,657343,70,0,B|486:353|486:353|418:344,1,87.500000834465,8|0,0:2|0:0,0:0:0:0:
325,383,657516,38,0,L|315:342,1,37.5000014305115
254,200,657689,70,0,L|252:216,1,12.5,2|0,1:3|0:0,0:0:0:0:
179,186,657775,2,0,L|177:202,1,12.5,2|2,0:3|0:3,0:0:0:0:
109,242,657861,2,0,L|107:226,1,12.5,2|2,0:3|0:3,0:0:0:0:
34,256,657947,2,0,L|32:240,1,12.5,2|2,0:3|0:3,0:0:0:0:
57,168,658033,38,0,B|60:144|72:126|72:126|84:109|63:73|42:92|25:-4|25:-4|42:92|17:81|9:122|26:134|26:134|44:147|55:169,1,375,12|0,1:2|0:0,0:0:0:0:
64,339,658378,70,0,B|66:327|27:315|16:368|76:398|146:372|130:292|130:292|173:216|245:232|289:301|249:348|209:317|217:289,1,406.250011622906,4|0,1:2|0:0,0:0:0:0:
334,138,658722,38,0,L|351:212,1,75.0000028610231,8|0,1:2|0:0,0:0:0:0:
325,383,658895,70,0,B|387:376|402:317|402:317|407:314|407:314|418:251|418:251|422:248|422:248|430:204|430:204|427:200|427:200|447:103,1,315.00000931263,4|0,1:2|0:0,0:0:0:0:
494,55,659153,38,0,B|535:28|535:28|526:-7|526:-7|490:-6|490:-6|478:46,1,175.00000166893,4|0,1:2|0:0,0:0:0:0:
322,303,659412,70,0,B|315:273|282:259|282:259|249:96,1,206.250001966953,8|0,1:2|0:0,0:0:0:0:
223,42,659584,38,0,B|214:13|214:13|260:1|260:1|252:37,1,112.500004291535,0|0,1:0|0:0,0:0:0:0:
253,117,659757,69,4,1:2:0:0:
123,59,659929,2,0,L|145:165,1,85.0000016212464
43,310,660102,38,0,L|24:314,1,12.5,8|0,0:2|0:0,0:0:0:0:
12,301,660188,2,0,L|-9:300,1,12.5,2|2,0:3|0:3,0:0:0:0:
34,215,660274,70,0,L|42:223,1,12.5,2|2,1:3|0:3,0:0:0:0:
64,229,660360,2,0,L|70:239,1,12.5,2|0,0:3|0:0,0:0:0:0:
129,301,660447,37,2,1:3:0:0:
0,301,660533,2,0,B|140:277|140:277|145:280|145:280|180:274|180:274|185:269|185:269|282:252,1,275.000002622604,0|0,0:3|0:3,0:0:0:0:
345,206,660791,69,8,0:2:0:0:
333,356,660878,2,0,B|355:365|361:383|361:383|396:326|343:278,1,150.000005722046,2|0,3:2|0:0,0:0:0:0:
204,57,661136,38,0,P|253:94|235:172,1,125,4|0,1:2|0:0,0:0:0:0:
148,187,661309,1,0,0:0:0:0:
152,202,661395,1,0,0:0:0:0:
91,246,661481,2,0,B|88:257|75:271|75:271|68:280|78:277|78:277|128:257|123:264|137:258|137:258|182:244,1,125,8|0,0:2|0:0,0:0:0:0:
345,206,661653,70,0,B|330:358|348:207|332:358,1,150.000005722046,2|0,1:2|0:0,0:0:0:0:
498,234,661826,2,0,B|509:190|481:157|433:130|439:159|386:129|366:99|377:55|377:55|406:43|406:43|407:38|407:38|413:39|413:39|421:35|421:35|424:31|424:31|428:33|428:33|492:5|492:5|516:25|519:58|503:80|503:80,1,450.000017166138,4|0,0:2|0:0,0:0:0:0:
422,222,662171,37,8,0:2:0:0:
495,246,662257,2,0,B|457:232|463:260|410:267|368:222|385:203|348:190|348:190|330:184|330:184|327:180|327:180|322:181|322:181|232:148|232:148|243:202|243:202|261:185|261:185,1,369.999998588562,2|0,3:2|0:0,0:0:0:0:
5,339,662516,70,0,B|35:351|55:383|55:383|88:350|84:310,1,150,4|0,1:2|0:0,0:0:0:0:
304,263,662860,38,0,L|306:278,1,12.5,8|0,0:2|0:0,0:0:0:0:
333,291,662947,2,0,L|335:306,1,12.5,2|2,0:3|0:3,0:0:0:0:
287,362,663033,70,0,L|274:362,1,12.5,2|2,0:3|0:3,0:0:0:0:
253,337,663120,2,0,L|240:337,1,12.5,2|2,0:3|0:3,0:0:0:0:
224,258,663205,37,2,1:3:0:0:
161,314,663291,2,0,B|155:285|155:285|148:255|115:234|111:243|77:223|72:192|72:192|73:186|73:186|54:62,1,275.000002622604,2|2,1:3|0:3,0:0:0:0:
104,16,663550,69,8,0:2:0:0:
145,142,663636,2,0,B|171:173|171:173|204:164|204:164|194:131|194:131|156:123,1,150.000005722046,2|0,3:2|0:0,0:0:0:0:
49,73,663895,37,4,1:2:0:0:
67,151,663981,1,0,0:0:0:0:
28,156,664067,1,0,0:0:0:0:
0,130,664153,1,0,0:0:0:0:
49,72,664240,70,0,P|114:83|145:142,1,137.500001311302,8|0,0:2|0:0,0:0:0:0:
147,384,664412,38,0,B|143:347|199:361|223:342|244:262|166:197|77:175|27:240|21:273|61:303|32:321,1,359.999989013672,0|0,1:0|0:0,0:0:0:0:
253,213,664757,69,0,1:0:0:0:
225,133,664843,1,0,1:0:0:0:
280,72,664929,37,8,0:2:0:0:
278,81,665016,1,0,0:0:0:0:
276,90,665102,1,0,0:0:0:0:
274,99,665188,1,0,0:0:0:0:
225,133,665274,70,0,B|288:124|288:124|292:128|292:128|297:123|297:123|339:117|353:83|341:87|356:51|390:46|390:46|395:42|395:42|477:34|477:34|481:38|481:38|508:35|522:56|516:84|490:86|490:86|487:91|487:91|446:93|446:93|433:82|415:75,1,450.000017166138,4|0,1:2|0:0,0:0:0:0:
397,276,665619,38,0,L|402:256,1,12.5,8|0,0:2|0:0,0:0:0:0:
393,245,665705,2,0,L|398:225,1,12.5,2|2,0:3|0:3,0:0:0:0:
493,253,665791,70,0,L|491:265,1,12.5,2|2,0:3|0:3,0:0:0:0:
477,280,665877,2,0,L|475:292,1,12.5,2|2,0:3|0:3,0:0:0:0:
457,170,665964,37,2,1:3:0:0:
495,238,666050,2,0,B|444:224|424:183|424:183|357:166|357:166|353:168|353:168|301:155|301:155|299:150|299:150|205:128,1,285.000002717972,2|2,0:3|0:3,0:0:0:0:
128,0,666309,69,8,0:2:0:0:
93,85,666395,2,0,B|238:47|91:81|237:43,1,150.000005722046,2|0,3:2|0:0,0:0:0:0:
314,0,666653,38,0,B|359:-1|383:39|383:39|361:65|353:84,1,137.500001311302,4|0,1:2|0:0,0:0:0:0:
40,169,666826,69,0,0:0:0:0:
39,156,666912,1,0,0:0:0:0:
0,91,666998,38,0,L|154:119,1,137.500001311302,8|0,0:2|0:0,0:0:0:0:
272,225,667171,2,0,B|252:218|228:219|228:219|193:177|227:126,1,137.500001311302,2|0,1:2|0:0,0:0:0:0:
486,29,667343,2,0,B|451:-13|395:0|395:0|423:53,1,137.500001311302,0|4,0:0|1:2,0:0:0:0:
428,109,667516,1,0,0:0:0:0:
432,118,667602,1,0,0:0:0:0:
350,123,667688,70,0,B|340:167|367:202|375:191|403:225|395:264|395:264|392:266|392:266|381:314,1,206.250001966953,10|0,1:2|0:0,0:0:0:0:
391,384,667860,2,0,B|362:345|368:319|368:319|386:244,1,137.500001311302,2|0,1:2|0:0,0:0:0:0:
473,186,668033,38,0,B|517:161|548:226|515:281|445:273|420:217|438:229|411:174|291:174|251:214|242:309|294:351|294:351|287:327|297:300,1,480,4|0,1:2|0:0,0:0:0:0:
219,119,668378,70,0,P|224:128|225:138,1,12.5
250,148,668464,2,0,P|247:158|241:166,1,12.5,2|2,0:3|0:3,0:0:0:0:
170,203,668550,38,0,P|163:202|157:200,1,12.5,2|2,0:3|0:3,0:0:0:0:
153,169,668636,2,0,P|148:164|145:158,1,12.5,2|2,0:3|0:3,0:0:0:0:
150,83,668722,69,2,1:3:0:0:
147,73,668809,2,0,P|156:35|103:6,1,100
40,160,669067,38,0,B|2:196|2:196|94:178|94:178|98:180|98:180|197:162|197:162|200:157|200:157|290:141|290:141|295:145|295:145|408:127|408:127|360:176,1,525.00000500679,4|0,0:2|0:0,0:0:0:0:
312,227,669412,70,0,B|280:322|316:227|284:323,1,100
208,319,669584,38,0,B|220:370|207:338|218:384,2,66.6666666666667
123,308,669757,69,0,0:0:0:0:
199,243,669929,37,0,0:0:0:0:
174,86,670102,70,0,B|172:68|218:52|216:32|111:46|118:68|166:69|172:88,1,125
175,96,670619,1,0,0:0:0:0:
240,200,670791,101,12,2:1:0:0:
276,166,670876,1,0,0:0:0:0:
324,155,670962,1,0,0:0:0:0:
371,170,671048,1,0,0:0:0:0:
404,206,671133,2,0,P|413:235|411:266,1,62.2500028733255,8|0,0:0|0:0,0:0:0:0:
318,249,671305,2,0,P|308:278|288:302,1,62.2500028733255
174,238,671476,22,0,B|135:217|135:217|239:199,1,150.000005722046,0|8,0:0|2:1,0:0:0:0:
230,124,671733,85,0,0:0:0:0:
228,104,671819,2,0,L|217:42,1,62.2500028733255,8|0,0:0|0:0,0:0:0:0:
143,135,671991,2,0,L|132:73,1,62.2500028733255,8|0,2:1|0:0,0:0:0:0:
58,166,672163,22,0,L|47:104,1,62.2500028733255,8|0,2:1|0:0,0:0:0:0:
90,247,672333,1,8,2:1:0:0:
77,267,672419,1,0,0:0:0:0:
66,287,672505,2,0,B|58:231|58:231|65:220|65:220|57:165,1,124.500005746651,8|0,0:0|0:0,0:0:0:0:
92,384,672762,85,8,0:0:0:0:
112,364,672848,2,0,B|144:340|180:364|180:364|216:384|256:364,1,150.000005722046,0|8,0:0|2:1,0:0:0:0:
244,288,673105,21,0,0:0:0:0:
271,287,673191,2,0,P|300:300|320:324,1,62.2500028733255,8|0,0:0|0:0,0:0:0:0:
400,288,673362,2,0,P|411:316|408:347,1,62.2500028733255
388,268,673533,86,0,B|376:192|376:192|412:128|412:128|399:54,1,225.000008583069,8|0,2:1|0:0,0:0:0:0:
300,60,673876,2,0,B|315:145|315:145|335:113,1,124.500005746651,8|0,0:0|0:0,0:0:0:0:
472,36,674133,21,0,0:0:0:0:
476,56,674219,2,0,L|486:117,1,62.2500028733255
424,176,674391,2,0,L|434:237,1,62.2500028733255,8|0,2:1|0:0,0:0:0:0:
372,296,674563,2,0,L|382:357,1,62.2500028733255,8|0,0:0|0:0,0:0:0:0:
296,216,674733,2,0,P|265:213|236:224,1,62.2500028733255,8|0,2:1|0:0,0:0:0:0:
280,304,674905,85,8,2:1:0:0:
287,307,674991,1,0,0:0:0:0:
292,312,675076,2,0,L|304:389,1,75.0000028610231,8|0,2:1|0:0,0:0:0:0:
217,344,675248,22,0,P|220:256|303:231,1,186.750008619976,8|8,0:0|0:0,0:0:0:0:
296,216,675591,2,0,P|284:180|285:143,1,75.0000028610231
372,296,675762,2,0,P|383:331|382:368,1,75.0000028610231,8|0,2:1|0:0,0:0:0:0:
412,168,675933,85,10,0:0:0:0:
418,172,676019,1,0,2:3:0:0:
424,176,676104,1,8,2:1:0:0:
434,237,676191,1,0,2:3:0:0:
444,298,676276,22,0,B|457:326|477:329|477:329|485:310|479:300,1,75.0000028610231,10|0,2:1|0:0,0:0:0:0:
357,262,676448,2,0,B|338:287|346:306|346:306|366:303|371:295,1,75.0000028610231
339,167,676619,2,0,B|312:165|300:181|300:181|308:192|320:192,1,62.2500028733255,8|0,0:0|0:0,0:0:0:0:
412,105,676791,2,0,B|400:80|380:77|380:77|375:89|381:99,1,62.2500028733255,2|0,2:1|0:0,0:0:0:0:
489,54,676962,85,0,0:0:0:0:
509,108,677047,1,0,0:0:0:0:
493,164,677133,1,8,2:1:0:0:
446,201,677219,1,0,0:0:0:0:
387,202,677305,22,0,L|408:288,1,62.2500028733255,8|0,0:0|0:0,0:0:0:0:
424,360,677476,2,0,L|409:299,1,62.2500028733255,8|0,2:1|0:0,0:0:0:0:
324,256,677648,86,0,L|238:235,1,62.2500028733255,8|0,2:1|0:0,0:0:0:0:
296,351,677819,1,8,2:1:0:0:
281,348,677905,1,0,0:0:0:0:
266,344,677990,2,0,L|180:323,1,62.2500028733255,8|0,0:0|0:0,0:0:0:0:
184,256,678162,21,0,0:0:0:0:
160,244,678248,1,8,0:0:0:0:
132,240,678333,2,0,P|90:241|46:260,1,75.0000028610231
32,356,678505,1,8,2:1:0:0:
30,340,678591,1,0,0:0:0:0:
27,325,678676,85,10,0:0:0:0:
38,263,678761,1,2,0:0:0:0:
50,202,678847,1,8,2:1:0:0:
61,141,678933,1,2,0:0:0:0:
73,80,679019,22,0,B|88:40|64:8|16:8|-16:24|-24:88|4:132|40:140,1,225.000008583069,10|0,2:1|0:0,0:0:0:0:
61,141,679362,2,0,L|176:152,1,62.2500028733255,8|0,0:0|0:0,0:0:0:0:
124,224,679533,85,2,2:1:0:0:
140,225,679619,2,0,B|185:230|185:230|205:203|205:203|172:268|224:344,1,186.750008619976,0|8,0:0|0:1,0:0:0:0:
309,307,679962,1,0,0:0:0:0:
319,263,680048,2,0,P|318:232|307:203,1,62.2500028733255,8|0,0:0|0:0,0:0:0:0:
256,152,680219,2,0,L|256:88,1,62.2500028733255,8|0,2:1|0:0,0:0:0:0:
202,37,680391,22,0,B|176:12|176:12|138:0,1,75.0000028610231,8|0,2:1|0:0,0:0:0:0:
310,37,680562,2,0,B|336:12|336:12|373:0,1,75.0000028610231,8|0,2:1|0:0,0:0:0:0:
496,76,680733,86,0,B|477:94|477:94|380:76,1,124.500005746651,8|0,0:0|0:0,0:0:0:0:
324,160,680991,1,8,0:0:0:0:
344,140,681077,21,0,0:0:0:0:
373,145,681162,1,0,0:0:0:0:
402,151,681248,1,8,2:1:0:0:
432,156,681333,1,0,0:0:0:0:
462,161,681419,85,8,0:0:0:0:
501,225,681504,1,8,0:0:0:0:
481,298,681590,1,8,2:1:0:0:
414,332,681676,1,8,0:0:0:0:
343,306,681762,22,0,B|296:280|252:304|252:304|208:328|162:305|162:305|176:294|176:294|181:276,1,225.000008583069,6|0,0:0|0:0,0:0:0:0:
108,248,682105,86,0,P|89:223|80:193,1,62.2500028733255,8|0,0:0|0:0,0:0:0:0:
168,184,682276,2,0,P|172:153|187:126,1,62.2500028733255,0|0,0:3|0:3,0:0:0:0:
254,181,682448,2,0,P|325:160|390:194,1,150.000005722046,0|8,0:3|2:1,0:0:0:0:
358,258,682705,21,0,0:0:0:0:
376,272,682791,2,0,L|356:356,1,62.2500028733255,8|0,0:0|0:0,0:0:0:0:
410,115,682962,2,0,L|430:31,1,62.2500028733255,8|0,2:1|0:0,0:0:0:0:
512,234,683133,2,0,P|482:244|452:244,1,62.2500028733255,8|0,2:1|0:0,0:0:0:0:
376,272,683305,85,8,2:1:0:0:
393,236,683391,1,0,0:0:0:0:
407,207,683476,2,0,P|376:207|346:216,1,62.2500028733255,8|0,0:0|0:0,0:0:0:0:
301,342,683648,2,0,P|332:341|361:332,1,62.2500028733255,8|8,2:1|0:0,0:0:0:0:
328,202,683819,21,0,0:0:0:0:
302,239,683904,1,0,0:0:0:0:
256,255,683990,1,8,2:1:0:0:
208,242,684076,1,0,0:0:0:0:
175,205,684162,85,8,0:0:0:0:
128,147,684247,1,0,0:0:0:0:
53,145,684333,1,8,2:1:0:0:
3,202,684419,1,0,0:0:0:0:
14,275,684505,22,0,B|33:284|33:284|7:235|14:191|35:156|84:160|119:184|100:227,1,225.000008583069,10|0,2:1|0:0,0:0:0:0:
113,292,684848,86,0,P|144:298|169:318,1,62.2500028733255,8|0,0:0|0:0,0:0:0:0:
208,242,685019,21,2,2:1:0:0:
229,261,685105,2,0,P|246:287|249:319,1,62.2500028733255,0|0,0:3|0:3,0:0:0:0:
332,293,685276,85,0,0:3:0:0:
333,321,685362,2,0,P|327:352|306:377,1,62.2500028733255,8|0,2:1|0:3,0:0:0:0:
407,309,685533,22,0,B|450:265|450:265|515:275,1,124.500005746651,8|8,0:0|2:1,0:0:0:0:
477,344,685791,1,0,0:0:0:0:
510,255,685876,86,0,P|477:239|440:236,1,75.0000028610231,8|0,2:1|0:0,0:0:0:0:
456,158,686048,2,0,P|419:161|386:177,1,75.0000028610231,8|0,2:1|0:0,0:0:0:0:
309,200,686219,2,0,L|158:238,1,124.500005746651,8|0,0:0|0:0,0:0:0:0:
111,248,686476,1,8,0:0:0:0:
87,253,686562,2,0,L|101:172,1,75.0000028610231
10,269,686733,2,0,L|23:196,1,75.0000028610231,8|0,2:1|0:0,0:0:0:0:
7,25,686905,22,0,P|2:84|49:123,1,124.500005746651,8|8,0:0|2:1,0:0:0:0:
122,107,687162,1,8,0:0:0:0:
195,91,687248,2,0,B|233:84|263:106|263:106|293:130|339:121,1,150.000005722046,10|0,2:1|0:0,0:0:0:0:
382,50,687505,85,0,0:0:0:0:
387,26,687591,2,0,L|314:39,1,62.2500028733255,8|0,0:0|0:0,0:0:0:0:
420,124,687762,2,0,L|493:136,1,62.2500028733255,2|0,2:1|0:0,0:0:0:0:
387,221,687933,22,0,L|313:233,1,75.0000028610231
423,317,688105,2,0,L|499:329,1,75.0000028610231,8|0,2:1|0:0,0:0:0:0:
336,357,688276,85,10,0:0:0:0:
351,309,688361,1,2,0:0:0:0:
336,262,688447,1,8,2:1:0:0:
293,238,688533,1,2,0:0:0:0:
246,247,688619,22,0,L|172:259,1,62.2500028733255,8|0,2:1|0:0,0:0:0:0:
434,212,688791,2,0,L|507:199,1,62.2500028733255,8|0,2:1|0:0,0:0:0:0:
335,114,688962,2,0,B|325:163|325:163|318:171|318:171|322:182|322:182|312:233,1,124.500005746651,8|0,0:0|0:0,0:0:0:0:
282,309,689219,85,8,0:0:0:0:
261,323,689305,2,0,P|228:338|191:336,1,75.0000028610231
415,231,689476,2,0,P|445:252|462:285,1,75.0000028610231,8|0,2:1|0:0,0:0:0:0:
257,143,689647,2,0,P|255:83|296:38,1,124.500005746651,8|8,0:0|0:1,0:0:0:0:
422,94,689905,21,0,0:0:0:0:
401,86,689991,2,0,P|364:91|334:113,1,75.0000028610231,8|0,2:1|0:0,0:0:0:0:
305,206,690162,85,2,0:0:0:0:
284,214,690248,1,2,0:0:0:0:
263,222,690333,2,0,P|226:216|198:196,1,62.2500028733255,8|0,0:0|0:0,0:0:0:0:
125,86,690505,2,0,P|88:91|58:113,1,62.2500028733255
23,237,690676,1,0,0:0:0:0:
21,253,690762,1,0,0:0:0:0:
18,268,690848,21,8,2:1:0:0:
80,257,690933,1,0,0:0:0:0:
141,245,691019,1,8,0:0:0:0:
202,234,691105,1,0,0:0:0:0:
263,222,691191,2,0,L|258:253,2,31.1250014366627,8|0|0,2:1|0:0|0:0,0:0:0:0:
246,325,691362,2,0,L|239:362,2,37.5000014305115,14|2|2,0:0|0:0|0:0,0:0:0:0:
438,166,691533,85,8,2:1:0:0:
377,155,691619,1,8,0:0:0:0:
316,142,691705,2,0,L|327:203,1,62.2500028733255,8|0,2:1|0:0,0:0:0:0:
335,246,691876,2,2,L|340:277,2,31.1250014366627,14|2|2,0:0|0:0|0:0,0:0:0:0:
141,87,692047,21,8,2:1:0:0:
202,76,692133,1,8,0:0:0:0:
263,64,692219,86,0,L|249:137,1,75.0000028610231,6|0,2:1|0:0,0:0:0:0:
244,167,692390,2,2,L|239:198,5,31.1250014366627,10|2|2|2|2|2,0:0|0:0|0:0|0:0|0:0|0:0,0:0:0:0:
89,214,692733,22,0,B|131:193|139:170|139:170|111:142|103:76,1,125,12|0,2:1|0:0,0:0:0:0:
41,149,692991,1,0,0:0:0:0:
10,142,693076,1,8,0:0:0:0:
239,197,693248,85,0,0:0:0:0:
279,188,693333,1,0,0:0:0:0:
319,179,693419,1,0,0:0:0:0:
359,170,693505,1,0,0:0:0:0:
399,160,693591,22,0,B|402:143|416:127|416:127|357:189,1,92.4999996471405,8|0,2:1|0:0,0:0:0:0:
508,252,693762,2,0,B|521:263|528:283|528:283|503:201,1,92.4999996471405,8|0,0:0|0:0,0:0:0:0:
381,300,693933,2,0,B|364:305|343:301|343:301|427:321,1,92.4999996471405,8|0,2:1|0:0,0:0:0:0:
431,239,694105,85,8,2:1:0:0:
431,239,694276,1,8,2:1:0:0:
255,145,694448,1,8,0:0:0:0:
247,175,694533,1,0,0:0:0:0:
44,376,694705,1,8,0:0:0:0:
4,305,694791,22,0,P|73:340|136:286,1,125,0|8,0:0|2:1,0:0:0:0:
191,237,695048,1,0,0:0:0:0:
174,241,695133,2,0,L|306:261,1,125,8|0,0:0|0:0,0:0:0:0:
482,363,695391,1,0,0:0:0:0:
439,384,695476,86,0,B|402:315|415:257|415:257|458:188,1,187.5,10|0,2:1|0:0,0:0:0:0:
468,103,695819,2,0,B|486:42|486:42|447:103,1,125,8|0,0:0|0:0,0:0:0:0:
453,216,696076,2,0,P|420:167|341:165,1,125
156,12,696333,1,8,2:1:0:0:
117,44,696419,1,0,0:0:0:0:
136,90,696505,2,0,B|173:83|173:83|190:88|190:88|251:77,1,92.4999996471405,8|0,0:0|0:0,0:0:0:0:
253,253,696676,2,0,B|216:246|216:246|199:251|199:251|163:245,1,92.4999996471405,8|0,2:1|0:0,0:0:0:0:
203,374,696848,21,10,2:1:0:0:
203,374,697019,1,8,2:1:0:0:
107,174,697191,2,0,B|70:200|67:253|67:253|55:235|65:222,1,125,8|0,0:0|0:0,0:0:0:0:
187,257,697448,1,8,0:0:0:0:
228,244,697533,1,0,0:0:0:0:
512,125,697705,85,8,2:1:0:0:
489,117,697790,1,0,0:0:0:0:
421,66,697876,1,10,0:0:0:0:
451,106,697962,1,0,2:3:0:0:
454,156,698048,1,8,2:1:0:0:
427,198,698133,1,0,2:3:0:0:
378,212,698219,22,0,B|368:235|353:217|353:217|362:163|307:112,1,125,10|0,2:1|0:0,0:0:0:0:
164,358,698476,2,0,B|149:337|172:333|172:333|214:368|286:346,1,125,0|0,0:1|0:0,0:0:0:0:
147,102,698733,2,0,B|171:99|163:121|163:121|112:140|95:213,1,125,10|0,2:1|0:0,0:0:0:0:
232,247,698991,85,0,0:0:0:0:
236,228,699076,1,8,2:1:0:0:
240,209,699162,1,0,0:0:0:0:
200,201,699248,2,0,L|219:273,1,62.5,8|0,0:0|0:0,0:0:0:0:
400,357,699419,2,0,L|416:297,1,62.5,8|0,2:1|0:0,0:0:0:0:
334,301,699591,21,8,2:1:0:0:
334,301,699762,1,8,2:1:0:0:
156,328,699933,1,8,0:0:0:0:
164,358,700018,1,0,0:0:0:0:
41,214,700191,1,8,0:0:0:0:
0,149,700276,86,0,B|98:106|72:189|170:165|170:165|192:96,1,247.500002360344,2|0,2:1|0:0,0:0:0:0:
251,156,700619,21,10,0:0:0:0:
255,171,700705,1,2,0:0:0:0:
259,186,700791,1,8,2:1:0:0:
262,201,700876,1,2,0:0:0:0:
322,252,700962,86,0,B|341:188|341:188|440:164|413:247|512:205,1,247.500002360344,10|0,2:1|0:0,0:0:0:0:
456,128,701305,2,0,B|474:55|474:55|459:78|441:92,1,125,8|2,0:0|2:1,0:0:0:0:
428,323,701562,2,0,B|410:337|395:360|395:360|413:287,1,125
208,169,701819,1,8,0:1:0:0:
238,161,701905,1,0,0:0:0:0:
258,185,701991,2,0,L|124:172,1,125,8|8,0:0|2:1,0:0:0:0:
178,368,702333,21,8,2:1:0:0:
178,368,702505,1,8,2:1:0:0:
351,77,702676,1,8,0:0:0:0:
424,97,702762,2,0,B|437:83|437:83|505:54|505:54|432:47|432:47|416:38,1,184.999999294281,0|8,0:0|0:0,0:0:0:0:
328,84,703019,86,0,P|252:42|188:61,1,125,0|8,0:0|2:1,0:0:0:0:
35,131,703363,1,8,0:0:0:0:
21,102,703448,2,0,L|-4:171,1,62.5,8|8,0:0|2:1,0:0:0:0:
45,233,703618,1,8,0:0:0:0:
59,262,703705,21,6,0:0:0:0:
103,194,703791,1,2,0:0:0:0:
179,168,703876,1,2,0:0:0:0:
257,188,703962,1,2,0:0:0:0:
234,223,704048,85,10,0:0:0:0:
266,273,704134,1,2,0:0:0:0:
322,292,704219,1,2,0:2:0:0:
379,277,704305,1,2,0:2:0:0:
363,253,704391,21,0,0:3:0:0:
385,217,704477,1,0,0:0:0:0:
424,204,704562,2,0,B|464:210|487:222|487:222|442:160,1,92.4999996471405,8|0,2:1|0:0,0:0:0:0:
373,89,704733,2,0,B|358:51|356:24|356:24|325:95,1,92.4999996471405,8|0,0:0|0:0,0:0:0:0:
310,155,704905,2,0,B|284:186|262:201|262:201|339:192,1,92.4999996471405,8|0,2:1|0:0,0:0:0:0:
233,118,705076,85,8,2:1:0:0:
233,118,705248,1,8,2:1:0:0:
89,190,705419,1,8,0:0:0:0:
80,147,705504,1,0,0:0:0:0:
362,212,705676,1,8,0:0:0:0:
371,255,705762,22,0,P|440:208|435:160,1,125,0|8,0:0|2:1,0:0:0:0:
270,228,706019,1,0,0:0:0:0:
261,271,706105,2,0,P|212:143|280:94,1,187.5,8|0,0:0|0:0,0:0:0:0:
174,333,706448,85,8,2:1:0:0:
150,294,706533,1,0,0:0:0:0:
109,271,706619,1,0,0:0:0:0:
63,271,706705,1,0,0:0:0:0:
23,294,706791,22,0,B|70:299|70:299|103:287|103:287|170:293,1,125,8|0,0:0|0:0,0:0:0:0:
442,335,707048,1,0,0:3:0:0:
456,345,707133,2,0,L|378:339,1,62.5,0|0,0:3|0:3,0:0:0:0:
386,177,707305,2,0,L|308:171,1,62.5,8|0,2:1|0:3,0:0:0:0:
278,275,707476,2,0,L|356:269,1,62.5,8|0,0:0|0:0,0:0:0:0:
433,58,707648,2,0,L|371:63,1,62.5,8|0,2:1|0:0,0:0:0:0:
439,49,707819,86,0,B|325:76|352:-12|246:15,1,187.5,8|0,2:1|0:0,0:0:0:0:
164,81,708162,2,0,B|122:85|82:64|82:64|59:20,1,125,8|0,0:0|0:0,0:0:0:0:
6,122,708419,2,0,B|30:156|32:201|32:201|5:243,1,125,8|0,0:0|0:0,0:0:0:0:
139,251,708676,22,0,P|159:220|188:192,1,62.5,8|0,2:1|0:0,0:0:0:0:
374,335,708848,1,8,0:0:0:0:
325,320,708933,1,0,0:0:0:0:
275,324,709019,1,8,2:1:0:0:
228,346,709105,1,8,0:0:0:0:
196,384,709191,86,0,B|149:369|136:329|136:329|85:317,1,125,10|0,2:1|0:0,0:0:0:0:
386,139,709533,2,0,B|475:129|475:129|518:166,1,125,8|2,0:0|0:1,0:0:0:0:
299,173,709791,1,0,0:0:0:0:
304,148,709876,1,0,0:0:0:0:
309,123,709962,1,0,0:0:0:0:
313,97,710048,2,0,L|251:105,1,62.5,8|0,2:1|0:0,0:0:0:0:
128,163,710219,2,0,L|190:170,1,62.5,10|2,0:0|0:0,0:0:0:0:
123,15,710391,2,0,L|60:7,1,62.5,8|2,2:1|0:0,0:0:0:0:
0,102,710562,21,8,2:1:0:0:
0,102,710733,1,8,2:1:0:0:
138,316,710905,2,0,B|129:275|129:275|24:259|24:259|17:220,1,187.5,8|8,0:0|0:0,0:0:0:0:
246,339,711248,86,0,B|243:353|223:351|223:351|273:318|256:252,1,125,0|8,0:0|2:1,0:0:0:0:
320,157,711505,1,0,0:0:0:0:
352,170,711591,2,0,B|362:179|350:195|350:195|347:136|281:117,1,125,8|8,0:0|0:1,0:0:0:0:
110,49,711848,1,0,0:0:0:0:
177,0,711933,22,0,B|197:-6|209:20|209:20|130:-18|58:51,1,187.5,10|2,2:1|0:0,0:0:0:0:
286,49,712276,2,0,L|410:33,1,125,8|0,0:0|0:0,0:0:0:0:
507,177,712533,1,2,0:0:0:0:
494,177,712619,1,2,0:0:0:0:
482,176,712705,1,2,0:0:0:0:
427,132,712791,85,8,2:1:0:0:
457,171,712876,1,2,0:0:0:0:
462,220,712962,1,10,0:0:0:0:
444,266,713048,1,2,0:0:0:0:
406,296,713133,2,0,L|423:332,3,31.25,8|0|0|0,2:1|0:0|0:0|0:0,0:0:0:0:
298,343,713305,22,0,L|174:298,1,125,14|8,0:0|2:1,0:0:0:0:
216,384,713562,1,8,0:0:0:0:
227,355,713647,1,8,2:1:0:0:
214,213,713819,86,2,L|338:168,1,125,14|8,0:0|2:1,0:0:0:0:
296,254,714076,1,8,0:0:0:0:
285,225,714161,1,12,2:1:0:0:
298,89,714333,22,2,L|180:46,1,125,14|2,0:0|0:0,0:0:0:0:
258,24,714548,1,0,1:3:0:0:
258,24,714591,1,0,1:3:0:0:
258,24,714633,1,0,1:3:0:0:
258,24,714676,70,0,P|304:57|296:99,1,104.999996795654,6|0,3:1|0:0,0:0:0:0:
259,167,715328,2,0,P|262:127|291:117,1,60,2|0,0:2|0:0,0:0:0:0:
336,171,715654,5,0,1:0:0:0:
4,84,715980,102,0,P|166:153|313:245,1,350,8|0,1:1|0:0,0:0:0:0:
262,306,716632,6,0,P|238:280|237:232,1,80,4|0,0:3|0:0,0:0:0:0:
150,49,716958,2,0,P|173:74|174:122,1,80,4|0,0:3|0:0,0:0:0:0:
25,358,717284,102,0,B|28:364|28:364|25:370|25:370|31:374|31:374|27:379|27:379|31:384,18,25,2|2|2|2|2|2|2|2|2|2|2|2|2|2|2|2|2|2|2,3:0|3:0|3:0|3:0|3:0|3:0|3:0|3:0|3:0|3:0|3:0|3:0|3:0|3:0|3:0|3:0|3:0|3:0|3:0,0:0:0:0:
315,122,718589,6,0,B|346:67|250:-68|86:107|248:187|248:187|260:182|247:199|260:195|260:195|385:290|241:426|138:315|187:249,1,674.999979400635,8|0,0:3|0:0,0:0:0:0:
185,255,719893,102,0,P|221:260|253:287,1,80,6|0,3:1|0:0,0:0:0:0:
379,231,720545,2,0,P|349:235|325:256,1,60,2|0,0:2|0:0,0:0:0:0:
382,305,720871,5,0,1:0:0:0:
327,13,721197,102,0,P|303:142|286:363,1,350,8|0,1:1|0:0,0:0:0:0:
360,363,721849,6,0,P|352:321|308:290,1,89.9999972534181,4|0,0:3|0:0,0:0:0:0:
250,14,722176,2,0,P|258:56|302:87,1,89.9999972534181,4|0,0:3|0:0,0:0:0:0:
497,21,722502,102,0,B|495:25|495:25|497:29|497:29|493:32|493:32|495:35|495:35|493:39,15,22.4999993133545,2|2|2|2|2|2|2|2|2|2|2|2|2|2|2|2,3:0|3:0|3:0|3:0|3:0|3:0|3:0|3:0|3:0|3:0|3:0|3:0|3:0|3:0|3:0|3:0,0:0:0:0:
490,47,723154,6,0,P|431:37|386:75,1,119.999996337891
352,236,723806,2,0,P|383:198|374:151,1,100
262,47,724458,2,0,P|275:83|311:96,1,80
456,189,725110,102,0,P|423:143|381:151,1,104.999996795654,6|0,3:1|0:0,0:0:0:0:
313,188,725762,2,0,P|352:184|362:155,1,60,2|0,0:2|0:0,0:0:0:0:
309,111,726088,5,0,1:0:0:0:
510,261,726415,102,0,P|334:285|169:336,1,350,8|0,1:1|0:0,0:0:0:0:
149,261,727067,6,0,P|189:262|224:285,1,80,4|0,0:3|0:0,0:0:0:0:
498,335,727393,2,0,P|462:317|440:281,1,80,4|0,0:3|0:0,0:0:0:0:
471,140,727719,102,0,B|475:138|475:138|479:140|479:140|482:136|482:136|485:139|485:139|488:136,16,14.9999995422363,2|2|2|2|2|2|2|2|2|2|2|2|2|2|2|2|2,3:0|3:0|3:0|3:0|3:0|3:0|3:0|3:0|3:0|3:0|3:0|3:0|3:0|3:0|3:0|3:0|3:0,0:0:0:0:
228,73,729023,6,0,B|235:37|210:4|210:4|324:44|297:193|169:139|111:272|164:374|328:442|412:295|346:225,1,674.999979400635,8|0,0:3|0:0,0:0:0:0:
341,219,730328,102,0,P|302:225|277:255,1,80,6|0,3:1|0:0,0:0:0:0:
149,194,730980,2,0,P|178:198|197:221,1,60,2|0,0:2|0:0,0:0:0:0:
138,266,731306,5,0,1:1:0:0:
202,0,731632,102,0,P|226:129|243:350,1,350,8|0,1:1|0:0,0:0:0:0:
168,343,732284,6,0,P|180:302|219:282,1,80,4|0,0:3|0:0,0:0:0:0:
419,231,732610,2,0,P|377:241|340:217,1,80,4|0,0:3|0:0,0:0:0:0:
245,66,732936,102,0,B|244:64|244:64|246:67|246:67|243:70|243:70|244:74|244:74|243:78,15,14.9999995422363,2|2|2|2|2|2|2|2|2|2|2|2|2|2|2|2,3:0|3:0|3:0|3:0|3:0|3:0|3:0|3:0|3:0|3:0|3:0|3:0|3:0|3:0|3:0|3:0,0:0:0:0:
242,85,733589,6,0,P|183:95|153:146,1,119.999996337891
176,308,734241,2,0,P|192:261|167:220,1,100
28,162,734893,2,0,P|52:191|90:191,1,80
464,172,735571,102,0,P|430:181|410:209,1,70,2|0,0:2|0:0,0:0:0:0:
476,248,736340,6,0,B|393:199|330:271|356:296|291:364|213:315,1,299.999990844727,2|0,0:2|0:0,0:0:0:0:
82,37,737572,102,0,P|100:52|110:75,1,50,2|0,0:2|0:0,0:0:0:0:
40,100,738172,6,0,P|165:145|349:229,1,329.9999899292,2|0,0:2|0:0,0:0:0:0:
396,288,739439,102,0,B|382:306|380:328|380:328|364:311|342:304,1,89.9999972534181,2|0,0:2|0:0,0:0:0:0:
266,318,740125,6,0,B|274:360|316:375|316:375|246:371|204:319|222:248|222:248|232:235|232:235|209:195|135:169|66:204|66:204|157:191|141:270|222:223|222:223|256:203|256:203|266:197|266:197|273:194|273:194|293:184|293:184|345:102|401:97|466:151|466:151|376:137|344:221|305:155|305:155|281:107|230:78|230:78|249:97|250:124,1,1259.99996154785,2|8,0:2|0:3,0:0:0:0:
476,275,746865,22,0,B|511:282|518:250|541:243|541:243|518:250|495:228|471:252,1,150.000005722046,6|0,1:2|0:0,0:0:0:0:
401,276,747028,2,0,B|365:268|358:300|335:307|335:307|358:300|381:322|405:298,1,150.000005722046,0|0,1:2|0:0,0:0:0:0:
455,373,747191,6,0,P|430:258|394:141,1,239.999992675781,10|0,0:2|0:0,0:0:0:0:
341,91,747435,1,0,0:2:0:0:
341,91,747517,2,0,P|310:59|321:20,1,75.0000028610231,0|0,0:2|0:2,0:0:0:0:
382,7,747680,2,0,P|411:35|403:75,1,75.0000028610231,0|0,1:0|1:0,0:0:0:0:
480,188,747843,86,0,B|509:157|480:97|386:122|399:203|399:203|322:135|234:153,1,359.999989013672,10|0,0:2|0:0,0:0:0:0:
120,114,748169,102,0,P|162:70|221:89,1,119.999996337891,0|0,1:2|0:0,0:0:0:0:
336,257,748332,1,8,0:2:0:0:
46,61,748495,1,0,0:2:0:0:
44,55,748576,1,0,0:2:0:0:
42,49,748658,1,0,1:0:0:0:
256,228,748821,22,0,P|214:272|155:253,1,119.999996337891,10|0,0:2|0:0,0:0:0:0:
29,222,748984,1,0,0:2:0:0:
311,131,749147,6,0,L|357:117,4,32.4999985122681,2|0|0|0|0,0:3|0:3|0:3|0:3|0:3,0:0:0:0:
171,176,749310,1,8,0:2:0:0:
171,176,749473,86,0,P|137:145|66:149,1,100,2|0,1:2|0:0,0:0:0:0:
200,91,749636,2,0,P|217:50|269:24,1,100,0|0,1:2|0:0,0:0:0:0:
29,222,749799,101,8,0:2:0:0:
279,107,749962,2,0,P|371:157|251:180,1,300,2|0,0:2|0:0,0:0:0:0:
89,66,750288,1,0,1:2:0:0:
89,66,750370,1,0,1:0:0:0:
89,66,750451,22,0,P|104:24|164:1,1,100,10|0,0:2|0:0,0:0:0:0:
279,98,750615,2,0,P|323:91|372:131,1,100,0|0,0:2|0:0,0:0:0:0:
346,277,750778,2,0,P|375:315|370:364,1,100,10|0,0:2|0:0,0:0:0:0:
296,381,750941,5,0,0:2:0:0:
296,381,751022,1,0,0:2:0:0:
296,381,751104,2,0,P|266:342|271:293,1,100,0|0,1:2|1:0,0:0:0:0:
350,194,751267,2,0,P|306:201|257:161,1,100,10|0,0:2|0:0,0:0:0:0:
215,57,751430,1,0,0:2:0:0:
215,57,751511,1,0,0:2:0:0:
215,57,751593,2,0,P|199:98|139:121,1,100,0|0,1:2|1:0,0:0:0:0:
89,66,751756,86,0,P|104:24|164:1,1,100,10|0,0:2|0:0,0:0:0:0:
298,38,751919,2,0,P|327:76|322:125,1,100,2|0,0:2|0:0,0:0:0:0:
217,232,752082,102,0,P|168:237|129:209,1,100,2|0,1:2|0:0,0:0:0:0:
76,155,752245,1,0,1:0:0:0:
72,151,752326,1,0,0:2:0:0:
68,147,752408,1,8,0:2:0:0:
244,306,752571,22,0,B|242:371|318:344|363:373|363:373|334:327|350:258|291:257,1,300,2|0,0:2|0:0,0:0:0:0:
217,232,752897,1,0,1:0:0:0:
217,232,752979,1,0,1:0:0:0:
217,232,753060,2,0,P|199:186|240:141,1,100,10|0,0:2|0:0,0:0:0:0:
421,71,753223,1,0,0:0:0:0:
168,92,753386,6,0,P|204:58|261:80,1,100,0|0,1:2|1:0,0:0:0:0:
488,180,753549,1,8,0:2:0:0:
496,188,753712,1,0,0:2:0:0:
496,188,753794,1,0,0:0:0:0:
496,188,753875,2,0,P|459:154|402:176,1,100,2|0,1:2|1:0,0:0:0:0:
207,263,754038,86,0,B|154:257|172:320|146:355|146:355|184:334|238:351|243:303,1,239.999992675781,8|2,0:2|0:2,0:0:0:0:
285,238,754283,1,0,0:0:0:0:
285,238,754365,2,0,L|346:198,2,59.9999981689454,0|2|2,0:2|0:3|0:3,0:0:0:0:
146,355,754528,1,8,0:2:0:0:
276,148,754691,102,0,B|281:115|242:123|221:105|221:105|232:130|219:162|248:168,1,150.000005722046,2|0,1:2|0:0,0:0:0:0:
337,295,754854,2,0,B|331:327|371:319|391:336|391:336|380:311|393:279|363:274,1,150.000005722046,0|0,1:0|0:0,0:0:0:0:
164,189,755017,22,0,P|117:182|52:175,1,100,8|0,0:2|0:0,0:0:0:0:
68,251,755180,2,0,P|105:255|142:261,1,75.0000028610231,2|0,0:2|0:0,0:0:0:0:
462,304,755343,1,0,0:2:0:0:
465,297,755424,1,0,0:0:0:0:
468,290,755506,1,0,1:2:0:0:
471,283,755587,1,0,1:0:0:0:
474,276,755669,2,0,P|466:234|429:107,1,150.000005722046,10|0,0:2|0:0,0:0:0:0:
278,77,755913,1,0,0:0:0:0:
269,73,755995,6,0,B|290:53|258:38|253:15|253:15|248:38|222:54|240:73,1,129.999994049073,6|0,0:3|0:0,0:0:0:0:
182,247,756158,2,0,B|154:251|171:282|161:304|161:304|179:288|210:290|207:264,1,129.999994049073,0|0,0:2|0:0,0:0:0:0:
343,135,756321,2,0,B|356:113|379:132|403:130|403:130|383:142|378:177|353:164,1,129.999994049073,0|0,3:2|0:0,0:0:0:0:
181,242,756484,86,0,B|148:251|167:286|157:310|157:310|175:293|208:298|212:269,1,150.000005722046,6|0,0:3|0:0,0:0:0:0:
341,131,756647,2,0,B|360:108|383:130|410:128|410:128|386:141|388:180|354:171,1,150.000005722046,2|0,0:2|0:0,0:0:0:0:
152,124,756810,2,0,B|137:94|110:123|83:121|83:121|106:135|115:169|142:156,1,150.000005722046
293,268,756973,102,0,B|288:293|319:287|336:301|336:301|327:281|337:255|314:251,1,119.999996337891,2|0,0:2|0:0,0:0:0:0:
267,69,757136,2,0,B|285:50|256:37|251:15|251:15|247:37|223:51|239:69,1,119.999996337891
211,269,757299,22,0,B|205:275|205:275|193:266|193:266|175:280|175:280|153:277|153:277|132:279|132:279|116:277|116:277|124:283,1,112.500004291535,2|0,1:2|0:0,0:0:0:0:
174,353,757625,6,0,B|196:361|211:347|211:347|230:364|230:364|250:336|250:336|272:349|308:347,1,150.000005722046,8|0,0:2|0:0,0:0:0:0:
293,268,757788,2,0,P|327:246|258:218,1,150.000005722046,2|0,0:2|0:0,0:0:0:0:
134,169,757951,85,0,0:0:0:0:
123,165,758033,1,0,0:0:0:0:
113,160,758115,2,0,B|103:135|103:135|86:130|86:130|69:84|69:84|103:93,1,119.999996337891,0|0,1:2|1:0,0:0:0:0:
152,43,758278,102,0,B|185:49|185:49|205:39|205:39|273:53|273:53|241:75,1,150.000005722046,10|0,0:2|0:2,0:0:0:0:
303,126,758522,1,0,0:0:0:0:
303,126,758604,22,0,L|319:207,1,75.0000028610231,0|0,1:2|0:0,0:0:0:0:
197,358,758767,6,0,B|191:326|191:326|207:305|207:305|197:253|197:253|158:303,1,150.000005722046,8|0,0:2|0:0,0:0:0:0:
285,137,758930,2,0,B|305:100|305:100|291:34|291:34|262:81,1,150.000005722046,0|0,0:2|0:0,0:0:0:0:
183,354,759093,2,0,B|184:330|184:330|160:310|160:310|150:253|150:253|187:280,1,150.000005722046,2|0,1:2|1:0,0:0:0:0:
70,255,759256,86,0,P|125:181|218:212,1,200,8|0,0:2|0:0,0:0:0:0:
269,350,759500,1,0,0:0:0:0:
299,310,759582,2,0,P|336:297|338:354,1,100,2|0,0:2|0:0,0:0:0:0:
430,106,759745,2,0,P|393:119|391:62,1,100,8|0,0:2|0:0,0:0:0:0:
434,216,759908,102,0,B|443:219|443:219|455:235|455:235|515:248|515:248|489:259,1,112.500004291535,2|0,1:2|0:0,0:0:0:0:
379,71,760234,22,0,P|384:36|333:73,1,150.000005722046,10|0,0:2|0:0,0:0:0:0:
295,261,760397,2,0,P|290:296|341:259,1,150.000005722046,2|0,0:2|0:0,0:0:0:0:
220,169,760560,5,0,0:0:0:0:
280,164,760642,1,0,0:0:0:0:
339,159,760723,2,0,B|321:168|321:167|321:167|318:152|318:152|290:153|290:153|249:134|249:134|268:153,1,119.999996337891,2|0,1:2|1:0,0:0:0:0:
185,258,760886,86,0,B|147:275|147:275|63:266|63:266|80:281,1,150.000005722046,10|0,0:2|0:0,0:0:0:0:
238,351,761131,1,0,0:0:0:0:
238,351,761212,102,0,B|244:278|376:242|350:357|471:329|489:255,1,300.000011444092,10|0,0:2|0:0,0:0:0:0:
490,189,761457,2,0,P|425:171|411:237,1,150.000005722046,0|0,0:0|1:0,0:0:0:0:
33,101,761701,2,0,B|-7:66|19:17|77:19|102:55|73:99|73:99|122:93|164:150|211:80,1,300.000011444092,10|0,0:2|0:0,0:0:0:0:
90,59,761946,22,0,P|30:32|19:97,1,150.000005722046,0|0,0:0|1:0,0:0:0:0:
80,281,762191,5,10,0:2:0:0:
267,331,762354,85,2,0:2:0:0:
258,340,762435,1,0,0:0:0:0:
249,349,762517,102,0,P|282:286|234:297,1,150.000005722046,2|0,1:2|0:0,0:0:0:0:
193,101,762680,2,0,B|198:133|198:133|179:155|179:155|189:213|189:213|227:177,1,150.000005722046,0|0,1:0|0:0,0:0:0:0:
278,147,762843,22,0,B|315:165|315:165|427:147|427:147|424:182|373:192|344:154,1,239.999992675781,8|2,0:2|0:2,0:0:0:0:
335,76,763087,5,0,0:0:0:0:
365,28,763169,2,0,B|373:2|373:2|362:108,1,100
388,272,763332,2,0,B|391:304|391:304|381:337|381:337|387:381,1,100,2|0,1:2|1:0,0:0:0:0:
310,265,763495,2,0,P|412:198|466:273,1,225.000008583069,10|0,0:2|0:0,0:0:0:0:
258,342,763821,86,0,B|251:333|251:333|224:347|224:347|195:334|195:334|157:331,1,100,2|0,0:2|0:0,0:0:0:0:
26,184,763984,102,0,B|5:170|5:170|55:175|55:175|79:190|79:190|130:196,1,150.000005722046,8|0,0:2|0:0,0:0:0:0:
314,163,764147,2,0,B|342:149|342:149|432:162|432:162|402:181,1,150.000005722046,2|0,0:2|0:0,0:0:0:0:
131,207,764310,2,0,B|98:203|98:203|57:211|57:211|18:204|18:204|75:171,1,150.000005722046,2|0,1:2|1:0,0:0:0:0:
175,121,764473,22,0,B|188:109|188:109|199:86|214:48|214:48|209:127|209:127|230:206|230:206|227:280,1,250,8|0,0:2|0:2,0:0:0:0:
192,285,764718,1,0,0:0:0:0:
194,322,764799,6,0,P|243:360|269:296,1,150.000005722046,2|0,0:2|0:0,0:0:0:0:
376,303,764962,2,0,B|397:297|409:280|409:280|454:328|454:328|478:309|503:304,1,150.000005722046,8|0,0:2|0:0,0:0:0:0:
344,226,765125,86,0,B|340:208|340:208|345:198|345:198|337:191|337:191|330:160|330:160|323:154|323:154|326:143|326:143|320:111,1,112.500004291535,2|0,1:2|0:0,0:0:0:0:
408,137,765451,102,0,B|433:156|444:126|470:108|470:108|438:107|412:81|397:111,1,150.000005722046,8|0,0:2|0:0,0:0:0:0:
242,148,765615,2,0,B|217:129|206:159|180:177|180:177|212:178|238:204|253:174,1,150.000005722046,2|0,0:2|0:0,0:0:0:0:
272,279,765778,22,0,B|282:304|282:304|268:361|268:361|301:322,2,119.999996337891,0|0|0,0:0|0:0|1:0,0:0:0:0:
191,305,766022,1,0,1:0:0:0:
191,305,766104,6,0,B|153:288|153:288|137:300|137:300|77:313|77:313|112:326,1,150.000005722046,10|0,0:2|0:0,0:0:0:0:
344,226,766267,2,0,P|394:228|364:303,1,150.000005722046
249,179,766430,86,0,B|249:166|249:166|241:159|241:159|248:134|231:111|231:111|234:84|234:84|208:115,1,112.500004291535,2|0,0:3|0:0,0:0:0:0:
141,98,766756,102,0,P|108:122|168:126,1,119.999996337891,2|0,0:0|0:0,0:0:0:0:
315,97,766919,2,0,P|355:107|328:141,1,100,2|0,0:3|0:0,0:0:0:0:
336,243,767082,21,0,0:2:0:0:
390,318,767245,5,0,0:0:0:0:
394,334,767408,1,2,0:2:0:0:
398,345,767571,1,0,0:0:0:0:
398,345,767734,86,0,P|362:273|326:233,1,112.500004291535,6|0,1:1|0:0,0:0:0:0:
512,138,768060,102,0,P|477:174|436:203,1,100,8|0,0:2|0:0,0:0:0:0:
261,185,768223,1,0,0:2:0:0:
247,175,768305,1,0,0:0:0:0:
243,157,768386,2,0,P|272:106|283:98,1,50
376,139,768549,21,0,1:2:0:0:
393,141,768631,1,0,1:0:0:0:
428,207,768712,2,0,P|383:228|334:241,1,100,8|0,0:2|0:0,0:0:0:0:
217,319,768875,6,0,P|216:343|224:368,1,50,0|0,0:2|0:0,0:0:0:0:
292,327,769038,1,2,1:2:0:0:
309,322,769120,1,0,1:0:0:0:
319,244,769201,2,0,P|269:249|219:244,1,100,8|0,0:2|0:0,0:0:0:0:
154,134,769365,86,0,P|181:96|209:85,1,50,0|0,0:2|0:0,0:0:0:0:
224,159,769528,1,0,1:2:0:0:
239,168,769610,1,0,1:0:0:0:
211,242,769691,2,0,P|163:225|120:200,1,100,8|0,0:2|0:0,0:0:0:0:
39,176,769854,101,0,0:0:0:0:
26,184,769935,1,0,0:0:0:0:
15,194,770017,2,0,P|55:244|80:256,1,50,2|0,0:3|0:0,0:0:0:0:
115,362,770180,2,0,P|239:338|271:313,1,119.999996337891,8|0,0:0|0:0,0:0:0:0:
392,233,770343,21,4,1:1:0:0:
356,384,770506,1,0,1:0:0:0:
393,156,770669,6,0,B|354:119|345:66|345:66|389:29|455:7|455:7|466:52|513:117|513:117|452:124|419:164,1,450.000017166138,10|0,2:2|0:0,3:0:0:0:
391,240,771076,85,0,0:0:0:0:
374,251,771158,1,0,1:2:0:0:
387,263,771240,1,0,1:0:0:0:
331,316,771321,102,0,B|276:337|276:337|312:291,1,112.500004291535,8|0,0:2|0:0,0:0:0:0:
314,213,771484,21,0,0:0:0:0:
307,225,771566,1,0,0:0:0:0:
243,257,771647,6,0,B|184:248|184:248|239:226,1,112.500004291535,10|0,0:2|0:0,0:0:0:0:
260,157,771810,85,0,0:2:0:0:
256,141,771892,1,0,0:0:0:0:
300,74,771973,1,0,1:2:0:0:
380,67,772055,1,0,1:0:0:0:
437,116,772136,2,0,B|472:69|472:69|418:91,1,112.500004291535,8|0,0:2|0:0,0:0:0:0:
512,210,772299,101,2,0:2:0:0:
489,208,772381,1,0,0:2:0:0:
466,207,772462,1,0,1:2:0:0:
443,205,772544,1,0,1:0:0:0:
418,205,772625,2,0,P|393:231|378:265,1,37.5000014305115,10|0,0:2|0:0,0:0:0:0:
324,329,772788,21,0,0:2:0:0:
302,343,772870,1,8,0:2:0:0:
277,347,772951,2,0,P|221:299|225:256,1,75.0000028610231,6|0,1:1|0:0,0:0:0:0:
68,284,773115,2,0,P|116:286|153:254,1,75.0000028610231,0|0,1:0|0:0,0:0:0:0:
146,384,773278,6,0,B|186:271|234:78,1,300,10|0,0:2|0:0,0:0:0:0:
266,27,773604,2,0,P|325:24|354:63,1,100,0|0,0:2|0:0,0:0:0:0:
325,238,773767,1,0,1:3:0:0:
307,228,773848,1,0,1:3:0:0:
291,219,773930,2,0,B|328:168|337:127|337:127|368:161|427:173,1,200,8|0,0:2|0:3,0:3:0:0:
127,373,774256,85,0,1:2:0:0:
62,346,774337,1,0,1:0:0:0:
44,274,774419,2,0,P|67:229|100:192,1,100,8|0,0:2|0:0,0:0:0:0:
36,120,774582,102,0,P|44:74|48:1,1,100
35,20,774745,2,0,P|27:66|23:139,1,100,0|0,1:0|1:0,0:0:0:0:
111,196,774908,22,0,P|187:291|198:298,1,100,10|0,0:2|0:0,0:0:0:0:
241,368,775071,6,0,P|287:360|360:356,1,100
340,370,775234,2,0,P|294:378|221:382,1,100,2|0,0:2|0:0,0:0:0:0:
179,279,775397,86,0,P|255:183|266:176,1,100,8|0,0:2|0:0,0:0:0:0:
320,144,775560,1,6,1:1:0:0:
465,247,775723,1,0,1:0:0:0:
232,32,775886,102,0,B|248:-4|184:-76|89:-40|37:76|73:171|170:170|186:134,1,375,10|0,0:2|0:0,0:3:0:0:
292,127,776212,21,0,0:2:0:0:
304,136,776294,1,0,0:0:0:0:
374,108,776375,1,0,1:2:0:0:
425,52,776457,1,0,1:0:0:0:
490,87,776538,6,0,B|503:121|503:121|479:178,1,75.0000028610231,10|0,0:2|0:0,0:0:0:0:
385,181,776701,2,0,B|370:145|370:145|383:111,1,75.0000028610231,0|0,0:2|0:0,0:0:0:0:
483,251,776865,86,0,L|512:258,2,30,2|2|0,0:3|0:3|0:0,0:0:0:0:
187,379,778169,102,0,P|195:329|212:282,1,75.0000028610231,6|0,1:1|0:0,0:0:0:0:
90,257,778332,2,0,P|121:244|154:239,1,50,0|0,1:0|0:0,0:0:0:0:
12,19,778495,22,0,P|91:80|160:151,1,200,8|0,0:2|0:0,0:0:0:0:
218,227,778740,1,0,0:0:0:0:
217,223,778821,2,0,P|223:201|228:196,1,25,2|8,0:2|0:0,0:0:0:0:
210,77,778984,5,0,1:0:0:0:
160,151,779066,1,0,1:0:0:0:
71,175,779147,2,0,P|209:118|355:83,1,300,10|0,0:2|0:0,0:0:0:0:
432,108,779473,85,2,1:2:0:0:
406,206,779636,102,0,P|402:230|389:251,1,50,8|0,0:2|0:0,0:0:0:0:
314,226,779799,1,0,0:0:0:0:
311,220,779880,1,0,0:0:0:0:
311,214,779962,1,0,1:2:0:0:
409,198,780125,22,0,P|432:188|456:189,1,50,10|0,0:2|0:0,0:0:0:0:
472,268,780288,1,0,0:2:0:0:
469,274,780369,1,0,0:0:0:0:
463,277,780451,1,0,0:2:0:0:
401,198,780615,6,0,P|381:182|369:160,1,50,10|0,0:2|0:0,0:0:0:0:
317,19,780778,86,0,P|349:65|357:105,1,75.0000028610231,4|0,1:0|0:0,0:0:0:0:
448,61,780941,2,0,P|438:97|421:118,1,50,0|0,1:0|0:0,0:0:0:0:
376,290,781104,102,0,P|396:208|480:72,1,200,10|0,0:2|0:0,0:0:0:0:
503,170,781348,1,0,0:0:0:0:
503,170,781430,2,0,P|500:198|497:204,1,25,2|0,0:2|0:0,0:0:0:0:
294,310,781593,21,0,1:2:0:0:
376,290,781674,1,0,1:0:0:0:
438,354,781756,2,0,P|304:286|143:243,1,300,10|0,0:2|0:0,0:0:0:0:
57,147,782082,6,0,P|101:140|145:178,1,100,10|0,0:2|0:0,0:0:0:0:
112,303,782245,1,0,0:0:0:0:
104,306,782326,1,0,0:0:0:0:
95,307,782408,1,2,1:2:0:0:
21,287,782571,86,0,P|-7:251|4:195,1,100,8|0,0:2|0:0,0:0:0:0:
130,160,782734,1,2,0:0:0:0:
137,165,782815,1,0,0:0:0:0:
142,172,782897,1,0,1:0:0:0:
196,331,783060,102,0,P|187:367|185:393,1,50,10|0,0:2|0:0,0:0:0:0:
179,378,783223,2,0,P|182:353|189:329,1,50,0|8,0:2|0:2,0:0:0:0:
199,60,783386,22,0,P|218:116|224:154,1,75.0000028610231,4|0,1:1|0:0,0:0:0:0:
322,141,783549,2,0,P|296:170|276:186,1,50,0|0,1:0|0:0,0:0:0:0:
161,246,783712,6,0,P|232:214|366:189,1,200,8|0,0:2|0:0,0:0:0:0:
381,84,783957,1,0,0:0:0:0:
385,86,784038,2,0,P|393:95|395:110,1,25
419,241,784201,85,0,1:0:0:0:
469,312,784283,1,0,1:0:0:0:
415,384,784365,2,0,P|422:306|500:56,1,300,8|0,0:2|0:0,0:0:0:0:
431,5,784691,102,0,P|443:30|448:50,1,25,2|0,1:2|0:0,0:0:0:0:
512,247,784854,22,0,P|475:292|425:241,1,100,8|0,0:2|0:0,0:0:0:0:
338,254,785017,1,0,0:2:0:0:
336,247,785098,1,0,0:0:0:0:
334,240,785180,1,0,1:2:0:0:
368,167,785343,6,0,P|331:122|281:173,1,100,10|0,0:2|0:0,0:0:0:0:
199,60,785506,1,0,0:2:0:0:
197,67,785587,1,0,0:0:0:0:
195,74,785669,1,0,0:2:0:0:
260,293,785832,86,0,P|223:338|173:287,1,100,10|0,0:2|0:0,0:0:0:0:
0,120,785995,102,0,L|120:141,1,100,4|0,0:1|0:0,0:0:0:0:
190,195,786158,2,0,L|280:210,1,75.0000028610231,2|0,0:3|0:0,0:0:0:0:
338,254,786321,2,0,L|394:263,1,50,10|0,0:2|0:0,0:0:0:0:
410,279,786810,1,2,0:3:0:0:
410,279,786892,1,2,0:2:0:0:
412,283,786973,2,0,L|440:287,1,25,10|0,0:2|0:0,0:0:0:0:
273,369,787299,22,0,L|264:311,1,50,2|0,0:3|0:0,0:0:0:0:
300,117,787788,6,0,B|270:-36|210:-62|-22:-154|-130:179|84:356|331:381|556:375|458:166|556:125|431:65|269:47|202:79|12:246|129:418|356:387|310:175,1,1350.00005149842,8|0,0:2|0:0,1:0:0:0:
372,57,788604,85,14,1:3:0:0:
256,192,788685,12,2,791212,0:1:0:0:
389,242,799038,102,0,B|318:225|318:225|286:248|286:248|216:231|239:320|174:304|174:304|137:260|137:260|91:251,1,350,2|0,0:1|0:0,0:0:0:0:
292,330,800343,2,0,B|323:271|386:251|386:251|332:209|332:209|336:193|336:193|280:150|280:150|227:189|141:195|141:195|157:247|157:247|176:251|176:251|190:305,1,560,2|0,0:2|0:0,0:0:0:0:
418,349,801647,22,0,B|506:286|482:139|482:139|466:220|466:220|457:111|353:26|353:26|385:123|385:123|313:21|176:10|176:10|240:58|240:58|145:25|63:75|63:75|111:91|111:91|61:115|39:177,1,1320.0000402832,2|0,0:1|0:0,0:0:0:0:
256,192,803930,1,2,0:2:0:0:
60,311,804256,6,0,B|-20:254|1:121|1:121|16:194|16:194|24:95|118:19|118:19|89:106|89:106|154:14|278:4|278:4|220:48|220:48|306:18|380:63|380:63|336:77|336:77|388:87|422:144,1,1200,2|0,0:1|0:0,0:0:0:0:
186,282,806865,86,0,B|153:245|107:248|107:248|171:195|185:119|185:119|246:165|331:158|331:158|301:186|298:236,1,480,2|0,0:1|0:0,0:0:0:0:
226,220,808006,1,2,0:2:0:0:
186,282,808169,102,0,P|195:151|299:233,1,320,2|0,0:2|0:0,0:0:0:0:
120,334,809147,1,4,3:0:0:0:
385,224,809310,1,4,3:0:0:0:
158,43,809473,21,6,3:2:0:0:
139,37,809636,1,0,3:0:0:0:
120,31,809799,1,10,0:2:0:0:
120,31,810044,2,0,L|73:43,4,40,8|0|8|0|0,0:2|0:0|0:2|3:0|3:2,0:0:0:0:
191,126,810615,1,8,0:2:0:0:
365,117,810778,5,2,3:2:0:0:
371,98,810941,1,0,3:0:0:0:
377,79,811104,1,8,0:2:0:0:
377,79,811349,2,0,L|365:32,4,40,8|2|8|0|0,0:2|0:2|0:2|3:0|0:2,0:0:0:0:
256,192,811920,1,8,0:0:0:0:
447,330,812082,85,2,3:2:0:0:
503,270,812245,1,0,3:0:0:0:
424,252,812408,1,10,0:2:0:0:
424,252,812653,2,0,L|437:195,4,40,8|0|8|0|0,0:2|0:0|0:2|3:0|3:0,0:0:0:0:
203,304,813223,1,0,0:2:0:0:
196,299,813305,1,8,0:2:0:0:
189,294,813386,101,2,3:2:0:0:
129,238,813549,1,0,3:0:0:0:
111,317,813712,1,10,0:2:0:0:
111,317,813957,2,0,L|54:304,4,40,8|0|8|0|0,0:2|3:0|0:2|3:0|0:0,0:0:0:0:
129,238,814365,22,0,P|117:218|115:188,1,40,4|0,3:3|0:0,0:0:0:0:
290,331,814528,2,0,P|310:333|344:348,1,40,4|0,3:3|0:0,0:0:0:0:
512,92,814691,5,4,1:0:0:0:
397,133,814854,1,0,3:0:0:0:
419,12,815017,1,10,0:2:0:0:
109,176,815180,2,0,P|211:178|280:219,1,160,4|0,1:1|3:0,0:0:0:0:
267,208,815587,1,0,3:0:0:0:
272,213,815669,1,10,0:2:0:0:
316,142,815832,1,0,0:0:0:0:
481,339,815995,86,0,L|467:241,2,80,2|0|10,3:2|3:0|0:2,0:0:0:0:
260,259,816566,1,8,0:2:0:0:
259,249,816647,1,2,3:2:0:0:
261,239,816729,1,8,0:2:0:0:
264,229,816810,1,0,3:2:0:0:
268,220,816892,1,0,0:0:0:0:
272,213,816973,2,0,L|147:243,1,120,4|0,3:3|0:0,0:0:0:0:
151,233,817299,102,0,P|125:212|119:178,1,40,4|0,1:0|0:0,0:0:0:0:
183,157,817462,2,0,P|171:126|183:93,1,40,0|0,3:0|0:0,0:0:0:0:
247,107,817625,2,0,P|251:75|278:52,1,40,10|0,0:2|0:0,0:0:0:0:
468,155,817788,22,0,L|453:319,1,160,4|0,1:3|3:0,0:0:0:0:
449,307,818196,1,0,3:0:0:0:
444,300,818278,1,10,0:2:0:0:
367,168,818604,6,0,P|355:117|311:85,2,80,10|0|8,0:2|3:0|0:2,0:0:0:0:
367,168,819093,1,2,0:0:0:0:
216,298,819256,85,2,0:2:0:0:
281,180,819419,1,0,3:0:0:0:
141,340,819582,101,2,0:2:0:0:
157,143,819745,2,0,P|151:115|132:93,1,40,4|0,3:3|0:0,0:0:0:0:
53,337,819908,22,0,P|74:279|153:259,1,110.000003356934,4|0,1:0|3:0,0:0:0:0:
141,340,820234,1,10,0:2:0:0:
5,72,820397,2,0,P|74:146|186:123,1,189.999994926453,4|0,1:0|3:0,0:0:0:0:
214,85,820805,1,0,3:0:0:0:
214,85,820886,1,10,0:2:0:0:
214,85,821212,5,2,3:2:0:0:
279,255,821375,1,0,3:0:0:0:
196,216,821538,1,10,0:2:0:0:
269,165,821701,1,0,0:2:0:0:
269,165,821783,1,8,0:2:0:0:
269,165,821865,2,0,P|300:167|330:183,2,47.4999987316132,2|8|0,3:2|0:2|3:0,0:0:0:0:
396,127,822191,85,10,0:2:0:0:
196,216,822354,1,0,0:0:0:0:
393,335,822517,101,4,1:1:0:0:
342,255,822680,1,0,3:0:0:0:
491,212,822843,1,10,0:2:0:0:
291,335,823006,2,0,P|240:345|173:306,1,94.9999974632264,4|0,1:0|0:0,0:0:0:0:
126,318,823250,1,8,0:2:0:0:
126,318,823332,2,0,P|143:283|162:268,1,47.4999987316132,0|0,3:0|3:0,0:0:0:0:
342,255,823495,1,10,0:2:0:0:
231,147,823740,21,8,0:2:0:0:
231,147,823821,6,0,P|212:140|192:142,1,40,2|0,3:2|0:0,0:0:0:0:
172,68,823984,2,0,P|152:71|136:82,1,40,0|0,3:0|0:0,0:0:0:0:
81,26,824147,2,0,P|65:38|57:56,1,40,10|0,0:2|0:0,0:0:0:0:
60,187,824310,1,0,0:0:0:0:
60,187,824392,1,8,0:2:0:0:
60,187,824473,85,2,3:2:0:0:
105,186,824554,1,8,0:2:0:0:
127,227,824636,2,0,P|130:255|103:289,1,47.4999987316132,0|0,3:2|0:0,0:0:0:0:
216,384,824799,2,0,P|213:356|240:321,1,47.4999987316132,4|0,3:3|0:0,0:0:0:0:
56,354,824962,1,10,0:2:0:0:
252,235,825125,101,4,1:0:0:0:
136,345,825288,1,0,3:0:0:0:
187,149,825451,1,10,0:0:0:0:
330,294,825615,2,0,P|342:263|343:232,1,55.0000016784668,4|8,1:0|0:2,0:0:0:0:
323,140,825778,1,2,0:2:0:0:
323,140,825860,1,8,0:2:0:0:
323,140,825941,21,0,3:0:0:0:
278,141,826022,1,0,3:0:0:0:
256,100,826104,1,10,0:2:0:0:
256,100,826430,6,0,P|263:75|236:33,1,55.0000016784668,2|0,3:2|0:0,0:0:0:0:
143,49,826593,2,0,P|134:74|141:100,1,55.0000016784668,0|0,3:2|0:0,0:0:0:0:
247,215,826756,2,0,P|225:203|177:211,1,55.0000016784668,10|0,0:2|0:0,0:0:0:0:
204,292,826919,1,0,0:2:0:0:
241,301,827000,1,8,0:2:0:0:
278,295,827082,1,2,3:2:0:0:
310,275,827163,1,8,0:2:0:0:
332,243,827245,1,0,3:0:0:0:
512,300,827408,86,0,P|487:307|445:280,1,55.0000016784668,2|0,0:2|0:0,0:0:0:0:
461,187,827571,2,0,P|486:178|512:185,1,55.0000016784668,8|0,0:2|0:0,0:0:0:0:
460,298,827734,101,4,3:1:0:0:
367,156,827897,1,0,3:0:0:0:
460,14,828060,1,10,0:2:0:0:
270,124,828223,1,0,3:2:0:0:
270,124,828305,1,8,0:2:0:0:
270,124,828386,21,2,0:2:0:0:
244,159,828467,1,0,0:0:0:0:
266,201,828549,2,0,P|277:225|230:279,1,59.9999981689454,0|0,3:0|3:0,0:0:0:0:
340,78,828712,1,10,0:2:0:0:
120,132,829038,6,0,P|92:125|34:139,1,59.9999981689454,2|0,0:2|0:0,0:0:0:0:
125,243,829201,2,0,P|110:218|59:187,1,59.9999981689454,0|0,3:0|3:0,0:0:0:0:
50,327,829365,2,0,P|57:299|43:241,1,59.9999981689454,10|0,0:2|0:0,0:0:0:0:
155,349,829528,1,0,0:2:0:0:
155,349,829609,1,8,0:2:0:0:
155,349,829691,86,0,L|229:329,1,59.9999981689454,2|0,0:2|0:0,0:0:0:0:
308,235,829854,2,0,L|382:255,1,59.9999981689454,2|0,3:2|0:0,0:0:0:0:
449,363,830017,101,2,0:2:0:0:
202,222,830180,1,0,0:0:0:0:
449,81,830343,6,0,P|427:87|449:74,1,67.4999979400635,6|0,0:2|0:0,0:0:0:0:
354,70,830669,38,0,P|356:49|361:34,3,22.4999993133545,0|0|0|0,0:3|0:0|0:0|0:0,1:0:0:0:
290,121,830995,6,0,P|281:101|278:86,2,22.4999993133545,2|0|0,0:3|0:0|0:0,0:0:0:0:
60,297,831647,54,0,P|77:294|91:299,1,22.4999993133545,2|0,0:2|0:0,0:0:0:0:
127,238,831810,2,0,P|141:247|147:261,1,22.4999993133545,2|0,0:0|0:0,0:0:0:0:
215,243,831973,38,0,P|217:251|217:262,6,11.2499996566773,6|0|0|0|2|0|0,0:2|0:0|0:2|0:0|0:2|0:0|0:0,1:0:0:0:
278,296,832299,6,0,P|268:310|254:316,1,22.4999993133545,2|0,0:3|0:0,0:0:0:0:
169,67,832951,54,0,L|169:95,2,22.4999993133545,2|0|0,0:2|0:0|0:0,0:0:0:0:
246,139,833278,38,0,L|225:138,6,11.2499996566773,6|0|0|0|2|0|0,0:2|0:0|0:0|0:0|0:2|0:0|0:0,1:0:0:0:
164,199,833604,6,0,L|164:176,1,22.4999993133545,2|0,0:3|0:0,0:0:0:0:
438,348,834256,102,2,P|446:312|432:284,1,50,2|0,0:2|0:0,1:1:0:0:
512,270,834419,22,0,P|492:238|465:231,15,66.6666666666667,2|0|0|0|0|0|0|0|0|0|0|0|0|0|0|0,0:2|0:0|0:0|0:3|0:0|0:0|0:3|0:0|0:0|0:3|0:0|0:0|0:3|0:0|0:0|0:3,1:0:0:0:
391,192,834908,86,2,P|383:228|397:256,1,50,2|0,0:2|0:0,1:3:0:0:
317,270,835071,22,0,P|337:302|364:309,15,66.6666666666667,2|0|0|0|0|0|0|0|0|0|0|0|0|0|0|0,0:2|0:0|0:0|0:3|0:0|0:0|0:3|0:0|0:0|0:3|0:0|0:0|0:3|0:0|0:0|0:3,1:2:0:0:
186,222,835560,86,0,B|232:262|234:318|220:357|220:357|141:369|106:308|106:308|140:270|170:235|172:176|172:176|158:99|158:99|133:78|133:78|125:25|125:25|22:37|22:37|-3:77|-3:77|63:71,1,800,4|8,1:0|0:2,3:0:0:0:
28,164,835968,1,0,0:3:0:0:
28,164,836049,2,0,L|89:157,1,50,0|8,3:0|0:1,0:0:0:0:
237,31,836212,5,0,3:0:0:0:
276,64,836294,1,0,3:0:0:0:
310,44,836375,2,0,B|329:32|329:32|355:47|355:47|392:41,1,83.0000012031555,0|0,3:0|0:0,0:0:0:0:
251,106,836538,101,10,0:2:0:0:
287,128,836620,1,0,0:0:0:0:
311,92,836701,1,0,3:0:0:0:
342,117,836783,1,0,3:0:0:0:
373,87,836865,2,0,B|390:79|390:79|390:49|390:49|422:29,1,83.0000012031555,0|0,3:0|0:0,0:0:0:0:
314,167,837028,5,10,0:2:0:0:
355,175,837110,1,0,0:0:0:0:
365,133,837191,1,0,3:0:0:0:
403,146,837273,1,0,3:0:0:0:
421,107,837355,2,0,B|434:93|434:93|423:65|423:65|447:35,1,83.0000012031555,0|0,3:0|0:0,0:0:0:0:
441,179,837517,102,0,B|436:152|436:152|457:144|457:144|462:112,3,62.5,10|0|0|0,0:2|0:0|0:0|0:0,3:0:0:0:
500,51,837680,2,0,B|505:24|505:24|484:16|484:16|479:-16,3,62.5,0|0|0|0,3:0|0:0|3:0|0:0,3:0:0:0:
477,145,837843,2,0,B|475:157|475:157|454:165|454:165|459:192,3,62.5,2|0|2|0,1:3|3:0|3:3|3:0,0:0:0:0:
445,293,838006,2,0,B|446:305|446:305|469:325|469:325|462:372,1,83.0000012031555,8|0,0:2|0:0,0:0:0:0:
349,362,838169,6,0,B|351:289|304:230|229:218|229:218|258:266|256:320|231:349|231:349|125:334|125:334|92:361|92:361|-13:378,1,600,4|0,1:0|0:0,3:0:0:0:
63,240,838495,2,0,L|1:251,1,50,0|0,1:0|1:0,0:0:0:0:
58,260,838576,2,0,L|-4:271,1,50,0|0,1:0|1:0,0:0:0:0:
53,280,838658,2,0,L|-9:291,6,50,2|0|0|0|2|0|0,0:3|0:3|0:0|0:0|0:3|0:0|0:0,1:0:0:0:
149,249,838821,101,0,0:0:0:0:
155,223,838903,1,8,3:1:0:0:
220,181,838984,1,0,1:0:0:0:
185,105,839066,1,0,1:0:0:0:
112,151,839147,6,0,B|49:141|49:141|11:10,1,200,10|0,0:2|3:0,3:0:0:0:
57,75,839392,1,0,3:0:0:0:
57,75,839473,102,2,B|116:55|116:55|123:18,1,100,10|0,0:2|0:0,3:2:0:0:
296,113,839636,2,0,B|355:93|355:93|362:56,1,100,0|8,3:0|0:1,0:0:0:0:
241,16,839799,1,0,1:0:0:0:
85,70,839962,6,2,B|146:82|146:82|170:54,1,100,10|0,0:2|0:0,3:2:0:0:
272,222,840125,2,0,B|333:234|333:234|357:206,1,100,0|8,3:0|0:1,0:0:0:0:
273,110,840288,1,0,1:0:0:0:
21,174,840451,102,0,B|67:215|67:215|103:203,6,100,8|8|8|8|8|8|8,0:1|0:1|0:1|0:1|0:1|0:1|0:3,3:2:0:0:
27,333,840778,5,0,1:0:0:0:
12,318,840859,1,0,1:0:0:0:
27,304,840941,1,0,1:0:0:0:
41,318,841022,1,0,1:0:0:0:
127,328,841104,102,0,B|167:374|223:376|262:362|262:362|274:283|197:243|197:243|173:197|200:133,1,400,10|0,0:2|0:0,3:2:0:0:
302,33,841348,1,8,0:1:0:0:
355,9,841430,5,0,3:0:0:0:
388,48,841512,1,0,3:0:0:0:
368,82,841593,2,0,B|356:101|356:101|371:127|371:127|365:164,1,83.0000012031555,0|0,3:0|0:0,0:0:0:0:
430,23,841756,101,10,0:2:0:0:
452,59,841837,1,0,0:0:0:0:
416,83,841919,1,0,3:0:0:0:
441,114,842000,1,0,3:0:0:0:
411,145,842083,2,0,B|403:162|403:162|373:162|373:162|353:194,1,83.0000012031555,0|0,3:0|0:0,0:0:0:0:
491,86,842245,5,10,0:2:0:0:
499,127,842326,1,0,0:0:0:0:
457,137,842408,1,0,3:0:0:0:
470,175,842490,1,0,3:0:0:0:
431,193,842571,2,0,B|417:206|417:206|389:195|389:195|359:219,1,83.0000012031555,0|0,3:0|0:0,0:0:0:0:
258,148,842734,102,0,B|213:129|213:129|234:180,3,100,10|0|0|0,0:2|0:0|0:0|0:0,3:0:0:0:
265,263,842897,2,2,B|226:291|226:291|281:299,3,100,0|0|0|0,3:0|0:0|3:0|0:0,0:2:0:0:
362,336,843060,2,0,B|364:359|364:359|381:337,6,50,0|0|0|0|0|0|0,1:0|3:0|3:0|3:0|3:2|3:0|3:0,0:0:0:0:
467,315,843223,2,0,B|489:324|489:324|478:298,6,50,8|0|0|0|0|0|0,3:1|0:0|0:0|0:0|0:0|0:0|0:0,1:0:0:0:
369,240,843386,6,0,B|405:187|381:129|381:129|319:92|325:14|325:14|471:34|471:34|493:145|493:145|401:133,1,600,0|0,1:0|0:0,3:0:0:0:
211,52,843712,102,2,B|201:24|201:24|82:74|82:74|69:25,1,200,8|0,0:2|0:0,0:2:0:0:
59,28,843957,2,2,B|69:68|69:68|188:18|188:18|198:45,1,200,0|8,0:0|0:1,0:2:0:0:
186,41,844201,2,2,B|176:13|176:13|57:63|57:63|46:23,1,200,0|0,0:0|0:0,0:2:0:0:
33,16,844446,2,2,B|43:56|43:56|162:6|162:6|172:33,1,200,0|0,3:1|0:0,0:2:0:0:
279,139,844691,5,10,0:2:0:0:
240,119,844773,1,0,0:0:0:0:
220,157,844854,1,0,3:0:0:0:
187,134,844936,1,0,3:0:0:0:
159,167,845018,2,0,B|142:176|142:176|145:206|145:206|115:229,1,83.0000012031555,0|0,3:0|0:0,0:0:0:0:
0,161,845180,101,10,0:2:0:0:
34,136,845262,1,0,0:0:0:0:
60,170,845343,1,0,3:0:0:0:
89,142,845425,1,0,3:0:0:0:
122,170,845507,6,0,B|139:176|139:176|142:206|142:206|175:223,1,83.0000012031555,0|0,3:0|3:0,0:0:0:0:
9,283,845669,102,0,L|20:376,1,83.4999973880769,8|0,0:2|0:0,0:0:0:0:
118,335,845832,2,0,L|123:381,3,41.7499986940384,8|8|0|0,0:1|0:1|0:1|0:1,0:0:0:0:
0,161,845995,6,0,B|-21:135|19:82|19:82|9:100|4:120|4:120|1:45|70:28|70:28|55:38|41:53|41:53|78:-15|158:2|158:2|135:0|108:10|108:10|187:-29|247:31|247:31|226:15|201:8|201:8|287:16|302:99|302:99|294:74|274:55|274:55|340:98|314:175|314:175|317:155|313:134|313:134|330:205|298:234,1,1165.49996676593,4|0,1:0|0:0,3:2:0:0:
227,190,846321,2,2,P|114:96|153:237,1,389.999982147218,10|0,0:2|0:0,0:2:0:0:
335,313,846647,102,2,L|335:362,1,37.5000014305115,0|0,3:0|0:0,0:1:0:0:
362,311,846729,22,2,L|390:415,1,57.5000010967255,0|0,3:0|0:0,0:1:0:0:
386,301,846810,86,2,L|412:346,1,34.9999989318848,0|0,3:0|0:0,0:1:0:0:
407,285,846892,22,2,L|468:346,1,44.999998626709,0|0,3:0|0:0,0:1:0:0:
423,264,846973,86,2,L|517:319,1,100,10|0,0:2|0:0,3:1:0:0:
433,240,847055,22,2,L|536:268,1,55.0000016784668,0|0,3:0|0:0,0:1:0:0:
436,215,847136,86,2,L|474:215,1,37.5000014305115,0|0,3:0|0:0,0:1:0:0:
433,189,847218,22,2,L|506:169,1,42.5000008106232,0|0,3:0|0:0,0:1:0:0:
423,165,847299,86,2,L|462:142,1,25,0|0,3:0|0:0,0:1:0:0:
407,144,847381,22,2,L|460:90,1,44.999998626709,0|0,3:0|0:0,0:1:0:0:
386,128,847462,86,2,L|440:34,1,100,10|0,0:2|0:0,3:1:0:0:
362,118,847544,22,2,L|390:14,1,55.0000016784668,0|0,3:0|0:0,0:1:0:0:
337,115,847625,86,2,L|336:70,1,34.9999989318848,0|0,3:0|0:0,0:1:0:0:
311,118,847707,22,2,L|292:49,1,44.999998626709,0|0,3:0|0:0,0:1:0:0:
287,128,847788,86,2,L|269:97,1,25,0|0,3:0|0:0,0:1:0:0:
266,144,847870,22,2,L|212:90,1,40,0|0,3:0|0:0,0:1:0:0:
250,165,847951,86,2,L|156:111,1,100,10|0,0:2|0:0,3:1:0:0:
240,189,848033,22,2,L|136:161,1,55.0000016784668,0|0,3:0|0:0,0:1:0:0:
237,214,848115,86,2,L|172:215,1,40,2|0,3:3|0:0,0:1:0:0:
240,240,848196,22,2,L|177:257,1,52.4999983978272,8|0,3:1|0:0,0:1:0:0:
250,264,848278,86,2,L|175:307,1,80,0|0,1:0|0:0,0:1:0:0:
266,285,848359,22,2,L|189:362,1,59.9999981689454,0|0,3:0|0:0,1:1:0:0:
287,301,848441,86,2,L|233:395,1,89.9999972534181,8|0,0:2|0:0,0:1:0:0:
311,311,848522,22,2,L|283:415,1,64.9999970245363,0|0,3:0|0:0,0:1:0:0:
374,366,848604,86,0,B|414:377|447:326|447:326|432:342|413:351|413:351|490:333|489:257|489:257|485:276|470:298|470:298|529:248|491:169|491:169|497:196|496:222|496:222|520:143|451:100|451:100|469:114|477:137|477:137|461:59|382:57|382:57|403:61|424:77|424:77|368:21|282:58,1,990.000009441376,4|0,1:0|0:0,3:0:0:0:
281,266,848930,6,0,P|300:280|322:288,1,48.3333348083497,0|0,1:0|1:0,0:0:0:0:
414,245,849038,2,0,P|419:212|412:180,3,65.0000002479553,0|2|0|0,1:0|1:3|0:0|0:0,1:0:0:0:
322,130,849256,102,0,P|292:141|267:162,1,64.9999970245363,0|8,3:0|0:1,0:0:0:0:
270,265,849419,2,0,P|295:285|325:297,1,64.9999970245363,0|0,1:0|1:0,0:0:0:0:
336,213,849582,2,0,L|6:213,1,330.000010070801,10|0,0:2|0:0,3:0:0:0:
0,23,849908,22,2,L|0:150,1,100,10|0,0:2|0:0,3:1:0:0:
42,23,849990,86,2,L|42:100,1,55.0000016784668,0|0,3:0|0:0,0:1:0:0:
85,23,850071,22,2,L|85:56,1,32.4999985122681,0|0,3:0|0:0,0:1:0:0:
128,23,850153,86,2,L|128:100,1,57.5000010967255,8|0,3:1|0:0,0:1:0:0:
170,23,850234,22,2,L|170:56,1,25,0|0,1:0|0:0,0:1:0:0:
213,23,850316,86,2,L|213:79,1,37.5000014305115,0|0,1:0|0:0,0:1:0:0:
256,23,850397,22,2,L|256:150,1,100,8|0,0:2|0:0,3:1:0:0:
298,23,850479,86,2,L|298:83,1,59.9999981689454,0|0,3:0|0:0,0:1:0:0:
341,23,850560,22,2,L|341:53,1,25,2|2,3:3|0:3,0:1:0:0:
384,23,850642,86,2,L|384:72,1,44.999998626709,8|0,3:1|0:0,0:1:0:0:
426,23,850723,22,2,L|426:72,1,29.9999990844727,0|0,1:0|0:0,0:1:0:0:
469,23,850805,86,2,L|469:72,1,44.999998626709,0|0,1:0|0:0,1:1:0:0:
512,23,850886,22,2,B|496:31|496:31|496:15|496:15|480:31|480:31|480:15|480:15|464:31|464:31|464:15|464:15|448:31|448:31|448:15|448:15|432:31|432:31|432:15|432:15|416:31|416:31|416:15|416:15|400:31|400:31|400:15|400:15|384:31|384:31|384:15|384:15|368:31|368:31|368:15|368:15|352:31|352:31|352:15|352:15|336:31|336:31|336:15|336:15|320:31|320:31|320:15|320:15|304:31|304:31|304:15|304:15|288:31|288:31|288:15|288:15|272:31|272:31|272:15|272:15|256:31|256:31|256:15|256:15|240:31|240:31|240:15|240:15|224:31|224:31|224:15|224:15|208:31|208:31|208:15|208:15|192:31|192:31|192:15|192:15|176:31|176:31|176:15|176:15|160:31|160:31|160:15|160:15|144:31|144:31|144:15|144:15|128:31|128:31|128:15|128:15|112:31|112:31|112:15|112:15|96:31|96:31|96:15|96:15|80:31|80:31|80:15|80:15|64:31|64:31|64:15|64:15|48:31|48:31|48:15|48:15|32:31|32:31|32:15|32:15|16:31|16:31|16:15|16:15|0:23,1,1210.4999827991,8|8,0:2|0:2,1:1:0:0:
256,361,851212,101,4,1:3:0:0:
256,276,851294,1,4,1:3:0:0:
256,192,851375,1,4,1:3:0:0:
256,107,851457,1,4,1:3:0:0:
256,23,851538,2,0,L|256:361,1,337.500012874604,10|8,0:2|0:1,3:0:0:0:
425,192,851865,6,2,L|467:192,1,37.5000014305115,0|0,3:2|0:0,0:1:0:0:
397,164,851946,86,2,L|441:119,1,57.5000010967255,0|0,3:0|0:0,0:1:0:0:
369,136,852028,22,2,L|413:91,1,34.9999989318848,0|0,3:0|0:0,0:1:0:0:
340,107,852109,86,2,L|384:62,1,44.999998626709,0|0,3:0|0:0,0:1:0:0:
312,79,852191,22,2,L|385:5,1,100,10|0,0:2|0:0,3:1:0:0:
284,51,852272,86,2,L|328:6,1,55.0000016784668,0|0,3:0|0:0,0:1:0:0:
256,23,852354,22,2,L|256:-12,1,25,0|0,3:0|0:0,0:1:0:0:
228,50,852435,86,2,L|196:18,1,42.5000008106232,0|0,3:0|0:0,0:1:0:0:
200,78,852517,22,2,L|168:46,1,25,0|0,3:0|0:0,0:1:0:0:
171,107,852598,86,2,L|139:75,1,44.999998626709,0|0,3:0|0:0,0:1:0:0:
143,135,852680,22,2,L|66:58,1,100,10|0,0:2|0:0,3:1:0:0:
115,163,852761,86,2,L|38:86,1,55.0000016784668,0|0,3:0|0:0,0:1:0:0:
87,192,852843,22,2,L|34:192,1,34.9999989318848,0|0,3:0|0:0,0:1:0:0:
114,219,852924,86,2,L|76:256,1,44.999998626709,0|0,3:0|0:0,0:1:0:0:
142,247,853006,22,2,L|112:276,1,25,0|0,3:0|0:0,0:1:0:0:
171,276,853087,86,2,L|141:305,1,40,0|0,3:0|0:0,0:1:0:0:
199,304,853169,22,2,L|127:375,1,100,8|0,0:2|0:0,3:1:0:0:
227,332,853250,86,2,L|183:375,1,55.0000016784668,0|0,3:0|0:0,0:1:0:0:
256,361,853332,22,2,L|256:403,1,25,0|0,3:0|0:0,0:1:0:0:
283,333,853413,86,2,L|326:377,1,52.4999983978272,0|0,3:0|0:0,0:1:0:0:
311,305,853495,22,2,L|405:401,1,80,0|0,1:0|0:0,0:1:0:0:
340,276,853576,86,2,L|396:334,1,59.9999981689454,0|0,3:0|0:0,0:1:0:0:
368,248,853658,22,2,L|436:317,1,89.9999972534181,8|0,0:1|0:0,1:1:0:0:
396,220,853740,86,2,L|464:289,1,59.9999981689454,0|0,3:0|0:0,0:1:0:0:
512,290,853821,22,2,B|464:298|464:298|496:306|472:274|448:290|448:290|400:298|400:298|432:306|408:274|384:290|384:290|336:298|336:298|368:306|344:274|320:290|320:290|272:298|272:298|304:306|280:274|256:290|256:290|208:298|208:298|240:306|216:274|192:290|192:290|144:298|144:298|176:306|152:274|128:290|128:290|80:298|80:298|112:306|88:274|64:290|64:290|16:298|16:298|48:306|24:274|0:290,1,822.000023204041,0|0,1:0|0:0,3:2:0:0:
256,69,854147,86,2,P|256:194|255:69,1,390.000001487732,10|8,0:0|0:1,3:1:0:0:
256,69,854392,2,2,P|256:193|253:69,1,390.000001487732,2|0,0:0|0:0,3:1:0:0:
256,69,854636,2,2,P|256:194|255:69,1,390.000001487732,2|0,0:0|0:0,3:1:0:0:
256,69,854881,2,2,P|256:193|253:69,1,390.000001487732,2|0,0:0|0:0,3:1:0:0:
256,69,855125,2,2,P|256:194|255:69,1,390.000001487732,10|0,0:0|0:0,3:1:0:0:
256,69,855370,2,2,P|256:193|253:69,1,390.000001487732,2|0,0:0|0:0,3:1:0:0:
257,79,855615,22,2,B|268:79|301:85|308:118|308:130|308:130|308:133|308:133|308:145|301:178|268:184|257:184|257:184|254:184|254:184|242:184|209:178|202:145|202:133|202:133|202:130|202:130|202:118|209:85|242:79|254:79|254:79|257:82|257:82|268:82|298:89|305:118|305:130|305:130|305:133|305:133|305:145|298:174|268:181|257:181|257:181|254:181|254:181|242:181|212:174|206:145|206:133|206:133|206:130|206:130|206:118|212:89|242:82|254:82|254:82|257:85|257:85|268:85|295:92|301:118|301:130|301:130|301:133|301:133|301:145|295:171|268:178|257:178|257:178|254:178|254:178|242:178|216:171|209:145|209:133|209:133|209:130|209:130|209:118|216:92|242:85|254:85|254:85|257:89|257:89|268:89|291:95|298:118|298:130|298:130|298:133|298:133|298:145|291:167|268:174|257:174|257:174|254:174|254:174|242:174|219:167|212:145|212:133|212:133|212:130|212:130|212:118|219:95|242:89|254:89|254:89|257:92|257:92|268:92|288:99|295:118|295:130|295:130|295:133|295:133|295:145|288:164|268:171|257:171|257:171|254:171|254:171|242:171|223:164|216:145|216:133|216:133|216:130|216:130|216:118|223:99|242:92|254:92|254:92|257:95|257:95|268:95|284:102|291:118|291:130|291:130|291:133|291:133|291:145|284:161|268:167|257:167|257:167|254:167|254:167|242:167|226:161|219:145|219:133|219:133|219:130|219:130|219:118|226:102|242:95|254:95|254:95|257:99|257:99|268:99|282:105|288:118|288:130|288:130|288:133|288:133|288:145|282:158|268:164|257:164|257:164|254:164|254:164|242:164|229:158|223:145|223:133|223:133|223:130|223:130|223:118|229:105|242:99|254:99|254:99|257:102|257:102|268:102|279:108|284:118|284:130|284:130|284:133|284:133|284:145|279:154|268:161|257:161|257:161|254:161|254:161|242:161|232:154|226:145|226:133|226:133|226:130|226:130|226:118|232:108|242:102|254:102|254:102|257:105|257:105|268:105|274:112|282:118|282:130|282:130|282:133|282:133|282:145|274:150|268:158|257:158|257:158|254:158|254:158|242:158|236:150|229:145|229:133|229:133|229:130|229:130|229:118|236:112|242:105|254:105|254:105|257:108|257:108|268:108|271:116|279:118|279:130|279:130|279:133|279:133|279:145|271:147|268:154|257:154|257:154|254:154|254:154|242:154|240:147|232:145|232:133|232:133|232:130|232:130|232:118|240:116|242:108|256:133|256:133,1,2400.00009155274,4|8,0:1|0:1,3:3:0:0:
449,33,856430,86,0,P|445:47|443:62,1,30,4|0,1:0|0:0,3:0:0:0:
437,67,856756,6,2,B|391:34|391:34|383:-17|383:-17|428:109|428:109|432:112|432:112|457:184|457:184|439:243|439:243|405:270|405:270|399:291,1,450.000017166138,10|0,0:2|0:0,0:2:0:0:
374,384,857082,101,2,3:2:0:0:
344,344,857163,1,0,3:0:0:0:
302,317,857245,1,0,3:0:0:0:
253,307,857326,1,0,3:0:0:0:
248,314,857408,22,2,P|226:326|207:343,1,50,10|0,0:2|0:0,3:1:0:0:
26,384,857571,85,0,3:0:0:0:
67,333,857652,1,0,3:0:0:0:
94,274,857734,1,0,3:0:0:0:
105,210,857815,1,0,3:0:0:0:
111,203,857897,22,2,P|100:175|83:152,1,50,10|0,0:2|0:0,3:1:0:0:
161,23,858060,85,0,3:0:0:0:
161,99,858141,1,0,3:0:0:0:
195,169,858223,1,0,3:0:0:0:
257,217,858304,1,0,3:0:0:0:
264,211,858386,22,2,P|288:211|313:206,1,50,10|0,0:2|0:0,3:1:0:0:
512,214,858549,85,0,3:0:0:0:
512,129,858631,1,8,3:1:0:0:
481,50,858712,22,2,B|420:34|420:34|409:-15,3,100,2|0|2|0,1:3|3:0|3:3|3:0,0:2:0:0:
481,42,858875,86,2,B|443:54|443:54|435:59|435:59|385:63,1,100,8|0,0:2|0:0,0:1:0:0:
258,280,859038,6,0,B|287:189|227:193|281:58,1,187.5,4|0,0:1|0:0,3:0:0:0:
267,6,859201,2,0,P|265:64|263:6,1,175.00000166893,0|0,0:0|0:0,1:0:0:0:
371,329,859365,101,0,1:0:0:0:
371,329,859419,1,0,1:0:0:0:
371,329,859473,1,0,1:0:0:0:
371,329,859528,2,0,L|104:294,1,225.000008583069,2|0,0:3|0:0,1:0:0:0:
146,305,859691,6,0,L|161:360,1,50,0|8,0:0|0:1,0:0:0:0:
16,285,859854,101,0,1:0:0:0:
9,296,859935,1,0,1:0:0:0:
41,378,860017,6,0,B|54:360|54:360|109:331|109:331|129:259|129:259|128:251|128:251|152:153|152:153|148:145|148:145|46:105|46:105|-1:147,1,450.000017166138,8|0,0:2|0:0,3:0:0:0:
0,0,860343,102,2,B|199:77|199:77|231:41|279:47,1,300,10|8,0:2|0:1,3:1:0:0:
400,10,860669,21,0,1:0:0:0:
455,67,860750,1,0,1:0:0:0:
409,0,860832,2,2,P|295:92|281:237,1,300,10|8,0:2|0:1,3:1:0:0:
307,384,861158,2,0,P|350:365|354:318,1,100,0|0,1:0|1:0,3:0:0:0:
190,130,861321,86,2,B|147:112|147:112|150:108|150:108|174:111|174:111|177:115|177:115|207:118,7,100,10|0|0|0|0|0|8|0,0:2|0:0|0:0|0:0|0:0|0:0|0:1|0:0,1:1:0:0:
319,152,861647,5,0,1:0:0:0:
312,116,861729,1,0,1:0:0:0:
310,153,861810,101,0,1:0:0:0:
301,117,861892,1,0,1:0:0:0:
303,157,861973,6,0,B|509:224|509:224|521:272|521:272|527:281|527:281|537:329|537:329|440:361|440:361|447:340,1,450.000017166138,14|0,0:2|0:0,3:0:0:0:
354,317,862299,101,2,3:2:0:0:
305,304,862380,1,0,3:0:0:0:
255,305,862462,1,0,3:0:0:0:
207,318,862543,1,0,3:0:0:0:
209,326,862625,22,2,P|190:342|172:359,1,50,10|0,0:2|0:0,3:1:0:0:
90,146,862788,85,0,3:0:0:0:
135,184,862869,1,0,3:0:0:0:
189,210,862951,1,0,3:0:0:0:
248,223,863032,1,0,3:0:0:0:
254,212,863115,22,2,P|276:201|302:181,1,50,10|0,0:2|0:0,3:1:0:0:
466,65,863278,85,0,3:2:0:0:
393,86,863359,1,0,3:0:0:0:
319,84,863441,1,0,3:0:0:0:
248,59,863522,1,0,3:0:0:0:
252,52,863604,22,2,P|234:33|221:12,1,50,10|0,0:2|0:0,3:1:0:0:
10,8,863767,85,0,3:0:0:0:
1,44,863848,1,8,0:1:0:0:
21,76,863930,2,2,L|119:59,1,100,0|0,1:0|0:0,0:1:0:0:
372,18,864093,2,0,L|356:117,1,100,8|0,0:2|0:0,1:0:0:0:
193,367,864256,22,0,B|272:354|236:304|297:219|354:231,1,225.000008583069,4|0,1:0|0:0,3:0:0:0:
446,260,864419,2,0,B|468:237|459:196|423:182|423:182|448:224|428:261,1,175.00000166893,2|0,3:2|0:0,0:2:0:0:
422,364,864582,86,2,P|294:290|112:258,1,300.000011444092,10|0,3:2|0:0,0:0:0:0:
356,117,864826,22,2,P|242:128|138:177,1,230.000004386902,2|0,3:2|0:0,0:2:0:0:
209,0,865071,86,2,P|146:40|101:99,1,150.000005722046,2|0,3:2|0:0,0:2:0:0:
42,184,865397,21,0,1:0:0:0:
19,230,865479,1,0,1:0:0:0:
17,241,865560,86,2,L|26:307,1,50,10|0,0:2|0:0,3:1:0:0:
122,384,865723,21,2,3:2:0:0:
128,320,865804,1,0,3:0:0:0:
140,259,865886,1,0,3:0:0:0:
161,199,865967,1,0,3:0:0:0:
170,194,866049,86,2,P|182:164|196:133,1,50,10|0,0:2|0:0,3:1:0:0:
289,0,866212,21,0,3:0:0:0:
296,77,866293,1,0,3:0:0:0:
316,154,866375,1,0,3:0:0:0:
347,226,866456,1,0,3:0:0:0:
420,263,866538,2,2,B|444:279|444:279|435:224|435:224|424:215,6,100,8|0|0|0|2|0|8,1:2|0:0|0:3|0:0|0:3|0:0|0:1,1:1:0:0:
99,275,866865,86,0,B|82:266|84:246|84:246|101:258|99:271,1,60,4|0,1:0|0:0,3:0:0:0:
149,332,867191,6,2,B|115:373|36:330|115:373|63:309|-19:369|-19:369|63:309|18:248|35:330|17:249|63:226|63:226|137:189|164:290|244:263|275:222|284:192,1,600,10|0,0:2|0:0,0:2:0:0:
114,0,867517,101,2,3:2:0:0:
138,72,867598,1,0,3:0:0:0:
204,102,867680,1,0,3:0:0:0:
222,121,867761,1,0,3:0:0:0:
220,136,867843,22,2,P|213:158|197:180,1,37.5000014305115,10|0,0:2|0:0,3:1:0:0:
208,384,868006,85,0,3:0:0:0:
271,324,868087,1,0,3:0:0:0:
277,248,868169,1,0,3:0:0:0:
278,216,868250,1,0,3:0:0:0:
282,196,868332,22,2,P|293:168|313:134,1,50,10|0,0:2|0:0,3:1:0:0:
512,0,868495,85,0,3:0:0:0:
502,85,868576,1,0,3:0:0:0:
446,142,868658,1,0,3:0:0:0:
395,165,868740,1,0,3:0:0:0:
384,174,868821,22,2,P|361:212|355:242,1,62.5,10|0,0:2|0:0,3:1:0:0:
502,384,868984,1,0,3:0:0:0:
509,381,869066,1,8,0:1:0:0:
512,377,869147,86,2,B|531:363|531:330|531:330|522:357|495:369,2,100,0|2|0,1:0|3:0|0:0,1:1:0:0:
459,305,869310,22,2,B|471:291|491:248|464:249|477:219|502:192,1,100,8|0,0:2|0:0,0:1:0:0:
352,11,869473,86,0,B|313:26|294:64|294:64|347:19|415:-3|484:5,1,225.000008583069,4|0,0:1|0:0,3:0:0:0:
424,6,869636,2,0,P|407:60|364:83,1,75.0000028610231,2|0,3:2|0:0,0:0:0:0:
163,57,869799,5,0,1:0:0:0:
156,54,869854,1,0,1:0:0:0:
151,49,869908,1,0,1:0:0:0:
147,44,869962,102,0,B|198:42|221:96|215:105|233:129|269:142,1,150,0|0,1:0|0:0,1:0:0:0:
256,136,870125,2,0,P|236:149|220:145,1,37.5000014305115,2|8,3:2|0:1,0:0:0:0:
0,171,870288,1,0,1:0:0:0:
10,173,870370,1,0,1:0:0:0:
19,175,870451,6,0,P|163:215|305:264,1,300,14|0,0:2|0:0,3:0:0:0:
459,305,870778,102,2,P|430:326|402:325,1,50,8|0,0:0|0:0,3:1:0:0:
320,188,870941,1,0,0:0:0:0:
325,180,871022,1,0,0:0:0:0:
331,175,871104,1,0,3:0:0:0:
363,381,871267,22,2,P|341:352|342:324,1,50,8|0,0:2|0:0,3:1:0:0:
411,161,871430,1,0,0:0:0:0:
416,154,871511,1,0,0:0:0:0:
419,148,871593,1,0,3:0:0:0:
0,171,871756,86,2,B|-18:159|-16:136|-16:136|-7:155|11:168,6,75.0000028610231,8|8|8|8|8|8|8,3:1|0:1|0:1|0:1|0:1|0:1|0:1,0:1:0:0:
170,139,872082,5,2,3:2:0:0:
105,166,872163,1,0,3:0:0:0:
74,205,872245,1,0,3:0:0:0:
54,239,872326,1,2,0:0:0:0:
21,253,872408,102,2,B|4:259|-21:259|-21:259|88:288|173:370,1,250,8|0,0:2|0:0,0:2:0:0:
281,382,872734,21,2,3:2:0:0:
293,343,872816,1,0,3:0:0:0:
315,315,872897,1,0,3:0:0:0:
327,301,872979,1,0,3:0:0:0:
331,288,873060,86,2,P|331:269|328:258,1,25,10|0,0:2|0:0,3:1:0:0:
289,108,873223,21,0,3:0:0:0:
309,129,873305,1,0,3:0:0:0:
319,154,873386,1,0,3:0:0:0:
324,168,873468,1,0,3:0:0:0:
331,175,873549,86,2,P|347:184|358:187,1,25,10|0,0:2|0:0,3:1:0:0:
486,230,873712,21,0,3:0:0:0:
464,234,873794,1,0,3:0:0:0:
444,231,873875,1,0,3:0:0:0:
433,230,873957,1,0,3:0:0:0:
426,232,874038,86,2,P|409:241|401:249,1,25,2|2,0:0|0:2,0:1:0:0:
31,60,874528,22,0,P|32:37|77:13,1,75.0000028610231,8|0,0:1|0:0,0:0:0:0:
87,15,874691,6,2,B|89:122|4:189|0:302,1,300.000011444092,2|0,0:1|0:0,3:2:0:0:
71,384,874935,1,2,0:1:0:0:
71,384,875017,2,2,B|84:322|70:278|118:186,1,200,0|0,0:0|0:0,0:2:0:0:
216,137,875261,2,2,B|206:206|172:231|161:303,1,175.00000166893,2|2,0:2|0:1,0:2:0:0:
230,385,875506,2,2,B|242:331|238:284|269:239,1,150.000005722046,0|0,0:1|0:0,0:2:0:0:
369,207,875750,2,2,B|353:263|317:285|320:338,1,125,0|0,0:0|0:0,0:0:0:0:
472,264,875995,85,0,0:0:0:0:
462,270,876076,1,2,0:3:0:0:
446,260,876158,1,2,0:2:0:0:
447,248,876240,1,0,3:0:0:0:
486,181,876321,22,2,B|496:162|501:134|525:96,1,66.6666666666667,2|0,0:3|0:0,0:1:0:0:
410,0,876484,1,0,0:0:0:0:
404,3,876538,2,2,B|383:28|396:36|372:61,1,66.6666666666667,2|0,0:3|0:0,0:1:0:0:
352,132,876701,2,2,B|333:126|345:145|286:137,1,66.6666666666667,2|0,0:3|0:0,0:1:0:0:
218,169,876865,2,2,B|210:157|197:147|198:142,1,33.3333333333333,2|0,0:3|0:0,0:1:0:0:
127,86,877055,85,2,0:3:0:0:
121,95,877136,1,0,0:0:0:0:
114,101,877218,1,0,0:0:0:0:
106,106,877299,22,0,B|53:143|-62:75|51:-53|248:-16|318:130|318:130|429:366|279:416|151:388|63:385|174:82|334:-24|418:-62|457:251|524:110|534:6|366:-16|308:-7|212:35|212:35|125:77|80:245|219:144|197:295|68:376|-46:388|-81:329|-66:212|36:181|122:178|122:178|220:186|288:201|311:323|417:344|453:308|503:267|559:144|450:96|378:142|375:197,1,2687.99991796875,4|0,1:2|0:0,0:0:0:0:
