osu file format v14

[General]
AudioFilename: audio.mp3
AudioLeadIn: 0
PreviewTime: 85885
Countdown: 0
SampleSet: Soft
StackLeniency: 0.7
Mode: 0
LetterboxInBreaks: 0
WidescreenStoryboard: 0

[Editor]
Bookmarks: 55648,65754,75859,78385,106175,111227
DistanceSpacing: 0.1
BeatDivisor: 8
GridSize: 32
TimelineZoom: 3.399999

[Metadata]
Title:zeke didn't "invent dariacore", i did
TitleUnicode:zeke didn't "invent dariacore", i did
Artist:coltrane
ArtistUnicode:coltrane
Creator:Log Off Now
Version:i wanna ruin our friendship
Source:
Tags:english electronic jenny i wanna ruin our friendship studio killers hyperflip hyperpop dariacore mashcore kataryn [3d] 3d hyper pop daria core edm dance music plunderphonics fur:trash furtrash cyndifusic
BeatmapID:3987562
BeatmapSetID:1930360

[Difficulty]
HPDrainRate:5
CircleSize:3.8
OverallDifficulty:9
ApproachRate:9.6
SliderMultiplier:1.8
SliderTickRate:1

[Events]
//Background and Video events
0,0,"1684082940_VaI62dQP2p.jpg",0,0
//Break Periods
2,37964,45034
//Storyboard Layer 0 (Background)
//Storyboard Layer 1 (Fail)
//Storyboard Layer 2 (Pass)
//Storyboard Layer 3 (Foreground)
//Storyboard Layer 4 (Overlay)
//Storyboard Sound Samples

[TimingPoints]
70,315.789473684211,4,2,1,60,1,0
70,-142.857142857143,4,2,1,60,0,0
1333,-90.909090909091,4,2,1,60,0,0
1688,-90.909090909091,4,2,1,5,0,0
1925,-125,4,2,1,60,0,0
1964,-125,4,2,1,60,0,0
3859,-90.9090909090909,4,2,1,60,0,0
4491,-125,4,2,1,60,0,0
4806,-31.5457413249211,4,2,1,72,0,0
5122,-71.4285714285714,4,2,2,72,0,0
6385,-83.3333333333333,4,2,2,72,0,0
6701,-66.6666666666667,4,2,2,72,0,0
7648,-50,4,2,2,72,0,0
8912,-55.5555555555556,4,2,2,72,0,0
9070,-50,4,2,2,72,0,0
9227,-45.4545454545455,4,2,2,72,0,0
10175,-45.4545454545455,4,2,2,76,0,0
10648,-52.6315789473684,4,2,2,76,0,0
12701,-52.6315789473684,4,2,2,80,0,0
13964,-52.6315789473684,4,2,2,90,0,0
14596,-62.5,4,2,2,69,0,0
15227,-33.3333333333333,4,2,1,100,0,1
16333,-58.8235294117647,4,2,1,100,0,1
16491,-47.6190476190476,4,2,1,100,0,1
16806,-55.5555555555556,4,2,1,100,0,1
17754,-45.4545454545455,4,2,1,100,0,1
19333,-58.8235294117647,4,2,1,100,0,1
19964,-38.4615384615385,4,2,1,100,0,1
20280,-33.3333333333333,4,2,1,100,0,1
21385,-58.8235294117647,4,2,1,100,0,1
21543,-47.6190476190476,4,2,1,100,0,1
21858,-55.5555555555556,4,2,1,100,0,1
22806,-45.4545454545455,4,2,1,100,0,1
24385,-58.8235294117647,4,2,1,100,0,1
25017,-38.4615384615385,4,2,1,100,0,1
25333,-62.5,4,2,1,89,0,0
45543,-62.5,4,2,2,72,0,0
50596,-62.5,4,2,2,76,0,0
53122,-62.5,4,2,2,80,0,0
54385,-52.6315789473684,4,2,2,90,0,0
55333,-52.6315789473684,4,2,2,69,0,0
55648,-43.4782608695652,4,2,1,87,0,0
56280,-58.8235294117647,4,2,1,87,0,0
59438,-71.4285714285714,4,2,1,87,0,0
60701,-43.4782608695652,4,2,1,87,0,0
61333,-58.8235294117647,4,2,1,87,0,0
64491,-71.4285714285714,4,2,1,87,0,0
65754,-43.4782608695652,4,2,1,87,0,0
66385,-55.5555555555556,4,2,1,87,0,0
68596,-58.8235294117647,4,2,1,87,0,0
68912,-62.5,4,2,1,87,0,0
70491,-90.9090909090909,4,2,1,87,0,0
70806,-55.5555555555556,4,2,1,87,0,0
73648,-58.8235294117647,4,2,1,87,0,0
73964,-62.5,4,2,1,87,0,0
78859,-62.5,4,2,1,75,0,0
80596,-62.5,4,2,2,75,0,0
80912,-62.5,4,2,2,80,0,0
83438,-52.6315789473684,4,2,2,90,0,0
85648,-52.6315789473684,4,2,2,69,0,0
85964,-33.3333333333333,4,2,1,100,0,1
87070,-58.8235294117647,4,2,1,100,0,1
87228,-47.6190476190476,4,2,1,100,0,1
87543,-55.5555555555556,4,2,1,100,0,1
88491,-45.4545454545455,4,2,1,100,0,1
90070,-58.8235294117647,4,2,1,100,0,1
90701,-38.4615384615385,4,2,1,100,0,1
91017,-33.3333333333333,4,2,1,100,0,1
92122,-58.8235294117647,4,2,1,100,0,1
92280,-47.6190476190476,4,2,1,100,0,1
92595,-55.5555555555556,4,2,1,100,0,1
93543,-45.4545454545455,4,2,1,100,0,1
96070,-62.5,4,2,1,89,0,0
104912,-71.4285714285714,4,2,1,89,0,0
107438,-71.4285714285714,4,2,1,79,0,0
108701,-71.4285714285714,4,2,1,69,0,0
109964,-71.4285714285714,4,2,1,59,0,0

[Colours]
Combo1 : 248,69,145
Combo2 : 55,119,157
Combo3 : 131,22,250
Combo4 : 248,135,248

[HitObjects]
172,114,70,6,2,P|229:91|284:126,1,125.999996154785,2|0,0:0|3:0,0:0:0:0:
147,190,662,5,2,0:0:0:0:
147,190,701,2,2,P|98:152|100:85,1,125.999996154785,2|0,0:0|3:0,0:0:0:0:
224,174,1293,5,2,0:0:0:0:
224,174,1333,2,2,B|235:225|235:225|201:261|201:261|215:328,1,148.50000453186,2|0,0:0|0:0,0:0:0:0:
296,334,1648,2,0,L|285:288,1,24.7500007553101,2|0,3:2|0:0,0:0:0:0:
308,157,1925,5,2,0:0:0:0:
308,157,1964,2,2,P|370:130|432:172,1,144,2|0,0:0|3:0,0:0:0:0:
402,351,2596,6,2,P|384:284|356:184,1,144,2|0,0:0|3:0,0:0:0:0:
208,166,3188,5,2,0:0:0:0:
208,166,3227,2,2,P|275:148|375:120,1,144,2|0,0:0|3:0,0:0:0:0:
467,0,3820,5,2,0:0:0:0:
467,0,3859,2,2,P|449:67|417:186,1,148.50000453186,2|0,0:0|0:0,0:0:0:0:
409,220,4175,1,2,3:2:0:0:
332,49,4451,1,2,0:0:0:0:
332,49,4491,2,2,P|294:59|239:74,1,72,2|0,0:0|0:0,0:0:0:0:
125,174,4806,6,0,B|50:20|50:20|235:72|235:72|181:129,1,427.949990368252,2|0,1:3|0:0,0:0:0:0:
81,253,5122,5,4,1:0:0:0:
4,117,5280,1,10,0:0:0:0:
208,204,5438,1,10,0:0:0:0:
114,354,5596,1,8,0:0:0:0:
104,321,5675,1,10,0:0:0:0:
92,286,5754,1,8,1:2:0:0:
190,118,5912,1,10,0:0:0:0:
266,281,6070,1,2,1:2:0:0:
266,281,6148,2,0,P|327:303|392:326,1,125.999996154785,8|8,0:0|0:0,0:0:0:0:
444,380,6385,6,0,P|468:329|429:257,1,107.999996704102,10|8,1:2|0:0,0:0:0:0:
298,206,6701,2,0,P|266:143|326:70,1,135.000005149842,2|8,1:2|0:0,0:0:0:0:
414,124,6938,1,8,0:0:0:0:
414,124,7017,2,0,L|327:149,1,67.5000025749208,10|0,1:2|0:0,0:0:0:0:
266,281,7175,2,0,L|176:250,1,67.5000025749208,10|0,0:0|0:0,0:0:0:0:
163,48,7333,5,0,1:0:0:0:
175,80,7411,1,8,0:0:0:0:
187,111,7490,1,2,0:0:0:0:
200,143,7569,1,8,0:0:0:0:
211,180,7648,6,0,B|224:210|224:210|66:154,1,180,2|8,1:2|0:0,0:0:0:0:
54,78,7964,1,0,1:0:0:0:
150,275,8122,1,8,0:0:0:0:
150,275,8201,1,8,0:0:0:0:
150,275,8280,2,0,L|362:213,1,180,2|8,1:2|0:0,0:0:0:0:
368,88,8596,1,0,1:0:0:0:
368,88,8675,1,8,0:0:0:0:
441,268,8833,5,8,0:0:0:0:
396,339,8912,2,0,P|366:338|322:297,1,80.9999975280763,2|0,1:2|0:0,0:0:0:0:
246,330,9070,2,0,P|243:294|276:245,1,90,10|0,0:0|0:0,0:0:0:0:
242,175,9227,2,0,P|280:169|343:214,1,99.0000030212403,2|0,1:2|0:0,0:0:0:0:
441,268,9385,5,8,0:0:0:0:
429,231,9464,1,8,0:0:0:0:
417,199,9543,2,0,P|412:174|470:123,1,99.0000030212403,2|0,1:2|0:0,0:0:0:0:
349,280,9701,5,10,0:0:0:0:
319,312,9780,1,2,0:0:0:0:
275,321,9858,1,2,1:2:0:0:
236,302,9937,1,10,0:0:0:0:
208,266,10017,2,0,L|220:216,2,49.5000015106202,10|8|8,0:0|0:0|0:0,0:0:0:0:
234,128,10175,5,2,1:2:0:0:
219,94,10253,1,8,0:0:0:0:
193,69,10332,1,8,0:0:0:0:
161,56,10411,1,8,0:0:0:0:
126,58,10490,1,8,1:2:0:0:
95,75,10569,1,8,0:0:0:0:
73,104,10648,2,0,P|66:166|95:198,1,85.4999977169037,10|8,0:0|0:0,0:0:0:0:
136,238,10806,5,8,1:2:0:0:
180,237,10884,1,8,0:0:0:0:
219,217,10963,1,8,0:0:0:0:
243,176,11042,1,8,0:0:0:0:
244,130,11122,2,0,P|265:84|299:64,1,85.4999977169037,10|8,1:2|0:0,0:0:0:0:
352,4,11280,2,0,P|399:18|425:52,1,85.4999977169037,8|8,0:0|0:0,0:0:0:0:
378,223,11438,5,8,1:2:0:0:
342,212,11516,1,8,0:0:0:0:
322,182,11595,1,8,0:0:0:0:
325,145,11674,1,8,0:0:0:0:
352,120,11753,1,8,1:2:0:0:
388,117,11832,1,8,0:0:0:0:
418,138,11911,1,8,0:0:0:0:
428,173,11990,1,8,0:0:0:0:
413,206,12070,6,0,P|380:257|391:300,1,85.4999977169037,10|8,1:2|0:0,0:0:0:0:
350,352,12227,2,0,P|410:355|442:324,1,85.4999977169037,10|8,0:0|0:0,0:0:0:0:
507,332,12385,2,0,P|479:277|436:265,1,85.4999977169037,10|8,1:2|0:0,0:0:0:0:
258,168,12543,5,10,0:0:0:0:
265,198,12622,1,8,0:0:0:0:
273,229,12701,2,0,B|285:274|285:274|250:317,1,85.4999977169037,8|8,1:2|0:0,0:0:0:0:
197,352,12859,2,0,B|152:364|152:364|109:329,1,85.4999977169037,8|8,1:2|0:0,0:0:0:0:
82,267,13017,2,0,B|70:222|70:222|105:179,1,85.4999977169037,8|8,1:2|0:0,0:0:0:0:
161,147,13175,2,0,B|206:135|206:135|249:170,1,85.4999977169037,8|8,1:2|0:0,0:0:0:0:
348,357,13333,6,0,B|379:384|379:384|433:371,1,85.4999977169037,8|8,1:2|0:0,0:0:0:0:
509,242,13491,2,0,B|521:288|521:288|482:341,1,85.4999977169037,8|8,1:2|0:0,0:0:0:0:
379,146,13648,2,0,B|421:130|421:130|478:172,1,85.4999977169037,8|8,1:2|0:0,0:0:0:0:
293,285,13806,2,0,B|278:240|278:240|319:185,1,85.4999977169037,8|8,1:2|0:0,0:0:0:0:
367,252,13964,6,0,B|385:268|385:268|414:262,1,42.7499988584519,8|8,1:2|0:0,0:0:0:0:
386,229,14043,6,0,B|387:253|387:253|411:269,1,42.7499988584519,8|8,1:2|0:0,0:0:0:0:
415,228,14122,6,0,B|398:246|398:246|404:275,1,42.7499988584519,8|8,1:2|0:0,0:0:0:0:
436,247,14201,6,0,B|411:248|411:248|395:272,1,42.7499988584519,8|8,1:2|0:0,0:0:0:0:
437,276,14280,6,0,B|418:259|418:259|389:265,1,42.7499988584519,8|8,1:2|0:0,0:0:0:0:
417,297,14359,6,0,B|415:272|415:272|391:256,1,42.7499988584519,8|8,1:2|0:0,0:0:0:0:
388,299,14438,6,0,B|404:280|404:280|398:251,1,42.7499988584519,8|8,1:2|0:0,0:0:0:0:
366,279,14517,6,0,B|390:277|390:277|406:253,1,42.7499988584519,8|8,1:2|0:0,0:0:0:0:
315,185,14596,6,0,L|298:105,3,48,2|2|2|2,0:0|0:0|0:0|0:0,0:0:0:0:
202,37,14833,2,0,L|239:210,1,144,2|0,0:0|0:0,0:0:0:0:
253,258,15070,1,2,0:0:0:0:
245,280,15148,1,2,0:0:0:0:
137,264,15227,6,0,B|262:297|262:297|278:316|278:316|459:363|459:363|380:275,1,405.000015449525,4|0,1:0|0:0,0:0:0:0:
295,180,15543,2,0,B|232:124|232:124|299:86|299:86|320:89|320:89|439:15|439:15|371:199,1,405.000015449525,12|0,1:0|0:0,0:0:0:0:
340,296,15859,2,0,L|385:169,1,135.000005149842,4|0,1:0|0:0,0:0:0:0:
511,136,16017,5,2,0:0:0:0:
490,144,16096,1,2,0:0:0:0:
469,152,16175,1,8,1:2:0:0:
324,315,16333,6,0,L|200:270,1,76.5000014591217,2|0,0:0|0:0,0:0:0:0:
76,176,16491,2,0,P|146:140|184:154,1,94.499997116089,2|0,1:2|0:0,0:0:0:0:
198,67,16648,2,0,P|239:161|204:200,1,94.499997116089,2|0,0:0|0:0,0:0:0:0:
182,383,16806,6,0,L|137:189,1,161.999995056153,10|0,1:2|0:0,0:0:0:0:
8,22,17122,2,0,L|202:67,1,161.999995056153,2|0,1:2|0:0,0:0:0:0:
315,179,17438,2,0,B|111:133|111:133|70:152,1,242.999992584229,8|0,1:2|0:0,0:0:0:0:
0,216,17754,6,0,L|108:165,1,99.0000030212403,0|0,1:2|0:0,0:0:0:0:
190,67,17912,2,0,L|310:96,1,99.0000030212403,2|0,0:1|0:0,0:0:0:0:
73,268,18070,6,0,L|181:217,1,99.0000030212403,8|0,1:2|0:0,0:0:0:0:
263,119,18228,2,0,L|383:148,1,99.0000030212403,2|0,0:1|0:0,0:0:0:0:
146,322,18385,6,0,L|254:271,1,99.0000030212403,0|0,1:2|0:0,0:0:0:0:
336,173,18543,2,0,L|456:202,1,99.0000030212403,2|0,0:1|0:0,0:0:0:0:
215,376,18701,6,0,L|323:325,1,99.0000030212403,8|0,1:2|0:0,0:0:0:0:
405,227,18859,2,0,L|525:256,1,99.0000030212403,2|0,0:1|0:0,0:0:0:0:
383,384,19017,5,2,1:2:0:0:
315,179,19175,1,2,0:0:0:0:
465,324,19333,2,0,B|323:289|323:289|260:275|235:355,1,229.500004377365,10|0,1:2|0:0,0:0:0:0:
312,371,19648,2,0,L|385:112,1,229.500004377365,2|0,1:2|0:0,0:0:0:0:
221,71,19964,6,2,B|192:160|192:160|468:55,1,350.999983932496,8|0,1:2|0:0,0:1:0:0:
425,284,20280,6,0,B|297:206|297:206|476:137|476:137|438:200,1,405.000015449525,4|0,1:0|0:0,0:0:0:0:
327,315,20596,2,0,B|264:280|264:280|133:332|133:332|49:279|49:279|224:211,1,405.000015449525,12|0,1:0|0:0,0:0:0:0:
335,168,20912,2,0,L|195:222,1,135.000005149842,4|0,1:0|0:0,0:0:0:0:
125,118,21070,5,2,0:0:0:0:
133,139,21149,1,2,0:0:0:0:
141,160,21228,1,8,1:2:0:0:
199,369,21385,6,0,L|244:245,1,76.5000014591217,2|0,0:0|0:0,0:0:0:0:
291,98,21543,2,0,P|221:62|183:76,1,94.499997116089,2|0,1:2|0:0,0:0:0:0:
142,15,21700,2,0,P|101:109|136:148,1,94.499997116089,2|0,0:0|0:0,0:0:0:0:
86,312,21858,6,0,L|152:129,1,161.999995056153,10|0,1:2|0:0,0:0:0:0:
309,177,22174,2,0,L|118:247,1,161.999995056153,2|0,1:2|0:0,0:0:0:0:
17,364,22490,2,0,B|198:301|198:301|263:333,1,242.999992584229,10|0,1:2|0:0,0:0:0:0:
305,383,22806,6,0,L|197:332,1,99.0000030212403,0|0,1:0|0:0,0:0:0:0:
60,208,22964,2,0,L|89:328,1,99.0000030212403,2|0,0:1|0:0,0:0:0:0:
374,328,23122,6,0,L|266:277,1,99.0000030212403,8|0,1:2|0:0,0:0:0:0:
131,156,23280,2,0,L|157:277,1,99.0000030212403,2|0,0:1|0:0,0:0:0:0:
443,273,23438,6,0,L|335:222,1,99.0000030212403,0|0,1:2|0:0,0:0:0:0:
200,101,23596,2,0,L|226:222,1,99.0000030212403,2|0,0:1|0:0,0:0:0:0:
512,218,23754,6,0,L|404:167,1,99.0000030212403,8|0,1:2|0:0,0:0:0:0:
269,46,23912,2,0,L|295:167,1,99.0000030212403,2|0,0:1|0:0,0:0:0:0:
317,316,24070,5,2,1:2:0:0:
411,89,24227,1,2,0:0:0:0:
239,279,24385,2,0,B|104:333|104:333|42:357|-5:282,1,229.500004377365,10|0,1:2|0:0,0:0:0:0:
84,118,24701,2,0,B|131:88|131:88|70:291,1,229.500004377365,2|0,1:2|0:0,0:0:0:0:
208,376,25017,6,2,B|151:300|151:300|240:2,1,350.999983932496,8|0,1:2|0:0,0:1:0:0:
309,28,25333,5,2,1:2:0:0:
356,25,25412,1,2,0:0:0:0:
335,59,25491,1,2,0:0:0:0:
382,59,25570,1,2,0:0:0:0:
362,88,25648,1,10,1:2:0:0:
408,89,25727,1,2,0:0:0:0:
384,123,25806,1,2,0:0:0:0:
420,126,25885,1,2,0:0:0:0:
397,159,25964,1,2,1:2:0:0:
428,165,26043,1,2,0:0:0:0:
408,191,26122,1,2,0:0:0:0:
431,195,26201,1,2,0:0:0:0:
421,219,26280,1,10,1:2:0:0:
434,232,26359,1,2,0:0:0:0:
423,252,26438,1,2,0:0:0:0:
434,264,26517,1,2,0:0:0:0:
415,306,26596,6,0,P|390:335|326:346,1,72,2|0,1:2|0:0,0:0:0:0:
282,230,26754,2,0,P|319:237|361:287,1,72,2|0,0:3|0:0,0:0:0:0:
276,319,26912,1,10,1:2:0:0:
237,306,26991,1,2,0:0:0:0:
209,277,27070,2,0,P|196:240|218:179,1,72,2|0,0:3|0:0,0:0:0:0:
281,98,27227,6,0,L|267:153,2,48,2|2|2,1:2|0:0|0:0,0:0:0:0:
189,125,27385,2,0,L|214:29,1,72,2|0,0:3|0:0,0:0:0:0:
282,230,27543,6,0,L|296:285,2,48,10|2|2,1:2|0:0|0:0,0:0:0:0:
355,187,27701,2,0,L|374:257,1,72,2|0,0:3|0:0,0:0:0:0:
273,361,27859,5,2,1:2:0:0:
222,377,27937,1,2,0:0:0:0:
173,358,28016,1,2,0:0:0:0:
149,311,28095,1,2,0:0:0:0:
167,258,28175,2,0,P|195:235|239:230,1,72,10|0,1:2|0:0,0:0:0:0:
293,276,28333,2,0,P|321:299|365:304,1,72,2|0,0:0|0:0,0:0:0:0:
486,258,28491,5,2,1:2:0:0:
502,207,28569,1,2,0:0:0:0:
483,158,28648,1,2,0:0:0:0:
436,134,28727,1,2,0:0:0:0:
383,152,28807,2,0,P|360:180|355:224,1,72,10|0,1:2|0:0,0:0:0:0:
421,264,28965,2,0,P|438:296|429:339,1,72,2|0,0:0|0:0,0:0:0:0:
291,384,29122,5,0,1:2:0:0:
286,364,29200,1,2,0:0:0:0:
281,345,29279,1,2,0:0:0:0:
276,326,29358,1,2,0:0:0:0:
249,307,29438,5,8,1:2:0:0:
255,273,29516,1,2,0:0:0:0:
264,244,29595,1,2,0:0:0:0:
272,214,29674,1,2,0:0:0:0:
310,183,29754,6,0,L|296:130,5,48,2|0|0|0|0|0,1:2|0:0|0:0|0:0|0:0|0:0,0:0:0:0:
268,108,30070,2,0,L|282:55,5,48,10|0|0|0|0|0,1:2|0:0|0:0|0:0|0:0|0:0,0:0:0:0:
203,28,30385,5,2,1:2:0:0:
156,25,30464,1,2,0:0:0:0:
177,59,30543,1,2,0:0:0:0:
130,59,30622,1,2,0:0:0:0:
150,88,30701,1,10,1:2:0:0:
104,89,30780,1,2,0:0:0:0:
128,123,30859,1,2,0:0:0:0:
92,126,30938,1,2,0:0:0:0:
115,159,31017,1,2,1:2:0:0:
84,165,31096,1,2,0:0:0:0:
104,191,31175,1,2,0:0:0:0:
81,195,31254,1,2,0:0:0:0:
91,219,31332,1,10,1:2:0:0:
78,232,31411,1,2,0:0:0:0:
89,252,31490,1,2,0:0:0:0:
78,264,31569,1,2,0:0:0:0:
97,306,31648,6,0,P|122:335|186:346,1,72,2|0,1:2|0:0,0:0:0:0:
230,230,31806,2,0,P|193:237|151:287,1,72,2|0,0:3|0:0,0:0:0:0:
236,319,31964,1,10,1:2:0:0:
275,306,32043,1,2,0:0:0:0:
303,277,32122,2,0,P|316:240|294:179,1,72,2|0,0:3|0:0,0:0:0:0:
231,98,32279,6,0,L|245:153,2,48,2|2|2,1:2|0:0|0:0,0:0:0:0:
323,125,32437,2,0,L|298:29,1,72,2|0,0:3|0:0,0:0:0:0:
230,230,32595,6,0,L|216:285,2,48,10|2|2,1:2|0:0|0:0,0:0:0:0:
157,187,32753,2,0,L|138:257,1,72,2|0,0:3|0:0,0:0:0:0:
239,361,32911,5,2,1:2:0:0:
290,377,32991,1,2,0:0:0:0:
339,358,33070,1,2,0:0:0:0:
363,311,33148,1,2,0:0:0:0:
345,258,33227,2,0,P|317:235|273:230,1,72,10|0,1:2|0:0,0:0:0:0:
219,276,33385,2,0,P|191:299|147:304,1,72,2|0,0:0|0:0,0:0:0:0:
26,258,33543,5,2,1:2:0:0:
10,207,33622,1,2,0:0:0:0:
29,158,33701,1,2,0:0:0:0:
76,134,33780,1,2,0:0:0:0:
129,152,33859,2,0,P|152:180|157:224,1,72,10|0,1:2|0:0,0:0:0:0:
91,264,34017,2,0,P|74:296|83:339,1,72,2|0,0:0|0:0,0:0:0:0:
221,384,34175,5,0,1:2:0:0:
226,364,34254,1,2,0:0:0:0:
231,345,34333,1,2,0:0:0:0:
236,326,34412,1,2,0:0:0:0:
263,307,34491,5,8,1:2:0:0:
257,273,34570,1,2,0:0:0:0:
248,244,34648,1,2,0:0:0:0:
240,214,34727,1,2,0:0:0:0:
202,183,34806,6,0,L|216:130,5,48,2|0|0|0|0|0,1:2|0:0|0:0|0:0|0:0|0:0,0:0:0:0:
276,68,35122,2,0,L|46:128,1,216,10|0,1:2|0:0,0:0:0:0:
256,192,35438,12,0,36701,0:0:0:0:
219,12,45543,5,10,1:2:0:0:
291,211,45701,1,8,0:0:0:0:
381,89,45859,1,8,1:2:0:0:
154,182,46017,5,8,0:0:0:0:
168,227,46095,1,8,0:0:0:0:
183,273,46174,1,8,1:2:0:0:
216,365,46333,1,8,0:0:0:0:
366,249,46491,5,10,1:2:0:0:
351,295,46570,1,8,0:0:0:0:
282,249,46727,5,8,0:0:0:0:
267,295,46806,1,10,1:2:0:0:
317,378,46964,1,8,0:0:0:0:
439,296,47122,1,10,1:2:0:0:
334,123,47280,5,8,0:0:0:0:
348,168,47358,1,8,0:0:0:0:
363,214,47437,1,10,1:2:0:0:
427,384,47596,1,8,0:0:0:0:
268,167,47754,5,10,1:2:0:0:
225,189,47833,1,8,0:0:0:0:
282,249,47990,5,8,0:0:0:0:
239,272,48069,1,8,1:2:0:0:
143,160,48227,1,8,0:0:0:0:
73,356,48385,1,8,1:2:0:0:
14,221,48543,5,8,0:0:0:0:
59,235,48621,1,8,0:0:0:0:
105,250,48700,1,10,1:2:0:0:
275,314,48859,1,8,0:0:0:0:
169,152,49017,5,8,1:2:0:0:
184,198,49096,1,8,0:0:0:0:
253,152,49253,5,8,0:0:0:0:
268,198,49332,1,10,1:2:0:0:
194,283,49491,1,8,0:0:0:0:
81,159,49648,1,10,1:2:0:0:
236,40,49806,5,8,0:0:0:0:
191,54,49884,1,8,0:0:0:0:
145,69,49963,1,10,1:2:0:0:
23,228,50122,1,8,0:0:0:0:
155,380,50280,5,10,1:2:0:0:
143,345,50358,1,8,0:0:0:0:
132,310,50437,1,8,0:0:0:0:
121,276,50517,1,8,0:0:0:0:
110,241,50596,6,0,B|99:205|99:205|129:135,3,72,10|8|8|8,1:2|0:0|0:0|0:0,0:0:0:0:
274,326,50912,2,0,B|285:290|285:290|255:220,3,72,8|8|8|8,1:2|0:0|0:0|0:0,0:0:0:0:
208,174,51227,5,8,1:2:0:0:
234,136,51305,1,8,0:0:0:0:
275,118,51384,1,8,0:0:0:0:
320,124,51463,1,8,0:0:0:0:
355,153,51543,1,10,1:2:0:0:
390,182,51622,1,8,0:0:0:0:
435,188,51701,1,10,0:2:0:0:
476,170,51780,1,8,0:0:0:0:
502,132,51859,6,0,L|481:49,3,72,10|8|8|8,1:2|0:0|0:0|0:0,0:0:0:0:
416,275,52175,2,0,L|433:344,3,72,10|8|8|8,1:2|0:0|0:0|0:0,0:0:0:0:
277,89,52491,5,10,1:2:0:0:
287,132,52570,1,8,0:0:0:0:
298,176,52648,2,0,P|284:213|232:239,1,72,8|8,0:0|0:0,0:0:0:0:
158,125,52806,2,0,P|195:139|221:191,1,72,10|8,1:2|0:0,0:0:0:0:
120,347,52964,1,8,0:0:0:0:
110,304,53043,1,8,1:2:0:0:
99,260,53122,6,0,P|113:223|165:197,1,72,10|8,1:2|0:0,0:0:0:0:
238,309,53280,2,0,P|201:295|175:243,1,72,8|8,1:2|0:0,0:0:0:0:
321,324,53438,2,0,P|307:361|255:387,1,72,8|8,1:2|0:0,0:0:0:0:
340,237,53596,2,0,P|377:251|403:303,1,72,8|8,1:2|0:0,0:0:0:0:
137,203,53754,6,0,P|125:169|132:134,1,72,10|8,1:2|0:0,0:0:0:0:
100,44,53912,2,0,P|133:32|168:39,1,72,8|8,1:2|0:0,0:0:0:0:
265,2,54070,2,0,P|277:35|270:70,1,72,8|8,1:2|0:0,0:0:0:0:
311,153,54227,2,0,P|277:165|242:159,1,72,8|8,1:2|0:0,0:0:0:0:
462,84,54385,6,0,B|480:87|480:87|498:71,1,42.7499988584519,8|8,1:2|0:0,0:0:0:0:
448,47,54464,6,0,B|463:36|463:36|464:12,1,42.7499988584519,8|8,1:2|0:0,0:0:0:0:
407,46,54543,6,0,B|410:28|410:28|393:10,1,42.7499988584519,8|8,1:2|0:0,0:0:0:0:
385,76,54622,6,0,B|375:61|375:61|350:60,1,42.7499988584519,8|8,1:2|0:0,0:0:0:0:
390,123,54701,6,0,B|373:119|373:119|354:136,1,42.7499988584519,8|8,1:2|0:0,0:0:0:0:
418,154,54780,6,0,B|433:163|433:163|435:188,1,42.7499988584519,8|8,1:2|0:0,0:0:0:0:
476,219,54859,6,0,B|480:236|480:236|464:255,1,42.7499988584519,8|8,1:2|0:0,0:0:0:0:
459,302,54938,6,0,B|449:317|449:317|425:319,1,42.7499988584519,8|8,1:2|0:0,0:0:0:0:
372,249,55017,5,2,0:3:0:0:
266,328,55333,6,0,L|283:386,5,56.9999984779358,2|2|2|2|2|2,0:0|0:0|0:0|0:0|0:0|0:0,0:0:0:0:
240,244,55648,6,0,B|213:160|213:160|186:144|186:144|146:30|146:30|220:73,1,310.500005922318,4|0,1:0|0:0,0:0:0:0:
334,351,55964,2,0,B|394:386|394:386|354:272|354:272|327:256|327:256|300:172,1,310.500005922318,4|0,1:0|0:0,0:0:0:0:
387,101,56280,5,0,1:2:0:0:
467,146,56359,2,0,P|432:182|396:194,1,76.5000014591217,2|0,0:0|0:0,0:0:0:0:
327,171,56517,1,2,0:0:0:0:
298,92,56596,2,0,P|318:42|349:20,1,76.5000014591217,2|0,1:2|0:0,0:0:0:0:
417,15,56754,2,0,P|457:40|473:76,1,76.5000014591217,2|0,0:0|0:0,0:0:0:0:
349,258,56912,5,0,1:0:0:0:
306,181,56991,1,2,0:0:0:0:
138,288,57148,5,2,0:0:0:0:
181,365,57227,2,0,P|226:276|77:229,1,229.500004377365,2|0,1:2|0:0,0:0:0:0:
84,267,57543,5,0,1:2:0:0:
88,285,57621,1,2,0:0:0:0:
93,303,57700,1,2,0:0:0:0:
98,322,57779,1,2,0:0:0:0:
88,348,57859,2,0,B|42:194|42:194|67:162|89:124,1,229.500004377365,2|0,1:2|0:0,0:0:0:0:
174,278,58175,6,0,B|213:295|244:319|244:319|319:266|428:253,1,229.500004377365,0|0,1:0|0:0,0:0:0:0:
421,339,58491,2,0,P|404:273|529:292,1,229.500004377365,0|0,1:0|0:0,0:0:0:0:
366,172,58806,2,0,B|393:140|443:134|443:134|370:48|276:77,1,229.500004377365,0|0,1:0|0:0,0:0:0:0:
237,215,59122,2,0,P|281:155|279:122,1,76.5000014591217,0|0,1:0|0:0,0:0:0:0:
238,76,59280,2,0,P|178:32|145:34,1,76.5000014591217,2|0,0:0|0:0,0:0:0:0:
78,96,59438,6,0,P|99:170|134:301,1,188.999994232178,0|0,1:0|0:0,0:0:0:0:
166,115,59754,2,0,P|191:205|216:297,1,188.999994232178,0|0,1:0|0:0,0:0:0:0:
254,134,60070,2,0,P|279:224|304:316,1,188.999994232178,0|0,1:0|0:0,0:0:0:0:
342,153,60385,2,0,P|367:243|392:335,1,188.999994232178,0|0,1:0|0:0,0:0:0:0:
485,118,60701,6,0,B|401:91|401:91|391:62|391:62|271:24|271:24|296:98,1,310.500005922318,4|0,1:0|0:0,0:0:0:0:
294,297,61017,2,0,B|270:213|270:213|238:203|238:203|200:83|200:83|274:108,1,310.500005922318,4|0,1:0|0:0,0:0:0:0:
177,298,61333,5,0,1:2:0:0:
96,252,61412,2,0,P|131:216|167:204,1,76.5000014591217,2|0,0:0|0:0,0:0:0:0:
236,227,61570,1,2,0:0:0:0:
265,306,61649,2,0,P|245:356|214:378,1,76.5000014591217,2|0,1:2|0:0,0:0:0:0:
146,383,61807,2,0,P|106:358|90:322,1,76.5000014591217,2|0,0:0|0:0,0:0:0:0:
222,138,61965,5,0,1:0:0:0:
265,215,62044,1,2,0:0:0:0:
390,335,62201,5,2,0:0:0:0:
436,261,62280,2,0,B|326:206|326:353|206:281,1,229.500004377365,2|0,1:2|0:0,0:0:0:0:
106,183,62596,5,0,1:2:0:0:
90,193,62675,1,2,0:0:0:0:
81,211,62754,1,2,0:0:0:0:
82,230,62832,1,2,0:0:0:0:
93,246,62912,2,0,B|143:182|102:81|102:81|54:110|42:147,1,229.500004377365,2|0,1:2|0:0,0:0:0:0:
143,315,63228,6,0,B|182:332|213:356|213:356|252:325|297:308|297:308|320:336|351:367,1,229.500004377365,0|0,1:0|0:0,0:0:0:0:
406,305,63543,2,0,B|383:284|358:252|358:252|383:172|390:131|390:131|366:114|335:80,1,229.500004377365,0|0,1:0|0:0,0:0:0:0:
300,158,63859,2,0,P|291:76|424:57,1,229.500004377365,0|0,1:0|0:0,0:0:0:0:
270,233,64175,2,0,P|220:216|168:200,1,76.5000014591217,0|0,1:0|0:0,0:0:0:0:
364,110,64333,2,0,P|383:146|378:182,1,76.5000014591217,2|0,0:0|0:0,0:0:0:0:
334,323,64491,6,0,P|309:231|283:140,1,188.999994232178,0|0,1:0|0:0,0:0:0:0:
195,121,64806,2,0,P|221:212|246:304,1,188.999994232178,0|0,1:0|0:0,0:0:0:0:
158,285,65122,2,0,P|133:193|107:102,1,188.999994232178,0|0,1:0|0:0,0:0:0:0:
19,82,65438,2,0,P|45:173|70:265,1,188.999994232178,0|0,1:0|0:0,0:0:0:0:
209,368,65754,6,0,B|188:301|188:301|423:372,1,310.500005922318,4|0,1:0|0:0,0:0:0:0:
508,136,66070,2,0,B|430:236|430:236|378:248|378:248|355:269|355:269|486:306,1,310.500005922318,8|0,1:2|0:0,0:0:0:0:
372,167,66385,6,0,L|270:188,1,80.9999975280763,0|0,1:2|0:0,0:0:0:0:
165,290,66543,2,0,L|67:264,1,80.9999975280763,2|0,0:0|0:0,0:0:0:0:
83,95,66701,5,10,1:2:0:0:
137,71,66779,1,2,0:0:0:0:
192,97,66859,2,0,P|216:136|201:192,1,80.9999975280763,2|0,0:0|0:0,0:0:0:0:
57,174,67017,5,2,1:2:0:0:
9,139,67096,1,2,0:0:0:0:
4,78,67175,2,0,P|26:36|81:21,1,80.9999975280763,2|0,0:0|0:0,0:0:0:0:
134,159,67333,5,10,1:2:0:0:
127,218,67412,1,2,0:0:0:0:
77,252,67491,2,0,P|29:253|-10:213,1,80.9999975280763,2|0,0:0|0:0,0:0:0:0:
192,97,67648,5,0,1:0:0:0:
239,109,67726,1,2,0:0:0:0:
286,121,67805,1,2,0:0:0:0:
333,134,67884,1,2,0:0:0:0:
380,146,67964,2,0,L|466:170,1,80.9999975280763,10|0,1:2|0:0,0:0:0:0:
172,182,68122,2,0,L|93:160,1,80.9999975280763,2|0,0:0|0:0,0:0:0:0:
347,228,68280,5,2,1:2:0:0:
371,282,68358,1,2,0:0:0:0:
345,337,68438,2,0,P|312:362|256:358,1,80.9999975280763,2|0,0:0|0:0,0:0:0:0:
271,199,68596,5,10,1:2:0:0:
306,156,68674,1,2,0:0:0:0:
359,147,68754,2,0,P|392:159|425:200,1,76.5000014591217,2|0,0:0|0:0,0:0:0:0:
282,281,68912,5,2,1:2:0:0:
234,268,68990,1,2,0:0:0:0:
200,234,69070,2,0,P|192:197|210:154,1,72,2|0,0:0|0:0,0:0:0:0:
255,91,69227,6,0,L|274:21,3,72,10|0|0|0,1:2|0:0|0:0|0:0,0:0:0:0:
374,249,69543,5,2,1:2:0:0:
430,268,69621,1,0,0:0:0:0:
483,238,69700,1,2,0:0:0:0:
496,180,69779,1,0,0:0:0:0:
466,128,69858,1,10,1:2:0:0:
406,115,69938,1,0,0:0:0:0:
361,155,70017,1,2,0:0:0:0:
302,164,70096,1,0,0:0:0:0:
247,139,70175,2,0,P|220:92|231:52,1,72,2|0,1:2|0:0,0:0:0:0:
330,0,70333,5,2,0:0:0:0:
327,16,70412,1,2,0:0:0:0:
325,32,70491,2,0,L|317:85,1,49.5000015106202,10|0,1:2|0:0,0:0:0:0:
287,304,70648,2,0,L|293:254,1,49.5000015106202,2|0,0:0|0:0,0:0:0:0:
197,100,70806,5,2,1:2:0:0:
138,104,70884,1,2,0:0:0:0:
101,152,70964,2,0,P|98:197|137:240,1,80.9999975280763,2|0,0:0|0:0,0:0:0:0:
257,157,71122,5,10,1:2:0:0:
282,104,71200,1,2,0:0:0:0:
258,47,71280,2,0,P|218:20|163:32,1,80.9999975280763,2|0,0:0|0:0,0:0:0:0:
182,180,71438,5,2,1:2:0:0:
215,229,71516,1,2,0:0:0:0:
276,235,71596,2,0,P|318:213|334:159,1,80.9999975280763,2|0,0:0|0:0,0:0:0:0:
381,123,71754,6,0,L|363:45,3,80.9999975280763,10|0|0|0,1:2|0:0|0:0|0:0,0:0:0:0:
390,261,72069,5,2,1:2:0:0:
416,222,72147,1,2,0:0:0:0:
463,213,72227,2,0,P|498:231|511:278,1,80.9999975280763,2|0,0:0|0:0,0:0:0:0:
393,341,72385,5,10,1:2:0:0:
345,332,72463,1,2,0:0:0:0:
314,294,72543,2,0,P|305:253|327:210,1,80.9999975280763,2|0,0:0|0:0,0:0:0:0:
503,92,72700,5,0,1:0:0:0:
463,101,72780,1,2,0:0:0:0:
422,112,72859,1,2,0:0:0:0:
381,123,72938,1,2,0:0:0:0:
341,134,73017,2,0,L|260:156,1,80.9999975280763,10|0,1:2|0:0,0:0:0:0:
179,320,73175,2,0,L|100:298,1,80.9999975280763,2|0,0:0|0:0,0:0:0:0:
81,134,73333,5,2,1:2:0:0:
136,112,73412,1,2,0:0:0:0:
189,141,73491,2,0,P|212:175|205:230,1,80.9999975280763,2|0,0:0|0:0,0:0:0:0:
48,208,73648,5,10,1:2:0:0:
6,171,73727,1,2,0:0:0:0:
0,117,73806,2,0,P|13:84|56:53,1,76.5000014591217,2|0,0:0|0:0,0:0:0:0:
130,201,73964,5,2,1:2:0:0:
119,251,74042,1,2,0:0:0:0:
83,286,74122,2,0,P|49:295|2:274,1,72,2|0,0:0|0:0,0:0:0:0:
136,112,74280,6,0,L|206:131,3,72,10|0|0|0,1:2|0:0|0:0|0:0,0:0:0:0:
326,328,74596,5,2,1:2:0:0:
270,347,74675,1,0,0:0:0:0:
217,317,74754,1,2,0:0:0:0:
204,259,74833,1,0,0:0:0:0:
234,207,74912,1,10,1:2:0:0:
294,194,74991,1,0,0:0:0:0:
339,234,75070,1,2,0:0:0:0:
398,243,75148,1,0,0:0:0:0:
453,218,75227,2,0,L|466:168,6,36,2|2|2|2|2|2|2,1:2|0:0|0:0|0:0|0:0|0:0|0:0,0:0:0:0:
385,120,75543,2,0,L|372:70,6,36,2|2|2|2|2|2|2,1:2|0:0|0:0|0:0|0:0|0:0|0:0,0:0:0:0:
453,19,75859,5,0,1:0:0:0:
256,192,75938,12,0,78385,0:0:0:0:
190,103,78859,5,8,0:0:0:0:
348,176,79333,1,12,0:3:0:0:
26,276,79648,1,8,1:0:0:0:
184,349,80122,5,4,0:3:0:0:
52,133,80438,2,0,L|71:203,1,72,2|0,0:0|0:0,0:0:0:0:
140,253,80596,2,0,L|121:314,7,36,10|10|10|10|10|10|10|10,0:0|0:0|0:0|0:0|0:0|0:0|0:0|0:0,0:0:0:0:
170,127,80912,5,8,1:2:0:0:
180,117,80991,1,8,0:0:0:0:
193,112,81070,1,8,0:0:0:0:
207,110,81148,1,8,0:0:0:0:
228,112,81227,1,8,1:2:0:0:
247,120,81306,1,8,0:0:0:0:
263,133,81385,1,8,0:0:0:0:
273,152,81464,1,8,0:0:0:0:
287,177,81543,1,8,1:2:0:0:
308,196,81622,1,8,0:0:0:0:
333,209,81701,1,8,0:0:0:0:
360,217,81780,1,8,0:0:0:0:
395,214,81859,1,8,1:2:0:0:
429,204,81938,1,8,0:0:0:0:
456,180,82017,1,8,0:0:0:0:
473,148,82096,1,8,0:0:0:0:
480,105,82175,1,8,1:2:0:0:
472,62,82254,1,8,0:0:0:0:
446,27,82333,1,8,0:0:0:0:
406,10,82412,1,8,0:0:0:0:
354,15,82491,1,8,1:2:0:0:
310,39,82570,1,8,0:0:0:0:
290,84,82648,1,8,0:0:0:0:
296,136,82727,1,8,0:0:0:0:
331,176,82806,1,8,1:2:0:0:
357,227,82885,1,8,0:0:0:0:
356,283,82964,1,8,0:0:0:0:
324,330,83043,1,8,0:0:0:0:
264,355,83122,1,8,1:2:0:0:
202,333,83201,1,8,0:0:0:0:
166,279,83280,1,8,0:0:0:0:
181,216,83359,1,8,0:0:0:0:
224,174,83438,6,0,B|236:153|236:153|225:125,1,42.7499988584519,8|8,1:2|0:0,0:0:0:0:
257,114,83517,6,0,B|250:90|250:90|224:79,1,42.7499988584519,8|8,0:2|0:0,0:0:0:0:
250,53,83596,6,0,B|230:39|230:39|202:47,1,42.7499988584519,8|8,0:2|0:0,0:0:0:0:
206,6,83675,6,0,B|182:3|182:3|162:24,1,42.7499988584519,8|8,0:2|0:0,0:0:0:0:
144,0,83754,6,0,B|122:10|122:10|115:38,1,42.7499988584519,8|8,1:2|0:0,0:0:0:0:
82,10,83833,6,0,B|68:29|68:29|76:57,1,42.7499988584519,8|8,0:2|0:0,0:0:0:0:
26,36,83912,6,0,B|23:59|23:59|44:79,1,42.7499988584519,8|8,0:2|0:0,0:0:0:0:
0,98,83991,6,0,B|13:116|13:116|42:118,1,42.7499988584519,8|8,0:2|0:0,0:0:0:0:
0,162,84070,6,0,B|24:160|24:160|40:136,1,42.7499988584519,8|8,1:2|0:0,0:0:0:0:
33,209,84148,6,0,B|50:192|50:192|46:163,1,42.7499988584519,8|8,0:2|0:0,0:0:0:0:
87,220,84227,6,0,B|93:196|93:196|76:173,1,42.7499988584519,8|8,0:2|0:0,0:0:0:0:
139,202,84306,6,0,B|122:184|122:184|93:188,1,42.7499988584519,8|8,0:2|0:0,0:0:0:0:
161,160,84385,6,0,B|137:153|137:153|114:170,1,42.7499988584519,8|8,1:2|0:0,0:0:0:0:
154,129,84464,6,0,B|136:145|136:145|140:174,1,42.7499988584519,8|8,0:2|0:0,0:0:0:0:
135,108,84543,6,0,B|118:124|118:124|122:153,1,42.7499988584519,8|8,0:2|0:0,0:0:0:0:
102,109,84622,6,0,B|104:132|104:132|128:148,1,42.7499988584519,8|8,0:2|0:0,0:0:0:0:
39,52,84701,6,0,L|-9:19,6,42.7499988584519,8|8|8|8|8|8|8,1:2|0:0|0:0|0:0|0:0|0:0|0:0,0:0:0:0:
235,150,85017,6,0,L|293:122,6,42.7499988584519,8|8|8|8|8|8|8,1:2|0:0|0:0|0:0|0:0|0:0|0:0,0:0:0:0:
80,257,85333,6,0,L|57:318,6,42.7499988584519,8|8|8|8|8|8|8,1:2|0:0|0:0|0:0|0:0|0:0|0:0,0:0:0:0:
120,143,85648,5,2,0:0:0:0:
122,153,85727,1,2,0:0:0:0:
125,163,85806,1,2,0:0:0:0:
173,299,85964,6,0,B|147:371|147:371|253:321|253:321|264:289|264:289|364:231|364:231|335:325,1,405.000015449525,4|0,1:0|0:0,0:0:0:0:
275,170,86280,2,0,B|184:-8|184:-8|280:22|280:22|302:56|302:56|409:86,1,405.000015449525,12|0,1:0|0:0,0:0:0:0:
479,185,86596,2,0,L|347:147,1,135.000005149842,4|0,1:0|0:0,0:0:0:0:
177,84,86754,5,2,0:0:0:0:
198,91,86833,1,2,0:0:0:0:
219,99,86912,1,8,1:2:0:0:
308,297,87070,6,0,L|338:201,1,76.5000014591217,2|0,0:0|0:0,0:0:0:0:
363,73,87228,2,0,P|293:37|255:51,1,94.499997116089,2|0,1:2|0:0,0:0:0:0:
234,177,87385,2,0,P|284:152|292:86,1,94.499997116089,2|0,0:0|0:0,0:0:0:0:
65,47,87543,6,0,L|253:110,1,161.999995056153,10|0,1:2|0:0,0:0:0:0:
198,320,87859,2,0,L|140:131,1,161.999995056153,2|0,1:2|0:0,0:0:0:0:
256,6,88175,2,0,B|321:99|321:99|231:224,1,242.999992584229,8|0,1:2|0:0,0:0:0:0:
120,346,88491,6,0,L|86:235,1,99.0000030212403,0|0,1:2|0:0,0:0:0:0:
0,140,88648,2,0,L|111:174,1,99.0000030212403,2|0,0:1|0:0,0:0:0:0:
198,320,88806,6,0,L|309:286,1,99.0000030212403,8|0,1:2|0:0,0:0:0:0:
200,94,88964,2,0,L|166:205,1,99.0000030212403,2|0,0:1|0:0,0:0:0:0:
120,346,89122,6,0,L|91:251,1,99.0000030212403,0|0,1:2|0:0,0:0:0:0:
0,140,89280,2,0,L|95:169,1,99.0000030212403,2|0,0:1|0:0,0:0:0:0:
198,320,89438,6,0,L|293:291,1,99.0000030212403,8|0,1:2|0:0,0:0:0:0:
200,94,89596,2,0,L|171:188,1,99.0000030212403,2|0,0:1|0:0,0:0:0:0:
224,346,89754,5,2,1:2:0:0:
10,298,89912,1,2,0:0:0:0:
265,209,90070,2,0,B|315:190|363:233|363:233|432:205|430:122,1,229.500004377365,10|0,1:2|0:0,0:0:0:0:
244,81,90385,2,0,L|317:340,1,229.500004377365,2|0,1:2|0:0,0:0:0:0:
155,354,90701,6,2,B|201:222|201:222|48:312|48:312|90:331,1,350.999983932496,8|0,1:2|0:0,0:1:0:0:
268,274,91017,6,0,B|307:156|307:156|276:98|276:98|306:-2|306:-2|388:135,1,405.000015449525,4|0,1:0|0:0,0:0:0:0:
422,307,91333,2,0,B|398:337|398:337|324:168|324:168|420:198|420:198|434:228|434:228|490:246,1,405.000015449525,12|0,1:0|0:0,0:0:0:0:
317,345,91648,2,0,L|179:300,1,135.000005149842,4|0,1:0|0:0,0:0:0:0:
54,222,91807,5,2,0:0:0:0:
75,229,91886,1,2,0:0:0:0:
96,237,91965,1,8,1:2:0:0:
168,33,92122,6,0,L|213:157,1,76.5000014591217,2|0,0:0|0:0,0:0:0:0:
315,206,92280,2,0,P|245:176|207:190,1,94.499997116089,2|0,1:2|0:0,0:0:0:0:
114,313,92438,2,0,P|170:266|169:217,1,94.499997116089,2|0,0:0|0:0,0:0:0:0:
0,118,92595,6,0,L|152:172,1,161.999995056153,10|0,1:2|0:0,0:0:0:0:
218,359,92912,2,0,L|370:304,1,161.999995056153,2|0,1:2|0:0,0:0:0:0:
492,166,93227,2,0,B|311:229|311:229|258:212,1,242.999992584229,10|0,1:2|0:0,0:0:0:0:
236,49,93543,6,0,L|202:160,1,99.0000030212403,0|0,1:2|0:0,0:0:0:0:
86,251,93701,2,0,L|197:217,1,99.0000030212403,2|0,0:1|0:0,0:0:0:0:
316,68,93858,6,0,L|427:102,1,99.0000030212403,8|0,1:2|0:0,0:0:0:0:
291,307,94016,2,0,L|257:196,1,99.0000030212403,2|0,0:1|0:0,0:0:0:0:
236,49,94175,6,0,L|207:144,1,99.0000030212403,0|0,1:2|0:0,0:0:0:0:
86,251,94333,2,0,L|181:222,1,99.0000030212403,2|0,0:1|0:0,0:0:0:0:
316,68,94491,6,0,L|411:97,1,99.0000030212403,8|0,1:2|0:0,0:0:0:0:
291,307,94648,2,0,L|262:213,1,99.0000030212403,2|0,0:1|0:0,0:0:0:0:
465,21,94807,5,2,1:2:0:0:
338,168,94964,1,2,0:0:0:0:
453,325,95122,2,0,B|466:286|501:260|501:260|441:190|347:274|347:274|367:264|390:261,1,297.000009063721,10|0,1:2|0:0,0:0:0:0:
448,136,95438,2,0,B|471:86|471:86|357:132|357:132|346:159|346:159|257:198,1,297.000009063721,0|0,1:2|0:2,0:2:0:0:
93,290,95754,6,2,B|52:226|52:226|299:300,1,297.000009063721,8|0,1:2|0:0,0:1:0:0:
181,377,96070,5,2,1:2:0:0:
199,358,96148,1,2,0:0:0:0:
143,339,96227,1,2,0:0:0:0:
169,328,96306,1,2,0:0:0:0:
133,285,96385,1,10,1:2:0:0:
161,286,96464,1,2,0:0:0:0:
155,236,96543,1,2,0:0:0:0:
179,247,96622,1,2,0:0:0:0:
201,207,96701,1,2,1:2:0:0:
216,223,96780,1,2,0:0:0:0:
239,184,96859,1,2,0:0:0:0:
263,195,96938,1,2,0:0:0:0:
256,144,97017,1,10,1:2:0:0:
285,145,97096,1,2,0:0:0:0:
248,102,97175,1,2,0:0:0:0:
274,92,97254,1,2,0:0:0:0:
232,67,97333,6,0,P|187:42|132:52,1,72,2|0,1:2|0:0,0:0:0:0:
110,155,97490,2,0,P|147:148|178:93,1,72,2|0,0:3|0:0,0:0:0:0:
60,85,97648,1,10,1:2:0:0:
32,115,97727,1,2,0:0:0:0:
22,154,97806,2,0,P|29:192|78:234,1,72,2|0,0:3|0:0,0:0:0:0:
133,275,97963,6,0,L|121:321,2,36,2|2|2,1:2|0:0|0:0,0:0:0:0:
152,194,98121,2,0,L|177:98,1,72,2|0,0:3|0:0,0:0:0:0:
213,290,98279,6,0,L|199:342,2,36,10|2|2,1:2|0:0|0:0,0:0:0:0:
232,211,98437,2,0,L|251:141,1,72,2|0,0:3|0:0,0:0:0:0:
275,56,98596,5,2,1:2:0:0:
331,36,98674,1,2,0:0:0:0:
386,58,98753,1,2,0:0:0:0:
411,112,98832,1,2,0:0:0:0:
394,169,98912,2,0,P|368:199|326:215,1,72,10|0,1:2|0:0,0:0:0:0:
280,287,99070,2,0,P|242:273|213:238,1,72,2|0,0:0|0:0,0:0:0:0:
153,163,99227,5,2,1:2:0:0:
103,145,99305,1,2,0:0:0:0:
55,164,99384,1,2,0:0:0:0:
33,212,99463,1,2,0:0:0:0:
48,262,99543,2,0,P|70:288|107:302,1,72,10|0,1:2|0:0,0:0:0:0:
147,374,99701,2,0,P|179:361|205:330,1,72,2|0,0:0|0:0,0:0:0:0:
245,240,99859,5,0,1:2:0:0:
270,214,99938,1,2,0:0:0:0:
304,203,100017,1,2,0:0:0:0:
339,207,100096,1,2,0:0:0:0:
362,246,100175,5,8,1:2:0:0:
387,272,100254,1,2,0:0:0:0:
421,283,100333,1,2,0:0:0:0:
456,279,100412,1,2,0:0:0:0:
486,260,100491,6,0,P|509:245|529:240,5,48,2|0|0|0|0|0,1:2|0:0|0:0|0:0|0:0|0:0,0:0:0:0:
463,357,100806,2,0,P|487:369|501:384,5,48,10|0|0|0|0|0,1:2|0:0|0:0|0:0|0:0|0:0,0:0:0:0:
331,377,101122,5,2,1:2:0:0:
313,358,101201,1,2,0:0:0:0:
369,339,101280,1,2,0:0:0:0:
343,328,101359,1,2,0:0:0:0:
379,285,101438,1,10,1:2:0:0:
351,286,101517,1,2,0:0:0:0:
357,236,101596,1,2,0:0:0:0:
333,247,101675,1,2,0:0:0:0:
311,207,101754,1,2,1:2:0:0:
296,223,101833,1,2,0:0:0:0:
273,184,101912,1,2,0:0:0:0:
249,195,101991,1,2,0:0:0:0:
256,144,102070,1,10,1:2:0:0:
227,145,102148,1,2,0:0:0:0:
264,102,102227,1,2,0:0:0:0:
238,92,102306,1,2,0:0:0:0:
280,66,102385,6,0,P|309:46|344:40,1,72,2|0,1:2|0:0,0:0:0:0:
401,155,102543,2,0,P|367:149|341:124,1,72,2|0,0:3|0:0,0:0:0:0:
452,85,102701,1,10,1:2:0:0:
480,115,102780,1,2,0:0:0:0:
490,154,102859,2,0,P|484:189|463:218,1,72,2|0,0:3|0:0,0:0:0:0:
379,275,103017,6,0,L|389:318,2,36,2|2|2,1:2|0:0|0:0,0:0:0:0:
360,194,103175,2,0,L|341:124,1,72,2|0,0:3|0:0,0:0:0:0:
299,290,103333,6,0,L|309:334,2,36,10|2|2,1:2|0:0|0:0,0:0:0:0:
280,211,103491,2,0,L|261:141,1,72,2|0,0:3|0:0,0:0:0:0:
237,56,103648,5,2,1:2:0:0:
181,36,103727,1,2,0:0:0:0:
126,58,103806,1,2,0:0:0:0:
101,112,103885,1,2,0:0:0:0:
118,169,103964,2,0,P|140:196|172:212,1,72,10|0,1:2|0:0,0:0:0:0:
232,286,104122,2,0,P|265:275|291:250,1,72,2|0,0:0|0:0,0:0:0:0:
356,162,104280,5,2,1:2:0:0:
405,144,104359,1,2,0:0:0:0:
453,163,104438,1,2,0:0:0:0:
475,211,104517,1,2,0:0:0:0:
459,261,104596,2,0,P|439:284|399:302,1,72,10|0,1:2|0:0,0:0:0:0:
353,366,104753,2,0,P|324:356|295:324,1,72,2|0,0:0|0:0,0:0:0:0:
278,185,104912,6,0,L|257:265,1,62.9999980773926,2|0,1:2|0:0,0:0:0:0:
162,309,105070,2,0,L|177:248,1,62.9999980773926,2|0,0:0|0:0,0:0:0:0:
212,95,105227,2,0,P|183:58|55:98,1,188.999994232178,10|0,1:2|0:0,0:0:0:0:
132,137,105543,2,0,P|208:114|341:81,1,188.999994232178,2|0,1:2|0:0,0:0:0:0:
389,12,105859,2,0,B|337:62|337:62|357:116|391:199,1,188.999994232178,10|0,1:2|0:0,0:0:0:0:
415,255,106175,5,4,0:0:0:0:
256,192,106254,12,0,111227,0:0:0:0:
