osu file format v14

[General]
AudioFilename: audio.mp3
AudioLeadIn: 0
PreviewTime: 85885
Countdown: 0
SampleSet: Soft
StackLeniency: 0.7
Mode: 0
LetterboxInBreaks: 0
WidescreenStoryboard: 1

[Editor]
Bookmarks: 55648,65754,75859,78385,106175,111227
DistanceSpacing: 1.4
BeatDivisor: 4
GridSize: 32
TimelineZoom: 3.399999

[Metadata]
Title:zeke didn't "invent dariacore", i did
TitleUnicode:zeke didn't "invent dariacore", i did
Artist:coltrane
ArtistUnicode:coltrane
Creator:Log Off Now
Version:normal
Source:
Tags:english electronic jenny i wanna ruin our friendship studio killers hyperflip hyperpop dariacore mashcore kataryn [3d] 3d hyper pop daria core edm dance music plunderphonics fur:trash furtrash cyndifusic
BeatmapID:4005661
BeatmapSetID:1930360

[Difficulty]
HPDrainRate:3
CircleSize:3
OverallDifficulty:4
ApproachRate:6
SliderMultiplier:0.899999999999999
SliderTickRate:1

[Events]
//Background and Video events
0,0,"1684082940_VaI62dQP2p.jpg",0,0
//Break Periods
2,36901,44343
//Storyboard Layer 0 (Background)
//Storyboard Layer 1 (Fail)
//Storyboard Layer 2 (Pass)
//Storyboard Layer 3 (Foreground)
//Storyboard Layer 4 (Overlay)
//Storyboard Sound Samples

[TimingPoints]
70,315.789473684211,4,2,1,60,1,0
70,-100,4,2,1,60,0,0
1333,-100,4,2,1,60,0,0
1688,-100,4,2,1,5,0,0
1925,-100,4,2,1,60,0,0
1964,-100,4,2,1,60,0,0
3859,-100,4,2,1,60,0,0
4491,-100,4,2,1,60,0,0
4806,-100,4,2,1,72,0,0
5122,-100,4,2,2,72,0,0
6385,-100,4,2,2,72,0,0
6701,-100,4,2,2,72,0,0
7648,-100,4,2,2,72,0,0
8912,-100,4,2,2,72,0,0
9070,-100,4,2,2,72,0,0
9227,-100,4,2,2,72,0,0
10175,-100,4,2,2,76,0,0
10648,-100,4,2,2,76,0,0
12701,-100,4,2,2,80,0,0
13964,-100,4,2,2,90,0,0
14596,-100,4,2,2,69,0,0
15227,-90.9090909090909,4,2,1,100,0,1
16333,-90.9090909090909,4,2,1,100,0,1
16491,-90.9090909090909,4,2,1,100,0,1
16806,-90.9090909090909,4,2,1,100,0,1
17754,-90.9090909090909,4,2,1,100,0,1
19964,-90.9090909090909,4,2,1,100,0,1
20280,-90.9090909090909,4,2,1,100,0,1
21385,-90.9090909090909,4,2,1,100,0,1
21543,-90.9090909090909,4,2,1,100,0,1
21858,-90.9090909090909,4,2,1,100,0,1
22806,-90.9090909090909,4,2,1,100,0,1
24385,-90.9090909090909,4,2,1,100,0,1
25017,-90.9090909090909,4,2,1,100,0,1
25333,-100,4,2,1,89,0,0
45543,-100,4,2,2,72,0,0
50596,-100,4,2,2,76,0,0
53122,-100,4,2,2,80,0,0
54385,-100,4,2,2,90,0,0
55333,-100,4,2,2,69,0,0
55648,-100,4,2,1,87,0,0
56280,-100,4,2,1,87,0,0
59438,-100,4,2,1,87,0,0
60701,-100,4,2,1,87,0,0
61333,-100,4,2,1,87,0,0
64491,-100,4,2,1,87,0,0
65754,-100,4,2,1,87,0,0
66385,-100,4,2,1,87,0,0
68596,-100,4,2,1,87,0,0
68912,-100,4,2,1,87,0,0
70491,-100,4,2,1,87,0,0
70806,-100,4,2,1,87,0,0
73648,-100,4,2,1,87,0,0
73964,-100,4,2,1,87,0,0
78859,-100,4,2,1,75,0,0
80596,-100,4,2,2,75,0,0
80912,-100,4,2,2,80,0,0
83438,-100,4,2,2,90,0,0
85648,-100,4,2,2,69,0,0
85964,-90.9090909090909,4,2,1,100,0,1
87070,-90.9090909090909,4,2,1,100,0,1
87228,-90.9090909090909,4,2,1,100,0,1
87543,-90.9090909090909,4,2,1,100,0,1
88491,-90.9090909090909,4,2,1,100,0,1
90070,-90.9090909090909,4,2,1,100,0,1
90701,-90.9090909090909,4,2,1,100,0,1
91017,-90.9090909090909,4,2,1,100,0,1
92122,-90.9090909090909,4,2,1,100,0,1
92280,-90.9090909090909,4,2,1,100,0,1
92595,-90.9090909090909,4,2,1,100,0,1
93543,-90.9090909090909,4,2,1,100,0,1
96070,-100,4,2,1,89,0,0
104912,-100,4,2,1,89,0,0
107438,-100,4,2,1,79,0,0
108701,-100,4,2,1,69,0,0
109964,-100,4,2,1,59,0,0

[Colours]
Combo1 : 248,69,145
Combo2 : 55,119,157
Combo3 : 131,22,250
Combo4 : 248,135,248

[HitObjects]
76,248,70,6,2,P|133:266|179:285,1,89.9999999999999,2|0,0:0|3:0,0:0:0:0:
227,350,701,2,2,P|278:328|323:316,1,89.9999999999999,2|0,0:0|3:0,0:0:0:0:
364,235,1333,1,2,0:0:0:0:
308,153,1648,2,0,P|318:128|324:103,1,45,2|0,3:2|0:0,0:0:0:0:
360,82,1964,6,2,P|408:66|449:78,1,89.9999999999999,2|0,0:0|3:0,0:0:0:0:
504,155,2596,2,2,P|490:197|476:255,1,89.9999999999999,2|0,0:0|3:0,0:0:0:0:
398,299,3227,2,2,P|386:255|372:212,1,89.9999999999999,2|0,0:0|3:0,0:0:0:0:
288,159,3859,1,2,0:0:0:0:
224,235,4175,1,2,3:2:0:0:
148,170,4491,2,2,P|138:132|134:123,1,45,2|0,0:0|0:0,0:0:0:0:
105,87,4806,5,2,1:3:0:0:
178,20,5122,6,0,P|209:30|231:36,1,45,4|10,1:0|0:0,0:0:0:0:
261,62,5438,2,0,P|282:55|338:44,2,67.4999999999999,10|10|10,0:0|0:0|0:0,0:0:0:0:
250,110,6070,1,2,1:2:0:0:
322,177,6385,5,10,1:2:0:0:
251,247,6701,1,2,1:2:0:0:
282,340,7017,2,0,L|334:324,1,45,10|10,1:2|0:0,0:0:0:0:
364,296,7333,2,0,L|416:312,1,45,0|2,1:0|0:0,0:0:0:0:
453,325,7648,1,2,1:2:0:0:
469,227,7964,6,0,L|521:243,2,45,0|8|2,1:0|0:0|1:2,0:0:0:0:
403,152,8596,2,0,L|351:168,1,45,0|0,1:0|0:0,0:0:0:0:
323,199,8912,2,0,L|309:242,2,45,2|10|2,1:2|0:0|1:2,0:0:0:0:
264,119,9543,6,0,L|212:135,1,45,2|10,1:2|0:0,0:0:0:0:
187,168,9859,2,0,L|135:152,1,45,2|10,1:2|0:0,0:0:0:0:
96,139,10175,2,0,P|54:165|38:217,1,89.9999999999999,2|8,1:2|1:2,0:0:0:0:
55,247,10648,1,10,0:0:0:0:
133,307,10964,5,8,0:0:0:0:
133,307,11122,2,0,P|179:292|234:278,1,89.9999999999999,10|8,1:2|1:2,0:0:0:0:
277,201,11754,1,8,1:2:0:0:
348,269,12070,2,0,P|379:278|397:282,1,45,10|10,1:2|0:0,0:0:0:0:
426,316,12385,2,0,P|457:307|475:303,1,45,10|10,1:2|0:0,0:0:0:0:
501,266,12701,5,8,1:2:0:0:
449,181,13017,1,8,1:2:0:0:
508,101,13333,1,8,1:2:0:0:
498,69,13491,1,8,1:2:0:0:
488,37,13648,1,8,1:2:0:0:
389,28,13964,6,0,L|408:89,1,45,8|8,1:2|1:2,0:0:0:0:
375,112,14280,2,0,L|394:173,1,45,8|8,1:2|1:2,0:0:0:0:
401,202,14596,1,2,0:0:0:0:
225,330,15227,5,4,1:0:0:0:
159,243,15543,1,12,1:0:0:0:
226,157,15859,1,4,1:0:0:0:
226,157,16017,2,0,L|293:177,1,49.5000015106201,2|8,0:0|1:2,0:0:0:0:
309,212,16333,5,2,0:0:0:0:
309,212,16491,1,2,1:2:0:0:
395,145,16806,1,10,1:2:0:0:
333,54,17122,2,0,P|298:26|241:33,1,99.0000030212402,2|8,1:2|1:2,0:0:0:0:
166,105,17754,6,0,L|113:91,2,49.5000015106201,0|2|8,1:2|0:1|1:2,0:0:0:0:
247,176,18385,2,0,L|300:162,2,49.5000015106201,0|2|8,1:2|0:1|1:2,0:0:0:0:
181,263,19017,2,0,L|195:316,1,49.5000015106201,2|2,1:2|0:1,0:0:0:0:
163,356,19333,2,0,P|118:371|59:344,1,99.0000030212402,10|2,1:2|1:2,0:0:0:0:
2,269,19964,1,8,1:2:0:0:
82,195,20280,5,4,1:0:0:0:
169,260,20596,1,12,1:0:0:0:
273,222,20912,1,4,1:0:0:0:
273,222,21070,2,0,L|256:162,1,49.5000015106201,2|8,0:0|1:2,0:0:0:0:
248,126,21385,5,2,0:0:0:0:
248,126,21543,1,2,1:2:0:0:
324,48,21859,1,10,1:2:0:0:
431,67,22175,2,0,P|451:96|426:168,1,99.0000030212402,2|10,1:2|1:2,0:0:0:0:
400,257,22806,6,0,L|342:239,2,49.5000015106201,0|2|8,1:0|0:1|1:2,0:0:0:0:
448,354,23438,2,0,L|506:336,2,49.5000015106201,0|2|8,1:2|0:1|1:2,0:0:0:0:
341,376,24070,2,0,P|326:340|326:324,1,49.5000015106201,2|2,1:2|0:0,0:0:0:0:
347,280,24385,1,10,1:2:0:0:
271,201,24701,1,2,1:2:0:0:
204,286,25017,6,2,P|171:296|96:332,1,99.0000030212402,8|2,1:2|1:2,0:1:0:0:
70,307,25491,1,2,0:0:0:0:
70,307,25648,1,10,1:2:0:0:
84,208,25964,2,0,L|67:161,2,45,2|2|10,1:2|0:0|1:2,0:0:0:0:
179,252,26596,5,2,1:2:0:0:
179,252,26754,1,2,0:3:0:0:
257,191,27070,1,2,0:3:0:0:
327,259,27385,1,2,0:3:0:0:
406,200,27701,5,2,0:3:0:0:
406,200,27859,2,0,P|416:154|429:101,1,89.9999999999999,2|10,1:2|1:2,0:0:0:0:
347,51,28491,2,0,P|336:94|326:138,1,89.9999999999999,2|10,1:2|1:2,0:0:0:0:
255,207,29122,2,0,L|209:226,1,45,0|2,1:2|0:0,0:0:0:0:
174,255,29438,2,0,L|128:236,1,45,8|2,1:2|0:0,0:0:0:0:
95,203,29754,2,0,L|49:222,2,45,2|0|10,1:2|0:0|1:2,0:0:0:0:
151,121,30385,6,0,P|161:98|151:61,1,45,2|2,1:2|0:0,0:0:0:0:
127,40,30701,1,10,1:2:0:0:
47,98,31017,2,0,L|4:82,2,45,2|2|10,1:2|0:0|1:2,0:0:0:0:
84,195,31649,5,2,1:2:0:0:
84,195,31807,1,2,0:3:0:0:
16,267,32123,1,2,0:3:0:0:
68,350,32438,1,2,0:3:0:0:
155,300,32754,5,2,0:3:0:0:
155,300,32912,2,0,P|200:312|252:328,1,89.9999999999999,2|10,1:2|1:2,0:0:0:0:
294,240,33544,2,0,P|250:227|207:215,1,89.9999999999999,2|10,1:2|1:2,0:0:0:0:
112,185,34175,2,0,L|93:139,1,45,0|2,1:2|0:0,0:0:0:0:
63,104,34491,2,0,L|86:64,1,45,8|2,1:2|0:0,0:0:0:0:
121,30,34806,2,0,P|168:14|217:38,1,89.9999999999999,2|10,1:2|1:2,0:0:0:0:
256,192,35438,12,0,36701,0:0:0:0:
126,175,45543,6,0,P|164:188|186:197,1,45,10|8,1:2|0:0,0:0:0:0:
198,229,45859,2,0,P|242:212|287:198,1,89.9999999999999,8|8,1:2|1:2,0:0:0:0:
329,181,46333,1,8,0:0:0:0:
329,181,46491,1,10,1:2:0:0:
407,240,46806,6,0,P|431:208|423:147,1,89.9999999999999,10|10,1:2|1:2,0:0:0:0:
367,82,47438,1,10,1:2:0:0:
297,152,47754,2,0,B|231:137|231:137|192:153|192:153|122:135,1,180,10|8,1:2|1:2,0:0:0:0:
80,125,48543,1,8,0:0:0:0:
80,125,48701,1,10,1:2:0:0:
5,190,49017,2,0,P|18:229|23:246,1,45,8|0,1:2|0:0,0:0:0:0:
3,280,49333,6,0,P|46:297|91:316,1,89.9999999999999,10|10,1:2|1:2,0:0:0:0:
164,253,49964,1,10,1:2:0:0:
112,168,50280,2,0,L|98:122,1,45,10|8,1:2|0:0,0:0:0:0:
86,76,50596,6,0,P|125:39|175:45,1,89.9999999999999,10|8,1:2|1:2,0:0:0:0:
225,111,51227,2,0,L|273:95,1,45,8|8,1:2|0:0,0:0:0:0:
297,56,51543,1,10,1:2:0:0:
375,116,51859,2,0,L|464:86,2,89.9999999999999,10|10|10,1:2|1:2|1:2,0:0:0:0:
358,165,52648,1,8,0:0:0:0:
358,165,52806,2,0,L|379:222,1,45,10|8,1:2|0:0,0:0:0:0:
397,250,53122,6,0,L|381:292,2,45,10|8|8,1:2|1:2|1:2,0:0:0:0:
475,189,53754,1,10,1:2:0:0:
464,157,53912,1,8,1:2:0:0:
452,126,54069,1,8,1:2:0:0:
383,54,54385,6,0,L|340:67,1,45,8|8,1:2|1:2,0:0:0:0:
313,109,54701,2,0,L|270:122,1,45,8|8,1:2|1:2,0:0:0:0:
222,138,55017,1,2,0:3:0:0:
40,58,55648,6,0,P|21:90|32:156,1,89.9999999999999,4|4,1:0|1:0,0:0:0:0:
92,213,56280,2,0,L|77:264,1,45,0|0,1:2|0:0,0:0:0:0:
66,304,56596,1,2,1:2:0:0:
66,304,56754,1,2,0:0:0:0:
196,374,57227,6,0,P|254:355|299:342,1,89.9999999999999,2|0,1:2|1:2,0:0:0:0:
305,303,57701,1,2,0:0:0:0:
305,303,57859,1,2,1:2:0:0:
360,220,58175,2,0,P|416:237|463:252,2,89.9999999999999,0|0|0,1:0|1:0|1:0,0:0:0:0:
266,187,59122,2,0,L|250:135,1,45,0|2,1:0|0:0,0:0:0:0:
238,96,59438,6,0,P|275:65|319:68,1,89.9999999999999,0|0,1:0|1:0,0:0:0:0:
389,131,60070,1,0,1:0:0:0:
455,58,60385,1,0,1:0:0:0:
508,141,60701,2,0,P|497:168|489:190,1,45,4|0,1:0|0:0,0:0:0:0:
450,210,61017,6,0,P|463:242|478:311,1,89.9999999999999,4|0,1:0|1:2,0:0:0:0:
454,342,61491,1,0,0:0:0:0:
454,342,61648,2,0,P|433:366|405:369,1,45,2|2,1:2|0:0,0:0:0:0:
317,262,62280,6,0,P|272:273|235:306,1,89.9999999999999,2|0,1:2|1:2,0:0:0:0:
195,319,62754,1,2,0:0:0:0:
195,319,62912,1,2,1:2:0:0:
103,281,63228,6,0,P|60:294|16:307,2,89.9999999999999,0|0|0,1:0|1:0|1:0,0:0:0:0:
185,226,64175,2,0,L|201:174,1,45,0|2,1:0|0:0,0:0:0:0:
213,135,64491,6,0,P|176:104|132:107,1,89.9999999999999,0|0,1:0|1:0,0:0:0:0:
57,165,65122,1,0,1:0:0:0:
7,79,65438,1,0,1:0:0:0:
84,17,65754,6,0,P|135:29|190:42,1,89.9999999999999,4|8,1:0|1:2,0:0:0:0:
236,112,66385,2,0,P|287:100|342:87,1,89.9999999999999,0|10,1:2|1:2,0:0:0:0:
421,75,67017,2,0,L|438:30,2,45,2|2|10,1:2|0:0|1:2,0:0:0:0:
389,168,67648,1,0,1:0:0:0:
399,200,67806,1,2,0:0:0:0:
409,232,67963,1,10,1:2:0:0:
486,295,68280,6,0,P|457:324|404:333,1,89.9999999999999,2|10,1:2|1:2,0:0:0:0:
318,373,68912,2,0,P|289:344|236:335,1,89.9999999999999,2|10,1:2|1:2,0:0:0:0:
168,268,69543,2,0,L|123:285,2,45,2|2|10,1:2|0:0|1:2,0:0:0:0:
235,194,70175,2,0,L|277:209,1,45,2|2,1:2|0:0,0:0:0:0:
313,243,70491,2,0,L|355:227,1,45,10|2,1:2|0:0,0:0:0:0:
399,205,70806,6,0,P|412:171|388:106,1,89.9999999999999,2|10,1:2|1:2,0:0:0:0:
328,51,71438,2,0,P|294:38|229:62,1,89.9999999999999,2|10,1:2|1:2,0:0:0:0:
176,123,72070,2,0,L|193:179,2,45,2|2|10,1:2|0:0|1:2,0:0:0:0:
106,52,72701,1,0,1:0:0:0:
74,62,72859,1,2,0:0:0:0:
42,72,73016,1,10,1:2:0:0:
8,165,73333,6,0,P|1:212|36:259,1,89.9999999999999,2|10,1:2|1:2,0:0:0:0:
98,308,73964,2,0,P|138:292|196:273,1,89.9999999999999,2|10,1:2|1:2,0:0:0:0:
247,201,74596,2,0,P|279:210|295:214,1,45,2|2,1:2|0:0,0:0:0:0:
320,252,74912,2,0,P|352:243|368:239,1,45,10|2,1:2|0:0,0:0:0:0:
400,207,75227,5,2,1:2:0:0:
463,282,75543,1,2,1:2:0:0:
409,365,75859,1,0,1:0:0:0:
256,192,76017,12,0,78385,0:0:0:0:
421,45,80596,5,10,0:0:0:0:
348,112,80912,2,0,P|368:165|381:202,1,89.9999999999999,8|8,1:2|1:2,0:0:0:0:
300,256,81543,2,0,P|284:213|268:171,1,89.9999999999999,8|8,1:2|1:2,0:0:0:0:
249,125,82017,1,8,0:0:0:0:
249,125,82175,1,8,1:2:0:0:
164,177,82491,1,8,1:2:0:0:
75,132,82806,2,0,P|57:91|80:43,1,89.9999999999999,8|8,1:2|1:2,0:0:0:0:
166,18,83438,6,0,L|215:33,1,45,8|8,1:2|0:2,0:0:0:0:
240,69,83754,2,0,L|289:54,1,45,8|8,1:2|0:2,0:0:0:0:
320,23,84070,2,0,P|363:35|414:50,1,89.9999999999999,8|8,1:2|1:2,0:0:0:0:
457,132,84701,5,8,1:2:0:0:
372,183,85016,1,8,1:2:0:0:
278,149,85333,2,0,P|222:170|185:185,1,89.9999999999999,8|2,1:2|0:0,0:0:0:0:
142,277,85964,5,4,1:0:0:0:
213,361,86280,1,12,1:0:0:0:
305,302,86596,1,4,1:0:0:0:
305,302,86754,2,0,L|372:322,1,49.5000015106201,2|8,0:0|1:2,0:0:0:0:
408,336,87070,5,2,0:0:0:0:
408,336,87228,1,2,1:2:0:0:
482,256,87543,1,10,1:2:0:0:
389,198,87859,2,0,P|360:158|366:110,1,99.0000030212402,2|8,1:2|1:2,0:0:0:0:
273,52,88491,6,0,L|287:-1,2,49.5000015106201,0|2|8,1:2|0:1|1:2,0:0:0:0:
196,129,89122,2,0,L|210:182,2,49.5000015106201,0|2|8,1:2|0:1|1:2,0:0:0:0:
120,49,89754,2,0,B|44:20|44:20|21:29,2,99.0000030212402,2|10|2,1:2|1:2|1:2,0:0:0:0:
57,138,90701,1,8,1:2:0:0:
116,228,91017,5,4,1:0:0:0:
211,176,91333,1,12,1:0:0:0:
305,240,91649,1,4,1:0:0:0:
305,240,91807,2,0,L|365:223,1,49.5000015106201,2|8,0:0|1:2,0:0:0:0:
409,216,92122,5,2,0:0:0:0:
409,216,92280,1,2,1:2:0:0:
482,296,92596,1,10,1:2:0:0:
393,359,92912,2,0,P|364:379|292:354,1,99.0000030212402,2|10,1:2|1:2,0:0:0:0:
231,286,93543,6,0,L|173:268,2,49.5000015106201,0|2|8,1:2|0:1|1:2,0:0:0:0:
311,210,94175,2,0,L|369:192,2,49.5000015106201,0|2|8,1:2|0:1|1:2,0:0:0:0:
229,136,94807,2,0,P|198:145|177:151,1,49.5000015106201,2|2,1:2|0:0,0:0:0:0:
128,163,95122,1,10,1:2:0:0:
52,84,95438,1,0,1:2:0:0:
131,9,95754,6,2,P|167:0|229:42,1,99.0000030212402,8|2,1:2|1:2,0:1:0:0:
242,77,96228,1,2,0:0:0:0:
242,77,96385,1,10,1:2:0:0:
173,148,96701,2,0,L|126:131,2,45,2|2|10,1:2|0:0|1:2,0:0:0:0:
249,220,97333,5,2,1:2:0:0:
249,220,97491,1,2,0:3:0:0:
332,165,97807,1,2,0:3:0:0:
408,228,98122,1,2,0:3:0:0:
368,321,98438,5,2,0:3:0:0:
368,321,98596,2,0,P|332:350|277:344,1,89.9999999999999,2|10,1:2|1:2,0:0:0:0:
217,282,99228,2,0,P|228:239|238:195,1,89.9999999999999,2|10,1:2|1:2,0:0:0:0:
254,96,99859,2,0,L|208:77,1,45,0|2,1:2|0:0,0:0:0:0:
173,48,100175,2,0,L|127:67,1,45,8|2,1:2|0:0,0:0:0:0:
94,100,100491,2,0,L|48:81,2,45,2|0|10,1:2|0:0|1:2,0:0:0:0:
150,181,101122,6,0,P|160:204|150:241,1,45,2|2,1:2|0:0,0:0:0:0:
132,265,101438,1,10,1:2:0:0:
196,340,101754,2,0,L|180:383,2,45,2|2|10,1:2|0:0|1:2,0:0:0:0:
280,285,102386,5,2,1:2:0:0:
280,285,102544,1,2,0:3:0:0:
224,202,102860,1,2,0:3:0:0:
288,127,103175,1,2,0:3:0:0:
361,201,103491,5,2,0:3:0:0:
361,201,103649,2,0,P|406:213|458:229,1,89.9999999999999,2|10,1:2|1:2,0:0:0:0:
507,146,104281,2,0,P|520:103|492:50,1,89.9999999999999,2|10,1:2|1:2,0:0:0:0:
416,17,104912,5,2,1:2:0:0:
384,27,105070,1,2,0:0:0:0:
352,37,105227,1,10,1:2:0:0:
277,102,105543,2,0,P|225:86|173:73,1,89.9999999999999,2|10,1:2|1:2,0:0:0:0:
119,7,106175,1,4,0:0:0:0:
256,192,106333,12,0,111227,0:0:0:0:
