osu file format v14

[General]
AudioFilename: audio.mp3
AudioLeadIn: 0
PreviewTime: 85885
Countdown: 0
SampleSet: Soft
StackLeniency: 0.7
Mode: 0
LetterboxInBreaks: 0
WidescreenStoryboard: 1

[Editor]
Bookmarks: 55648,65754,75859,78385,106175,111227
DistanceSpacing: 1.4
BeatDivisor: 4
GridSize: 32
TimelineZoom: 3.399999

[Metadata]
Title:zeke didn't "invent dariacore", i did
TitleUnicode:zeke didn't "invent dariacore", i did
Artist:coltrane
ArtistUnicode:coltrane
Creator:Log Off Now
Version:hard
Source:
Tags:english electronic jenny i wanna ruin our friendship studio killers hyperflip hyperpop dariacore mashcore kataryn [3d] 3d hyper pop daria core edm dance music plunderphonics fur:trash furtrash cyndifusic
BeatmapID:4066845
BeatmapSetID:1930360

[Difficulty]
HPDrainRate:4
CircleSize:3.3
OverallDifficulty:7
ApproachRate:8
SliderMultiplier:1.3
SliderTickRate:1

[Events]
//Background and Video events
0,0,"1684082940_VaI62dQP2p.jpg",0,0
//Break Periods
2,38164,44793
//Storyboard Layer 0 (Background)
//Storyboard Layer 1 (Fail)
//Storyboard Layer 2 (Pass)
//Storyboard Layer 3 (Foreground)
//Storyboard Layer 4 (Overlay)
//Storyboard Sound Samples

[TimingPoints]
70,315.789473684211,4,2,1,60,1,0
70,-100,4,2,1,60,0,0
1333,-100,4,2,1,60,0,0
1925,-100,4,2,1,60,0,0
1964,-100,4,2,1,60,0,0
3859,-100,4,2,1,60,0,0
4491,-100,4,2,1,60,0,0
4806,-100,4,2,1,72,0,0
5122,-100,4,2,2,72,0,0
6385,-100,4,2,2,72,0,0
6701,-100,4,2,2,72,0,0
7648,-100,4,2,2,72,0,0
8912,-100,4,2,2,72,0,0
9070,-100,4,2,2,72,0,0
9227,-100,4,2,2,72,0,0
10175,-100,4,2,2,76,0,0
10648,-100,4,2,2,76,0,0
12701,-100,4,2,2,80,0,0
13964,-100,4,2,2,90,0,0
14596,-100,4,2,2,69,0,0
15227,-83.3333333333333,4,2,1,100,0,1
16333,-90.9090909090909,4,2,1,100,0,1
16491,-90.9090909090909,4,2,1,100,0,1
16806,-90.9090909090909,4,2,1,100,0,1
17754,-90.9090909090909,4,2,1,100,0,1
19333,-90.9090909090909,4,2,1,100,0,1
19964,-90.9090909090909,4,2,1,100,0,1
20280,-83.3333333333333,4,2,1,100,0,1
21385,-90.9090909090909,4,2,1,100,0,1
21543,-90.9090909090909,4,2,1,100,0,1
21858,-90.9090909090909,4,2,1,100,0,1
22806,-90.9090909090909,4,2,1,100,0,1
24385,-90.9090909090909,4,2,1,100,0,1
25017,-90.9090909090909,4,2,1,100,0,1
25333,-100,4,2,1,89,0,0
45543,-100,4,2,2,72,0,0
50596,-100,4,2,2,76,0,0
53122,-100,4,2,2,80,0,0
54385,-100,4,2,2,90,0,0
55333,-100,4,2,2,69,0,0
55648,-90.9090909090909,4,2,1,87,0,0
56280,-90.9090909090909,4,2,1,87,0,0
59438,-90.9090909090909,4,2,1,87,0,0
60701,-90.9090909090909,4,2,1,87,0,0
61333,-90.9090909090909,4,2,1,87,0,0
64491,-90.9090909090909,4,2,1,87,0,0
65754,-90.9090909090909,4,2,1,87,0,0
66385,-90.9090909090909,4,2,1,87,0,0
68596,-90.9090909090909,4,2,1,87,0,0
68912,-90.9090909090909,4,2,1,87,0,0
70491,-90.9090909090909,4,2,1,87,0,0
70806,-90.9090909090909,4,2,1,87,0,0
73648,-90.9090909090909,4,2,1,87,0,0
73964,-90.9090909090909,4,2,1,87,0,0
78859,-100,4,2,1,75,0,0
80596,-90.9090909090909,4,2,2,75,0,0
80912,-90.9090909090909,4,2,2,80,0,0
83438,-90.9090909090909,4,2,2,90,0,0
85648,-90.9090909090909,4,2,2,69,0,0
85964,-83.3333333333333,4,2,1,100,0,1
87070,-90.9090909090909,4,2,1,100,0,1
87228,-90.9090909090909,4,2,1,100,0,1
87543,-90.9090909090909,4,2,1,100,0,1
88491,-90.9090909090909,4,2,1,100,0,1
90070,-90.9090909090909,4,2,1,100,0,1
90701,-90.9090909090909,4,2,1,100,0,1
91017,-83.3333333333333,4,2,1,100,0,1
92122,-90.9090909090909,4,2,1,100,0,1
92280,-90.9090909090909,4,2,1,100,0,1
92595,-90.9090909090909,4,2,1,100,0,1
93543,-90.9090909090909,4,2,1,100,0,1
96070,-100,4,2,1,89,0,0
104912,-100,4,2,1,89,0,0
107438,-100,4,2,1,79,0,0
108701,-100,4,2,1,69,0,0
109964,-100,4,2,1,59,0,0

[Colours]
Combo1 : 248,69,145
Combo2 : 55,119,157
Combo3 : 131,22,250
Combo4 : 248,135,248

[HitObjects]
28,211,70,6,2,P|89:192|164:171,1,130,2|0,0:0|3:0,0:0:0:0:
255,23,701,2,2,P|316:42|391:63,1,130,2|0,0:0|3:0,0:0:0:0:
492,203,1333,2,2,P|451:246|367:226,1,130,2|2,0:0|3:2,0:0:0:0:
269,178,1885,1,0,0:0:0:0:
269,178,1964,2,2,P|282:220|307:304,1,130,2|0,0:0|3:0,0:0:0:0:
137,371,2596,6,2,P|150:329|175:245,1,130,2|0,0:0|3:0,0:0:0:0:
239,76,3227,2,2,P|201:39|118:43,1,130,2|0,0:0|3:0,0:0:0:0:
22,187,3859,2,2,P|84:168|146:149,1,130,2|2,0:0|3:2,0:0:0:0:
235,44,4412,1,0,0:0:0:0:
235,44,4491,2,2,P|279:57|323:70,1,65,2|0,0:0|0:0,0:0:0:0:
384,89,4806,1,2,1:3:0:0:
335,264,5122,5,4,1:0:0:0:
277,193,5280,1,10,0:0:0:0:
347,135,5438,2,0,L|462:166,2,97.5,10|10|10,0:0|0:0|0:0,0:0:0:0:
297,62,6070,2,0,L|212:84,1,65,2|0,1:2|0:0,0:0:0:0:
185,156,6385,2,0,L|100:133,1,65,10|8,1:2|0:0,0:0:0:0:
47,86,6701,2,0,P|29:129|33:160,1,65,2|8,1:2|0:0,0:0:0:0:
82,221,7017,1,10,1:2:0:0:
20,288,7175,1,10,0:0:0:0:
82,354,7333,5,0,1:0:0:0:
102,348,7411,1,8,0:0:0:0:
122,342,7490,1,2,0:0:0:0:
209,317,7648,6,0,B|246:263|246:263|214:183,1,130,2|0,1:2|1:0,0:0:0:0:
185,118,8122,1,8,0:0:0:0:
185,118,8201,1,8,0:0:0:0:
185,118,8280,2,0,B|239:81|239:81|298:104,1,130,2|0,1:2|1:0,0:0:0:0:
319,145,8675,1,8,0:0:0:0:
395,94,8833,5,8,0:0:0:0:
395,94,8912,2,0,L|378:31,2,65,2|10|2,1:2|0:0|1:2,0:0:0:0:
474,157,9385,1,8,0:0:0:0:
474,157,9464,1,8,0:0:0:0:
474,157,9543,2,0,L|457:220,1,65,2|10,1:2|0:0,0:0:0:0:
378,266,9859,2,0,L|386:297,3,32.5,2|10|10|8,1:2|0:0|0:0|0:0,0:0:0:0:
361,336,10175,6,0,L|492:377,1,130,2|8,1:2|1:2,0:0:0:0:
506,286,10648,2,0,L|381:247,1,130,10|8,0:0|0:0,0:0:0:0:
313,186,11122,1,10,1:2:0:0:
299,165,11200,1,8,0:0:0:0:
294,142,11279,1,8,0:0:0:0:
341,63,11438,6,0,P|387:44|427:52,1,65,8|8,1:2|0:0,0:0:0:0:
487,79,11754,2,0,P|506:124|498:164,1,65,8|8,1:2|0:0,0:0:0:0:
446,208,12070,1,10,1:2:0:0:
370,158,12227,1,10,0:0:0:0:
310,227,12385,2,0,P|279:239|238:256,1,65,10|10,1:2|0:0,0:0:0:0:
220,286,12622,1,8,0:0:0:0:
220,286,12701,6,0,P|189:273|159:261,1,65,8|8,1:2|1:2,0:0:0:0:
130,175,13017,2,0,P|99:162|69:150,1,65,8|8,1:2|1:2,0:0:0:0:
24,71,13333,1,8,1:2:0:0:
24,71,13491,1,8,1:2:0:0:
90,10,13648,1,8,1:2:0:0:
90,10,13806,1,8,1:2:0:0:
165,58,13964,6,0,L|212:41,3,32.5,8|8|8|8,1:2|1:2|1:2|1:2,0:0:0:0:
226,12,14280,1,8,1:2:0:0:
249,18,14358,1,8,1:2:0:0:
273,25,14437,1,8,1:2:0:0:
296,31,14516,1,8,1:2:0:0:
320,38,14595,1,2,0:0:0:0:
365,280,15227,6,0,B|322:269|322:269|299:279|299:279|250:266,1,116.999996429443,4|0,1:0|0:0,0:0:0:0:
200,251,15543,2,0,P|185:204|157:120,1,116.999996429443,12|0,1:0|0:0,0:0:0:0:
197,95,15859,1,4,1:0:0:0:
115,21,16017,1,2,0:0:0:0:
115,21,16096,1,2,0:0:0:0:
27,125,16333,5,2,0:0:0:0:
94,198,16491,2,0,P|109:245|120:280,1,71.5000021820069,2|2,1:2|0:0,0:0:0:0:
49,341,16806,2,0,P|96:356|134:369,1,71.5000021820069,10|0,1:2|0:0,0:0:0:0:
200,306,17122,2,0,P|268:328|318:347,1,107.25000327301,2|0,1:2|0:0,0:0:0:0:
347,319,17438,2,0,P|383:293|365:197,1,143.000004364014,8|0,1:2|1:2,0:0:0:0:
292,143,17912,5,2,0:1:0:0:
229,221,18070,2,0,P|193:212|159:202,1,71.5000021820069,8|2,1:2|0:1,0:0:0:0:
138,104,18385,2,0,P|200:120|232:128,1,71.5000021820069,0|2,1:2|0:1,0:0:0:0:
280,52,18701,2,0,P|244:43|210:33,1,71.5000021820069,8|2,1:2|0:1,0:0:0:0:
118,8,19017,5,2,1:2:0:0:
118,8,19175,1,2,0:0:0:0:
31,58,19333,2,0,P|17:90|29:127,1,71.5000021820069,10|0,1:2|0:0,0:0:0:0:
82,206,19648,2,0,P|127:188|158:181,1,71.5000021820069,2|0,1:2|0:0,0:0:0:0:
210,102,19964,1,8,1:2:0:0:
333,172,20280,6,0,P|320:222|295:292,1,116.999996429443,4|0,1:0|0:0,0:0:0:0:
255,318,20596,2,0,B|208:340|208:340|190:364|190:364|155:379,1,116.999996429443,12|0,1:0|0:0,0:0:0:0:
109,351,20912,1,4,1:0:0:0:
42,271,21070,1,2,0:0:0:0:
42,271,21148,1,2,0:0:0:0:
131,150,21385,5,2,0:0:0:0:
199,222,21543,2,0,P|243:239|276:254,1,71.5000021820069,2|2,1:2|0:0,0:0:0:0:
327,328,21859,2,0,P|359:313|393:301,1,71.5000021820069,10|0,1:2|0:0,0:0:0:0:
446,215,22175,2,0,P|468:147|487:97,1,107.25000327301,2|0,1:2|0:0,0:0:0:0:
475,63,22491,2,0,P|423:42|345:98,1,143.000004364014,10|0,1:2|1:0,0:0:0:0:
304,171,22965,5,2,0:1:0:0:
248,87,23122,2,0,P|212:78|178:68,1,71.5000021820069,8|2,1:2|0:1,0:0:0:0:
115,146,23438,2,0,P|149:156|183:164,1,71.5000021820069,0|2,1:2|0:1,0:0:0:0:
204,263,23754,2,0,P|168:254|134:244,1,71.5000021820069,8|2,1:2|0:1,0:0:0:0:
68,320,24070,5,2,1:2:0:0:
68,320,24228,1,2,0:0:0:0:
149,378,24386,2,0,P|186:361|242:355,1,71.5000021820069,10|0,1:2|0:0,0:0:0:0:
312,382,24701,2,0,P|336:339|337:306,1,71.5000021820069,2|0,1:2|0:0,0:0:0:0:
275,238,25017,1,8,1:2:0:0:
278,55,25333,5,2,1:2:0:0:
294,59,25411,1,2,0:0:0:0:
310,64,25490,1,2,0:0:0:0:
399,84,25648,2,0,L|457:68,3,32.5,10|2|2|2,1:2|0:0|0:0|0:0,0:0:0:0:
475,65,25964,2,0,P|506:96|507:140,1,65,2|2,1:2|0:0,0:0:0:0:
502,206,26280,2,0,P|471:237|427:238,1,65,10|2,1:2|0:0,0:0:0:0:
385,177,26596,5,2,1:2:0:0:
332,251,26754,2,0,P|273:269|194:300,1,130,2|2,0:3|0:3,0:0:0:0:
138,350,27227,2,0,L|104:338,3,32.5,2|0|2|0,1:2|0:0|0:3|0:0,0:0:0:0:
66,317,27543,2,0,P|45:271|54:240,1,65,10|2,1:2|0:3,0:0:0:0:
104,187,27859,6,0,L|153:199,3,32.5,2|2|2|2,1:2|0:0|0:0|0:0,0:0:0:0:
171,223,28175,2,0,L|220:211,3,32.5,10|0|2|0,1:2|0:0|0:0|0:0,0:0:0:0:
248,207,28491,2,0,P|268:182|273:150,1,65,2|2,1:2|0:0,0:0:0:0:
266,60,28806,2,0,P|241:39|209:34,1,65,10|2,1:2|0:0,0:0:0:0:
146,100,29122,5,0,1:2:0:0:
146,100,29280,1,2,0:0:0:0:
73,44,29438,1,8,1:2:0:0:
73,44,29596,1,2,0:0:0:0:
7,107,29754,2,0,L|19:145,3,32.5,2|0|0|0,1:2|0:0|0:0|0:0,0:0:0:0:
52,167,30070,2,0,P|37:216|29:245,1,65,10|0,1:2|0:0,0:0:0:0:
13,318,30385,5,2,1:2:0:0:
26,336,30463,1,2,0:0:0:0:
46,347,30542,1,2,0:0:0:0:
137,341,30701,2,0,P|158:327|179:319,3,32.5,10|2|2|2,1:2|0:0|0:0|0:0,0:0:0:0:
204,302,31017,2,0,P|249:306|281:341,1,65,2|2,1:2|0:0,0:0:0:0:
333,376,31333,2,0,P|365:376|393:361,1,65,10|2,1:2|0:0,0:0:0:0:
435,280,31648,5,2,1:2:0:0:
361,225,31806,2,0,P|343:166|312:87,1,130,2|2,0:3|0:3,0:0:0:0:
351,17,32279,2,0,L|385:27,3,32.5,2|0|2|0,1:2|0:0|0:3|0:0,0:0:0:0:
426,39,32595,2,0,P|447:73|438:116,1,65,10|2,1:2|0:3,0:0:0:0:
384,164,32911,6,0,L|400:211,3,32.5,2|2|2|2,1:2|0:0|0:0|0:0,0:0:0:0:
426,228,33227,2,0,L|414:277,3,32.5,10|0|2|0,1:2|0:0|0:0|0:0,0:0:0:0:
410,304,33543,2,0,P|385:324|353:329,1,65,2|2,1:2|0:0,0:0:0:0:
281,272,33858,2,0,P|256:251|224:246,1,65,10|2,1:2|0:0,0:0:0:0:
154,303,34174,5,0,1:2:0:0:
154,303,34332,1,2,0:0:0:0:
92,243,34490,1,8,1:2:0:0:
92,243,34648,1,2,0:0:0:0:
153,175,34806,2,0,P|165:136|171:98,1,65,2|0,1:2|0:0,0:0:0:0:
126,31,35122,2,0,P|88:18|48:33,1,65,10|0,1:2|0:0,0:0:0:0:
20,103,35438,1,4,0:0:0:0:
256,192,35596,12,0,37964,0:0:0:0:
98,327,45543,6,0,P|151:309|175:301,1,65,10|8,1:2|0:0,0:0:0:0:
201,224,45859,2,0,P|241:179|325:195,1,130,8|8,1:2|1:2,0:0:0:0:
359,256,46333,1,8,0:0:0:0:
428,196,46491,1,10,1:2:0:0:
428,196,46570,2,0,B|443:141|453:104,1,65,8|8,0:0|0:0,0:0:0:0:
459,90,46806,6,0,P|423:51|334:66,1,130,10|10,1:2|1:2,0:0:0:0:
291,123,47280,1,8,0:0:0:0:
222,62,47438,2,0,P|171:85|143:96,1,65,10|8,1:2|0:0,0:0:0:0:
116,167,47754,2,0,P|74:122|90:38,2,130,10|8|8,1:2|1:2|1:2,0:0:0:0:
199,203,48543,5,8,0:0:0:0:
199,203,48622,1,8,0:0:0:0:
199,203,48701,2,0,B|221:237|225:248|225:248|211:274|189:336,1,130,10|8,1:2|1:2,0:0:0:0:
261,382,49175,1,0,0:0:0:0:
329,322,49333,6,0,P|380:341|402:350,1,65,10|8,1:2|0:0,0:0:0:0:
473,309,49648,2,0,P|485:290|481:238,1,65,10|8,1:2|0:0,0:0:0:0:
410,195,49964,2,0,P|359:214|337:223,1,65,10|8,1:2|0:0,0:0:0:0:
275,162,50280,2,0,P|248:111|299:34,1,130,10|10,1:2|1:2,0:0:0:0:
354,4,50754,5,8,0:0:0:0:
434,46,50912,2,0,P|416:95|407:121,1,65,8|8,1:2|0:0,0:0:0:0:
361,183,51227,2,0,P|379:232|388:258,1,65,8|8,1:2|0:0,0:0:0:0:
415,329,51543,2,0,P|378:365|349:368,1,65,10|10,1:2|0:2,0:0:0:0:
332,336,51780,1,8,0:0:0:0:
332,336,51859,6,0,P|284:314|256:321,1,65,10|8,1:2|0:0,0:0:0:0:
198,369,52175,2,0,P|224:313|190:233,1,130,10|10,1:2|1:2,0:0:0:0:
151,177,52648,1,8,0:0:0:0:
213,110,52806,2,0,P|260:127|284:135,1,65,10|8,1:2|0:0,0:0:0:0:
297,171,53043,1,8,1:2:0:0:
297,171,53122,6,0,P|345:152|379:142,1,65,10|8,1:2|1:2,0:0:0:0:
444,117,53438,2,0,P|483:143|496:174,1,65,8|8,1:2|1:2,0:0:0:0:
431,227,53754,1,10,1:2:0:0:
431,227,53912,1,8,1:2:0:0:
491,294,54070,1,8,1:2:0:0:
491,294,54227,1,8,1:2:0:0:
426,358,54385,6,0,L|384:347,3,32.5,8|8|8|8,1:2|1:2|1:2|1:2,0:0:0:0:
362,316,54701,1,8,1:2:0:0:
339,322,54779,1,8,1:2:0:0:
315,329,54858,1,8,1:2:0:0:
292,335,54937,1,8,1:2:0:0:
268,342,55016,1,2,0:3:0:0:
107,86,55648,6,0,L|201:115,1,71.5000021820069,4|0,1:0|0:0,0:0:0:0:
253,170,55964,2,0,L|420:118,1,143.000004364014,4|0,1:0|1:2,0:0:0:0:
438,112,56359,1,2,0:0:0:0:
507,183,56517,1,2,0:0:0:0:
507,183,56596,2,0,P|488:236|474:275,1,71.5000021820069,2|2,1:2|0:0,0:0:0:0:
408,318,56912,5,0,1:0:0:0:
408,318,56991,1,2,0:0:0:0:
349,237,57148,1,2,0:0:0:0:
349,237,57227,2,0,P|322:246|219:289,1,107.25000327301,2|0,1:2|0:0,0:0:0:0:
216,314,57543,6,0,L|163:298,3,35.7500010910034,0|2|2|2,1:2|0:0|0:0|0:0,0:0:0:0:
150,263,57859,2,0,P|137:223|101:124,1,143.000004364014,2|0,1:2|1:0,0:0:0:0:
268,14,58491,2,0,P|307:65|270:151,2,143.000004364014,0|0|0,1:0|1:0|1:0,0:0:0:0:
201,89,59280,1,2,0:0:0:0:
125,22,59438,2,0,P|74:22|7:95,1,143.000004364014,0|0,1:0|1:0,0:0:0:0:
143,233,60070,2,0,P|219:254|299:280,1,143.000004364014,0|0,1:0|1:0,0:0:0:0:
416,126,60701,6,0,L|322:155,1,71.5000021820069,4|0,1:0|0:0,0:0:0:0:
271,81,61017,2,0,L|134:123,1,143.000004364014,4|0,1:0|1:2,0:0:0:0:
109,167,61412,1,2,0:0:0:0:
195,227,61570,1,2,0:0:0:0:
195,227,61649,2,0,P|214:280|194:315,1,71.5000021820069,2|2,1:2|0:0,0:0:0:0:
149,373,61965,5,0,1:0:0:0:
149,373,62044,1,2,0:0:0:0:
70,321,62201,1,2,0:0:0:0:
70,321,62280,2,0,P|83:282|111:188,1,107.25000327301,2|0,1:2|0:0,0:0:0:0:
135,180,62596,6,0,L|114:118,3,35.7500010910034,0|2|2|2,1:2|0:0|0:0|0:0,0:0:0:0:
107,97,62912,2,0,P|136:58|248:64,1,143.000004364014,2|0,1:2|1:0,0:0:0:0:
270,244,63544,2,0,P|254:291|228:385,2,143.000004364014,0|0|0,1:0|1:0|1:0,0:0:0:0:
354,189,64333,1,2,0:0:0:0:
300,104,64491,2,0,P|249:127|164:161,1,143.000004364014,0|0,1:0|1:0,0:0:0:0:
74,336,65122,2,0,P|124:358|200:287,1,143.000004364014,0|0,1:0|1:0,0:0:0:0:
277,131,65754,6,0,P|337:145|361:151,1,71.5000021820069,4|0,1:0|0:0,0:0:0:0:
365,246,66070,2,0,P|292:228|220:212,1,143.000004364014,8|0,1:2|1:2,0:0:0:0:
184,121,66543,1,2,0:0:0:0:
119,197,66701,2,0,L|136:243,2,35.7500010910034,10|2|2,1:2|0:0|0:0,0:0:0:0:
38,135,67017,2,0,P|20:85|39:48,1,71.5000021820069,2|2,1:2|0:0,0:0:0:0:
101,4,67333,2,0,P|136:6|163:29,1,71.5000021820069,10|2,1:2|0:0,0:0:0:0:
213,115,67648,2,0,L|256:102,3,35.7500010910034,0|2|2|2,1:0|0:0|0:0|0:0,0:0:0:0:
283,68,67964,2,0,P|347:87|422:107,1,143.000004364014,10|2,1:2|1:2,0:0:0:0:
486,183,68438,5,2,0:0:0:0:
420,258,68596,2,0,L|441:315,2,35.7500010910034,10|2|2,1:2|0:0|0:0,0:0:0:0:
339,197,68912,2,0,P|303:201|275:222,1,71.5000021820069,2|2,1:2|0:0,0:0:0:0:
223,307,69227,2,0,P|187:302|159:281,1,71.5000021820069,10|0,1:2|0:0,0:0:0:0:
95,203,69543,2,0,P|115:153|125:118,1,71.5000021820069,2|2,1:2|0:0,0:0:0:0:
198,72,69859,2,0,P|150:38|124:35,1,71.5000021820069,10|2,1:2|0:0,0:0:0:0:
40,59,70175,2,0,L|29:15,3,35.7500010910034,2|0|2|2,1:2|0:0|0:0|0:0,0:0:0:0:
20,87,70491,2,0,L|39:160,1,71.5000021820069,10|2,1:2|0:0,0:0:0:0:
66,252,70806,5,2,1:2:0:0:
88,266,70884,1,2,0:0:0:0:
113,273,70963,1,2,0:0:0:0:
196,216,71122,2,0,P|258:189|291:196,1,71.5000021820069,10|2,1:2|0:0,0:0:0:0:
301,280,71438,2,0,P|362:307|395:300,1,71.5000021820069,2|2,1:2|0:0,0:0:0:0:
454,260,71754,2,0,L|489:269,2,35.7500010910034,10|0|0,1:2|0:0|0:0,0:0:0:0:
378,193,72070,6,0,P|360:143|379:106,1,71.5000021820069,2|2,1:2|0:0,0:0:0:0:
379,27,72386,2,0,P|342:38|300:49,1,71.5000021820069,10|2,1:2|0:0,0:0:0:0:
238,116,72701,2,0,L|203:105,3,35.7500010910034,0|2|2|2,1:0|0:0|0:0|0:0,0:0:0:0:
153,101,73017,2,0,P|104:149|114:240,1,143.000004364014,10|2,1:2|1:2,0:0:0:0:
180,284,73491,5,2,0:0:0:0:
265,231,73649,2,0,L|286:174,2,35.7500010910034,10|2|2,1:2|0:0|0:0,0:0:0:0:
318,315,73964,2,0,P|363:298|394:290,1,71.5000021820069,2|2,1:2|0:0,0:0:0:0:
467,233,74280,2,0,P|481:185|462:149,1,71.5000021820069,10|0,1:2|0:0,0:0:0:0:
395,103,74596,6,0,P|382:152|374:177,1,71.5000021820069,2|2,1:2|0:0,0:0:0:0:
303,242,74912,1,10,1:2:0:0:
303,242,75070,1,2,0:0:0:0:
238,166,75227,2,0,P|183:137|100:159,1,143.000004364014,2|2,1:2|1:2,0:0:0:0:
34,341,75859,1,0,1:0:0:0:
256,192,76017,12,0,78385,0:0:0:0:
311,150,78859,6,0,P|252:167|100:221,1,195,8|12,0:0|0:3,0:0:0:0:
227,361,79648,2,0,P|270:311|239:247,1,130,8|0,1:0|0:0,0:0:0:0:
165,222,80122,2,0,P|122:172|153:108,1,130,4|2,0:3|0:0,0:0:0:0:
228,67,80596,2,0,P|295:90|359:101,1,107.25000327301,10|10,0:0|0:0,0:0:0:0:
365,61,80912,6,0,P|385:52|417:51,3,35.7500010910034,8|8|8|8,1:2|0:0|0:0|0:0,0:0:0:0:
447,59,81227,2,0,P|470:72|487:96,3,35.7500010910034,8|8|8|8,1:2|0:0|0:0|0:0,0:0:0:0:
498,124,81543,2,0,P|482:171|442:190,1,71.5000021820069,8|8,1:2|0:0,0:0:0:0:
399,258,81859,2,0,P|352:242|333:202,1,71.5000021820069,8|8,1:2|0:0,0:0:0:0:
286,140,82175,5,8,1:2:0:0:
263,124,82253,1,8,0:0:0:0:
238,118,82332,1,8,0:0:0:0:
139,138,82491,2,0,P|119:153|106:176,3,35.7500010910034,8|8|8|8,1:2|0:0|0:0|0:0,0:0:0:0:
95,208,82806,2,0,P|111:255|151:274,1,71.5000021820069,8|8,1:2|0:0,0:0:0:0:
192,343,83122,2,0,P|239:327|258:287,1,71.5000021820069,8|8,1:2|0:0,0:0:0:0:
333,253,83438,6,0,L|317:197,3,35.7500010910034,8|8|8|8,1:2|0:2|0:2|0:2,0:0:0:0:
285,184,83754,2,0,L|310:131,3,35.7500010910034,8|8|8|8,1:2|0:2|0:2|0:2,0:0:0:0:
296,101,84070,2,0,L|352:86,3,35.7500010910034,8|8|8|8,1:2|0:2|0:2|0:2,0:0:0:0:
366,57,84385,2,0,L|413:91,3,35.7500010910034,8|8|8|8,1:2|0:2|0:2|0:2,0:0:0:0:
436,106,84701,5,8,1:2:0:0:
324,272,85017,1,8,1:2:0:0:
176,136,85333,1,8,1:2:0:0:
39,368,85964,6,0,B|77:293|77:293|60:271|58:248,1,116.999996429443,4|0,1:0|0:0,0:0:0:0:
34,215,86280,2,0,P|21:165|91:112,1,116.999996429443,12|0,1:0|0:0,0:0:0:0:
110,96,86596,1,4,1:0:0:0:
173,191,86754,1,2,0:0:0:0:
173,191,86833,1,2,0:0:0:0:
271,77,87070,5,2,0:0:0:0:
340,149,87228,2,0,P|325:196|314:231,1,71.5000021820069,2|2,1:2|0:0,0:0:0:0:
298,315,87543,2,0,P|319:344|374:360,1,71.5000021820069,10|0,1:2|0:0,0:0:0:0:
450,342,87859,2,0,P|479:292|454:232,1,107.25000327301,2|0,1:2|0:0,0:0:0:0:
428,214,88175,2,0,B|369:235|369:235|351:255|351:255|296:280,1,143.000004364014,8|0,1:2|1:2,0:0:0:0:
234,202,88649,5,2,0:1:0:0:
186,290,88807,2,0,P|152:322|95:327,1,71.5000021820069,8|2,1:2|0:1,0:0:0:0:
35,292,89122,2,0,P|4:245|12:204,1,71.5000021820069,0|2,1:2|0:1,0:0:0:0:
35,136,89438,2,0,P|86:113|125:128,1,71.5000021820069,8|2,1:2|0:1,0:0:0:0:
160,202,89754,5,2,1:2:0:0:
160,202,89912,1,2,0:0:0:0:
236,137,90070,2,0,P|270:150|310:164,1,71.5000021820069,10|0,1:2|0:0,0:0:0:0:
360,244,90385,2,0,P|405:226|436:219,1,71.5000021820069,2|0,1:2|0:0,0:0:0:0:
488,140,90701,1,8,1:2:0:0:
289,48,91017,6,0,B|196:19|196:19|159:50,1,116.999996429443,4|0,1:0|0:0,0:0:0:0:
155,82,91333,2,0,P|179:136|200:207,1,116.999996429443,12|0,1:0|0:0,0:0:0:0:
165,237,91649,1,4,1:0:0:0:
76,183,91807,1,2,0:0:0:0:
76,183,91885,1,2,0:0:0:0:
3,314,92122,5,2,0:0:0:0:
78,380,92280,2,0,P|111:367|145:356,1,71.5000021820069,2|2,1:2|0:0,0:0:0:0:
202,273,92596,2,0,P|234:288|268:300,1,71.5000021820069,10|0,1:2|0:0,0:0:0:0:
347,362,92912,2,0,P|328:306|368:261,1,107.25000327301,2|0,1:2|0:0,0:0:0:0:
386,231,93228,2,0,P|414:184|364:89,1,143.000004364014,10|0,1:2|1:2,0:0:0:0:
308,166,93702,5,2,0:1:0:0:
253,82,93859,2,0,P|217:73|183:63,1,71.5000021820069,8|2,1:2|0:1,0:0:0:0:
96,114,94175,2,0,P|86:148|78:182,1,71.5000021820069,0|2,1:2|0:1,0:0:0:0:
128,270,94491,2,0,P|162:280|196:288,1,71.5000021820069,8|2,1:2|0:1,0:0:0:0:
273,222,94807,5,2,1:2:0:0:
273,222,94965,1,2,0:0:0:0:
311,314,95123,2,0,P|330:339|394:358,1,71.5000021820069,10|0,1:2|0:0,0:0:0:0:
461,328,95438,2,0,P|485:285|486:252,1,71.5000021820069,0|0,1:2|0:0,0:2:0:0:
437,175,95754,1,8,1:2:0:0:
267,241,96070,5,2,1:2:0:0:
244,234,96148,1,2,0:0:0:0:
224,220,96227,1,2,0:0:0:0:
181,139,96385,2,0,L|197:92,3,32.5,10|2|2|2,1:2|0:0|0:0|0:0,0:0:0:0:
206,64,96701,2,0,P|185:39|155:28,1,65,2|2,1:2|0:0,0:0:0:0:
65,47,97017,2,0,P|34:78|33:122,1,65,10|2,1:2|0:0,0:0:0:0:
50,186,97333,5,2,1:2:0:0:
135,154,97491,2,0,P|194:172|273:203,1,130,2|2,0:3|0:3,0:0:0:0:
296,278,97964,2,0,L|284:312,2,32.5,2|0|2,1:2|0:0|0:3,0:0:0:0:
357,210,98280,2,0,L|345:176,2,32.5,10|0|2,1:2|0:0|0:3,0:0:0:0:
393,289,98596,5,2,1:2:0:0:
411,305,98674,1,2,0:0:0:0:
434,313,98753,1,2,0:0:0:0:
499,249,98912,2,0,L|482:195,3,32.5,10|0|2|0,1:2|0:0|0:0|0:0,0:0:0:0:
452,190,99227,2,0,P|461:157|473:109,1,65,2|2,1:2|0:0,0:0:0:0:
504,42,99543,2,0,P|478:19|443:7,1,65,10|2,1:2|0:0,0:0:0:0:
381,68,99859,5,0,1:2:0:0:
381,68,100017,1,2,0:0:0:0:
312,16,100175,1,8,1:2:0:0:
312,16,100333,1,2,0:0:0:0:
241,74,100491,2,0,L|251:105,3,32.5,2|0|0|0,1:2|0:0|0:0|0:0,0:0:0:0:
221,140,100807,2,0,P|172:125|143:117,1,65,10|0,1:2|0:0,0:0:0:0:
99,52,101122,5,2,1:2:0:0:
81,65,101200,1,2,0:0:0:0:
70,85,101279,1,2,0:0:0:0:
72,180,101438,2,0,P|86:201|94:222,3,32.5,10|2|2|2,1:2|0:0|0:0|0:0,0:0:0:0:
117,243,101754,2,0,P|113:288|78:320,1,65,2|2,1:2|0:0,0:0:0:0:
158,376,102070,2,0,P|194:379|236:351,1,65,10|2,1:2|0:0,0:0:0:0:
262,288,102385,5,2,1:2:0:0:
336,339,102543,2,0,P|395:315|474:290,1,130,2|2,0:3|0:3,0:0:0:0:
481,206,103016,2,0,L|515:216,2,32.5,2|0|2,1:2|0:0|0:3,0:0:0:0:
417,138,103333,2,0,L|383:148,2,32.5,10|0|2,1:2|0:0|0:3,0:0:0:0:
467,62,103648,5,2,1:2:0:0:
447,49,103726,1,2,0:0:0:0:
423,45,103805,1,2,0:0:0:0:
332,61,103964,2,0,L|284:48,3,32.5,10|0|2|0,1:2|0:0|0:0|0:0,0:0:0:0:
263,24,104280,2,0,P|227:32|191:43,1,65,2|2,1:2|0:0,0:0:0:0:
145,113,104596,2,0,P|175:123|206:133,1,65,10|2,1:2|0:0,0:0:0:0:
265,210,104911,5,2,1:2:0:0:
265,210,105069,1,2,0:0:0:0:
186,256,105227,2,0,P|167:307|154:345,1,65,10|0,1:2|0:0,0:0:0:0:
86,366,105543,2,0,P|47:343|52:246,1,130,2|10,1:2|1:2,0:0:0:0:
124,103,106175,1,4,0:0:0:0:
256,192,106333,12,0,111227,0:0:0:0:
