osu file format v14

[General]
AudioFilename: audio.mp3
AudioLeadIn: 0
PreviewTime: 23654
Countdown: 1
SampleSet: None
StackLeniency: 0.7
Mode: 0
LetterboxInBreaks: 0
WidescreenStoryboard: 1

[Editor]
DistanceSpacing: 1.2
BeatDivisor: 4
GridSize: 4
TimelineZoom: 1

[Metadata]
Title:Teo (coletaku Arrangement) (X4D edit)
TitleUnicode:Teo (coletaku Arrangement) (X4D edit)
Artist:coletaku
ArtistUnicode:coletaku
Creator:X4D
Version:hitsounds jof
Source:
Tags:omoi teo motto 1-2 will stetson goldenwolf cametek jof
BeatmapID:1805888
BeatmapSetID:863361

[Difficulty]
HPDrainRate:6
CircleSize:3.6
OverallDifficulty:8
ApproachRate:9.4
SliderMultiplier:1.4
SliderTickRate:1

[Events]
//Background and Video events
0,0,"coletaku.png",0,0
//Break Periods
//Storyboard Layer 0 (Background)
//Storyboard Layer 1 (Fail)
//Storyboard Layer 2 (Pass)
//Storyboard Layer 3 (Foreground)
//Storyboard Sound Samples

[TimingPoints]
3654,307.692307692308,4,2,1,80,1,0
4807,-100,4,2,1,5,0,0
4884,-100,4,2,1,80,0,0
9730,-100,4,2,1,5,0,0
9807,-100,4,2,1,80,0,0
12807,-100,4,2,1,5,0,0
12884,-133.333333333333,4,2,1,80,0,0
13115,-133.333333333333,4,2,1,5,0,0
13192,-66.6666666666667,4,2,1,80,0,0
13269,-66.6666666666667,4,2,1,5,0,0
13346,-100,4,2,1,80,0,0
13807,-200,4,2,1,80,0,0
14423,-100,4,2,1,80,0,0
14654,-100,4,2,1,5,0,0
14731,-100,4,2,1,80,0,0
19577,-100,4,2,1,5,0,0
19654,-100,4,2,1,80,0,0
24500,-100,4,2,1,5,0,0
24622,307.692307692308,4,2,1,80,1,0
24622,-66.6666666666667,4,2,1,80,0,0
44237,-66.6666666666667,4,2,1,5,0,0
44314,-66.6666666666667,4,2,1,100,0,0

[Colours]
Combo1 : 218,218,218
Combo2 : 88,208,248
SliderBorder : 235,255,254

[HitObjects]
192,120,4884,5,0,1:0:0:0:
192,120,5192,1,2,0:0:0:0:
192,120,5807,1,2,0:0:0:0:
192,120,6423,1,2,0:0:0:0:
192,120,7038,1,2,0:0:0:0:
192,120,7346,1,0,1:0:0:0:
192,120,7654,1,2,0:0:0:0:
192,120,8269,1,2,0:0:0:0:
192,120,8884,1,2,0:0:0:0:
192,120,9346,1,0,1:0:0:0:
192,120,9500,1,0,1:0:0:0:
192,120,9807,5,0,1:0:0:0:
192,120,10115,1,2,0:0:0:0:
192,120,10730,1,2,0:0:0:0:
192,120,11346,1,2,0:0:0:0:
192,120,11961,1,2,0:0:0:0:
192,120,12269,1,0,1:0:0:0:
192,120,12577,1,2,0:0:0:0:
192,120,13192,1,2,0:0:0:0:
192,120,13807,1,2,0:0:0:0:
192,120,14423,1,0,1:0:0:0:
192,120,14730,5,0,1:0:0:0:
192,120,15038,1,2,0:0:0:0:
192,120,15654,1,2,0:0:0:0:
192,120,16269,1,2,0:0:0:0:
192,120,16884,1,2,0:0:0:0:
192,120,17192,1,0,1:0:0:0:
192,120,17500,1,2,0:0:0:0:
192,120,18115,1,2,0:0:0:0:
192,120,18730,1,2,0:0:0:0:
192,120,19192,1,0,1:0:0:0:
192,120,19346,1,0,1:0:0:0:
192,120,19654,5,0,1:0:0:0:
192,120,19961,1,2,0:0:0:0:
192,120,20577,1,2,0:0:0:0:
192,120,21192,1,2,0:0:0:0:
192,120,21807,1,2,0:0:0:0:
192,120,22115,1,0,1:0:0:0:
192,120,22423,1,2,0:0:0:0:
192,120,23038,1,2,0:0:0:0:
192,120,23654,1,2,0:0:0:0:
192,120,24269,1,0,1:0:0:0:
192,120,24622,5,12,0:0:0:0:
192,120,24929,5,10,0:0:0:0:
192,120,25237,5,10,0:0:0:0:
192,120,25545,5,10,0:0:0:0:
192,120,25852,5,10,0:0:0:0:
192,120,26159,5,10,0:0:0:0:
192,120,26467,5,10,0:0:0:0:
192,120,26775,5,10,0:0:0:0:
192,120,27083,5,12,0:0:0:0:
192,120,27390,5,10,0:0:0:0:
192,120,27698,5,10,0:0:0:0:
192,120,28006,5,10,0:0:0:0:
192,120,28313,5,10,0:0:0:0:
192,120,28622,5,10,0:0:0:0:
192,120,28928,5,10,0:0:0:0:
192,120,29236,5,10,0:0:0:0:
192,120,29545,5,12,0:0:0:0:
192,120,29852,5,10,0:0:0:0:
192,120,30160,5,10,0:0:0:0:
192,120,30468,5,10,0:0:0:0:
192,120,30775,5,10,0:0:0:0:
192,120,31082,5,10,0:0:0:0:
192,120,31390,5,10,0:0:0:0:
192,120,31698,5,10,0:0:0:0:
192,120,32006,5,12,0:0:0:0:
192,120,32313,5,10,0:0:0:0:
192,120,32621,5,10,0:0:0:0:
192,120,32929,5,10,0:0:0:0:
192,120,33236,5,10,0:0:0:0:
192,120,33545,5,10,0:0:0:0:
192,120,33851,5,10,0:0:0:0:
192,120,34159,5,10,0:0:0:0:
192,120,34468,5,12,0:0:0:0:
192,120,34775,5,10,0:0:0:0:
192,120,35083,5,10,0:0:0:0:
192,120,35391,5,10,0:0:0:0:
192,120,35698,5,10,0:0:0:0:
192,120,36005,5,10,0:0:0:0:
192,120,36313,5,10,0:0:0:0:
192,120,36621,5,10,0:0:0:0:
192,120,36929,5,12,0:0:0:0:
192,120,37236,5,10,0:0:0:0:
192,120,37544,5,10,0:0:0:0:
192,120,37852,5,10,0:0:0:0:
192,120,38160,5,10,0:0:0:0:
192,120,38468,5,10,0:0:0:0:
192,120,38775,5,10,0:0:0:0:
192,120,39083,5,10,0:0:0:0:
192,120,39391,5,12,0:0:0:0:
192,120,39698,5,10,0:0:0:0:
192,120,40006,5,10,0:0:0:0:
192,120,40314,5,10,0:0:0:0:
192,120,40622,5,10,0:0:0:0:
192,120,40929,5,10,0:0:0:0:
192,120,41237,5,10,0:0:0:0:
192,120,41545,5,10,0:0:0:0:
192,120,41852,5,12,0:0:0:0:
192,120,42160,5,10,0:0:0:0:
192,120,42468,5,10,0:0:0:0:
192,120,42775,5,10,0:0:0:0:
192,120,43083,5,10,0:0:0:0:
192,120,43391,5,10,0:0:0:0:
192,120,43698,5,10,0:0:0:0:
192,120,44006,5,10,0:0:0:0:
