osu file format v14

[General]
AudioFilename: audio.mp3
AudioLeadIn: 0
PreviewTime: 4243
Countdown: 0
SampleSet: Soft
StackLeniency: 0.6
Mode: 0
LetterboxInBreaks: 0
WidescreenStoryboard: 0

[Editor]
Bookmarks: 11627,19012,20858,35627,43012,48550
DistanceSpacing: 1
BeatDivisor: 2
GridSize: 4
TimelineZoom: 1.3

[Metadata]
Title:Vena
TitleUnicode:Vena
Artist:coldrain
ArtistUnicode:coldrain
Creator:Sharkie
Version:Normal
Source:
Tags:metalcore metal post-hardcore Fizz
BeatmapID:1180696
BeatmapSetID:550046

[Difficulty]
HPDrainRate:3
CircleSize:3.3
OverallDifficulty:4
ApproachRate:5
SliderMultiplier:0.85
SliderTickRate:1

[Events]
//Background and Video events
0,0,"background1.jpg",0,0
//Break Periods
//Storyboard Layer 0 (Background)
//Storyboard Layer 1 (Fail)
//Storyboard Layer 2 (Pass)
//Storyboard Layer 3 (Foreground)
//Storyboard Sound Samples

[TimingPoints]
3320,230.769230769231,4,2,2,20,1,0
3320,-100,4,2,2,20,0,0
4243,230.769230769231,4,2,2,60,1,0
4243,-100,4,2,2,60,0,0
10127,-100,4,2,4,60,0,0
10243,-100,4,2,2,60,0,0
11223,-100,4,2,4,60,0,0
11627,-100,4,2,2,60,0,0
17166,-100,4,2,2,60,0,0
17512,-100,4,2,4,60,0,0
17627,-100,4,2,2,60,0,0
18089,-100,4,2,4,60,0,0
18204,-100,4,2,2,60,0,0
18666,-100,4,2,4,60,0,0
19012,-100,4,2,3,30,0,0
19935,-100,4,2,3,30,0,0
20858,-99.9999999999999,4,2,2,60,0,0
35396,-99.9999999999999,4,2,4,60,0,0
35627,-100,4,2,2,60,0,0
41512,-100,4,2,4,60,0,0
41627,-100,4,2,2,60,0,0
42089,-100,4,2,4,60,0,0
42204,-100,4,2,2,60,0,0
43012,-100,4,2,2,60,0,0
48550,-100,4,2,2,60,0,0
49473,-100,4,2,4,60,0,0
49704,-100,4,2,2,60,0,0
50050,-100,4,2,4,60,0,0
50402,508.474576271186,4,2,3,45,1,0
50910,552.995391705069,4,2,2,35,1,0
51462,600,4,2,2,35,1,0
52062,-100,4,2,3,20,0,0
57094,461.538461538462,4,2,2,20,1,0

[Colours]
Combo1 : 0,89,179
Combo2 : 0,147,73
Combo3 : 255,128,64

[HitObjects]
189,56,4243,6,0,L|92:51,2,85,12|8|8,0:0|0:0|0:0,0:0:0:0:
271,33,4935,1,8,0:0:0:0:
271,33,5166,2,0,P|283:73|286:130,1,85,8|8,0:0|0:0,0:0:0:0:
329,189,5627,2,0,L|413:184,1,85,8|8,0:0|0:0,0:0:0:0:
480,128,6089,6,0,B|451:228|451:228|446:294,1,170,8|8,0:0|0:0,0:0:0:0:
376,343,6781,1,8,0:0:0:0:
325,273,7012,2,0,L|329:189,2,85,8|8|8,0:0|0:0|0:0,0:0:0:0:
248,310,7704,1,8,0:0:0:0:
163,320,7935,6,0,B|125:298|125:298|76:283,1,85,12|8,0:0|0:0,0:0:0:0:
114,205,8396,2,0,B|156:216|156:216|207:218,1,85,8|8,0:0|0:0,0:0:0:0:
280,197,8858,2,0,B|290:133|290:133|311:103|311:103|323:33,1,170,8|8,0:0|0:0,0:0:0:0:
238,21,9550,1,8,0:0:0:0:
167,68,9781,6,0,P|113:51|34:47,2,127.5,8|2|8,0:0|0:0|0:0,0:0:0:0:
191,149,10704,2,0,L|196:207,2,42.5,8|8|8,0:0|0:0|0:0,0:0:0:0:
276,154,11166,2,0,L|280:197,2,42.5,8|8|2,0:0|0:0|0:0,0:0:0:0:
361,159,11627,6,0,P|383:194|399:237,1,85,6|0,0:0|0:0,0:0:0:0:
331,287,12089,2,0,P|394:289|463:300,2,127.5,8|2|2,0:0|0:0|0:0,0:0:0:0:
247,271,13012,2,0,B|208:252|208:252|177:221,1,85,12|2,0:0|0:0,0:0:0:0:
192,138,13473,6,0,B|183:95|183:95|162:59,1,85,6|0,0:0|0:0,0:0:0:0:
78,45,13935,2,0,B|62:84|62:84|55:173,2,127.5,8|2|2,0:0|0:0|0:0,0:0:0:0:
162,59,14858,2,0,P|204:56|245:71,1,85,12|2,0:0|0:0,0:0:0:0:
192,138,15319,6,0,P|188:183|199:235,1,85,6|0,0:0|0:0,0:0:0:0:
257,280,15781,2,0,B|217:303|217:303|180:308|180:308|142:331,2,127.5,8|2|2,0:0|0:0|0:0,0:0:0:0:
309,213,16704,2,0,L|316:129,1,85,12|2,0:0|0:0,0:0:0:0:
401,142,17166,6,0,B|427:177|427:177|441:267,2,127.5,12|2|12,0:0|0:0|0:0,0:0:0:0:
316,129,18089,2,0,L|268:124,2,42.5,2|8|8,0:0|0:0|0:0,0:0:0:0:
370,63,18550,2,0,L|364:0,2,42.5,8|8|2,0:0|0:0|0:0,0:0:0:0:
454,73,19012,5,12,0:0:0:0:
454,73,20858,6,0,P|476:132|486:195,2,127.5,6|2|8,0:0|0:0|0:0,0:0:0:0:
373,46,21781,1,2,0:0:0:0:
288,39,22012,2,0,L|198:34,1,85,8|0,0:0|0:0,0:0:0:0:
124,66,22473,1,8,0:0:0:0:
185,125,22704,6,0,P|248:127|289:175,2,127.5,2|2|8,0:0|0:0|0:0,0:0:0:0:
104,151,23627,1,2,0:0:0:0:
21,161,23858,2,0,B|29:222|29:222|43:240|43:240|36:282|61:330,1,170,8|8,0:0|0:0,0:0:0:0:
134,287,24550,6,0,P|172:231|241:222,2,127.5,6|2|8,0:0|0:0|0:0,0:0:0:0:
192,348,25473,1,2,0:0:0:0:
273,324,25704,2,0,P|317:317|371:319,1,85,8|0,0:0|0:0,0:0:0:0:
435,353,26166,1,8,0:0:0:0:
478,280,26396,6,0,B|482:204|482:204|478:178|462:158,2,127.5,2|2|8,0:0|0:0|0:0,0:0:0:0:
401,243,27319,1,2,0:0:0:0:
316,245,27550,2,0,B|288:236|267:237|267:237|252:231|252:231|244:219|244:219|206:239|156:237,1,170,8|8,0:0|0:0,0:0:0:0:
152,152,28243,6,0,B|113:140|113:140|26:132,2,127.5,6|2|8,0:0|0:0|0:0,0:0:0:0:
233,129,29166,1,2,0:0:0:0:
256,47,29396,2,0,P|286:23|332:14,1,85,8|0,0:0|0:0,0:0:0:0:
410,45,29858,1,8,0:0:0:0:
381,125,30089,6,0,B|445:127|445:127|459:123|459:123|477:135|509:142,2,127.5,2|2|8,0:0|0:0|0:0,0:0:0:0:
363,208,31012,1,2,0:0:0:0:
442,239,31243,2,0,P|384:289|300:263,1,170,8|8,0:0|0:0,0:0:0:0:
234,320,31935,6,0,B|219:276|219:276|228:179,2,127.5,6|2|8,0:0|0:0|0:0,0:0:0:0:
159,360,32858,1,2,0:0:0:0:
159,360,33089,2,0,P|116:355|77:339,1,85,8|0,0:0|0:0,0:0:0:0:
46,260,33550,1,8,0:0:0:0:
68,177,33781,6,0,L|62:38,2,127.5,2|2|8,0:0|0:0|0:0,0:0:0:0:
148,204,34704,2,0,L|199:208,2,42.5,2|8|8,0:0|0:0|0:0,0:0:0:0:
177,123,35166,2,0,L|268:116,1,85,8|8,0:0|0:0,0:0:0:0:
341,87,35627,6,0,B|364:51|364:51|383:8,2,85,12|8|8,0:0|0:0|0:0,0:0:0:0:
275,33,36319,1,8,0:0:0:0:
261,116,36550,2,0,L|269:208,1,85,8|8,0:0|0:0,0:0:0:0:
347,231,37012,2,0,L|339:323,1,85,8|8,0:0|0:0,0:0:0:0:
261,349,37473,6,0,B|211:317|211:317|158:308|158:308|112:272,1,170,8|8,0:0|0:0,0:0:0:0:
37,233,38166,1,8,0:0:0:0:
93,170,38396,2,0,P|91:127|83:85,2,85,8|8|8,0:0|0:0|0:0,0:0:0:0:
152,230,39089,1,8,0:0:0:0:
152,230,39319,6,0,L|239:224,1,85,12|8,0:0|0:0,0:0:0:0:
252,140,39781,2,0,L|336:145,1,85,8|8,0:0|0:0,0:0:0:0:
394,83,40243,2,0,P|340:52|221:45,1,170,8|8,0:0|0:0,0:0:0:0:
155,74,40935,1,8,0:0:0:0:
124,155,41166,6,0,B|101:201|101:201|94:284,2,127.5,8|2|8,0:0|0:0|0:0,0:0:0:0:
209,142,42089,2,0,L|251:139,2,42.5,2|8|8,0:0|0:0|0:0,0:0:0:0:
178,223,42550,2,0,L|174:265,2,42.5,8|2|8,0:0|0:0|0:0,0:0:0:0:
263,236,43012,6,0,P|306:240|352:255,1,85,6|0,0:0|0:0,0:0:0:0:
430,239,43473,2,0,P|450:185|456:115,2,127.5,8|2|2,0:0|0:0|0:0,0:0:0:0:
398,319,44396,2,0,B|360:335|360:335|317:342,1,85,12|2,0:0|0:0,0:0:0:0:
232,331,44858,6,0,B|193:315|193:315|158:289,1,85,6|0,0:0|0:0,0:0:0:0:
108,221,45319,2,0,P|57:252|13:310,2,127.5,8|2|2,0:0|0:0|0:0,0:0:0:0:
177,172,46243,2,0,L|262:167,1,85,12|2,0:0|0:0,0:0:0:0:
323,107,46704,6,0,P|342:144|345:186,1,85,6|0,0:0|0:0,0:0:0:0:
288,249,47166,2,0,L|143:257,2,127.5,8|2|2,0:0|0:0|0:0,0:0:0:0:
262,167,48089,2,0,L|177:172,1,85,12|2,0:0|0:0,0:0:0:0:
95,149,48550,6,0,L|89:64,1,85,6|8,0:0|0:0,0:0:0:0:
168,32,49012,1,8,0:0:0:0:
240,78,49243,1,2,0:0:0:0:
328,85,49473,2,0,P|351:126|359:166,1,85,8|8,0:0|0:0,0:0:0:0:
440,188,49935,2,0,P|427:233|404:267,1,85,8|2,0:0|0:0,0:0:0:0:
324,286,50402,6,0,L|237:281,1,85,4|4,0:0|0:0,0:0:0:0:
256,192,51462,12,0,57094,0:0:0:0:
