osu file format v14

[General]
AudioFilename: audio.mp3
AudioLeadIn: 0
PreviewTime: 4243
Countdown: 0
SampleSet: Soft
StackLeniency: 0.3
Mode: 0
LetterboxInBreaks: 0
WidescreenStoryboard: 0

[Editor]
Bookmarks: 11627,19012,20858,35627,43012,48550
DistanceSpacing: 1.5
BeatDivisor: 2
GridSize: 4
TimelineZoom: 1.3

[Metadata]
Title:Vena
TitleUnicode:Vena
Artist:coldrain
ArtistUnicode:coldrain
Creator:Sharkie
Version:Hard
Source:
Tags:metalcore metal post-hardcore Fizz
BeatmapID:1170163
BeatmapSetID:550046

[Difficulty]
HPDrainRate:4.3
CircleSize:3.5
OverallDifficulty:7
ApproachRate:8
SliderMultiplier:1.2
SliderTickRate:1

[Events]
//Background and Video events
0,0,"background1.jpg",0,0
//Break Periods
//Storyboard Layer 0 (Background)
//Storyboard Layer 1 (Fail)
//Storyboard Layer 2 (Pass)
//Storyboard Layer 3 (Foreground)
//Storyboard Sound Samples

[TimingPoints]
3320,230.769230769231,4,2,2,20,1,0
3320,-142.857142857143,4,2,2,20,0,0
4243,230.769230769231,4,2,2,60,1,0
4243,-100,4,2,2,60,0,0
11223,-100,4,2,4,60,0,0
11512,-100,4,2,2,60,0,0
11627,-125,4,2,2,60,0,0
17166,-100,4,2,2,60,0,0
17512,-100,4,2,4,60,0,0
17627,-100,4,2,2,60,0,0
18089,-100,4,2,4,60,0,0
18204,-100,4,2,2,60,0,0
18666,-100,4,2,4,60,0,0
19012,-142.857142857143,4,2,3,30,0,0
19935,-166.666666666667,4,2,3,30,0,0
20858,-99.9999999999999,4,2,2,60,0,0
35396,-99.9999999999999,4,2,4,60,0,0
35627,-100,4,2,2,60,0,0
42089,-100,4,2,4,60,0,0
42204,-100,4,2,2,60,0,0
43012,-125,4,2,2,60,0,0
48550,-100,4,2,2,60,0,0
49473,-100,4,2,4,60,0,0
49704,-100,4,2,2,60,0,0
50050,-100,4,2,4,60,0,0
50402,508.474576271186,4,2,3,45,1,0
50910,552.995391705069,4,2,2,35,1,0
51462,600,4,2,2,35,1,0
52062,-100,4,2,3,20,0,0
57094,461.538461538462,4,2,2,20,1,0

[Colours]
Combo1 : 0,89,179
Combo2 : 0,147,73
Combo3 : 225,135,45

[HitObjects]
375,113,3320,6,0,P|342:90|325:50,2,83.9999974365235,4|4|4,0:0|0:0|0:0,0:0:0:0:
466,154,4012,1,4,0:0:0:0:
466,154,4243,6,0,L|463:273,1,120,12|8,0:0|0:0,0:0:0:0:
430,358,4589,1,2,0:0:0:0:
359,303,4704,2,0,P|302:286|237:280,1,120,8|8,0:0|0:0,0:0:0:0:
154,303,5050,1,2,0:0:0:0:
217,366,5166,2,0,L|276:370,2,60,8|2|8,0:0|0:0|0:0,0:0:0:0:
173,191,5627,2,0,L|166:126,1,60,8|2,0:0|0:0,0:0:0:0:
81,160,5858,2,0,L|74:95,1,60,8|2,0:0|0:0,0:0:0:0:
135,33,6089,6,0,B|173:50|173:50|269:56,1,120,8|8,0:0|0:0,0:0:0:0:
341,43,6435,1,2,0:0:0:0:
376,125,6550,2,0,P|438:129|494:141,1,120,8|8,0:0|0:0,0:0:0:0:
411,301,7012,2,0,L|352:293,1,60,8|2,0:0|0:0,0:0:0:0:
277,242,7243,2,0,P|230:204|173:191,2,120,8|8|8,0:0|0:0|0:0,0:0:0:0:
453,206,7935,6,0,B|466:166|466:166|461:76,1,120,12|8,0:0|0:0,0:0:0:0:
396,25,8281,1,2,0:0:0:0:
309,50,8396,2,0,P|252:60|200:22,1,120,8|8,0:0|0:0,0:0:0:0:
118,60,8743,1,2,0:0:0:0:
118,60,8858,2,0,L|56:54,2,60,8|2|8,0:0|0:0|0:0,0:0:0:0:
268,159,9319,2,0,P|237:149|204:146,1,60,8|2,0:0|0:0,0:0:0:0:
121,163,9550,2,0,P|92:177|66:199,1,60,8|2,0:0|0:0,0:0:0:0:
89,283,9781,6,0,L|210:280,1,120,8|2,0:0|0:0,0:0:0:0:
363,374,10243,2,0,P|332:355|313:335,1,60,2|2,0:0|0:0,0:0:0:0:
305,249,10473,1,8,0:0:0:0:
318,236,10704,6,0,L|386:233,1,60,8|8,0:0|0:0,0:0:0:0:
502,173,10935,2,0,L|443:171,1,60,8|8,0:0|0:0,0:0:0:0:
298,148,11166,2,0,L|357:145,1,60,8|8,0:0|0:0,0:0:0:0:
482,85,11397,2,0,L|422:82,1,60,2|8,0:0|0:0,0:0:0:0:
331,46,11627,6,0,B|268:44|268:44|251:54|251:54|218:56|191:67,1,144,6|2,0:0|0:0,0:0:0:0:
106,46,12089,1,8,0:0:0:0:
106,46,12204,2,0,B|73:34|73:34|2:36,1,96,2|2,0:0|0:0,0:0:0:0:
111,140,12666,1,2,0:0:0:0:
111,140,12781,2,0,L|219:136,2,96,2|12|2,0:0|0:0|0:0,0:0:0:0:
59,274,13473,6,0,P|111:233|191:237,1,144,6|2,0:0|0:0,0:0:0:0:
248,294,13935,1,8,0:0:0:0:
248,294,14050,2,0,B|287:312|287:312|352:321,1,96,2|2,0:0|0:0,0:0:0:0:
480,352,14512,1,2,0:0:0:0:
480,352,14627,2,0,P|489:301|492:250,2,96,2|12|2,0:0|0:0|0:0,0:0:0:0:
389,240,15319,6,0,B|386:180|386:180|391:159|391:159|387:91,1,144,6|2,0:0|0:0,0:0:0:0:
466,60,15781,1,8,0:0:0:0:
466,60,15896,2,0,L|473:175,1,96,2|2,0:0|0:0,0:0:0:0:
362,60,16358,1,2,0:0:0:0:
362,60,16473,2,0,P|318:40|266:34,2,96,2|12|2,0:0|0:0|0:0,0:0:0:0:
389,240,17166,6,0,P|340:221|310:164,1,120,12|2,0:0|0:0,0:0:0:0:
231,113,17512,1,2,0:0:0:0:
231,113,17627,2,0,P|202:120|172:125,1,60,2|2,0:0|0:0,0:0:0:0:
82,134,17858,1,12,0:0:0:0:
71,119,18089,6,0,L|67:58,1,60,2|8,0:0|0:0,0:0:0:0:
135,208,18319,2,0,L|138:267,1,60,8|8,0:0|0:0,0:0:0:0:
269,235,18550,2,0,P|250:212|223:197,1,60,8|8,0:0|0:0,0:0:0:0:
48,219,18781,2,0,L|45:278,1,60,2|2,0:0|0:0,0:0:0:0:
77,362,19012,5,12,0:0:0:0:
214,158,20627,1,0,0:0:0:0:
214,158,20858,6,0,P|156:140|91:136,1,120,6|8,0:0|0:0,0:0:0:0:
28,76,21204,2,0,P|85:86|140:50,1,120,2|2,0:0|0:0,0:0:0:0:
221,25,21550,2,0,L|286:18,1,60,8|0,0:0|0:0,0:0:0:0:
365,50,21781,2,0,P|380:103|384:176,1,120,2|8,0:0|0:0,0:0:0:0:
474,158,22127,2,0,P|430:199|418:266,1,120,2|2,0:0|0:0,0:0:0:0:
418,346,22473,2,0,P|391:365|357:374,1,60,8|0,0:0|0:0,0:0:0:0:
309,302,22704,6,0,L|184:298,1,120,2|8,0:0|0:0,0:0:0:0:
168,210,23050,2,0,L|287:213,1,120,2|2,0:0|0:0,0:0:0:0:
267,126,23396,2,0,P|242:115|204:109,1,60,8|0,0:0|0:0,0:0:0:0:
123,136,23627,2,0,L|116:72,1,60,2|2,0:0|0:0,0:0:0:0:
37,32,23858,1,8,0:0:0:0:
37,32,23973,2,0,P|26:88|21:165,1,120,2|2,0:0|0:0,0:0:0:0:
21,241,24319,2,0,P|49:233|86:230,1,60,8|0,0:0|0:0,0:0:0:0:
168,210,24550,6,0,P|125:248|132:314,1,120,6|8,0:0|0:0,0:0:0:0:
202,357,24896,2,0,B|255:353|255:353|265:348|265:348|327:344,1,120,2|2,0:0|0:0,0:0:0:0:
404,309,25243,2,0,P|436:317|463:332,1,60,8|0,0:0|0:0,0:0:0:0:
468,224,25473,2,0,B|382:229|382:229|351:244,1,120,2|8,0:0|0:0,0:0:0:0:
263,266,25819,2,0,L|267:147,1,120,2|2,0:0|0:0,0:0:0:0:
236,60,26166,2,0,L|295:56,1,60,8|0,0:0|0:0,0:0:0:0:
383,35,26396,6,0,P|444:39|500:61,1,120,2|8,0:0|0:0,0:0:0:0:
446,135,26743,2,0,P|385:139|329:161,1,120,2|2,0:0|0:0,0:0:0:0:
351,244,27089,2,0,L|410:247,1,60,8|0,0:0|0:0,0:0:0:0:
452,327,27319,2,0,L|392:330,1,60,2|2,0:0|0:0,0:0:0:0:
304,354,27550,1,8,0:0:0:0:
304,354,27666,2,0,B|271:350|247:349|247:349|240:340|240:340|218:334|197:309,1,120,2|2,0:0|0:0,0:0:0:0:
135,245,28012,2,0,P|108:235|77:232,1,60,8|0,0:0|0:0,0:0:0:0:
125,155,28243,6,0,P|70:179|11:173,1,120,6|8,0:0|0:0,0:0:0:0:
18,83,28589,2,0,B|56:68|56:68|135:62,1,120,2|2,0:0|0:0,0:0:0:0:
222,41,28935,2,0,B|236:68|236:68|241:107,1,60,8|0,0:0|0:0,0:0:0:0:
317,143,29166,2,0,B|328:84|328:84|360:27,1,120,2|8,0:0|0:0,0:0:0:0:
447,42,29512,2,0,B|461:100|461:100|457:159,1,120,2|2,0:0|0:0,0:0:0:0:
394,224,29858,2,0,B|366:234|366:234|335:238,1,60,8|0,0:0|0:0,0:0:0:0:
380,316,30089,6,0,P|328:286|270:296,1,120,2|8,0:0|0:0,0:0:0:0:
204,357,30435,2,0,P|145:366|94:337,1,120,2|2,0:0|0:0,0:0:0:0:
38,266,30781,2,0,L|33:206,1,60,8|0,0:0|0:0,0:0:0:0:
122,221,31012,2,0,L|126:161,1,60,2|2,0:0|0:0,0:0:0:0:
213,183,31243,1,8,0:0:0:0:
213,183,31358,2,0,P|208:120|189:60,1,120,2|2,0:0|0:0,0:0:0:0:
107,33,31704,2,0,B|75:36|75:36|48:44,1,60,8|0,0:0|0:0,0:0:0:0:
53,133,31935,6,0,P|103:165|122:220,1,120,6|8,0:0|0:0,0:0:0:0:
159,303,32281,2,0,B|200:316|200:316|280:321,1,120,2|2,0:0|0:0,0:0:0:0:
358,360,32627,2,0,L|417:356,1,60,8|0,0:0|0:0,0:0:0:0:
467,281,32858,2,0,P|411:261|352:268,1,120,2|8,0:0|0:0,0:0:0:0:
315,186,33204,2,0,P|368:159|405:113,1,120,2|2,0:0|0:0,0:0:0:0:
389,24,33550,2,0,B|356:31|356:31|330:43,1,60,8|0,0:0|0:0,0:0:0:0:
262,99,33781,6,0,B|238:79|204:75|204:75|192:81|192:81|148:84,1,120,2|8,0:0|0:0,0:0:0:0:
90,152,34127,2,0,P|147:140|201:163,1,120,2|2,0:0|0:0,0:0:0:0:
252,239,34473,2,0,L|254:303,1,60,8|0,0:0|0:0,0:0:0:0:
173,339,34704,2,0,P|140:344|113:354,1,60,2|8,0:0|0:0,0:0:0:0:
27,329,34935,2,0,B|14:293|14:293|22:211,1,120,8|8,0:0|0:0,0:0:0:0:
148,84,35396,2,0,L|187:82,3,30,8|8|2|2,0:0|0:0|0:0|0:0,0:0:0:0:
190,62,35627,6,0,P|245:38|325:34,1,120,12|8,0:0|0:0,0:0:0:0:
392,50,35973,1,2,0:0:0:0:
457,112,36089,2,0,P|460:173|462:238,1,120,8|8,0:0|0:0,0:0:0:0:
440,319,36435,1,2,0:0:0:0:
375,257,36550,2,0,P|371:226|359:196,2,60,8|2|8,0:0|0:0|0:0,0:0:0:0:
212,335,37012,2,0,L|146:332,1,60,8|2,0:0|0:0,0:0:0:0:
168,243,37243,2,0,P|143:236|107:233,1,60,8|2,0:0|0:0,0:0:0:0:
134,150,37473,6,0,P|88:187|30:190,1,120,8|8,0:0|0:0,0:0:0:0:
10,101,37819,1,2,0:0:0:0:
75,38,37935,2,0,L|207:32,1,120,8|8,0:0|0:0,0:0:0:0:
252,203,38396,2,0,B|281:204|281:204|310:212,1,60,8|2,0:0|0:0,0:0:0:0:
385,162,38627,2,0,P|381:100|378:35,2,120,8|8|8,0:0|0:0|0:0,0:0:0:0:
331,332,39319,6,0,L|212:335,1,120,12|8,0:0|0:0,0:0:0:0:
125,306,39666,1,2,0:0:0:0:
132,216,39781,2,0,B|196:213|196:213|252:203,1,120,8|8,0:0|0:0,0:0:0:0:
297,124,40127,1,2,0:0:0:0:
297,124,40243,2,0,L|302:61,2,60,8|2|8,0:0|0:0|0:0,0:0:0:0:
116,127,40704,2,0,P|86:121|59:109,1,60,8|2,0:0|0:0,0:0:0:0:
71,19,40935,2,0,P|100:16|130:21,1,60,8|2,0:0|0:0,0:0:0:0:
201,77,41166,6,0,B|215:129|215:129|212:202,1,120,8|2,0:0|0:0,0:0:0:0:
289,358,41627,2,0,B|296:331|296:331|301:294,1,60,2|2,0:0|0:0,0:0:0:0:
377,251,41858,1,8,0:0:0:0:
375,232,42089,6,0,P|346:226|318:213,1,60,2|8,0:0|0:0,0:0:0:0:
463,213,42319,2,0,P|486:192|503:168,1,60,8|2,0:0|0:0,0:0:0:0:
335,78,42550,2,0,P|313:98|297:122,1,60,8|2,0:0|0:0,0:0:0:0:
425,59,42781,2,0,P|454:65|482:78,1,60,8|8,0:0|0:0,0:0:0:0:
397,146,43012,6,0,B|393:186|405:213|405:213|398:227|398:227|396:254|386:287,1,144,6|2,0:0|0:0,0:0:0:0:
325,347,43473,1,8,0:0:0:0:
325,347,43589,2,0,L|210:342,1,96,2|2,0:0|0:0,0:0:0:0:
86,323,44050,1,2,0:0:0:0:
86,323,44166,2,0,P|75:273|51:233,2,96,2|12|2,0:0|0:0|0:0,0:0:0:0:
213,254,44858,6,0,B|224:179|224:179|234:162|234:162|225:111,1,144,6|2,0:0|0:0,0:0:0:0:
169,48,45319,1,8,0:0:0:0:
169,48,45435,2,0,L|69:41,1,96,2|2,0:0|0:0,0:0:0:0:
37,180,45896,1,2,0:0:0:0:
37,180,46012,2,0,P|27:226|23:274,2,96,2|12|2,0:0|0:0|0:0,0:0:0:0:
179,157,46704,6,0,B|214:139|214:139|241:147|241:147|324:143,1,144,6|2,0:0|0:0,0:0:0:0:
386,90,47166,1,8,0:0:0:0:
386,90,47281,2,0,P|436:99|478:135,1,96,2|2,0:0|0:0,0:0:0:0:
385,242,47743,1,2,0:0:0:0:
385,242,47858,2,0,L|482:246,2,96,2|12|2,0:0|0:0|0:0,0:0:0:0:
231,335,48550,6,0,L|94:340,1,120,6|8,0:0|0:0,0:0:0:0:
52,270,48896,1,2,0:0:0:0:
52,270,49012,2,0,P|81:245|112:234,1,60,8|8,0:0|0:0,0:0:0:0:
189,221,49243,1,2,0:0:0:0:
187,203,49473,6,0,B|191:169|191:169|198:140,1,60,8|8,0:0|0:0,0:0:0:0:
316,168,49704,2,0,B|299:187|299:187|279:215,1,60,8|8,0:0|0:0,0:0:0:0:
352,271,49935,2,0,B|383:257|383:257|412:249,1,60,8|8,0:0|0:0,0:0:0:0:
446,365,50166,2,0,B|421:360|421:360|387:356,1,60,2|2,0:0|0:0,0:0:0:0:
500,293,50402,5,6,0:0:0:0:
500,293,50910,6,0,P|483:235|434:189,1,120,6|6,0:0|0:0,0:0:0:0:
256,152,52062,6,0,B|216:129|170:131|170:131|150:111|150:111|85:103|60:40,1,240,4|0,0:0|0:0,0:0:0:0:
256,192,53862,12,0,57094,0:0:0:0:
