osu file format v14

[General]
AudioFilename: audio.mp3
AudioLeadIn: 0
PreviewTime: 173927
Countdown: 0
SampleSet: Soft
StackLeniency: 0.4
Mode: 0
LetterboxInBreaks: 0
WidescreenStoryboard: 1

[Editor]
Bookmarks: 10552,26419,42287,54064,58155,74023,81956,109353,113692,129560,154353,170220,174188,178155
DistanceSpacing: 1
BeatDivisor: 4
GridSize: 16
TimelineZoom: 2.3

[Metadata]
Title:MAYDAY (feat. Ryo from Crystal Lake)
TitleUnicode:MAYDAY (feat. Ryo from Crystal Lake)
Artist:coldrain
ArtistUnicode:coldrain
Creator:AirinCat
Version:Normal
Source:炎炎ノ消防隊
Tags:english rock anime enn Enen no Shouboutai shobotai shoubotai shoboutai brigade of flames fire force opening 2 two op second full version ver kinoshita the side effects david production fireforce
BeatmapID:2164773
BeatmapSetID:1030814

[Difficulty]
HPDrainRate:3
CircleSize:3.6
OverallDifficulty:4
ApproachRate:5.6
SliderMultiplier:1.6
SliderTickRate:1

[Events]
//Background and Video events
0,0,"blobpog.jpg",0,0
//Break Periods
2,129748,132901
//Storyboard Layer 0 (Background)
//Storyboard Layer 1 (Fail)
//Storyboard Layer 2 (Pass)
//Storyboard Layer 3 (Foreground)
//Storyboard Layer 4 (Overlay)
//Storyboard Sound Samples

[TimingPoints]
10540,495.867768595041,4,2,1,60,1,0
10540,-100,4,2,1,60,0,0
26407,-105.263157894737,4,2,1,46,0,0
34341,-105.263157894737,4,2,1,56,0,0
40044,-105.263157894737,4,2,1,62,0,0
41035,-105.263157894737,4,2,1,66,0,0
42275,-100,4,2,1,70,0,0
54052,-133.333333333333,4,2,1,50,0,0
54672,-125,4,2,1,25,0,0
57151,-95.2380952380949,4,2,1,60,0,0
58143,-95.2380952380951,4,2,1,74,0,1
66077,-95.2380952380951,4,2,1,78,0,1
73019,-95.2380952380953,4,2,1,50,0,0
74011,-100,4,2,1,70,0,0
81944,-105.263157894737,4,2,1,44,0,0
89878,-100,4,2,1,60,0,0
96573,-100,4,2,1,70,0,0
96944,-100,4,2,1,70,0,0
109589,-105.263157894737,4,2,1,70,0,0
109961,-105.263157894737,4,2,1,50,0,0
113680,-95.2380952380952,4,2,1,74,0,1
121614,-95.2380952380952,4,2,1,78,0,1
128556,-105.263157894737,4,2,1,50,0,0
133391,-153.846153846154,4,2,1,38,0,0
133515,-111.111111111111,4,2,1,46,0,0
134011,-111.111111111111,4,2,1,30,0,0
135498,-111.111111111111,4,2,1,40,0,0
135994,-111.111111111111,4,2,1,52,0,0
136490,-111.111111111111,4,2,1,60,0,0
136986,-111.111111111111,4,2,1,68,0,0
137482,-111.111111111111,4,2,1,68,0,0
151366,-111.111111111111,4,2,1,70,0,0
152358,-111.111111111111,4,2,1,66,0,0
152440,-111.111111111111,4,2,1,5,0,0
152688,-111.111111111111,4,2,1,66,0,0
152771,-111.111111111111,4,2,1,5,0,0
153019,-111.111111111111,4,2,1,66,0,0
153515,-285.714285714286,4,2,1,5,0,0
154341,495.867768595041,4,2,1,64,1,0
154341,-105.263157894737,4,2,1,64,0,0
169341,-86.9565217391306,4,2,1,64,0,0
170208,-105.263157894737,4,2,1,24,0,0
173183,-111.111111111111,4,2,2,48,0,0
173307,-111.111111111111,4,2,2,30,0,0
173679,-111.111111111111,4,2,1,60,0,0
173927,-111.111111111111,4,2,1,20,0,0
174175,-95.2380952380951,4,2,1,60,0,0
174919,-95.2380952380951,4,2,1,60,0,0
175663,-95.2380952380951,4,2,1,60,0,0
176407,-105.263157894737,4,2,1,60,0,0
178142,-95.2380952380951,4,2,1,78,0,1
180374,-95.2380952380954,4,2,1,60,0,0
181117,-105.263157894737,4,2,1,60,0,0
181861,-95.2380952380954,4,2,1,60,0,0
182109,-95.2380952380952,4,2,1,78,0,1
188679,-95.2380952380952,4,2,1,64,0,0
189547,-95.2380952380952,4,2,1,68,0,0
190043,-95.2380952380952,4,2,1,80,0,1
204919,-100,4,2,1,50,0,0
205911,-105.263157894737,4,2,1,70,0,0

[Colours]
Combo1 : 198,169,168
Combo2 : 231,107,111
Combo3 : 184,184,184
Combo4 : 228,116,141
SliderTrackOverride : 5,5,5
SliderBorder : 250,250,250

[HitObjects]
0,289,10540,6,0,P|44:278|92:297,1,80,4|0,1:1|0:0,0:0:0:0:
149,320,11035,2,0,P|190:325|232:308,1,80,8|0,0:0|0:0,0:0:0:0:
289,263,11531,2,0,P|277:196|270:140,1,120,0|0,1:0|1:0,0:0:0:0:
264,104,12027,1,8,0:0:0:0:
366,41,12399,2,0,P|405:32|444:43,1,80,0|0,1:0|1:0,0:0:0:0:
505,145,13019,2,0,L|496:227,1,80,8|0,0:0|0:0,0:0:0:0:
464,298,13515,2,0,B|411:288|411:288|369:306|369:306|302:291,1,160,0|8,1:0|0:0,0:0:0:0:
240,333,14259,1,0,1:0:0:0:
174,287,14506,6,0,P|163:238|177:200,1,80,4|0,1:2|0:0,0:0:0:0:
210,140,15002,2,0,P|221:101|212:60,1,80,8|0,0:0|0:0,0:0:0:0:
149,14,15498,2,0,P|84:20|23:20,1,120,0|0,1:0|1:0,0:0:0:0:
6,53,15994,1,8,0:0:0:0:
57,161,16366,6,0,L|59:248,1,80,4|8,1:2|0:0,0:0:0:0:
130,337,16986,1,8,0:0:0:0:
236,281,17358,2,0,B|334:272|282:332|385:317,1,160,4|8,1:2|1:3,0:0:0:0:
421,301,17978,1,8,0:0:0:0:
486,155,18473,6,0,P|497:110|484:72,1,80,4|0,1:2|0:0,0:0:0:0:
407,75,18969,2,0,P|395:119|408:157,1,80,8|0,0:0|0:0,0:0:0:0:
352,212,19465,2,0,P|292:197|230:188,1,120,0|0,1:0|1:0,0:0:0:0:
194,181,19961,1,8,0:0:0:0:
137,287,20333,2,0,L|146:371,1,80,0|0,1:0|1:0,0:0:0:0:
25,371,20953,2,0,L|16:287,1,80,8|0,0:0|0:0,0:0:0:0:
31,212,21449,2,0,P|99:189|85:107,1,160,0|8,1:0|0:0,0:0:0:0:
36,54,22192,1,0,1:0:0:0:
102,9,22440,6,0,P|143:1|185:14,1,80,4|0,1:2|0:0,0:0:0:0:
252,43,22936,2,0,P|290:52|329:44,1,80,8|0,0:0|0:0,0:0:0:0:
396,87,23432,2,0,P|391:123|392:214,1,120,0|0,1:0|1:0,0:0:0:0:
390,246,23928,1,8,0:0:0:0:
280,196,24300,6,0,L|188:200,1,80,4|10,1:2|0:0,0:0:0:0:
101,274,24920,1,10,0:0:0:0:
196,346,25292,2,0,P|261:339|358:341,1,160,4|8,1:2|1:3,0:0:0:0:
395,344,25911,1,8,0:0:0:0:
442,279,26159,2,0,L|437:235,1,40,8|8,0:0|0:0,0:0:0:0:
413,209,26407,6,0,P|404:172|409:134,1,75.9999979705811,2|2,1:2|1:2,0:0:0:0:
424,60,26903,1,10,0:0:0:0:
281,113,27399,2,0,P|242:122|199:110,1,75.9999979705811,2|0,1:2|0:0,0:0:0:0:
136,86,27895,1,10,0:0:0:0:
50,161,28267,2,0,B|66:218|27:218|49:283,1,113.999996955872,2|2,1:2|0:0,0:0:0:0:
85,337,28887,1,10,0:0:0:0:
189,228,29382,2,0,P|228:230|264:231,1,75.9999979705811,2|2,1:2|1:2,0:0:0:0:
331,268,29878,1,10,0:2:0:0:
382,212,30126,6,0,L|376:133,2,75.9999979705811,2|0|0,0:0|1:0|1:0,0:0:0:0:
448,248,30870,1,10,0:0:0:0:
360,372,31366,2,0,L|261:372,1,75.9999979705811,2|2,1:2|0:0,0:0:0:0:
207,366,31862,1,10,0:2:0:0:
212,252,32234,2,0,B|210:207|210:207|226:191|226:191|224:132,1,113.999996955872,2|2,1:2|0:0,0:0:0:0:
193,75,32854,1,8,0:0:0:0:
117,68,33101,2,0,P|62:89|76:173,1,151.999995941162,2|2,0:0|1:2,0:0:0:0:
142,198,33845,1,8,0:0:0:0:
264,109,34341,6,0,P|306:104|357:99,1,75.9999979705811,6|2,1:2|1:2,0:0:0:0:
414,85,34837,1,10,0:0:0:0:
485,219,35333,2,0,P|463:251|460:307,1,75.9999979705811,2|0,1:2|0:0,0:0:0:0:
440,361,35829,1,10,0:0:0:0:
343,300,36201,2,0,B|277:297|301:335|235:331,1,113.999996955872,2|2,1:2|0:0,0:0:0:0:
166,302,36820,1,10,0:0:0:0:
225,162,37316,2,0,P|225:115|227:74,1,75.9999979705811,2|0,1:2|1:0,0:0:0:0:
181,24,37812,1,10,0:0:0:0:
108,50,38060,6,0,L|22:39,2,75.9999979705811,2|0|0,0:0|1:0|1:0,0:0:0:0:
151,114,38804,1,10,0:0:0:0:
14,181,39300,2,0,L|16:263,1,75.9999979705811,2|2,1:2|0:0,0:0:0:0:
14,333,39796,1,10,0:0:0:0:
122,367,40168,6,0,B|163:374|163:374|195:362,1,75.9999979705811,2|8,1:3|0:0,0:0:0:0:
228,343,40540,2,0,L|226:259,1,75.9999979705811,2|8,0:0|0:0,0:0:0:0:
173,212,41035,2,0,P|107:209|85:171,1,113.999996955872,6|8,0:2|0:0,0:0:0:0:
80,134,41531,1,2,1:2:0:0:
105,62,41779,2,0,B|189:60,1,75.9999979705811,8|8,0:0|0:0,0:0:0:0:
250,100,42275,6,0,L|247:187,1,80,4|2,1:1|0:0,0:0:0:0:
308,232,42771,2,0,B|348:244|348:244|398:228,1,80,10|2,0:0|0:0,0:0:0:0:
448,183,43267,1,0,1:0:0:0:
365,46,43763,1,10,0:2:0:0:
296,87,44011,2,0,L|217:81,1,80,2|0,0:0|0:0,0:0:0:0:
147,121,44506,1,2,0:0:0:0:
195,186,44754,2,0,L|189:271,1,80,10|2,0:0|0:0,0:0:0:0:
251,316,45250,2,0,B|298:301|298:301|334:314|334:314|377:305,2,120,6|2|2,1:2|1:2|1:2,0:0:0:0:
198,376,46242,6,0,L|113:374,1,80,4|2,1:2|0:0,0:0:0:0:
42,346,46738,2,0,B|27:308|27:308|43:265,1,80,10|2,0:0|0:0,0:0:0:0:
71,197,47234,2,0,L|68:115,1,80,0|2,1:0|0:2,0:0:0:0:
21,51,47730,1,10,0:2:0:0:
138,27,48101,6,0,P|202:20|263:20,1,120,4|2,1:2|0:0,0:0:0:0:
325,61,48721,1,10,0:0:0:0:
369,127,48969,1,2,0:0:0:0:
374,206,49217,2,0,P|417:249|477:228,2,120,6|2|8,0:0|1:2|0:3,0:0:0:0:
299,176,50209,6,0,L|219:182,1,80,4|2,1:2|0:0,0:0:0:0:
146,148,50705,2,0,B|108:136|108:136|62:154,1,80,10|2,0:0|0:0,0:0:0:0:
11,204,51201,1,0,1:0:0:0:
103,334,51697,1,10,0:0:0:0:
173,296,51944,2,0,L|261:299,1,80,2|0,0:0|0:0,0:0:0:0:
323,257,52440,1,2,0:0:0:0:
290,183,52688,2,0,L|294:99,1,80,10|2,0:0|0:0,0:0:0:0:
229,55,53184,6,0,B|182:47|182:47|165:61|165:61|107:52,1,120,4|2,1:2|1:2,0:0:0:0:
76,43,53680,1,8,0:0:0:0:
21,101,53928,2,0,L|26:156,1,40,2|2,0:0|1:3,0:0:0:0:
74,293,54672,6,0,P|125:323|194:291,2,128,2|2|2,0:0|0:0|0:0,0:0:0:0:
183,184,56159,2,0,L|255:191,2,64,2|2|2,0:0|0:0|0:0,0:0:0:0:
140,119,56903,1,2,0:0:0:0:
188,57,57151,2,0,L|275:63,1,83.9999974365235,8|8,0:0|0:0,0:0:0:0:
313,66,57523,1,2,1:3:0:0:
143,193,58143,6,0,B|140:240|140:240|155:265|155:265|151:335,1,125.999996154785,4|10,1:1|0:0,0:0:0:0:
272,353,58887,2,0,P|343:320|335:263,1,125.999996154785,2|2,1:2|1:2,0:0:0:0:
320,157,59630,2,0,P|389:163|458:175,1,125.999996154785,10|8,1:2|0:0,0:0:0:0:
418,48,60374,1,0,1:0:0:0:
293,26,60746,1,0,1:0:0:0:
202,114,61118,2,0,L|111:102,1,83.9999974365235,10|2,1:2|0:0,0:0:0:0:
56,160,61614,2,0,L|68:253,1,83.9999974365235,2|10,0:0|0:0,0:0:0:0:
119,309,62110,6,0,P|54:327|-1:279,2,125.999996154785,6|2|2,1:2|1:2|1:2,0:0:0:0:
187,259,63101,2,0,L|274:265,1,83.9999974365235,8|2,0:0|0:0,0:0:0:0:
339,216,63597,2,0,B|335:174|335:174|354:143|354:143|346:87,2,125.999996154785,6|2|10,1:2|1:2|0:0,0:0:0:0:
402,272,64589,1,8,0:0:0:0:
487,127,65085,2,0,L|473:33,1,83.9999974365235,8|0,0:0|1:0,0:0:0:0:
400,3,65581,2,0,L|308:13,1,83.9999974365235,8|8,0:0|0:3,0:0:0:0:
254,68,66077,6,0,P|211:84|137:48,1,125.999996154785,4|2,1:1|1:2,0:0:0:0:
106,28,66573,1,8,0:0:0:0:
47,87,66820,2,0,P|55:132|62:218,1,125.999996154785,2|2,1:2|1:2,0:0:0:0:
162,288,67564,2,0,P|206:247|184:185,1,125.999996154785,14|0,0:0|1:0,0:0:0:0:
75,138,68308,1,0,1:0:0:0:
20,202,68556,2,0,L|35:305,1,83.9999974365235,8|2,0:0|0:0,0:0:0:0:
95,340,69052,1,6,1:2:0:0:
163,289,69300,1,2,1:2:0:0:
235,331,69548,2,0,L|320:325,1,83.9999974365235,10|2,0:0|0:0,0:0:0:0:
388,277,70044,6,0,P|371:238|400:163,1,125.999996154785,6|2,1:2|1:2,0:0:0:0:
424,130,70539,1,10,0:0:0:0:
359,76,70787,2,0,B|291:70|324:118|241:110,1,125.999996154785,6|0,1:2|1:0,0:0:0:0:
125,62,71531,2,0,P|135:125|140:194,1,125.999996154785,12|10,1:2|0:2,0:0:0:0:
61,286,72275,1,2,1:2:0:0:
127,337,72523,2,0,L|218:326,1,83.9999974365235,8|4,0:0|0:3,0:0:0:0:
293,312,73019,1,8,0:0:0:0:
485,142,74011,6,0,B|496:102|496:102|479:67,1,80,4|0,1:1|0:0,0:0:0:0:
398,74,74506,2,0,B|386:113|386:113|403:148,1,80,10|0,0:0|0:0,0:0:0:0:
372,222,75002,2,0,P|332:223|247:231,1,120,0|0,1:0|1:0,0:0:0:0:
212,235,75498,1,8,0:0:0:0:
154,129,75870,6,0,L|163:38,1,80,0|0,1:0|1:0,0:0:0:0:
42,34,76490,2,0,L|33:125,1,80,8|0,0:0|1:0,0:0:0:0:
23,193,76986,2,0,P|45:247|137:202,1,160,0|8,1:0|0:0,0:0:0:0:
206,202,77730,1,0,1:0:0:0:
263,257,77978,6,0,B|252:297|252:297|265:342,1,80,6|0,1:2|0:0,0:0:0:0:
342,330,78473,2,0,B|353:290|353:290|340:245,1,80,10|0,0:0|0:0,0:0:0:0:
374,179,78969,2,0,P|413:176|502:174,1,120,0|0,1:0|1:0,0:0:0:0:
505,135,79465,1,8,0:0:0:0:
427,43,79837,6,0,P|384:46|324:50,1,80,4|10,1:2|0:0,0:0:0:0:
253,124,80457,1,10,0:0:0:0:
157,51,80829,2,0,P|87:24|27:78,1,160,0|8,1:0|1:3,0:0:0:0:
24,114,81449,1,8,0:0:0:0:
54,188,81697,2,0,L|50:234,1,40,8|8,0:0|0:0,0:0:0:0:
69,260,81944,6,0,P|104:253|147:266,1,75.9999979705811,4|2,1:2|1:2,0:0:0:0:
215,285,82440,1,10,0:0:0:0:
343,203,82936,2,0,P|336:154|331:117,1,75.9999979705811,2|0,1:2|0:0,0:0:0:0:
318,52,83432,1,10,0:0:0:0:
218,107,83804,2,0,B|154:100|180:141|103:134,1,113.999996955872,2|2,1:2|0:0,0:0:0:0:
37,115,84424,1,10,0:0:0:0:
104,250,84920,2,0,P|102:288|97:331,1,75.9999979705811,2|0,1:2|1:0,0:0:0:0:
161,367,85416,1,10,0:0:0:0:
234,350,85663,6,0,P|275:342|317:346,2,75.9999979705811,2|0|0,0:0|1:0|1:0,0:0:0:0:
188,288,86407,1,10,0:2:0:0:
271,161,86903,2,0,L|262:77,1,75.9999979705811,2|2,1:2|0:0,0:0:0:0:
255,9,87399,1,10,0:0:0:0:
356,59,87771,2,0,P|421:69|448:25,1,113.999996955872,2|2,1:2|0:0,0:0:0:0:
511,74,88391,1,8,0:0:0:0:
478,142,88639,2,0,B|493:199|493:199|484:227|484:227|503:305,1,151.999995941162,2|2,0:0|1:2,0:0:0:0:
478,362,89382,1,8,0:0:0:0:
376,238,89878,6,0,L|290:245,1,80,4|2,1:0|1:2,0:0:0:0:
216,252,90374,1,10,0:0:0:0:
61,290,90870,2,0,L|66:197,1,80,2|2,1:2|0:0,0:0:0:0:
14,147,91366,1,10,0:0:0:0:
59,81,91614,2,0,B|152:56|109:127|221:103,1,160,2|2,0:0|0:2,0:0:0:0:
277,60,92358,1,10,0:0:0:0:
347,98,92606,1,2,0:0:0:0:
337,177,92854,2,0,L|324:269,1,80,2|0,1:2|1:0,0:0:0:0:
331,336,93349,1,10,0:0:0:0:
409,349,93597,6,0,L|498:340,2,80,2|0|0,0:0|1:0|1:0,0:0:0:0:
331,336,94341,1,10,0:0:0:0:
173,365,94837,2,0,L|78:367,1,80,2|2,1:2|0:0,0:0:0:0:
12,363,95333,1,10,0:0:0:0:
45,247,95705,6,0,B|52:208|52:208|39:164,1,80,6|8,1:2|0:0,0:0:0:0:
42,128,96077,2,0,L|124:136,1,80,2|8,1:2|0:0,0:0:0:0:
178,192,96573,2,0,B|219:184|219:184|242:206|242:206|288:200,1,120,6|8,0:2|0:0,0:0:0:0:
327,195,97068,1,2,1:2:0:0:
400,163,97316,2,0,L|394:75,1,80,8|8,0:0|0:0,0:0:0:0:
334,29,97812,6,0,L|252:37,1,80,4|2,1:0|0:0,0:0:0:0:
203,99,98308,2,0,B|163:111|163:111|113:89,1,80,10|2,0:0|0:0,0:0:0:0:
59,53,98804,1,0,1:0:0:0:
8,204,99300,1,10,0:0:0:0:
47,273,99548,2,0,L|136:267,1,80,2|0,0:0|0:0,0:0:0:0:
170,334,100044,1,2,0:0:0:0:
244,304,100292,2,0,L|326:294,1,80,10|2,0:0|0:0,0:0:0:0:
341,216,100787,2,0,B|319:184|319:184|343:147|343:147|335:103,2,120,6|2|2,1:2|1:2|1:2,0:0:0:0:
399,270,101779,6,0,P|441:266|493:268,1,80,4|2,1:2|0:0,0:0:0:0:
510,193,102275,2,0,B|497:157|497:157|511:117,1,80,10|2,0:0|0:0,0:0:0:0:
479,43,102771,2,0,L|399:47,1,80,0|2,1:0|1:2,0:0:0:0:
337,98,103267,1,10,0:2:0:0:
235,34,103639,6,0,P|165:43|107:44,1,120,4|2,1:2|0:0,0:0:0:0:
49,89,104259,1,10,0:0:0:0:
34,167,104506,1,2,0:0:0:0:
96,217,104754,2,0,P|152:197|166:137,2,120,6|2|8,0:0|1:2|0:3,0:0:0:0:
38,272,105746,6,0,L|48:364,1,80,4|2,1:2|0:0,0:0:0:0:
123,371,106242,2,0,B|162:355|162:355|211:366,1,80,10|2,0:0|0:0,0:0:0:0:
276,383,106738,1,0,1:0:0:0:
382,263,107234,1,10,0:0:0:0:
328,203,107482,2,0,L|332:119,1,80,2|0,0:0|0:0,0:0:0:0:
265,78,107978,1,2,0:0:0:0:
194,115,108225,2,0,L|204:215,1,80,10|2,0:0|0:0,0:0:0:0:
157,261,108721,6,0,B|111:253|111:253|92:267|92:267|21:256,1,120,6|2,1:2|1:2,0:0:0:0:
28,221,109217,1,8,0:0:0:0:
70,153,109465,2,0,L|66:106,1,40,2|2,0:0|1:3,0:0:0:0:
239,33,110209,6,0,P|305:40|319:121,2,151.999995941162,0|0|0,1:0|1:0|1:0,0:0:0:0:
145,153,111697,2,0,L|142:238,1,75.9999979705811,2|2,1:2|1:2,0:0:0:0:
188,290,112192,2,0,L|272:290,1,75.9999979705811,2|2,1:2|1:2,0:0:0:0:
316,234,112688,2,0,L|317:147,1,75.9999979705811,8|8,0:0|0:0,0:0:0:0:
291,131,113060,1,2,1:3:0:0:
55,205,113680,6,0,P|65:263|73:357,1,125.999996154785,4|10,1:1|0:0,0:0:0:0:
184,273,114424,2,0,B|261:266|230:305|311:298,1,125.999996154785,2|2,1:2|1:2,0:0:0:0:
372,192,115168,2,0,P|351:140|403:94,1,125.999996154785,10|8,0:0|0:0,0:0:0:0:
499,165,115911,1,0,1:0:0:0:
443,278,116283,1,0,1:0:0:0:
318,256,116655,2,0,L|234:259,1,83.9999974365235,10|2,0:0|0:0,0:0:0:0:
164,211,117151,2,0,L|173:125,1,83.9999974365235,2|10,0:0|0:0,0:0:0:0:
114,66,117647,6,0,P|43:79|-2:29,2,125.999996154785,6|2|2,1:2|1:2|1:2,0:0:0:0:
172,5,118639,2,0,L|260:4,1,83.9999974365235,8|2,0:0|0:0,0:0:0:0:
331,40,119135,2,0,B|341:89|341:89|328:114|328:114|336:169,2,125.999996154785,6|2|10,1:2|1:2|0:0,0:0:0:0:
405,0,120126,1,8,0:0:0:0:
504,135,120622,2,0,L|420:139,1,83.9999974365235,8|0,0:0|1:0,0:0:0:0:
339,112,121118,2,0,L|242:115,1,83.9999974365235,8|8,0:0|0:3,0:0:0:0:
176,144,121614,6,0,P|199:170|182:261,1,125.999996154785,4|2,1:1|1:2,0:0:0:0:
161,287,122110,1,8,0:0:0:0:
200,360,122358,2,0,P|259:352|355:353,1,125.999996154785,2|2,1:2|1:2,0:0:0:0:
450,339,123101,2,0,P|478:287|425:235,1,125.999996154785,14|0,0:0|1:0,0:0:0:0:
318,213,123845,1,0,1:0:0:0:
342,132,124093,2,0,L|338:44,1,83.9999974365235,8|2,0:0|0:0,0:0:0:0:
260,16,124589,1,6,1:2:0:0:
175,16,124837,1,2,1:2:0:0:
103,59,125085,2,0,L|107:155,1,83.9999974365235,10|2,0:0|0:0,0:0:0:0:
159,208,125581,6,0,P|195:194|271:228,1,125.999996154785,6|2,1:2|1:2,0:0:0:0:
305,251,126077,1,8,0:0:0:0:
345,177,126325,2,0,B|334:129|334:129|344:107|344:107|327:35,1,125.999996154785,6|0,1:2|1:0,0:0:0:0:
457,54,127068,2,0,B|443:111|443:111|453:133|453:133|446:177,1,125.999996154785,14|10,1:2|0:0,0:0:0:0:
498,291,127812,1,2,1:2:0:0:
437,348,128060,2,0,L|341:335,1,83.9999974365235,8|0,0:0|1:0,0:0:0:0:
283,303,128556,6,0,P|232:279|170:347,1,151.999995941162,8|8,0:0|0:0,0:0:0:0:
64,229,129548,5,4,1:0:0:0:
28,310,134011,6,0,P|78:287|128:308,1,95.9999970703126,2|2,0:0|0:0,0:0:0:0:
156,321,134506,2,0,L|261:308,1,95.9999970703126,2|2,0:0|0:0,0:0:0:0:
298,298,135002,1,2,0:0:0:0:
400,197,135498,2,0,P|379:151|398:105,1,95.9999970703126,10|10,0:3|0:3,0:0:0:0:
415,66,135994,2,0,L|304:58,1,95.9999970703126,10|10,0:3|0:3,0:0:0:0:
272,71,136490,2,0,P|233:96|187:87,1,95.9999970703126,10|10,0:3|1:3,0:0:0:0:
145,62,136986,1,10,0:0:0:0:
39,142,137482,6,0,L|32:246,1,95.9999970703126,4|0,1:1|0:0,0:0:0:0:
45,284,137978,2,0,P|85:308|132:292,1,95.9999970703126,0|0,1:0|1:0,0:0:0:0:
162,260,138473,1,8,0:0:0:0:
237,319,138804,1,0,1:0:0:0:
237,319,138969,2,0,L|345:306,1,95.9999970703126,0|0,1:0|1:0,0:0:0:0:
368,276,139465,5,6,1:2:0:0:
461,296,139796,1,2,1:2:0:0:
486,203,140126,2,0,L|478:153,1,47.9999985351563,2|2,1:3|1:3,0:0:0:0:
454,113,140457,2,0,P|409:99|367:121,1,95.9999970703126,8|2,0:0|1:3,0:0:0:0:
333,155,140953,1,6,1:2:0:0:
189,145,141449,6,0,P|195:191|205:254,1,95.9999970703126,6|0,1:2|0:0,0:0:0:0:
184,284,141944,2,0,P|145:310|98:303,1,95.9999970703126,0|0,1:0|1:0,0:0:0:0:
59,275,142440,1,8,0:2:0:0:
30,183,142771,1,0,1:0:0:0:
30,183,142936,2,0,L|46:82,1,95.9999970703126,0|0,1:0|1:0,0:0:0:0:
60,42,143432,5,6,1:2:0:0:
144,87,143763,1,2,1:2:0:0:
227,39,144093,2,0,L|280:43,1,47.9999985351563,2|2,1:3|1:3,0:0:0:0:
318,64,144424,2,0,L|304:174,1,95.9999970703126,8|2,0:2|1:3,0:0:0:0:
300,207,144920,1,6,1:2:0:0:
393,316,145416,6,0,P|449:300|446:221,1,143.999995605469,6|2,1:2|0:0,0:0:0:0:
396,144,146242,1,2,0:0:0:0:
396,144,146407,2,0,P|398:78|427:46,1,95.9999970703126,10|2,0:0|1:2,0:0:0:0:
449,21,146903,1,2,1:2:0:0:
307,48,147399,6,0,P|257:52|191:56,1,95.9999970703126,6|0,1:2|1:0,0:0:0:0:
174,86,147895,2,0,P|181:128|184:181,1,95.9999970703126,2|2,0:0|1:2,0:0:0:0:
184,229,148391,1,10,0:0:0:0:
262,284,148721,1,2,1:2:0:0:
262,284,148886,2,0,P|284:233|269:185,1,95.9999970703126,2|0,1:2|0:0,0:0:0:0:
269,147,149382,6,0,L|369:146,1,95.9999970703126,4|0,1:2|0:0,0:0:0:0:
411,160,149878,2,0,B|390:205|390:205|399:264,1,95.9999970703126,6|0,1:2|1:2,0:0:0:0:
415,295,150374,1,10,0:0:0:0:
337,351,150705,1,2,1:2:0:0:
337,351,150870,2,0,L|229:347,1,95.9999970703126,2|0,1:2|1:0,0:0:0:0:
194,336,151366,6,0,B|147:318|147:318|88:339,2,95.9999970703126,6|6|6,1:2|1:2|1:2,0:0:0:0:
235,249,152358,1,10,0:0:0:0:
234,153,152688,1,10,0:0:0:0:
234,56,153019,1,10,0:0:0:0:
234,56,154341,6,0,P|185:47|119:37,1,113.999996955872,4|0,1:0|1:0,0:0:0:0:
83,33,154836,1,8,0:0:0:0:
62,106,155084,2,0,P|79:166|84:260,1,151.999995941162,0|0,1:0|1:0,0:0:0:0:
62,328,155828,1,8,0:0:0:0:
213,321,156324,6,0,B|250:307|250:307|300:318,1,75.9999979705811,2|2,0:0|1:2,0:0:0:0:
359,334,156820,1,10,0:0:0:0:
479,240,157316,2,0,L|468:160,1,75.9999979705811,2|2,0:0|1:2,0:0:0:0:
414,110,157812,2,0,L|333:121,1,75.9999979705811,10|2,0:0|0:0,0:0:0:0:
291,179,158307,6,0,L|304:297,1,113.999996955872,4|0,1:0|1:0,0:0:0:0:
289,328,158803,1,8,0:0:0:0:
217,352,159051,2,0,B|165:340|165:340|122:359|122:359|61:346,1,151.999995941162,0|0,1:0|1:0,0:0:0:0:
7,306,159795,1,8,0:0:0:0:
79,172,160291,2,0,B|132:182|132:182|172:183|196:148|183:108,1,151.999995941162,2|10,0:0|0:0,0:0:0:0:
172,40,161035,1,2,0:0:0:0:
247,32,161283,2,0,B|285:35|285:35|331:39,1,75.9999979705811,2|0,0:0|1:0,0:0:0:0:
398,50,161779,1,10,1:2:0:0:
276,141,162274,6,0,L|268:265,1,113.999996955872,4|0,1:0|1:0,0:0:0:0:
297,280,162770,1,8,0:0:0:0:
365,247,163018,2,0,P|440:222|474:287,1,151.999995941162,0|2,1:0|1:2,0:0:0:0:
461,347,163762,1,10,0:0:0:0:
385,343,164010,2,0,B|346:337|346:337|298:361,1,75.9999979705811,2|0,0:0|0:0,0:0:0:0:
162,376,164754,1,10,0:0:0:0:
112,318,165002,2,0,B|102:280|102:280|113:245,1,75.9999979705811,2|0,0:0|0:0,0:0:0:0:
164,102,165745,2,0,B|125:91|125:91|87:105,1,75.9999979705811,10|2,0:0|1:2,0:0:0:0:
26,142,166241,6,0,L|36:257,1,113.999996955872,4|0,1:0|1:0,0:0:0:0:
21,291,166737,1,8,0:0:0:0:
79,339,166985,2,0,P|164:332|261:314,1,151.999995941162,0|2,1:0|1:2,0:0:0:0:
267,254,167729,1,10,0:0:0:0:
388,345,168225,2,0,L|468:331,1,75.9999979705811,2|0,0:0|1:0,0:0:0:0:
500,265,168721,2,0,L|486:185,1,75.9999979705811,10|0,0:0|1:0,0:0:0:0:
468,116,169217,1,4,1:2:0:0:
318,223,169712,6,0,B|282:230|282:230|252:217|252:217|227:235|227:235|180:232,1,138.000002632141,10|8,1:2|0:0,0:0:0:0:
256,192,170208,12,0,172067,1:0:0:0:
126,384,173183,5,4,0:0:0:0:
26,247,173679,2,0,L|30:166,1,71.9999978027344,4|0,1:3|0:0,0:0:0:0:
22,91,174175,6,0,B|123:84|69:155|182:143,1,167.999994873047,4|0,1:0|0:0,0:0:0:0:
229,81,174919,6,0,P|288:37|319:104,1,167.999994873047,4|0,1:0|0:0,0:0:0:0:
355,179,175663,6,0,P|323:182|311:305,1,167.999994873047,4|0,1:0|0:0,0:0:0:0:
361,332,176407,6,0,P|402:323|439:342,2,75.9999979705811,8|8|2,0:0|0:0|0:0,0:0:0:0:
295,369,177150,2,0,L|213:359,1,75.9999979705811,10|4,0:0|1:3,0:0:0:0:
145,342,177646,1,10,1:2:0:0:
210,187,178143,6,0,B|202:139|202:139|227:96|227:96|201:73,2,125.999996154785,6|4|4,1:2|1:2|1:2,0:0:0:0:
286,223,179134,2,0,B|325:207|325:207|378:220,1,83.9999974365235,8|0,0:0|0:0,0:0:0:0:
446,242,179630,2,0,B|457:290|457:290|440:311|440:311|458:374,2,125.999996154785,4|4|8,1:2|1:2|0:0,0:0:0:0:
491,171,180621,1,8,0:0:0:0:
427,32,181117,2,0,L|350:33,1,75.9999979705811,8|0,0:0|1:0,0:0:0:0:
302,92,181613,2,0,L|224:92,1,75.9999979705811,8|8,0:0|0:3,0:0:0:0:
166,32,182109,6,0,P|105:52|56:18,1,125.999996154785,4|10,1:1|0:0,0:0:0:0:
3,134,182853,2,0,P|6:196|8:259,1,125.999996154785,2|2,1:2|1:2,0:0:0:0:
128,301,183597,2,0,P|173:249|113:203,1,125.999996154785,14|8,0:0|0:0,0:0:0:0:
25,238,184340,1,0,1:0:0:0:
34,363,184712,1,0,1:0:0:0:
158,379,185084,2,0,L|246:369,1,83.9999974365235,10|2,0:0|0:0,0:0:0:0:
305,315,185580,2,0,L|291:232,1,83.9999974365235,2|8,0:0|0:0,0:0:0:0:
218,189,186076,6,0,B|150:204|165:158|96:175,2,125.999996154785,6|2|2,1:2|1:2|1:2,0:0:0:0:
284,136,187068,2,0,P|325:127|373:139,1,83.9999974365235,8|0,0:0|0:0,0:0:0:0:
426,195,187564,2,0,P|418:254|415:335,1,125.999996154785,10|8,0:0|1:3,0:0:0:0:
289,332,188307,2,0,B|241:319|241:319|216:333|216:333|150:317,1,125.999996154785,10|10,0:0|0:0,0:0:0:0:
86,226,189051,2,0,B|73:182|73:182|91:143,1,83.9999974365235,10|8,0:0|0:0,0:0:0:0:
173,147,189547,2,0,B|186:191|186:191|168:230,1,83.9999974365235,10|10,0:0|0:0,0:0:0:0:
239,273,190043,6,0,B|281:267|281:267|315:285|315:285|370:282,1,125.999996154785,4|2,1:0|1:2,0:0:0:0:
402,278,190539,1,8,0:0:0:0:
466,223,190787,2,0,B|457:174|457:174|467:156|467:156|458:83,1,125.999996154785,2|2,1:2|1:2,0:0:0:0:
361,21,191531,2,0,P|296:33|291:99,1,125.999996154785,14|2,0:0|1:2,0:0:0:0:
332,201,192274,1,0,1:0:0:0:
264,251,192522,2,0,P|223:247|167:245,1,83.9999974365235,8|2,0:0|0:0,0:0:0:0:
127,179,193018,1,6,1:2:0:0:
186,119,193266,1,2,1:2:0:0:
136,53,193514,2,0,L|42:53,1,83.9999974365235,10|2,0:0|0:0,0:0:0:0:
0,120,194010,6,0,P|5:167|6:249,1,125.999996154785,6|2,1:2|1:2,0:0:0:0:
15,287,194506,1,8,0:0:0:0:
85,332,194754,2,0,B|163:336|116:285|195:288,1,125.999996154785,6|0,1:2|1:0,0:0:0:0:
321,277,195498,2,0,P|301:232|350:168,2,125.999996154785,14|10|2,0:2|0:0|1:2,0:0:0:0:
384,332,196489,2,0,L|475:329,1,83.9999974365235,8|0,0:0|0:0,0:0:0:0:
509,255,196985,2,0,P|500:193|503:122,1,125.999996154785,0|0,1:0|1:0,0:0:0:0:
469,102,197481,2,0,B|429:88|429:88|371:113,1,83.9999974365235,8|8,1:2|0:3,0:0:0:0:
319,150,197977,6,0,L|332:286,1,125.999996154785,4|2,1:0|1:2,0:0:0:0:
321,316,198473,1,8,0:0:0:0:
238,334,198721,2,0,B|193:321|193:321|174:335|174:335|93:325,1,125.999996154785,2|2,1:2|1:2,0:0:0:0:
4,275,199464,2,0,P|-4:216|54:200,1,125.999996154785,14|0,0:0|1:0,0:0:0:0:
171,234,200208,1,0,1:0:0:0:
232,176,200456,2,0,L|225:86,1,83.9999974365235,8|2,0:0|0:0,0:0:0:0:
159,39,200952,1,6,1:2:0:0:
75,46,201200,1,2,1:2:0:0:
30,117,201448,2,0,L|37:210,1,83.9999974365235,10|2,0:0|0:0,0:0:0:0:
103,252,201944,6,0,P|141:236|224:256,1,125.999996154785,6|2,1:2|1:2,0:0:0:0:
259,270,202440,1,8,0:0:0:0:
332,229,202688,2,0,B|352:157|307:174|322:107,1,125.999996154785,6|0,1:2|1:0,0:0:0:0:
450,115,203431,2,0,B|465:182|420:165|440:236,1,125.999996154785,14|10,0:0|0:0,0:0:0:0:
345,320,204175,2,0,B|297:333|264:292|264:292|208:289|198:320,1,167.999994873047,2|8,1:2|1:3,0:0:0:0:
150,383,204919,5,8,0:0:0:0:
58,148,205911,6,0,B|45:112|45:112|55:71,1,75.9999979705811,4|0,1:0|0:0,0:0:0:0:
130,69,206407,2,0,B|143:105|143:105|133:146,1,75.9999979705811,10|0,0:0|0:0,0:0:0:0:
101,210,206902,2,0,L|107:334,1,113.999996955872,0|0,1:0|1:0,0:0:0:0:
112,361,207398,1,8,0:0:0:0:
214,307,207770,2,0,L|304:304,1,75.9999979705811,4|0,1:2|1:0,0:0:0:0:
387,244,208390,2,0,L|379:166,1,75.9999979705811,8|0,0:0|0:0,0:0:0:0:
367,92,208886,2,0,P|328:51|241:88,1,151.999995941162,0|8,1:0|0:0,0:0:0:0:
198,138,209630,1,0,1:0:0:0:
129,105,209878,6,0,B|93:95|93:95|56:107,1,75.9999979705811,6|0,1:2|0:0,0:0:0:0:
59,183,210374,2,0,B|95:193|95:193|132:181,1,75.9999979705811,10|0,0:0|0:0,0:0:0:0:
181,238,210869,2,0,L|170:356,1,113.999996955872,0|0,1:0|1:0,0:0:0:0:
203,371,211365,1,8,0:0:0:0:
299,310,211737,6,0,L|380:317,1,75.9999979705811,4|10,1:2|0:0,0:0:0:0:
466,248,212357,1,10,0:0:0:0:
416,145,212729,2,0,P|341:142|254:136,1,151.999995941162,0|0,1:0|1:0,0:0:0:0:
226,132,213349,1,8,0:0:0:0:
130,250,213845,6,0,L|138:341,1,75.9999979705811,6|0,1:2|0:0,0:0:0:0:
60,332,214340,2,0,L|52:241,1,75.9999979705811,10|0,0:0|0:0,0:0:0:0:
13,190,214836,2,0,P|2:137|38:82,1,113.999996955872,0|0,1:0|1:0,0:0:0:0:
59,61,215332,1,8,0:0:0:0:
156,120,215704,2,0,L|240:114,1,75.9999979705811,4|0,1:2|1:0,0:0:0:0:
316,38,216324,2,0,L|402:47,1,75.9999979705811,8|0,0:0|0:0,0:0:0:0:
439,105,216820,2,0,P|414:180|403:256,1,151.999995941162,0|8,1:0|0:0,0:0:0:0:
368,318,217564,1,0,1:0:0:0:
302,357,217812,6,0,B|267:368|267:368|229:356,1,75.9999979705811,6|0,1:2|0:0,0:0:0:0:
229,280,218307,2,0,B|266:268|266:268|301:279,1,75.9999979705811,10|0,0:0|0:0,0:0:0:0:
368,318,218803,2,0,P|410:315|493:318,1,113.999996955872,0|0,1:0|1:0,0:0:0:0:
500,283,219299,1,8,0:0:0:0:
432,190,219671,6,0,P|430:142|434:108,1,75.9999979705811,4|10,1:2|0:0,0:0:0:0:
344,42,220291,1,10,0:0:0:0:
253,111,220663,2,0,P|198:124|153:83,1,113.999996955872,0|2,1:0|1:3,0:0:0:0:
79,96,221283,2,0,P|68:141|60:184,1,75.9999979705811,8|8,0:0|0:0,0:0:0:0:
54,207,221655,1,8,0:0:0:0:
