osu file format v14

[General]
AudioFilename: audio.mp3
AudioLeadIn: 0
PreviewTime: 173927
Countdown: 0
SampleSet: Soft
StackLeniency: 0.4
Mode: 0
LetterboxInBreaks: 0
WidescreenStoryboard: 1

[Editor]
Bookmarks: 10552,26419,42287,54064,58155,74023,81956,109353,113692,129560,154353,170220,174188,178155
DistanceSpacing: 1.2
BeatDivisor: 4
GridSize: 16
TimelineZoom: 2.3

[Metadata]
Title:MAYDAY (feat. Ryo from Crystal Lake)
TitleUnicode:MAYDAY (feat. Ryo from Crystal Lake)
Artist:coldrain
ArtistUnicode:coldrain
Creator:AirinCat
Version:Insane
Source:炎炎ノ消防隊
Tags:english rock anime enn Enen no Shouboutai shobotai shoubotai shoboutai brigade of flames fire force opening 2 two op second full version ver kinoshita the side effects david production fireforce
BeatmapID:2159327
BeatmapSetID:1030814

[Difficulty]
HPDrainRate:5
CircleSize:3.8
OverallDifficulty:8
ApproachRate:9
SliderMultiplier:2.4
SliderTickRate:1

[Events]
//Background and Video events
0,0,"blobpog.jpg",0,0
//Break Periods
2,129913,132791
//Storyboard Layer 0 (Background)
//Storyboard Layer 1 (Fail)
//Storyboard Layer 2 (Pass)
//Storyboard Layer 3 (Foreground)
//Storyboard Layer 4 (Overlay)
//Storyboard Sound Samples

[TimingPoints]
10540,495.867768595041,4,2,1,60,1,0
10540,-90.9090909090909,4,2,1,60,0,0
26407,-111.111111111111,4,2,1,46,0,0
34341,-105.263157894737,4,2,1,56,0,0
40044,-90.9090909090909,4,2,1,62,0,0
41035,-90.9090909090909,4,2,1,66,0,0
42275,-86.9565217391304,4,2,1,70,0,0
54052,-133.333333333333,4,2,1,50,0,0
54672,-153.846153846153,4,2,1,25,0,0
57151,-153.846153846153,4,2,1,60,0,0
58143,-80,4,2,1,74,0,1
66077,-74.0740740740741,4,2,1,78,0,1
73019,-153.846153846154,4,2,1,50,0,0
74011,-86.9565217391304,4,2,1,70,0,0
81944,-111.111111111111,4,2,1,44,0,0
89878,-86.9565217391304,4,2,1,60,0,0
96573,-83.3333333333333,4,2,1,70,0,0
96944,-83.3333333333333,4,2,1,70,0,0
109589,-133.333333333333,4,2,1,70,0,0
109961,-133.333333333333,4,2,1,50,0,0
113680,-80,4,2,1,74,0,1
121614,-74.0740740740741,4,2,1,78,0,1
128556,-153.846153846154,4,2,1,50,0,0
133391,-153.846153846154,4,2,1,38,0,0
133515,-153.846153846155,4,2,1,46,0,0
134011,-153.846153846155,4,2,1,30,0,0
135498,-153.846153846155,4,2,1,40,0,0
135994,-153.846153846155,4,2,1,52,0,0
136490,-153.846153846155,4,2,1,60,0,0
136986,-153.846153846155,4,2,1,68,0,0
137482,-95.2380952380952,4,2,1,68,0,0
151366,-86.9565217391304,4,2,1,70,0,0
152358,-74.0740740740741,4,2,1,66,0,0
152440,-80,4,2,1,5,0,0
152688,-80,4,2,1,66,0,0
152771,-80,4,2,1,5,0,0
153019,-285.714285714286,4,2,1,66,0,0
153515,-285.714285714286,4,2,1,5,0,0
154341,495.867768595041,4,2,1,64,1,0
154341,-105.263157894737,4,2,1,64,0,0
169341,-86.9565217391306,4,2,1,64,0,0
170208,-105.263157894737,4,2,1,24,0,0
173183,-153.846153846154,4,2,2,48,0,0
173307,-153.846153846154,4,2,2,30,0,0
173679,-181.818181818182,4,2,1,60,0,0
173927,-181.818181818182,4,2,1,20,0,0
174175,-68.9655172413793,4,2,1,60,0,0
174919,-80,4,2,1,60,0,0
175663,-95.2380952380954,4,2,1,60,0,0
177026,-86.9565217391304,4,2,1,60,0,0
178142,-74.0740740740741,4,2,1,78,0,1
180374,-74.0740740740741,4,2,1,60,0,0
181861,-105.263157894737,4,2,1,60,0,0
182109,-80,4,2,1,78,0,1
188679,-80,4,2,1,64,0,0
189547,-80,4,2,1,68,0,0
190043,-74.0740740740741,4,2,1,80,0,1
204919,-166.666666666667,4,2,1,50,0,0
205911,-83.3333333333333,4,2,1,70,0,0

[Colours]
Combo1 : 198,169,168
Combo2 : 231,107,111
Combo3 : 184,184,184
Combo4 : 228,116,141
SliderTrackOverride : 5,5,5
SliderBorder : 250,250,250

[HitObjects]
38,170,10540,5,4,1:1:0:0:
10,262,10663,2,0,P|70:251|142:238,1,132.00000402832,0|0,1:0|0:0,0:0:0:0:
189,341,11035,1,8,0:0:0:0:
189,341,11159,2,0,P|136:297|155:221,1,132.00000402832,0|0,1:0|0:0,0:0:0:0:
258,254,11531,6,0,L|333:242,1,66.0000020141602,0|0,1:0|1:0,0:0:0:0:
415,356,11779,2,0,L|349:345,1,66.0000020141602,0|0,1:0|1:0,0:0:0:0:
426,235,12027,1,8,0:0:0:0:
426,235,12151,2,0,L|501:223,1,66.0000020141602,0|0,1:0|0:0,0:0:0:0:
495,64,12399,6,0,L|513:128,1,66.0000020141602,0|0,1:0|0:0,0:0:0:0:
407,14,12647,2,0,P|361:57|299:43,1,132.00000402832,0|0,1:0|1:0,0:0:0:0:
184,39,13019,1,8,0:0:0:0:
184,39,13143,2,0,P|241:12|299:44,1,132.00000402832,0|0,1:0|0:0,0:0:0:0:
217,188,13515,5,0,1:0:0:0:
217,188,13639,1,0,1:0:0:0:
117,159,13763,2,0,L|108:84,1,66.0000020141602,0|0,1:0|1:0,0:0:0:0:
232,204,14011,2,0,L|311:190,1,66.0000020141602,8|0,0:0|0:0,0:0:0:0:
421,104,14259,2,0,L|356:92,1,66.0000020141602,0|0,1:0|0:0,0:0:0:0:
387,286,14506,5,4,1:2:0:0:
387,286,14630,2,0,B|433:268|433:268|473:278|473:278|526:262,1,132.00000402832,0|0,1:0|0:0,0:0:0:0:
429,370,15002,1,8,0:0:0:0:
429,369,15126,2,0,P|365:376|316:333,1,132.00000402832,0|0,1:0|0:0,0:0:0:0:
244,249,15498,6,0,L|166:260,1,66.0000020141602,0|0,1:0|1:0,0:0:0:0:
106,138,15746,2,0,L|184:149,1,66.0000020141602,0|0,1:0|1:0,0:0:0:0:
91,271,15994,1,8,0:0:0:0:
91,271,16118,2,0,L|13:282,1,66.0000020141602,0|0,1:0|0:0,0:0:0:0:
0,116,16366,6,0,L|4:182,1,66.0000020141602,4|0,1:2|0:0,0:0:0:0:
91,32,16614,2,0,P|121:87|184:87,1,132.00000402832,8|0,0:0|1:0,0:0:0:0:
279,34,16986,2,0,P|216:32|184:87,1,132.00000402832,8|0,0:0|0:0,0:0:0:0:
186,217,17358,6,0,P|190:152|184:81,1,132.00000402832,4|8,1:2|1:3,0:0:0:0:
281,146,17730,1,8,1:3:0:0:
281,146,17854,1,8,1:3:0:0:
355,92,17978,1,8,0:0:0:0:
428,150,18101,2,0,P|486:153|512:90,1,132.00000402832,0|0,1:0|0:0,0:0:0:0:
356,215,18473,5,4,1:2:0:0:
356,215,18597,2,0,L|355:352,1,132.00000402832,0|0,1:0|0:0,0:0:0:0:
462,372,18969,1,8,0:0:0:0:
462,372,19093,2,0,P|415:329|354:347,1,132.00000402832,0|0,1:0|0:0,0:0:0:0:
237,384,19465,6,0,L|164:375,1,66.0000020141602,0|0,1:0|1:0,0:0:0:0:
88,297,19713,2,0,L|153:288,1,66.0000020141602,0|0,1:0|1:0,0:0:0:0:
230,197,19961,1,8,0:0:0:0:
230,197,20085,2,0,L|164:188,1,66.0000020141602,0|0,1:0|0:0,0:0:0:0:
10,150,20333,6,0,L|-1:216,1,66.0000020141602,0|0,1:0|0:0,0:0:0:0:
114,122,20581,2,0,B|107:68|107:68|130:42|130:42|123:-12,1,132.00000402832,0|0,1:0|1:0,0:0:0:0:
255,17,20953,1,8,0:0:0:0:
255,17,21077,2,0,P|181:9|112:-3,1,132.00000402832,0|0,1:0|0:0,0:0:0:0:
279,127,21449,5,0,1:0:0:0:
279,127,21573,1,0,1:0:0:0:
358,48,21697,2,0,L|423:38,1,66.0000020141602,0|0,1:0|1:0,0:0:0:0:
285,154,21944,2,0,L|301:225,1,66.0000020141602,8|0,0:0|0:0,0:0:0:0:
440,224,22192,2,0,L|454:159,1,66.0000020141602,0|0,1:0|0:0,0:0:0:0:
248,314,22440,5,4,1:2:0:0:
248,314,22564,2,0,P|306:340|364:305,1,132.00000402832,0|0,1:0|0:0,0:0:0:0:
475,333,22936,1,8,0:0:0:0:
475,333,23060,2,0,P|415:293|358:313,1,132.00000402832,0|0,1:0|0:0,0:0:0:0:
142,361,23432,6,0,L|128:295,1,66.0000020141602,0|0,1:0|1:0,0:0:0:0:
239,168,23680,2,0,L|225:234,1,66.0000020141602,0|0,1:0|1:0,0:0:0:0:
76,217,23928,1,8,0:0:0:0:
76,217,24052,2,0,L|62:151,1,66.0000020141602,0|0,1:0|0:0,0:0:0:0:
191,35,24300,6,0,L|125:48,1,66.0000020141602,4|0,1:2|0:0,0:0:0:0:
289,95,24548,2,0,P|346:118|390:74,1,132.00000402832,10|0,0:0|1:0,0:0:0:0:
491,53,24920,2,0,P|433:29|390:74,1,132.00000402832,10|0,0:0|0:0,0:0:0:0:
419,203,25292,2,0,P|407:138|390:74,1,132.00000402832,4|8,1:2|0:3,0:0:0:0:
309,0,25663,1,8,1:3:0:0:
309,0,25787,1,8,1:3:0:0:
213,54,25911,2,0,L|142:38,1,66.0000020141602,8|8,0:0|0:3,0:0:0:0:
32,50,26159,1,8,0:0:0:0:
16,158,26283,1,8,0:0:0:0:
101,237,26407,6,0,P|156:234|220:223,1,107.999996704102,2|2,1:2|1:2,0:0:0:0:
289,373,26903,1,10,0:0:0:0:
289,373,27027,2,0,P|265:307|289:265,1,107.999996704102,0|0,1:0|0:0,0:0:0:0:
355,225,27399,2,0,B|400:221|400:221|421:232|421:232|469:229,1,107.999996704102,2|0,1:2|0:0,0:0:0:0:
512,157,27771,1,0,1:0:0:0:
512,157,27895,2,0,L|501:79,1,53.9999983520508,10|0,0:0|1:0,0:0:0:0:
378,23,28267,6,0,P|330:59|280:38,1,107.999996704102,2|0,1:2|1:0,0:0:0:0:
229,104,28639,2,0,L|241:165,1,53.9999983520508,2|0,0:0|1:0,0:0:0:0:
208,245,28887,1,10,0:0:0:0:
208,245,29011,2,0,L|76:221,1,107.999996704102,2|0,1:2|0:0,0:0:0:0:
28,164,29382,1,2,1:2:0:0:
28,164,29630,2,0,L|22:105,1,53.9999983520508,2|0,1:2|1:0,0:0:0:0:
16,254,29878,2,0,L|0:305,1,53.9999983520508,10|0,0:2|1:0,0:0:0:0:
103,358,30126,6,0,B|158:319|154:369|223:325,2,107.999996704102,2|0|0,0:0|1:0|1:0,0:0:0:0:
122,77,30870,1,10,0:0:0:0:
122,77,30994,2,0,P|114:138|103:196,1,107.999996704102,0|0,1:0|0:0,0:0:0:0:
177,244,31366,1,2,1:2:0:0:
177,244,31614,2,0,L|239:233,1,53.9999983520508,2|0,0:0|1:0,0:0:0:0:
273,161,31862,2,0,L|335:172,1,53.9999983520508,10|0,0:2|1:0,0:0:0:0:
416,132,32110,5,2,0:0:0:0:
416,132,32234,2,0,B|425:171|425:171|415:197|415:197|428:253,1,107.999996704102,0|0,1:0|1:0,0:0:0:0:
496,326,32606,2,0,L|509:270,1,53.9999983520508,2|0,0:0|1:0,0:0:0:0:
391,340,32854,1,8,0:0:0:0:
391,340,33101,5,2,0:0:0:0:
301,334,33225,2,0,B|261:330|261:330|241:348|241:348|189:345,1,107.999996704102,0|0,1:0|0:0,0:0:0:0:
131,247,33597,2,0,L|121:312,1,53.9999983520508,2|0,1:2|0:0,0:0:0:0:
33,235,33845,1,8,0:0:0:0:
33,235,33969,1,8,1:3:0:0:
50,143,34093,1,12,0:3:0:0:
50,143,34341,6,0,P|107:165|163:132,1,113.999996955872,6|2,1:2|1:2,0:0:0:0:
348,88,34837,1,10,0:0:0:0:
348,88,34961,2,0,P|281:65|239:98,1,113.999996955872,0|0,1:0|0:0,0:0:0:0:
233,177,35333,2,0,P|248:228|262:294,1,113.999996955872,2|0,1:2|0:0,0:0:0:0:
203,357,35705,1,0,1:0:0:0:
203,357,35829,2,0,L|139:371,1,56.9999984779358,10|0,0:0|1:0,0:0:0:0:
348,361,36201,6,0,B|412:339|396:383|469:356,1,113.999996955872,2|0,1:2|1:0,0:0:0:0:
512,289,36573,2,0,L|502:233,1,56.9999984779358,2|0,0:0|1:0,0:0:0:0:
439,183,36820,1,10,0:0:0:0:
439,183,36944,2,0,P|405:139|428:76,1,113.999996955872,2|0,1:2|0:0,0:0:0:0:
480,38,37316,2,0,P|426:39|360:33,1,113.999996955872,2|0,1:2|1:0,0:0:0:0:
296,77,37688,1,0,1:0:0:0:
296,77,37812,2,0,P|282:102|277:130,1,56.9999984779358,10|0,0:0|1:0,0:0:0:0:
205,181,38060,6,0,P|194:126|142:88,2,113.999996955872,2|0|0,0:0|1:0|1:0,0:0:0:0:
0,192,38804,1,10,0:0:0:0:
0,192,38928,2,0,P|54:181|137:171,1,113.999996955872,0|0,1:0|0:0,0:0:0:0:
205,181,39300,6,0,L|193:243,1,56.9999984779358,2|0,1:2|0:0,0:0:0:0:
119,338,39548,2,0,L|108:282,1,56.9999984779358,2|0,0:0|1:0,0:0:0:0:
223,196,39796,2,0,L|211:258,1,56.9999984779358,10|0,0:0|1:0,0:0:0:0:
323,348,40044,1,2,0:0:0:0:
391,314,40168,6,0,B|374:259|374:259|388:230|388:230|370:164,1,132.00000402832,2|8,1:3|0:0,0:0:0:0:
249,107,40539,2,0,L|319:121,1,66.0000020141602,2|0,0:0|1:0,0:0:0:0:
471,81,40787,2,0,L|387:116,1,66.0000020141602,8|0,0:0|0:0,0:0:0:0:
194,6,41035,6,0,B|248:13|248:13|263:22|263:22|332:30,1,132.00000402832,6|0,0:2|0:0,0:0:0:0:
136,153,41407,1,8,0:0:0:0:
136,153,41531,2,0,L|119:77,1,66.0000020141602,2|0,1:2|0:0,0:0:0:0:
254,199,41779,1,8,0:0:0:0:
254,199,41903,1,8,0:0:0:0:
179,279,42027,1,8,0:0:0:0:
179,279,42151,1,8,0:0:0:0:
287,345,42275,6,0,L|361:339,1,69.0000013160706,4|0,1:1|0:0,0:0:0:0:
493,252,42523,2,0,L|419:240,1,69.0000013160706,2|0,0:0|0:0,0:0:0:0:
254,199,42771,1,10,0:0:0:0:
332,258,42895,2,0,B|352:208|352:208|337:169|337:169|349:116,1,138.000002632141,0|0,1:0|0:0,0:0:0:0:
461,15,43267,6,0,L|475:87,1,69.0000013160706,0|0,1:0|0:0,0:0:0:0:
346,127,43515,2,0,L|353:58,1,69.0000013160706,2|0,1:2|0:0,0:0:0:0:
223,4,43763,2,0,L|239:72,1,69.0000013160706,10|0,0:2|1:0,0:0:0:0:
124,187,44011,1,2,0:0:0:0:
41,133,44135,2,0,B|84:119|84:119|102:90|102:90|185:100,1,138.000002632141,0|0,1:0|1:0,0:0:0:0:
222,223,44506,6,0,B|200:250|200:250|193:283,1,69.0000013160706,2|0,0:0|1:0,0:0:0:0:
129,384,44754,2,0,B|117:351|117:351|92:327,1,69.0000013160706,10|0,0:0|1:0,0:0:0:0:
27,223,45002,2,0,B|62:228|62:228|95:218,1,69.0000013160706,2|0,0:0|0:0,0:0:0:0:
288,314,45250,5,6,1:2:0:0:
288,314,45374,2,0,L|307:397,1,69.0000013160706,0|0,1:0|1:0,0:0:0:0:
441,236,45622,1,2,1:2:0:0:
441,236,45746,2,0,L|427:308,1,69.0000013160706,8|0,0:0|0:0,0:0:0:0:
299,140,45994,2,0,L|317:219,1,69.0000013160706,2|0,1:2|0:0,0:0:0:0:
460,80,46242,6,0,L|446:157,1,69.0000013160706,4|0,1:2|0:0,0:0:0:0:
315,10,46490,2,0,L|387:-1,1,69.0000013160706,2|0,0:0|0:0,0:0:0:0:
231,93,46738,1,10,0:0:0:0:
158,33,46862,2,0,B|95:26|95:26|68:53|68:53|25:32,1,138.000002632141,0|0,1:0|0:0,0:0:0:0:
0,139,47234,6,0,L|10:210,1,69.0000013160706,0|0,1:0|0:0,0:0:0:0:
162,243,47482,2,0,B|127:238|127:238|91:253,1,69.0000013160706,2|0,0:2|1:0,0:0:0:0:
118,374,47730,2,0,B|153:379|153:379|189:364,1,69.0000013160706,10|0,0:2|1:0,0:0:0:0:
307,287,47978,1,2,0:0:0:0:
252,221,48101,6,0,B|241:154|241:154|246:136|246:136|239:79,1,138.000002632141,4|8,1:2|0:0,0:0:0:0:
299,20,48473,1,2,0:0:0:0:
360,86,48597,1,2,1:2:0:0:
431,23,48721,2,0,L|506:12,1,69.0000013160706,10|0,0:0|0:0,0:0:0:0:
512,150,48969,2,0,L|440:143,1,69.0000013160706,2|0,0:0|1:0,0:0:0:0:
347,309,49217,6,0,B|399:294|399:294|412:242|373:205,1,138.000002632141,6|0,0:0|1:0,0:0:0:0:
282,148,49589,1,2,1:2:0:0:
282,148,49713,2,0,L|271:220,1,69.0000013160706,8|0,0:0|1:0,0:0:0:0:
147,130,49961,2,0,L|158:200,1,69.0000013160706,8|8,0:3|0:3,0:0:0:0:
69,368,50209,6,0,L|-11:356,1,69.0000013160706,4|0,1:2|1:0,0:0:0:0:
5,214,50457,2,0,L|85:202,1,69.0000013160706,2|0,0:0|0:0,0:0:0:0:
242,305,50705,1,10,0:0:0:0:
158,329,50829,2,0,B|152:281|152:281|168:256|168:256|157:198,1,138.000002632141,0|0,1:0|0:0,0:0:0:0:
287,115,51201,6,0,L|272:183,1,69.0000013160706,0|0,1:0|0:0,0:0:0:0:
447,190,51449,2,0,L|431:122,1,69.0000013160706,2|0,1:2|1:0,0:0:0:0:
353,262,51697,2,0,L|361:331,1,69.0000013160706,10|0,0:0|1:0,0:0:0:0:
272,182,51944,1,2,0:0:0:0:
199,235,52068,2,0,B|152:244|152:244|126:224|126:224|50:240,1,138.000002632141,0|0,1:0|1:0,0:0:0:0:
168,31,52440,6,0,L|180:99,1,69.0000013160706,2|0,0:0|1:0,0:0:0:0:
17,94,52688,2,0,L|29:26,1,69.0000013160706,10|0,0:0|1:0,0:0:0:0:
182,27,52936,2,0,L|194:95,1,69.0000013160706,2|0,0:0|0:0,0:0:0:0:
249,255,53184,5,4,1:2:0:0:
249,255,53308,2,0,L|326:239,1,69.0000013160706,0|0,1:0|0:0,0:0:0:0:
115,348,53556,1,2,1:2:0:0:
115,348,53680,2,0,L|192:364,1,69.0000013160706,8|2,0:0|1:3,0:0:0:0:
23,225,53928,5,2,0:0:0:0:
23,225,54052,2,0,B|80:212|80:212|88:213|88:213|169:199,1,135.000005149841,2|0,1:3|0:0,0:0:0:0:
155,201,54672,6,0,P|142:158|153:116,1,77.9999964294435,2|0,0:0|0:0,0:0:0:0:
240,239,55168,2,0,L|224:327,1,77.9999964294435,2|0,0:0|0:0,0:0:0:0:
378,368,55663,2,0,P|335:355|293:366,1,77.9999964294435,2|0,0:0|0:0,0:0:0:0:
210,314,56159,2,0,L|223:230,2,77.9999964294435,2|2|2,0:0|0:0|0:0,0:0:0:0:
303,361,56903,1,2,0:0:0:0:
215,109,57151,5,8,0:0:0:0:
322,177,57275,1,8,0:0:0:0:
221,236,57399,1,8,0:0:0:0:
224,123,57523,1,2,1:3:0:0:
221,236,58143,6,0,P|152:206|87:263,1,150,4|0,1:1|0:0,0:0:0:0:
17,358,58515,2,0,P|13:276|-2:198,1,150,10|0,0:0|0:0,0:0:0:0:
58,109,58887,2,0,B|113:103|113:103|140:125|140:125|211:115,1,150,2|0,1:2|0:0,0:0:0:0:
307,41,59259,2,0,B|247:48|247:48|219:24|219:24|157:31,1,150,2|0,1:2|0:0,0:0:0:0:
334,170,59630,6,0,P|370:102|449:102,1,150,10|0,1:2|0:0,0:0:0:0:
508,210,60002,2,0,P|472:271|399:272,1,150,8|0,0:0|0:0,0:0:0:0:
260,280,60374,2,0,B|312:263|312:263|348:285|348:285|428:266,1,150,0|0,1:0|0:0,0:0:0:0:
254,181,60746,1,0,1:0:0:0:
180,243,60870,2,0,P|145:244|105:244,1,75,2|0,0:0|0:0,0:0:0:0:
0,174,61118,6,0,P|12:103|27:19,1,150,10|2,1:2|0:0,0:0:0:0:
150,14,61490,1,8,0:0:0:0:
172,123,61614,2,0,L|91:108,1,75,2|0,0:0|0:0,0:0:0:0:
241,26,61862,1,10,0:0:0:0:
296,120,61986,1,8,0:0:0:0:
387,47,62110,6,0,P|475:31|517:80,1,150,6|0,1:2|0:0,0:0:0:0:
503,215,62482,2,0,P|439:190|440:117,1,150,2|0,1:2|0:0,0:0:0:0:
369,300,62854,2,0,P|407:293|446:291,1,75,2|0,1:2|0:0,0:0:0:0:
321,206,63101,1,8,0:0:0:0:
240,268,63225,2,0,P|189:263|184:166,1,150,0|0,1:2|0:0,0:0:0:0:
180,29,63597,6,0,B|134:41|134:41|101:22|101:22|36:39,1,150,6|0,1:2|0:0,0:0:0:0:
0,186,63969,2,0,P|76:180|86:111,1,150,2|0,1:2|0:0,0:0:0:0:
205,265,64341,2,0,L|128:251,1,75,10|0,0:0|0:0,0:0:0:0:
246,142,64589,1,8,0:0:0:0:
319,211,64713,2,0,P|362:206|407:200,1,75,0|0,1:0|0:0,0:0:0:0:
484,62,64961,1,0,1:0:0:0:
388,33,65085,2,0,L|403:114,1,75,8|0,0:0|0:0,0:0:0:0:
504,224,65333,6,0,L|511:147,1,75,0|0,1:0|0:0,0:0:0:0:
428,294,65581,1,8,0:0:0:0:
428,294,65705,1,8,0:3:0:0:
350,234,65829,2,0,P|305:236|256:243,1,75,8|0,0:3|0:0,0:0:0:0:
141,384,66077,6,0,P|203:319|161:253,1,162.000000617981,4|0,1:1|0:0,0:0:0:0:
6,200,66449,1,2,1:2:0:0:
110,164,66573,2,0,P|103:203|96:248,1,81.0000003089905,8|0,0:0|0:0,0:0:0:0:
0,88,66820,2,0,B|81:118|65:46|156:84,1,162.000000617981,2|0,1:2|0:0,0:0:0:0:
333,35,67192,2,0,B|280:35|280:35|259:3|259:3|186:0,1,162.000000617981,2|0,1:2|0:0,0:0:0:0:
269,236,67564,6,0,P|321:186|273:125,1,162.000000617981,14|0,0:0|0:0,0:0:0:0:
115,159,67936,2,0,P|127:231|141:323,1,162.000000617981,0|0,1:0|0:0,0:0:0:0:
296,370,68308,2,0,P|254:378|215:385,1,81.0000003089905,0|0,1:0|0:0,0:0:0:0:
339,272,68556,1,8,0:0:0:0:
416,335,68680,2,0,P|501:341|505:264,1,162.000000617981,0|0,1:0|0:0,0:0:0:0:
405,154,69052,6,0,P|366:162|326:173,1,81.0000003089905,6|0,1:2|0:0,0:0:0:0:
345,6,69300,2,0,P|382:16|427:25,1,81.0000003089905,2|0,1:2|1:0,0:0:0:0:
231,142,69548,2,0,P|188:150|147:161,1,81.0000003089905,10|0,0:0|0:0,0:0:0:0:
155,0,69796,2,0,P|192:10|236:21,1,81.0000003089905,2|0,0:0|0:0,0:0:0:0:
41,214,70044,6,0,P|45:129|48:52,1,162.000000617981,6|0,1:2|0:0,0:0:0:0:
239,167,70416,1,2,1:2:0:0:
172,253,70539,2,0,P|181:289|193:342,1,81.0000003089905,10|0,0:0|0:0,0:0:0:0:
345,352,70787,2,0,P|372:294|298:244,1,162.000000617981,6|0,1:2|0:0,0:0:0:0:
184,346,71159,2,0,L|86:338,1,81.0000003089905,0|0,1:0|0:0,0:0:0:0:
0,261,71407,5,0,1:0:0:0:
0,261,71469,1,0,1:0:0:0:
0,261,71531,2,0,P|72:246|85:164,1,162.000000617981,12|0,1:2|0:0,0:0:0:0:
14,61,71903,2,0,B|67:55|67:55|84:76|111:84|111:84|173:73,1,162.000000617981,10|0,0:2|0:0,0:0:0:0:
313,0,72275,2,0,P|273:2|216:5,1,81.0000003089905,2|0,1:2|0:0,0:0:0:0:
253,160,72523,5,8,0:0:0:0:
282,182,72606,1,8,0:0:0:0:
317,188,72688,1,8,0:0:0:0:
346,178,72771,1,4,0:3:0:0:
360,163,72854,1,4,0:3:0:0:
368,144,72936,1,4,0:3:0:0:
370,123,73019,6,0,P|393:82|483:120,1,155.999992858887,8|0,0:0|0:0,0:0:0:0:
512,214,73680,2,0,L|506:274,1,51.999997619629,2|0,0:0|0:0,0:0:0:0:
397,362,74011,5,4,1:1:0:0:
353,276,74135,2,0,B|292:281|292:281|269:263|269:263|222:265,1,138.000002632141,0|0,1:0|0:0,0:0:0:0:
54,358,74506,1,10,0:0:0:0:
54,358,74630,2,0,P|128:330|127:269,1,138.000002632141,0|0,1:0|0:0,0:0:0:0:
12,186,75002,6,0,L|24:265,1,69.0000013160706,0|0,1:0|1:0,0:0:0:0:
161,178,75250,2,0,L|173:99,1,69.0000013160706,0|0,1:0|1:0,0:0:0:0:
52,33,75498,1,8,0:0:0:0:
52,33,75622,2,0,L|64:112,1,69.0000013160706,0|0,1:0|0:0,0:0:0:0:
222,23,75870,6,0,L|143:8,1,69.0000013160706,0|0,1:0|0:0,0:0:0:0:
265,124,76118,2,0,B|324:113|324:113|357:126|357:126|428:110,1,138.000002632141,0|0,1:0|1:0,0:0:0:0:
500,9,76490,2,0,L|471:81,1,69.0000013160706,8|0,0:0|0:0,0:0:0:0:
512,232,76738,2,0,L|483:167,1,69.0000013160706,0|0,1:0|0:0,0:0:0:0:
297,215,76986,5,0,1:0:0:0:
297,215,77110,1,0,1:0:0:0:
362,278,77234,2,0,L|439:260,1,69.0000013160706,0|0,1:0|1:0,0:0:0:0:
312,369,77482,2,0,L|244:353,1,69.0000013160706,8|0,0:0|0:0,0:0:0:0:
143,267,77730,2,0,L|210:251,1,69.0000013160706,0|0,1:0|0:0,0:0:0:0:
54,383,77978,5,6,1:2:0:0:
54,383,78101,2,0,B|63:329|63:329|44:293|44:293|52:247,1,138.000002632141,0|0,1:0|0:0,0:0:0:0:
0,117,78473,1,10,0:0:0:0:
0,117,78597,2,0,B|39:153|39:153|93:138|93:138|120:146,1,138.000002632141,0|0,1:0|0:0,0:0:0:0:
241,69,78969,6,0,L|229:-2,1,69.0000013160706,0|0,1:0|1:0,0:0:0:0:
364,59,79217,2,0,L|352:130,1,69.0000013160706,0|0,1:0|1:0,0:0:0:0:
235,224,79465,1,8,0:0:0:0:
235,224,79589,2,0,L|224:156,1,69.0000013160706,0|0,1:0|0:0,0:0:0:0:
404,234,79837,6,0,L|473:221,1,69.0000013160706,4|0,1:2|0:0,0:0:0:0:
356,341,80085,2,0,P|292:302|232:339,1,138.000002632141,10|0,0:0|1:0,0:0:0:0:
126,342,80457,2,0,P|187:366|241:327,1,138.000002632141,10|0,0:0|0:0,0:0:0:0:
116,204,80829,2,0,L|127:360,1,138.000002632141,0|8,1:0|0:3,0:0:0:0:
8,336,81201,1,8,0:3:0:0:
8,336,81325,1,8,1:3:0:0:
19,243,81449,2,0,L|14:162,1,69.0000013160706,8|0,0:0|1:0,0:0:0:0:
56,62,81697,1,8,0:0:0:0:
159,112,81820,1,8,0:0:0:0:
236,14,81944,6,0,P|288:14|355:18,1,107.999996704102,4|2,1:2|1:2,0:0:0:0:
501,187,82440,1,10,0:0:0:0:
502,186,82564,2,0,P|527:139|511:89,1,107.999996704102,0|0,1:0|0:0,0:0:0:0:
439,128,82936,2,0,P|391:126|327:123,1,107.999996704102,2|0,1:2|0:0,0:0:0:0:
272,184,83308,1,0,1:0:0:0:
272,184,83432,2,0,L|281:240,1,53.9999983520508,10|0,0:0|1:0,0:0:0:0:
172,372,83804,6,0,P|133:336|81:340,1,107.999996704102,2|0,1:2|1:0,0:0:0:0:
1,295,84176,2,0,L|8:232,1,53.9999983520508,2|0,0:0|1:0,0:0:0:0:
29,152,84424,1,10,0:0:0:0:
29,152,84548,2,0,P|94:161|164:162,1,107.999996704102,2|0,1:2|0:0,0:0:0:0:
222,128,84920,1,2,1:2:0:0:
222,128,85168,2,0,L|248:80,1,53.9999983520508,2|0,1:2|1:0,0:0:0:0:
217,217,85416,2,0,L|237:275,1,53.9999983520508,10|0,0:0|1:0,0:0:0:0:
321,315,85663,6,0,P|350:271|402:273,2,107.999996704102,2|0|0,0:0|1:0|1:0,0:0:0:0:
512,384,86407,1,10,0:2:0:0:
512,384,86531,2,0,P|503:328|503:276,1,107.999996704102,0|0,1:2|0:0,0:0:0:0:
468,200,86903,2,0,L|413:188,1,53.9999983520508,2|0,1:2|0:0,0:0:0:0:
421,98,87151,2,0,L|478:92,1,53.9999983520508,2|0,0:0|1:0,0:0:0:0:
341,138,87399,2,0,L|284:132,1,53.9999983520508,10|0,0:0|1:0,0:0:0:0:
219,78,87647,5,2,0:0:0:0:
219,78,87771,2,0,B|164:77|164:77|153:90|153:90|99:90,1,107.999996704102,0|0,1:0|1:0,0:0:0:0:
80,173,88143,2,0,L|90:232,1,53.9999983520508,2|0,0:0|1:0,0:0:0:0:
0,314,88391,2,0,L|9:224,1,53.9999983520508,8|0,0:0|1:0,0:0:0:0:
88,328,88639,5,2,0:0:0:0:
88,328,88763,2,0,B|134:313|134:313|165:324|165:324|190:315,1,107.999996704102,0|0,1:0|0:0,0:0:0:0:
263,251,89135,2,0,L|320:260,1,53.9999983520508,2|0,1:2|1:0,0:0:0:0:
440,331,89382,1,8,0:0:0:0:
440,331,89506,1,8,1:3:0:0:
440,331,89631,2,0,L|386:339,1,53.9999983520508,8|8,0:3|0:3,0:0:0:0:
512,262,89878,6,0,B|517:208|517:208|500:175|500:175|508:118,1,138.000002632141,4|2,1:0|1:2,0:0:0:0:
256,148,90374,1,10,0:0:0:0:
256,148,90498,2,0,P|321:162|351:98,1,138.000002632141,0|0,1:0|0:0,0:0:0:0:
246,30,90870,6,0,L|170:35,1,69.0000013160706,2|0,1:2|0:0,0:0:0:0:
99,141,91118,2,0,L|167:145,1,69.0000013160706,2|0,0:0|1:0,0:0:0:0:
242,19,91366,2,0,L|166:24,1,69.0000013160706,10|0,0:0|1:0,0:0:0:0:
20,38,91614,5,2,0:0:0:0:
20,38,91738,2,0,B|44:100|-17:104|21:192,1,138.000002632141,0|0,1:0|1:0,0:0:0:0:
87,239,92110,2,0,P|126:236|155:223,1,69.0000013160706,2|0,0:0|1:0,0:0:0:0:
77,339,92358,2,0,P|43:325|5:325,1,69.0000013160706,10|0,0:0|1:0,0:0:0:0:
183,360,92606,1,2,0:0:0:0:
183,360,92854,6,0,P|214:309|296:325,1,138.000002632141,2|0,1:2|1:0,0:0:0:0:
370,351,93225,1,0,1:0:0:0:
370,351,93349,2,0,L|444:335,1,69.0000013160706,10|0,0:0|1:0,0:0:0:0:
472,251,93597,6,0,P|431:202|465:147,2,138.000002632141,2|0|0,0:0|1:0|1:0,0:0:0:0:
512,50,94341,1,10,0:0:0:0:
512,50,94465,2,0,B|450:46|450:46|432:58|432:58|371:57,1,138.000002632141,0|0,1:0|0:0,0:0:0:0:
316,121,94837,2,0,L|332:193,1,69.0000013160706,2|0,1:2|0:0,0:0:0:0:
203,199,95085,2,0,L|209:128,1,69.0000013160706,2|0,0:0|1:0,0:0:0:0:
309,196,95333,2,0,L|321:283,1,69.0000013160706,10|0,0:0|1:0,0:0:0:0:
220,362,95581,1,2,0:0:0:0:
147,306,95705,6,0,B|97:324|97:324|56:305|56:305|11:318,1,138.000002632141,6|8,1:2|0:0,0:0:0:0:
128,149,96077,2,0,L|122:228,1,69.0000013160706,2|0,1:2|0:0,0:0:0:0:
5,218,96325,2,0,L|-1:139,1,69.0000013160706,8|0,0:0|0:0,0:0:0:0:
231,54,96573,6,0,B|226:94|226:94|208:120|208:120|216:150|216:150|209:215,1,143.999995605469,6|0,0:2|0:0,0:0:0:0:
335,327,96944,1,8,0:0:0:0:
335,327,97068,2,0,L|248:325,1,71.9999978027344,2|0,1:2|0:0,0:0:0:0:
367,194,97316,1,8,0:0:0:0:
367,194,97440,1,8,0:0:0:0:
439,284,97564,1,8,0:0:0:0:
439,284,97688,1,8,0:0:0:0:
479,134,97812,6,0,L|467:55,1,71.9999978027344,4|0,1:0|0:0,0:0:0:0:
325,51,98060,2,0,L|313:121,1,71.9999978027344,2|0,0:0|0:0,0:0:0:0:
186,254,98308,1,10,0:0:0:0:
143,164,98432,2,0,B|195:159|195:159|240:181|240:181|217:132,1,143.999995605469,0|0,1:0|0:0,0:0:0:0:
37,85,98804,6,0,L|41:170,1,71.9999978027344,0|0,1:0|1:0,0:0:0:0:
194,16,99052,2,0,B|160:6|160:6|120:24,1,71.9999978027344,2|0,1:2|0:0,0:0:0:0:
143,148,99300,2,0,B|175:156|175:156|216:139,1,71.9999978027344,10|0,0:0|1:0,0:0:0:0:
366,51,99548,5,2,0:0:0:0:
285,1,99672,2,0,B|287:63|287:63|297:155,1,143.999995605469,0|0,1:0|1:0,0:0:0:0:
451,229,100044,2,0,B|489:223|489:223|518:194,1,71.9999978027344,2|0,0:0|1:0,0:0:0:0:
370,286,100292,2,0,B|356:321|356:321|366:361,1,71.9999978027344,10|0,0:0|1:0,0:0:0:0:
352,183,100539,2,0,B|327:153|327:153|288:142,1,71.9999978027344,2|0,0:0|0:0,0:0:0:0:
201,259,100787,5,6,1:2:0:0:
201,259,100911,2,0,L|281:246,1,71.9999978027344,0|0,1:0|1:0,0:0:0:0:
126,123,101159,1,2,1:2:0:0:
126,123,101283,2,0,L|206:136,1,71.9999978027344,8|0,0:0|0:0,0:0:0:0:
37,261,101531,2,0,L|117:248,1,71.9999978027344,2|0,1:2|0:0,0:0:0:0:
29,95,101779,6,0,L|39:166,1,71.9999978027344,4|0,1:2|1:0,0:0:0:0:
201,259,102027,2,0,L|128:272,1,71.9999978027344,2|0,0:0|0:0,0:0:0:0:
197,134,102275,1,10,0:0:0:0:
281,186,102399,2,0,B|340:182|340:182|370:209|370:209|412:175,1,143.999995605469,0|0,1:0|0:0,0:0:0:0:
434,27,102771,6,0,L|430:106,1,71.9999978027344,0|0,1:0|1:0,0:0:0:0:
492,220,103019,2,0,L|516:140,1,71.9999978027344,2|0,1:2|0:0,0:0:0:0:
369,232,103267,2,0,L|345:152,1,71.9999978027344,10|0,0:2|0:0,0:0:0:0:
492,220,103515,1,2,0:0:0:0:
469,321,103639,6,0,B|417:312|417:312|381:342|381:342|331:329,1,143.999995605469,4|8,1:2|0:0,0:0:0:0:
267,263,104011,1,2,0:0:0:0:
201,335,104135,1,2,1:2:0:0:
120,287,104259,2,0,L|131:210,1,71.9999978027344,10|0,0:0|0:0,0:0:0:0:
0,220,104506,2,0,L|11:297,1,71.9999978027344,2|0,0:0|1:0,0:0:0:0:
158,97,104754,6,0,B|126:54|68:71|68:71|68:133,1,143.999995605469,6|0,0:0|1:0,0:0:0:0:
207,186,105126,1,2,1:2:0:0:
207,186,105250,2,0,L|288:169,1,71.9999978027344,8|0,0:0|1:0,0:0:0:0:
211,303,105498,2,0,L|281:317,1,71.9999978027344,8|8,0:3|0:3,0:0:0:0:
509,245,105746,6,0,L|498:323,1,71.9999978027344,4|0,1:2|1:0,0:0:0:0:
363,189,105994,2,0,L|376:269,1,71.9999978027344,2|0,0:0|0:0,0:0:0:0:
498,145,106242,1,10,0:0:0:0:
416,91,106366,2,0,B|368:82|368:82|332:106|332:106|261:96,1,143.999995605469,0|0,1:0|0:0,0:0:0:0:
163,203,106738,6,0,L|234:213,1,71.9999978027344,0|0,1:0|1:0,0:0:0:0:
144,40,106986,2,0,B|151:77|151:77|142:119,1,71.9999978027344,2|0,1:2|1:0,0:0:0:0:
20,104,107234,2,0,B|11:66|11:66|21:24,1,71.9999978027344,10|0,0:0|1:0,0:0:0:0:
143,110,107482,5,2,0:0:0:0:
74,180,107606,2,0,B|67:235|67:235|91:270|91:270|82:325,1,143.999995605469,0|0,1:0|1:0,0:0:0:0:
208,361,107978,2,0,B|244:369|244:369|284:357,1,71.9999978027344,2|0,0:0|1:0,0:0:0:0:
272,224,108225,2,0,B|236:216|236:216|196:228,1,71.9999978027344,10|0,0:0|1:0,0:0:0:0:
207,375,108473,2,0,B|243:383|243:383|283:371,1,71.9999978027344,2|0,0:0|0:0,0:0:0:0:
472,282,108721,5,6,1:2:0:0:
472,282,108845,2,0,L|458:358,1,71.9999978027344,0|0,1:0|1:0,0:0:0:0:
321,220,109093,1,2,1:2:0:0:
321,220,109217,2,0,L|335:296,1,71.9999978027344,8|2,0:0|1:3,0:0:0:0:
471,142,109465,5,2,0:0:0:0:
471,142,109589,2,0,B|460:198|460:198|461:205|461:205|450:284,1,135.000005149841,2|0,1:3|0:0,0:0:0:0:
437,291,110209,5,0,1:0:0:0:
407,287,110705,1,0,1:0:0:0:
399,262,111201,1,0,1:0:0:0:
411,234,111697,5,2,1:2:0:0:
374,155,111944,1,2,1:2:0:0:
288,129,112192,1,2,1:2:0:0:
207,166,112440,1,2,1:2:0:0:
284,280,112688,5,8,0:0:0:0:
151,280,112812,1,8,0:0:0:0:
209,177,112936,1,8,0:0:0:0:
268,276,113060,1,2,1:3:0:0:
151,280,113680,6,0,B|101:297|101:297|59:279|59:279|5:299,1,150,4|0,1:1|0:0,0:0:0:0:
16,108,114052,2,0,P|77:121|88:214,1,150,10|0,0:0|0:0,0:0:0:0:
259,130,114424,2,0,B|216:118|186:134|186:134|178:88|146:71,1,150,2|0,1:2|0:0,0:0:0:0:
151,280,114796,2,0,B|180:264|188:218|188:218|218:234|261:222,1,150,2|0,1:2|0:0,0:0:0:0:
358,73,115168,6,0,B|368:130|368:130|353:152|353:152|363:216,1,150,10|0,0:0|0:0,0:0:0:0:
460,317,115539,2,0,B|450:260|450:260|465:238|465:238|454:173,1,150,8|0,0:0|0:0,0:0:0:0:
314,336,115911,2,0,P|238:366|186:321,1,150,0|0,1:0|0:0,0:0:0:0:
164,199,116283,1,0,1:0:0:0:
270,187,116407,2,0,P|261:227|252:273,1,75,2|0,0:0|0:0,0:0:0:0:
55,233,116655,6,0,P|42:139|32:69,1,150,10|2,0:0|0:0,0:0:0:0:
165,119,117027,1,8,0:0:0:0:
180,0,117151,2,0,P|138:7|101:15,1,75,2|0,0:0|0:0,0:0:0:0:
255,98,117399,1,10,0:0:0:0:
334,15,117523,1,8,0:0:0:0:
414,100,117647,6,0,B|399:151|399:151|420:187|420:187|411:265,1,150,6|0,1:2|0:0,0:0:0:0:
511,297,118019,2,0,P|471:228|400:259,1,150,2|0,1:2|0:0,0:0:0:0:
358,370,118391,2,0,P|398:366|439:360,1,75,2|0,1:2|0:0,0:0:0:0:
289,284,118639,1,8,0:0:0:0:
210,348,118763,2,0,P|141:373|103:315,1,150,0|0,1:0|0:0,0:0:0:0:
212,228,119135,6,0,P|205:131|209:66,1,150,6|0,1:2|0:0,0:0:0:0:
324,56,119506,2,0,P|260:107|202:66,1,150,2|0,1:2|0:0,0:0:0:0:
72,16,119878,2,0,L|151:1,1,75,10|0,0:0|0:0,0:0:0:0:
100,168,120126,1,8,0:0:0:0:
12,148,120250,2,0,P|4:102|-1:68,1,75,0|0,1:0|0:0,0:0:0:0:
101,185,120498,1,0,1:0:0:0:
33,263,120622,2,0,P|37:299|46:344,1,75,8|0,0:0|0:0,0:0:0:0:
219,286,120870,6,0,P|181:296|128:308,1,75,0|0,1:0|0:0,0:0:0:0:
317,362,121118,1,8,0:0:0:0:
317,362,121242,1,8,0:3:0:0:
388,315,121366,2,0,P|377:279|369:236,1,75,8|0,0:3|0:0,0:0:0:0:
186,146,121614,6,0,P|205:196|305:185,1,162.000000617981,4|0,1:1|0:0,0:0:0:0:
429,49,121986,1,2,1:2:0:0:
484,157,122110,2,0,P|442:152|399:150,1,81.0000003089905,8|0,0:0|0:0,0:0:0:0:
277,21,122358,2,0,B|342:22|342:22|365:46|365:46|457:49,1,162.000000617981,2|0,1:2|0:0,0:0:0:0:
306,159,122730,2,0,B|241:158|241:158|218:134|218:134|126:131,1,162.000000617981,2|0,1:2|0:0,0:0:0:0:
126,329,123101,6,0,P|186:307|161:218,1,162.000000617981,14|0,0:0|0:0,0:0:0:0:
0,224,123473,2,0,P|16:316|25:389,1,162.000000617981,0|0,1:0|0:0,0:0:0:0:
72,170,123845,2,0,P|63:124|57:87,1,81.0000003089905,0|0,1:0|0:0,0:0:0:0:
160,0,124093,1,8,0:0:0:0:
209,93,124217,2,0,B|161:83|161:83|113:108|113:108|34:83,1,162.000000617981,0|0,1:0|0:0,0:0:0:0:
363,23,124589,6,0,P|353:57|343:112,1,81.0000003089905,6|0,1:2|0:0,0:0:0:0:
227,171,124837,2,0,P|219:131|208:92,1,81.0000003089905,2|0,1:2|1:0,0:0:0:0:
400,190,125085,2,0,P|390:224|380:279,1,81.0000003089905,10|0,0:0|1:0,0:0:0:0:
219,328,125333,2,0,P|211:288|200:249,1,81.0000003089905,2|0,0:0|0:0,0:0:0:0:
351,354,125581,6,0,P|435:356|468:286,1,162.000000617981,6|0,1:2|0:0,0:0:0:0:
398,157,125953,1,2,1:2:0:0:
496,95,126077,2,0,P|504:137|517:190,1,81.0000003089905,8|0,0:0|0:0,0:0:0:0:
261,109,126325,2,0,B|318:101|318:101|341:65|341:65|401:53,1,162.000000617981,6|0,1:2|0:0,0:0:0:0:
318,213,126697,2,0,P|282:217|232:220,1,81.0000003089905,0|0,1:0|0:0,0:0:0:0:
119,253,126944,5,0,1:0:0:0:
119,253,127006,1,0,1:0:0:0:
119,253,127068,2,0,P|149:181|85:129,1,162.000000617981,14|0,1:2|0:0,0:0:0:0:
0,349,127440,2,0,B|48:335|48:335|91:369|91:369|158:353,1,162.000000617981,10|0,0:0|0:0,0:0:0:0:
297,255,127812,2,0,L|210:270,1,81.0000003089905,2|0,1:2|0:0,0:0:0:0:
386,382,128060,2,0,L|400:282,1,81.0000003089905,8|0,0:0|0:0,0:0:0:0:
294,153,128308,2,0,L|306:236,1,81.0000003089905,0|0,1:0|0:0,0:0:0:0:
498,266,128556,5,8,0:0:0:0:
512,237,128639,1,8,0:0:0:0:
512,206,128721,1,8,0:0:0:0:
500,184,128804,1,8,1:2:0:0:
487,169,128887,1,8,1:3:0:0:
471,160,128969,1,8,1:3:0:0:
458,155,129052,2,0,L|458:96,2,51.999997619629,8|8|8,0:0|0:3|0:3,0:0:0:0:
397,301,129548,5,4,1:0:0:0:
0,362,133391,5,2,0:3:0:0:
0,362,133453,1,2,0:3:0:0:
0,362,133515,2,0,P|48:335|124:360,1,116.999994644165,2|0,0:3|0:0,0:0:0:0:
185,283,134011,6,0,L|173:216,2,51.999997619629,2|2|2,0:0|0:0|0:0,0:0:0:0:
279,334,134506,1,2,0:0:0:0:
342,272,134672,1,2,0:0:0:0:
293,196,134837,1,2,0:0:0:0:
191,230,135002,2,0,L|202:304,2,51.999997619629,2|0|0,0:0|0:0|0:0,0:0:0:0:
235,66,135498,5,10,0:3:0:0:
326,105,135663,1,10,0:3:0:0:
307,198,135829,1,10,0:3:0:0:
228,43,135994,5,10,0:3:0:0:
359,90,136159,1,10,0:3:0:0:
307,218,136325,1,10,0:3:0:0:
219,15,136490,5,10,0:3:0:0:
386,76,136655,1,10,0:3:0:0:
308,239,136820,1,10,1:3:0:0:
143,171,136986,5,10,0:0:0:0:
143,171,137151,2,0,L|50:190,1,77.9999964294435,2|0,0:0|0:0,0:0:0:0:
11,245,137482,6,0,B|24:294|24:294|11:339|11:339|39:353|39:353|77:346,1,167.999994873047,4|0,1:1|0:0,0:0:0:0:
256,217,137978,1,0,1:0:0:0:
181,365,138143,1,0,1:0:0:0:
146,241,138308,1,0,1:0:0:0:
302,338,138473,6,0,L|405:321,1,83.9999974365235,8|0,0:0|1:0,0:0:0:0:
488,199,138804,1,0,1:0:0:0:
488,199,138887,1,0,1:0:0:0:
488,199,138969,2,0,L|504:288,1,83.9999974365235,0|0,1:0|1:0,0:0:0:0:
329,236,139300,1,0,1:0:0:0:
394,98,139465,6,0,P|435:90|476:82,1,83.9999974365235,6|0,1:2|0:0,0:0:0:0:
251,101,139796,2,0,P|209:93|168:85,1,83.9999974365235,2|0,1:2|0:0,0:0:0:0:
86,252,140126,1,2,1:3:0:0:
202,202,140292,1,2,1:3:0:0:
49,86,140457,2,0,L|56:182,1,83.9999974365235,8|0,0:0|1:0,0:0:0:0:
66,346,140787,1,2,1:3:0:0:
209,231,140953,2,0,B|266:220|266:220|294:238|294:238|375:226,1,167.999994873047,6|0,1:2|0:0,0:0:0:0:
457,373,141449,6,0,B|417:336|438:295|438:295|476:272|469:220,1,167.999994873047,6|0,1:2|0:0,0:0:0:0:
402,24,141944,1,0,1:0:0:0:
344,160,142110,1,0,1:0:0:0:
495,115,142275,1,0,1:0:0:0:
301,69,142440,6,0,P|254:73|205:79,1,83.9999974365235,8|0,0:2|1:0,0:0:0:0:
141,235,142771,1,0,1:0:0:0:
141,235,142854,1,0,1:0:0:0:
141,235,142936,2,0,L|127:145,1,83.9999974365235,0|0,1:0|1:0,0:0:0:0:
3,190,143267,1,0,1:0:0:0:
110,335,143432,6,0,L|201:319,1,83.9999974365235,6|0,1:2|0:0,0:0:0:0:
390,325,143763,2,0,L|299:309,1,83.9999974365235,2|0,1:2|0:0,0:0:0:0:
306,109,144093,1,2,1:3:0:0:
394,223,144259,1,2,1:3:0:0:
216,184,144424,1,8,0:2:0:0:
399,115,144589,1,0,1:0:0:0:
295,278,144754,1,2,1:3:0:0:
186,95,144920,2,0,B|133:105|133:105|73:89|73:89|104:141,1,167.999994873047,6|2,1:2|0:0,0:0:0:0:
0,282,145416,6,0,B|13:231|3:160|3:160|38:201,1,167.999994873047,6|2,1:2|0:0,0:0:0:0:
136,357,145911,2,0,P|97:359|50:364,1,83.9999974365235,2|0,0:0|0:0,0:0:0:0:
158,237,146242,1,2,0:0:0:0:
247,364,146407,2,0,P|249:320|256:270,1,83.9999974365235,10|0,0:0|0:0,0:0:0:0:
406,207,146738,1,2,1:2:0:0:
406,207,146820,1,0,1:0:0:0:
406,207,146903,2,0,P|359:204|301:199,1,83.9999974365235,2|0,1:2|1:0,0:0:0:0:
395,331,147234,1,0,1:0:0:0:
512,230,147399,6,0,L|499:137,1,83.9999974365235,6|0,1:2|1:0,0:0:0:0:
477,28,147730,1,0,1:0:0:0:
361,124,147895,2,0,P|319:114|256:108,1,83.9999974365235,2|0,0:0|1:0,0:0:0:0:
226,9,148225,1,2,1:2:0:0:
139,153,148391,2,0,P|128:92|117:55,1,83.9999974365235,10|0,0:0|1:0,0:0:0:0:
234,190,148721,1,2,1:2:0:0:
55,253,148887,2,0,P|11:236|71:153,1,167.999994873047,2|0,1:2|0:0,0:0:0:0:
177,322,149382,6,0,B|278:303|225:373|342:358,1,167.999994873047,4|0,1:2|0:0,0:0:0:0:
333,169,149878,2,0,L|320:256,1,83.9999974365235,6|0,1:2|1:0,0:0:0:0:
420,317,150209,1,0,1:2:0:0:
486,130,150374,2,0,L|499:217,1,83.9999974365235,10|0,0:0|1:0,0:0:0:0:
335,65,150705,1,2,1:2:0:0:
335,65,150787,1,0,1:0:0:0:
335,65,150870,2,0,L|322:152,1,83.9999974365235,2|0,1:2|1:0,0:0:0:0:
445,34,151201,1,0,1:0:0:0:
236,69,151366,6,0,B|181:55|181:55|151:70|151:70|86:53,1,138.000002632141,6|0,1:2|0:0,0:0:0:0:
102,147,151697,2,0,B|157:161|157:161|187:146|187:146|252:163,1,138.000002632141,6|0,1:2|0:0,0:0:0:0:
204,236,152027,2,0,P|153:289|189:327,1,138.000002632141,6|0,1:2|0:0,0:0:0:0:
273,332,152358,6,0,L|262:387,1,54.0000002059937,10|0,0:0|0:0,0:0:0:0:
380,159,152688,2,0,L|396:212,1,50,10|0,0:0|0:0,0:0:0:0:
242,35,153019,6,0,B|240:65|240:65|230:87|230:87|232:111|232:111|220:130|220:130|220:156|220:156|210:177|210:177|211:207|211:207|201:243,1,209.999993591309,10|0,0:0|0:0,0:0:0:0:
275,303,154341,6,0,P|330:276|381:295,1,113.999996955872,4|0,1:0|0:0,0:0:0:0:
470,292,154712,1,0,1:0:0:0:
470,292,154836,2,0,L|465:213,1,56.9999984779358,8|0,0:0|0:0,0:0:0:0:
419,155,155084,2,0,L|431:36,1,113.999996955872,0|0,1:0|0:0,0:0:0:0:
431,42,155580,1,0,1:0:0:0:
273,91,155828,2,0,L|155:77,1,113.999996955872,8|0,0:0|0:0,0:0:0:0:
86,125,156200,1,0,1:0:0:0:
86,125,156324,6,0,L|76:183,1,56.9999984779358,2|0,0:0|0:0,0:0:0:0:
0,216,156572,2,0,L|10:274,1,56.9999984779358,2|0,1:2|0:0,0:0:0:0:
67,344,156820,2,0,P|124:359|167:310,1,113.999996955872,10|0,0:0|0:0,0:0:0:0:
210,261,157192,1,2,1:2:0:0:
210,261,157316,1,2,0:0:0:0:
349,373,157564,1,2,1:2:0:0:
349,373,157812,2,0,L|337:307,1,56.9999984779358,10|0,0:0|1:0,0:0:0:0:
389,251,158060,2,0,L|395:179,1,56.9999984779358,2|0,0:0|1:0,0:0:0:0:
297,205,158307,6,0,P|236:219|192:181,1,113.999996955872,4|0,1:0|0:0,0:0:0:0:
148,127,158679,1,0,1:0:0:0:
148,127,158803,2,0,L|162:55,1,56.9999984779358,8|0,0:0|0:0,0:0:0:0:
227,20,159051,2,0,P|291:28|351:32,1,113.999996955872,0|0,1:0|0:0,0:0:0:0:
340,31,159547,1,0,1:0:0:0:
415,199,159795,2,0,P|418:136|425:75,1,113.999996955872,8|0,0:0|0:0,0:0:0:0:
502,135,160167,1,8,0:0:0:0:
502,135,160291,6,0,L|491:260,1,113.999996955872,2|0,0:0|1:0,0:0:0:0:
302,328,160787,2,0,B|348:338|348:338|374:325|374:325|410:333,1,113.999996955872,10|2,0:0|0:0,0:0:0:0:
493,348,161159,1,0,1:0:0:0:
493,348,161283,1,2,0:0:0:0:
318,235,161531,1,0,1:0:0:0:
284,231,161613,1,0,1:0:0:0:
254,243,161696,1,0,1:0:0:0:
232,261,161779,2,0,B|195:281|152:256|152:256|100:256|96:293|96:293|124:311,1,170.999995433807,10|0,1:2|0:0,0:0:0:0:
198,183,162274,6,0,P|190:128|186:54,1,113.999996955872,4|0,1:0|0:0,0:0:0:0:
254,13,162646,1,0,1:0:0:0:
254,13,162770,2,0,L|321:5,1,56.9999984779358,8|0,0:0|0:0,0:0:0:0:
380,58,163018,2,0,L|518:62,1,113.999996955872,0|0,1:0|0:0,0:0:0:0:
493,61,163514,1,2,1:2:0:0:
434,189,163762,2,0,L|432:245,1,56.9999984779358,10|0,0:0|0:0,0:0:0:0:
368,300,164010,5,2,0:0:0:0:
368,300,164134,2,0,B|324:285|324:285|296:296|296:296|240:284,1,113.999996955872,0|0,1:0|0:0,0:0:0:0:
166,263,164506,1,2,1:2:0:0:
28,365,164754,2,0,L|21:305,1,56.9999984779358,10|0,0:0|0:0,0:0:0:0:
59,236,165002,5,2,0:0:0:0:
59,236,165126,2,0,B|56:183|56:183|79:161|79:161|75:104,1,113.999996955872,0|0,1:0|0:0,0:0:0:0:
65,52,165498,1,2,1:2:0:0:
197,134,165746,2,0,L|268:122,1,56.9999984779358,10|0,0:0|0:0,0:0:0:0:
344,101,165993,1,2,1:2:0:0:
344,101,166117,1,0,1:0:0:0:
333,194,166241,6,0,L|350:308,1,113.999996955872,4|0,1:0|0:0,0:0:0:0:
429,356,166613,1,0,1:0:0:0:
429,356,166737,2,0,L|496:347,1,56.9999984779358,8|0,0:0|0:0,0:0:0:0:
512,266,166985,2,0,P|493:212|505:155,1,113.999996955872,0|0,1:0|0:0,0:0:0:0:
504,157,167481,1,2,1:2:0:0:
370,21,167729,2,0,L|383:137,1,113.999996955872,10|2,0:0|0:0,0:0:0:0:
310,195,168101,1,10,0:0:0:0:
310,195,168225,6,0,B|265:182|265:182|236:193|236:193|201:185,1,113.999996955872,2|0,0:0|1:0,0:0:0:0:
25,317,168721,2,0,B|70:330|70:330|99:319|99:319|133:326,1,113.999996955872,10|0,0:0|1:0,0:0:0:0:
37,84,169217,1,4,1:2:0:0:
37,84,169341,2,0,P|31:121|25:165,1,69.0000013160706,8|0,0:0|1:0,0:0:0:0:
155,220,169588,1,8,1:2:0:0:
235,104,169712,2,0,P|196:105|151:102,1,69.0000013160706,10|8,1:2|1:2,0:0:0:0:
269,230,169960,1,8,1:2:0:0:
339,125,170084,1,8,1:2:0:0:
256,192,170208,12,8,172688,0:0:0:0:
61,349,173183,6,0,L|9:338,2,38.9999982147218,4|8|8,0:0|0:3|0:3,0:0:0:0:
81,339,173679,6,0,P|74:281|77:228,1,99.0000030212403,4|0,1:3|0:0,0:0:0:0:
91,140,174175,6,0,B|150:97|211:116|191:176|316:218|371:185|380:94|362:28|317:7|228:13|212:81|253:98,1,435.000013275147,4|0,1:0|0:0,0:0:0:0:
346,230,174919,6,0,B|422:207|429:104|429:104|447:201|521:231|521:231|462:239,1,375,4|0,1:0|0:0,0:0:0:0:
367,322,175663,6,0,B|296:339|259:273|259:273|215:323|215:323|162:280|105:322,1,314.999990386963,4|0,1:0|0:0,0:0:0:0:
54,227,176407,5,8,0:0:0:0:
0,315,176531,1,8,0:0:0:0:
105,321,176655,1,8,0:0:0:0:
59,208,176779,2,0,P|60:131|56:65,1,125.999996154785,2|0,1:3|1:0,0:0:0:0:
216,15,177150,6,0,L|140:13,1,69.0000013160706,10|0,0:0|1:0,0:0:0:0:
243,100,177398,1,4,1:3:0:0:
317,40,177522,1,8,0:3:0:0:
350,132,177647,2,0,L|345:213,1,69.0000013160706,10|8,1:2|0:3,0:0:0:0:
431,251,177894,1,8,0:3:0:0:
500,190,178018,1,8,0:3:0:0:
509,327,178142,6,0,B|470:323|470:323|433:342|433:342|395:324|395:324|356:333,1,162.000000617981,6|0,1:2|0:0,0:0:0:0:
217,384,178514,2,0,B|206:322|206:322|228:283|228:283|217:223,1,162.000000617981,4|0,1:2|0:0,0:0:0:0:
49,211,178886,2,0,B|85:225|85:225|125:211,1,81.0000003089905,4|0,1:2|0:0,0:0:0:0:
155,63,179134,1,8,0:0:0:0:
84,16,179258,2,0,B|64:59|64:59|86:132|86:132|51:112,1,162.000000617981,4|0,1:2|0:0,0:0:0:0:
280,43,179630,6,0,B|336:34|336:34|362:45|381:73|381:73|428:70,1,162.000000617981,4|0,1:2|0:0,0:0:0:0:
431,263,180002,2,0,B|398:222|398:222|401:167|441:151|475:162,1,162.000000617981,4|0,1:2|0:0,0:0:0:0:
378,345,180374,2,0,L|291:337,1,81.0000003089905,8|0,0:0|0:0,0:0:0:0:
126,259,180621,1,8,0:0:0:0:
224,213,180745,2,0,P|220:252|217:302,1,81.0000003089905,0|0,1:0|0:0,0:0:0:0:
135,167,180993,1,0,1:0:0:0:
222,116,181117,2,0,L|228:19,1,81.0000003089905,8|0,0:0|0:0,0:0:0:0:
45,91,181365,2,0,L|40:182,1,81.0000003089905,0|0,1:0|0:0,0:0:0:0:
42,297,181613,5,8,0:0:0:0:
51,327,181696,1,8,0:0:0:0:
74,350,181779,1,8,0:0:0:0:
106,364,181861,2,0,L|203:360,1,75.9999979705811,8|8,0:3|0:3,0:0:0:0:
252,292,182109,6,0,P|224:225|263:164,1,150,4|0,1:1|0:0,0:0:0:0:
465,191,182481,2,0,B|406:196|406:196|386:232|386:232|325:236,1,150,10|0,0:0|0:0,0:0:0:0:
306,56,182853,2,0,B|399:47|399:47|408:74|394:110,1,150,2|0,1:2|0:0,0:0:0:0:
262,164,183225,2,0,B|167:171|167:171|158:144|172:108,1,150,2|0,1:2|0:0,0:0:0:0:
336,235,183597,6,0,P|378:291|347:355,1,150,14|0,0:0|0:0,0:0:0:0:
183,252,183969,2,0,P|154:327|210:377,1,150,8|0,0:0|0:0,0:0:0:0:
257,203,184340,2,0,P|249:113|243:38,1,150,0|0,1:0|0:0,0:0:0:0:
394,107,184712,1,0,1:0:0:0:
429,5,184836,2,0,P|383:9|338:15,1,75,2|0,0:0|0:0,0:0:0:0:
399,195,185084,6,0,P|467:169|477:93,1,150,10|2,0:0|0:0,0:0:0:0:
307,76,185456,1,8,0:0:0:0:
259,163,185580,2,0,L|184:161,1,75,2|0,0:0|0:0,0:0:0:0:
33,130,185828,1,8,0:0:0:0:
121,77,185952,1,8,0:0:0:0:
76,211,186076,6,0,P|86:286|85:379,1,150,6|0,1:2|0:0,0:0:0:0:
277,270,186448,2,0,P|201:261|186:326,1,150,2|0,1:2|0:0,0:0:0:0:
350,384,186820,2,0,P|354:343|359:303,1,75,2|0,1:2|0:0,0:0:0:0:
459,158,187068,1,8,0:0:0:0:
493,259,187192,2,0,P|454:252|402:249,1,75,0|0,1:0|0:0,0:0:0:0:
277,218,187440,5,0,1:0:0:0:
277,218,187502,1,0,1:0:0:0:
277,218,187564,2,0,P|319:162|282:86,1,150,10|0,0:0|1:0,0:0:0:0:
160,0,187936,2,0,P|168:60|175:162,1,150,8|8,1:3|1:3,0:0:0:0:
0,257,188307,2,0,P|36:180|94:195,1,150,10|8,0:0|1:3,0:0:0:0:
110,380,188679,2,0,P|69:371|31:368,1,75,10|0,0:0|0:0,0:0:0:0:
161,277,188927,1,0,1:0:0:0:
271,381,189051,6,0,P|310:373|352:369,1,75,10|8,0:0|0:0,0:0:0:0:
471,178,189299,2,0,L|390:190,1,75,8|8,0:0|0:0,0:0:0:0:
276,244,189547,1,10,0:0:0:0:
423,281,189671,1,10,0:0:0:0:
353,119,189795,1,10,0:0:0:0:
300,241,189919,1,10,0:0:0:0:
471,178,190043,6,0,B|459:114|459:114|488:85|488:85|475:11,1,162.000000617981,4|0,1:0|0:0,0:0:0:0:
347,100,190415,1,2,1:2:0:0:
287,17,190539,2,0,P|340:5|377:-3,1,81.0000003089905,8|0,0:0|0:0,0:0:0:0:
254,136,190787,2,0,P|173:117|95:104,1,162.000000617981,2|0,1:2|0:0,0:0:0:0:
1,239,191159,2,0,P|73:261|96:191,1,162.000000617981,2|0,1:2|0:0,0:0:0:0:
0,0,191531,6,0,B|19:53|19:53|0:93|0:93|27:173,1,162.000000617981,14|0,0:0|0:0,0:0:0:0:
191,206,191902,2,0,B|250:221|250:221|302:196|302:196|292:241,1,162.000000617981,2|0,1:2|0:0,0:0:0:0:
122,384,192274,2,0,L|31:368,1,81.0000003089905,0|0,1:0|0:0,0:0:0:0:
169,285,192522,1,8,0:0:0:0:
250,349,192646,2,0,P|352:352|368:294,1,162.000000617981,0|0,1:0|0:0,0:0:0:0:
470,153,193019,6,0,P|429:163|390:172,1,81.0000003089905,6|0,1:2|0:0,0:0:0:0:
301,0,193266,2,0,P|340:9|379:18,1,81.0000003089905,2|0,1:2|1:0,0:0:0:0:
272,198,193514,2,0,P|231:208|192:217,1,81.0000003089905,10|0,0:0|1:0,0:0:0:0:
117,32,193762,2,0,P|156:41|195:50,1,81.0000003089905,2|0,0:0|0:0,0:0:0:0:
32,202,194010,6,0,P|15:112|-5:12,1,162.000000617981,6|0,1:2|0:0,0:0:0:0:
164,131,194382,1,2,1:2:0:0:
114,225,194506,2,0,P|122:264|131:308,1,81.0000003089905,8|0,0:0|0:0,0:0:0:0:
308,292,194754,2,0,P|296:212|218:200,1,162.000000617981,6|0,1:2|0:0,0:0:0:0:
173,381,195126,2,0,P|215:370|255:359,1,81.0000003089905,0|2,1:0|0:0,0:0:0:0:
415,353,195374,5,0,1:0:0:0:
415,353,195436,1,0,1:0:0:0:
415,353,195498,2,0,B|394:285|394:285|414:251|414:251|395:177,1,162.000000617981,14|0,0:2|0:0,0:0:0:0:
446,30,195869,2,0,P|508:78|483:150,1,162.000000617981,10|0,0:0|0:0,0:0:0:0:
311,120,196241,2,0,P|357:112|398:106,1,81.0000003089905,2|0,1:2|0:0,0:0:0:0:
286,239,196489,1,8,0:0:0:0:
210,183,196613,2,0,P|151:164|130:251,1,162.000000617981,0|0,1:0|0:0,0:0:0:0:
87,362,196985,6,0,P|147:312|112:235,1,162.000000617981,0|0,1:0|1:0,0:0:0:0:
0,151,197357,1,0,1:0:0:0:
105,88,197481,2,0,L|85:169,1,81.0000003089905,8|0,1:2|1:0,0:0:0:0:
8,257,197729,1,8,0:3:0:0:
60,352,197853,1,8,0:3:0:0:
184,327,197977,6,0,B|246:311|246:311|283:335|283:335|334:319,1,162.000000617981,4|0,1:0|0:0,0:0:0:0:
446,190,198349,1,2,1:2:0:0:
505,304,198473,2,0,P|464:302|417:299,1,81.0000003089905,8|0,0:0|0:0,0:0:0:0:
286,158,198721,2,0,B|319:128|319:128|383:152|344:232,1,162.000000617981,2|0,1:2|0:0,0:0:0:0:
214,290,199093,2,0,B|221:242|221:242|194:212|185:181|185:181|192:117,1,162.000000617981,2|0,1:2|0:0,0:0:0:0:
0,52,199464,6,0,P|32:129|107:111,1,162.000000617981,14|0,0:0|0:0,0:0:0:0:
242,32,199836,2,0,B|180:31|180:31|160:3|160:3|85:-1,1,162.000000617981,0|0,1:0|0:0,0:0:0:0:
189,139,200208,2,0,L|275:140,1,81.0000003089905,0|0,1:0|0:0,0:0:0:0:
440,68,200456,1,8,0:0:0:0:
346,15,200580,2,0,L|370:177,1,162.000000617981,0|0,1:0|0:0,0:0:0:0:
228,350,200952,6,0,L|215:268,1,81.0000003089905,6|0,1:2|0:0,0:0:0:0:
364,194,201200,2,0,L|351:276,1,81.0000003089905,2|0,1:2|1:0,0:0:0:0:
123,214,201448,2,0,L|110:132,1,81.0000003089905,10|0,0:0|1:0,0:0:0:0:
286,71,201696,2,0,L|273:153,1,81.0000003089905,2|0,0:0|0:0,0:0:0:0:
91,308,201944,6,0,P|145:248|224:282,1,162.000000617981,6|0,1:2|0:0,0:0:0:0:
348,378,202316,1,2,1:2:0:0:
407,273,202440,2,0,L|314:277,1,81.0000003089905,8|0,0:0|0:0,0:0:0:0:
133,256,202688,2,0,P|196:191|275:225,1,162.000000617981,6|0,1:2|0:0,0:0:0:0:
327,293,203060,2,0,L|408:291,1,81.0000003089905,0|0,1:0|0:0,0:0:0:0:
512,246,203307,1,0,1:0:0:0:
512,121,203431,6,0,B|429:101|429:101|391:117|400:173,1,162.000000617981,14|0,0:0|0:0,0:0:0:0:
222,76,203803,2,0,B|271:92|330:73|330:73|312:98|308:133,1,162.000000617981,10|0,0:0|0:0,0:0:0:0:
185,235,204175,2,0,P|182:193|166:157,1,81.0000003089905,2|0,1:2|0:0,0:0:0:0:
71,61,204423,5,8,0:0:0:0:
36,68,204506,1,8,0:0:0:0:
12,91,204588,1,8,0:0:0:0:
1,121,204671,1,8,1:3:0:0:
2,142,204754,1,8,1:3:0:0:
8,162,204836,1,8,1:3:0:0:
21,174,204919,6,0,P|76:197|65:276,1,143.999995605469,8|0,0:0|0:0,0:0:0:0:
146,352,205580,2,0,L|202:346,1,47.9999985351563,2|0,0:0|0:0,0:0:0:0:
374,366,205911,5,4,1:0:0:0:
302,298,206035,2,0,B|293:240|293:240|312:208|312:208|303:152,1,143.999995605469,0|0,1:0|0:0,0:0:0:0:
427,129,206407,1,10,0:0:0:0:
427,129,206531,2,0,B|381:144|381:144|354:177|354:177|300:159,1,143.999995605469,0|0,1:0|0:0,0:0:0:0:
114,71,206903,6,0,L|100:-2,1,71.9999978027344,0|0,1:0|1:0,0:0:0:0:
236,56,207150,2,0,L|227:134,1,71.9999978027344,0|0,1:0|1:0,0:0:0:0:
148,240,207398,1,8,0:0:0:0:
148,240,207522,2,0,L|134:161,1,71.9999978027344,0|0,1:0|0:0,0:0:0:0:
12,187,207770,6,0,L|0:257,1,71.9999978027344,4|0,1:2|0:0,0:0:0:0:
98,377,208018,2,0,P|151:346|240:376,1,143.999995605469,0|0,1:0|1:0,0:0:0:0:
288,262,208390,1,8,0:0:0:0:
288,262,208514,2,0,P|226:301|234:373,1,143.999995605469,0|0,1:0|0:0,0:0:0:0:
395,277,208886,5,0,1:0:0:0:
395,277,209010,1,0,1:0:0:0:
355,181,209134,2,0,L|366:110,1,71.9999978027344,0|0,1:0|1:0,0:0:0:0:
488,266,209382,2,0,L|416:275,1,71.9999978027344,8|0,0:0|0:0,0:0:0:0:
266,375,209630,2,0,L|337:384,1,71.9999978027344,0|0,1:0|0:0,0:0:0:0:
264,202,209878,5,6,1:2:0:0:
264,202,210002,2,0,B|211:188|211:188|172:205|172:205|117:189,1,143.999995605469,0|0,1:0|0:0,0:0:0:0:
106,59,210374,1,10,0:0:0:0:
106,59,210498,2,0,B|98:91|98:91|135:160|135:160|127:191,1,143.999995605469,0|0,1:0|0:0,0:0:0:0:
15,376,210870,6,0,L|0:306,1,71.9999978027344,0|0,1:0|1:0,0:0:0:0:
158,301,211117,2,0,L|143:371,1,71.9999978027344,0|0,1:0|1:0,0:0:0:0:
56,236,211365,1,8,0:0:0:0:
56,236,211489,2,0,L|41:166,1,71.9999978027344,0|0,1:0|0:0,0:0:0:0:
188,105,211737,6,0,L|173:175,1,71.9999978027344,4|0,1:2|0:0,0:0:0:0:
277,277,211985,2,0,P|328:222|388:249,1,143.999995605469,10|0,0:0|1:0,0:0:0:0:
492,278,212357,2,0,P|427:297|384:244,1,143.999995605469,10|0,0:0|0:0,0:0:0:0:
402,101,212729,6,0,P|391:178|383:257,1,143.999995605469,0|8,1:0|0:0,0:0:0:0:
352,362,213101,1,0,1:0:0:0:
352,362,213225,1,0,1:0:0:0:
265,294,213349,2,0,L|175:309,1,71.9999978027344,8|0,0:0|1:0,0:0:0:0:
35,341,213597,2,0,L|106:352,1,71.9999978027344,8|8,0:3|0:3,0:0:0:0:
11,141,213845,5,6,1:2:0:0:
11,141,213969,2,0,B|22:184|22:184|12:250|12:250|45:241,1,143.999995605469,0|0,1:0|0:0,0:0:0:0:
180,233,214340,1,10,0:0:0:0:
180,233,214464,2,0,B|117:249|117:249|94:233|94:233|27:245,1,143.999995605469,0|0,1:0|0:0,0:0:0:0:
141,77,214836,6,0,L|156:152,1,71.9999978027344,0|0,1:0|1:0,0:0:0:0:
299,238,215084,2,0,L|314:163,1,71.9999978027344,0|0,1:0|1:0,0:0:0:0:
241,15,215332,1,8,0:0:0:0:
241,15,215456,2,0,L|256:90,1,71.9999978027344,0|0,1:0|0:0,0:0:0:0:
393,11,215704,6,0,L|378:96,1,71.9999978027344,4|0,1:2|0:0,0:0:0:0:
512,225,215952,2,0,P|475:149|425:166,1,143.999995605469,0|0,1:0|1:0,0:0:0:0:
330,209,216324,1,8,0:0:0:0:
330,209,216448,2,0,P|411:209|430:149,1,143.999995605469,0|0,1:0|0:0,0:0:0:0:
269,118,216820,5,0,1:0:0:0:
269,118,216944,1,0,1:0:0:0:
204,185,217068,2,0,L|127:182,1,71.9999978027344,0|0,1:0|1:0,0:0:0:0:
270,88,217316,2,0,L|262:16,1,71.9999978027344,8|0,0:0|0:0,0:0:0:0:
430,69,217564,2,0,L|422:141,1,71.9999978027344,0|0,1:0|0:0,0:0:0:0:
279,258,217812,5,6,1:2:0:0:
279,258,217936,2,0,B|352:233|352:233|394:244|385:289,1,143.999995605469,0|0,1:0|0:0,0:0:0:0:
233,359,218307,1,10,0:0:0:0:
233,359,218431,2,0,B|174:343|174:343|139:360|139:360|95:352,1,143.999995605469,0|0,1:0|0:0,0:0:0:0:
18,198,218803,6,0,L|0:267,1,71.9999978027344,0|0,1:0|1:0,0:0:0:0:
179,244,219051,2,0,L|161:174,1,71.9999978027344,0|0,1:0|1:0,0:0:0:0:
22,107,219299,1,8,0:0:0:0:
22,107,219423,2,0,L|4:176,1,71.9999978027344,0|0,1:0|0:0,0:0:0:0:
181,138,219671,6,0,L|168:67,1,71.9999978027344,4|0,1:2|0:0,0:0:0:0:
280,202,219919,2,0,P|338:223|398:166,1,143.999995605469,10|0,0:0|1:0,0:0:0:0:
512,159,220291,2,0,P|448:132|395:175,1,143.999995605469,10|0,0:0|0:0,0:0:0:0:
393,319,220663,6,0,P|392:245|397:163,1,143.999995605469,0|8,1:0|0:0,0:0:0:0:
266,98,221035,2,0,P|270:133|274:177,1,71.9999978027344,2|0,1:3|0:0,0:0:0:0:
219,297,221283,1,8,0:0:0:0:
153,207,221407,1,8,0:0:0:0:
267,202,221531,1,8,0:0:0:0:
211,319,221655,1,8,0:0:0:0:
