osu file format v14

[General]
AudioFilename: audio.mp3
AudioLeadIn: 0
PreviewTime: 173927
Countdown: 0
SampleSet: Soft
StackLeniency: 0.4
Mode: 0
LetterboxInBreaks: 0
WidescreenStoryboard: 1

[Editor]
Bookmarks: 10552,26419,42287,54064,58155,74023,81956,109353,113692,129560,154353,170220,174188,178155
DistanceSpacing: 1.5
BeatDivisor: 4
GridSize: 16
TimelineZoom: 2.3

[Metadata]
Title:MAYDAY (feat. Ryo from Crystal Lake)
TitleUnicode:MAYDAY (feat. Ryo from Crystal Lake)
Artist:coldrain
ArtistUnicode:coldrain
Creator:AirinCat
Version:Hard
Source:炎炎ノ消防隊
Tags:english rock anime enn Enen no Shouboutai shobotai shoubotai shoboutai brigade of flames fire force opening 2 two op second full version ver kinoshita the side effects david production fireforce
BeatmapID:2161295
BeatmapSetID:1030814

[Difficulty]
HPDrainRate:4
CircleSize:3.6
OverallDifficulty:6
ApproachRate:8
SliderMultiplier:2
SliderTickRate:1

[Events]
//Background and Video events
0,0,"blobpog.jpg",0,0
//Break Periods
2,129913,133261
//Storyboard Layer 0 (Background)
//Storyboard Layer 1 (Fail)
//Storyboard Layer 2 (Pass)
//Storyboard Layer 3 (Foreground)
//Storyboard Layer 4 (Overlay)
//Storyboard Sound Samples

[TimingPoints]
10540,495.867768595041,4,2,1,60,1,0
10540,-90.9090909090909,4,2,1,60,0,0
26407,-111.111111111111,4,2,1,46,0,0
34341,-105.263157894737,4,2,1,56,0,0
40044,-105.263157894737,4,2,1,62,0,0
41035,-100,4,2,1,66,0,0
42275,-90.9090909090909,4,2,1,70,0,0
54052,-133.333333333333,4,2,1,50,0,0
54672,-153.846153846153,4,2,1,25,0,0
57151,-153.846153846153,4,2,1,60,0,0
58143,-86.9565217391304,4,2,1,74,0,1
66077,-83.3333333333333,4,2,1,78,0,1
73019,-153.846153846154,4,2,1,50,0,0
74011,-90.9090909090909,4,2,1,70,0,0
81944,-111.111111111111,4,2,1,44,0,0
89878,-90.9090909090909,4,2,1,60,0,0
96573,-90.9090909090909,4,2,1,70,0,0
96944,-90.9090909090909,4,2,1,70,0,0
109589,-133.333333333333,4,2,1,70,0,0
109961,-133.333333333333,4,2,1,50,0,0
113680,-86.9565217391304,4,2,1,74,0,1
121614,-83.3333333333333,4,2,1,78,0,1
128556,-153.846153846154,4,2,1,50,0,0
133391,-153.846153846154,4,2,1,38,0,0
133515,-153.846153846155,4,2,1,46,0,0
134011,-153.846153846155,4,2,1,30,0,0
135498,-117.64705882353,4,2,1,40,0,0
135994,-111.111111111111,4,2,1,52,0,0
136490,-105.263157894737,4,2,1,60,0,0
136986,-117.64705882353,4,2,1,68,0,0
137482,-95.2380952380952,4,2,1,68,0,0
151366,-86.9565217391304,4,2,1,70,0,0
152358,-74.0740740740741,4,2,1,66,0,0
152440,-80,4,2,1,5,0,0
152688,-80,4,2,1,66,0,0
152771,-80,4,2,1,5,0,0
153019,-285.714285714286,4,2,1,66,0,0
153515,-285.714285714286,4,2,1,5,0,0
154341,495.867768595041,4,2,1,64,1,0
154341,-95.2380952380954,4,2,1,64,0,0
169341,-86.9565217391306,4,2,1,64,0,0
170208,-105.263157894737,4,2,1,24,0,0
173183,-153.846153846154,4,2,2,48,0,0
173307,-153.846153846154,4,2,2,30,0,0
173679,-105.263157894737,4,2,1,60,0,0
173927,-105.263157894737,4,2,1,20,0,0
174175,-74.0740740740741,4,2,1,60,0,0
174919,-80,4,2,1,60,0,0
175663,-95.2380952380954,4,2,1,60,0,0
177026,-95.2380952380952,4,2,1,60,0,0
178142,-80,4,2,1,78,0,1
180374,-86.9565217391304,4,2,1,60,0,0
181861,-95.2380952380954,4,2,1,60,0,0
182109,-86.9565217391304,4,2,1,78,0,1
188679,-80,4,2,1,64,0,0
189547,-80,4,2,1,68,0,0
190043,-80,4,2,1,80,0,1
204919,-142.857142857143,4,2,1,50,0,0
205911,-90.9090909090909,4,2,1,70,0,0

[Colours]
Combo1 : 198,169,168
Combo2 : 231,107,111
Combo3 : 184,184,184
Combo4 : 228,116,141
SliderTrackOverride : 5,5,5
SliderBorder : 250,250,250

[HitObjects]
233,196,10540,6,0,P|179:214|129:189,1,110.000003356934,4|0,1:1|0:0,0:0:0:0:
10,298,11035,1,8,0:0:0:0:
10,298,11159,2,0,P|60:273|113:291,1,110.000003356934,0|0,1:0|0:0,0:0:0:0:
180,337,11531,2,0,P|206:343|234:341,1,55.0000016784668,0|0,1:0|1:0,0:0:0:0:
302,290,11779,2,0,P|328:282|365:287,1,55.0000016784668,0|0,1:0|1:0,0:0:0:0:
432,315,12027,2,0,L|431:378,1,55.0000016784668,8|0,0:0|1:0,0:0:0:0:
387,158,12399,6,0,P|379:99|371:27,2,110.000003356934,0|0|0,1:0|1:0|1:0,0:0:0:0:
453,220,13019,2,0,L|511:215,2,55.0000016784668,8|0|0,0:0|1:0|0:0,0:0:0:0:
380,330,13515,2,0,L|325:333,1,55.0000016784668,0|0,1:0|1:0,0:0:0:0:
266,274,13763,2,0,L|211:275,1,55.0000016784668,0|0,1:0|1:0,0:0:0:0:
149,223,14011,1,8,0:0:0:0:
63,298,14259,1,0,1:0:0:0:
2,136,14506,6,0,L|0:13,1,110.000003356934,4|0,1:2|0:0,0:0:0:0:
161,22,15002,1,8,0:0:0:0:
161,22,15126,2,0,L|159:145,1,110.000003356934,0|0,1:0|0:0,0:0:0:0:
222,199,15498,2,0,P|254:202|294:191,1,55.0000016784668,0|0,1:0|1:0,0:0:0:0:
332,131,15746,2,0,P|365:124|401:131,1,55.0000016784668,0|0,1:0|1:0,0:0:0:0:
465,162,15994,2,0,L|458:231,1,55.0000016784668,8|0,0:0|1:0,0:0:0:0:
395,346,16366,6,0,B|437:334|437:334|457:348|457:348|500:336,2,110.000003356934,4|8|0,1:2|0:0|1:0,0:0:0:0:
324,297,16986,2,0,P|269:280|217:301,1,110.000003356934,8|0,0:0|0:0,0:0:0:0:
182,368,17358,2,0,P|177:315|130:277,1,110.000003356934,4|8,1:2|1:3,0:0:0:0:
59,256,17730,1,8,1:3:0:0:
128,152,17978,1,8,0:0:0:0:
128,152,18101,2,0,B|177:152|177:152|196:165|196:165|250:164,1,110.000003356934,0|0,1:0|0:0,0:0:0:0:
304,116,18473,6,0,P|280:163|295:223,1,110.000003356934,4|0,1:2|0:0,0:0:0:0:
444,237,18969,1,8,0:0:0:0:
444,237,19093,2,0,P|465:187|449:130,1,110.000003356934,0|0,1:0|0:0,0:0:0:0:
408,58,19465,2,0,P|380:47|352:49,1,55.0000016784668,0|0,1:0|1:0,0:0:0:0:
304,116,19713,2,0,P|270:114|241:103,1,55.0000016784668,0|0,1:0|1:0,0:0:0:0:
184,54,19961,2,0,L|192:-5,1,55.0000016784668,8|0,0:0|1:0,0:0:0:0:
57,108,20333,6,0,L|39:-10,2,110.000003356934,0|0|0,1:0|1:0|1:0,0:0:0:0:
59,192,20953,2,0,L|50:252,2,55.0000016784668,8|0|0,0:0|1:0|0:0,0:0:0:0:
175,153,21449,2,0,L|241:153,1,55.0000016784668,0|0,1:0|1:0,0:0:0:0:
292,207,21697,2,0,L|356:208,1,55.0000016784668,0|0,1:0|1:0,0:0:0:0:
409,262,21944,1,8,0:0:0:0:
512,201,22192,1,0,1:0:0:0:
418,27,22440,6,0,P|422:80|429:149,1,110.000003356934,4|0,1:2|0:0,0:0:0:0:
285,153,22936,1,8,0:0:0:0:
285,153,23060,2,0,P|291:88|296:31,1,110.000003356934,0|0,1:0|0:0,0:0:0:0:
226,1,23432,2,0,P|199:-3|171:0,1,55.0000016784668,0|0,1:0|1:0,0:0:0:0:
99,33,23680,2,0,P|71:35|45:29,1,55.0000016784668,0|0,1:0|1:0,0:0:0:0:
4,96,23928,2,0,L|18:173,1,55.0000016784668,8|0,0:0|1:0,0:0:0:0:
124,288,24300,6,0,B|81:287|81:287|60:305|60:305|0:307,2,110.000003356934,4|10|0,1:2|0:0|1:0,0:0:0:0:
209,259,24920,2,0,P|226:196|205:148,1,110.000003356934,10|0,0:0|0:0,0:0:0:0:
151,96,25292,2,0,P|205:100|265:95,1,110.000003356934,4|8,1:2|0:3,0:0:0:0:
326,154,25663,2,0,L|391:148,1,55.0000016784668,8|8,1:3|1:3,0:0:0:0:
462,151,25911,1,8,0:0:0:0:
433,319,26159,1,8,0:0:0:0:
433,319,26283,1,8,0:0:0:0:
433,319,26407,6,0,P|419:262|417:217,1,89.9999972534181,2|2,1:2|1:2,0:0:0:0:
307,337,26903,2,0,P|264:317|213:311,1,89.9999972534181,10|0,0:0|0:0,0:0:0:0:
91,364,27399,2,0,P|48:348|28:304,1,89.9999972534181,2|0,1:2|0:0,0:0:0:0:
17,231,27771,1,0,1:0:0:0:
16,231,27895,2,0,P|20:208|22:186,1,44.999998626709,10|0,0:0|1:0,0:0:0:0:
31,57,28267,6,0,P|74:74|118:59,1,89.9999972534181,2|0,1:2|1:0,0:0:0:0:
182,22,28639,1,2,0:0:0:0:
297,103,28887,1,10,0:0:0:0:
297,103,29011,2,0,P|290:145|284:203,1,89.9999972534181,2|0,1:2|0:0,0:0:0:0:
238,256,29382,2,0,P|192:253|150:214,1,89.9999972534181,2|2,1:2|1:2,0:0:0:0:
285,192,29878,1,10,0:2:0:0:
356,295,30126,6,0,P|350:347|349:406,2,89.9999972534181,2|0|0,0:0|1:0|1:0,0:0:0:0:
466,236,30870,2,0,P|478:190|466:145,1,89.9999972534181,10|0,0:0|0:0,0:0:0:0:
392,49,31366,2,0,P|346:72|283:49,1,89.9999972534181,2|2,1:2|0:0,0:0:0:0:
235,32,31738,1,0,1:0:0:0:
235,32,31862,2,0,L|181:42,1,44.999998626709,10|0,0:0|1:0,0:0:0:0:
75,102,32234,6,0,P|81:149|86:208,1,89.9999972534181,2|0,1:2|1:0,0:0:0:0:
4,201,32606,2,0,L|-2:146,2,44.999998626709,2|0|8,0:0|1:0|0:0,0:0:0:0:
101,302,33101,2,0,P|52:306|-3:316,1,89.9999972534181,2|0,0:0|0:0,0:0:0:0:
176,384,33597,2,0,P|222:374|284:372,2,89.9999972534181,2|8|12,1:2|0:0|0:3,0:0:0:0:
310,172,34341,6,0,L|325:280,1,94.9999974632264,6|2,1:2|1:2,0:0:0:0:
449,378,34837,2,0,L|464:270,1,94.9999974632264,10|0,0:0|0:0,0:0:0:0:
512,135,35333,2,0,P|465:141|423:119,1,94.9999974632264,2|0,1:2|0:0,0:0:0:0:
357,68,35705,1,0,1:0:0:0:
357,68,35829,2,0,L|274:72,1,47.4999987316132,10|0,0:0|1:0,0:0:0:0:
198,125,36201,6,0,P|206:169|210:238,1,94.9999974632264,2|0,1:2|1:0,0:0:0:0:
201,302,36573,1,2,0:0:0:0:
35,256,36820,1,10,0:0:0:0:
35,256,36944,2,0,P|91:249|144:238,1,94.9999974632264,2|0,1:2|0:0,0:0:0:0:
209,218,37316,2,0,P|255:228|287:265,1,94.9999974632264,2|0,1:2|1:0,0:0:0:0:
117,325,37812,1,10,0:0:0:0:
94,162,38060,6,0,L|88:48,2,94.9999974632264,2|0|0,0:0|1:0|1:0,0:0:0:0:
205,33,38804,2,0,L|303:35,1,94.9999974632264,10|0,0:0|0:0,0:0:0:0:
420,94,39300,1,2,1:2:0:0:
292,163,39548,2,0,L|296:102,1,47.4999987316132,2|0,0:0|1:0,0:0:0:0:
299,34,39796,1,10,0:0:0:0:
420,94,40044,6,0,P|416:147|412:204,1,94.9999974632264,2|0,0:0|0:0,0:0:0:0:
466,263,40416,1,8,0:0:0:0:
466,263,40539,2,0,L|522:253,2,47.4999987316132,2|0|8,0:0|1:0|0:0,0:0:0:0:
299,347,41035,6,0,B|257:321|257:321|191:331,1,100,6|0,0:2|0:0,0:0:0:0:
130,349,41407,1,8,0:0:0:0:
130,349,41531,1,2,1:2:0:0:
12,270,41779,2,0,L|22:220,1,50,8|8,0:0|0:0,0:0:0:0:
92,170,42027,2,0,L|82:120,1,50,8|8,0:0|0:0,0:0:0:0:
145,58,42275,6,0,L|274:61,1,110.000003356934,4|2,1:1|0:0,0:0:0:0:
393,3,42771,1,10,0:0:0:0:
393,3,42895,2,0,B|386:49|386:49|394:65|394:65|386:127,1,110.000003356934,0|0,1:0|0:0,0:0:0:0:
377,187,43267,1,0,1:0:0:0:
257,241,43515,2,0,L|253:307,1,55.0000016784668,2|0,1:2|0:0,0:0:0:0:
303,351,43763,2,0,L|189:343,1,110.000003356934,10|2,0:2|0:0,0:0:0:0:
124,372,44135,6,0,B|64:371|64:371|43:324,1,110.000003356934,0|0,1:0|1:0,0:0:0:0:
20,246,44506,1,2,0:0:0:0:
122,160,44754,1,10,0:0:0:0:
145,280,45002,1,2,0:0:0:0:
20,246,45250,6,0,B|19:125,1,110.000003356934,6|0,1:2|1:0,0:0:0:0:
17,54,45622,2,0,B|47:46|47:46|77:55,2,55.0000016784668,2|8|0,1:2|0:0|0:0,0:0:0:0:
19,136,45994,2,0,B|46:144|46:144|83:135,1,55.0000016784668,2|0,1:2|0:0,0:0:0:0:
143,94,46242,6,0,P|190:67|248:84,1,110.000003356934,4|2,1:2|0:0,0:0:0:0:
208,252,46738,1,10,0:0:0:0:
208,252,46862,2,0,B|197:203|197:203|210:186|210:186|203:145,1,110.000003356934,0|0,1:0|0:0,0:0:0:0:
241,79,47234,1,0,1:0:0:0:
357,115,47482,2,0,L|414:118,1,55.0000016784668,2|0,0:2|1:0,0:0:0:0:
469,67,47730,2,0,L|464:195,1,110.000003356934,10|2,0:2|0:0,0:0:0:0:
446,265,48101,6,0,P|390:285|344:246,1,110.000003356934,4|8,1:2|0:0,0:0:0:0:
287,215,48473,1,2,0:0:0:0:
287,215,48597,1,2,1:2:0:0:
287,215,48721,2,0,P|228:212|172:218,1,110.000003356934,10|2,0:0|0:0,0:0:0:0:
84,35,49217,6,0,B|78:75|78:75|97:101|97:101|90:155,1,110.000003356934,6|0,0:0|1:0,0:0:0:0:
57,217,49589,2,0,B|27:224|27:224|-3:216,2,55.0000016784668,2|8|0,1:2|0:0|1:0,0:0:0:0:
92,138,49961,2,0,B|120:130|120:130|151:136,1,55.0000016784668,8|8,0:3|0:3,0:0:0:0:
222,173,50209,6,0,L|214:304,1,110.000003356934,4|2,1:2|0:0,0:0:0:0:
322,364,50705,1,10,0:0:0:0:
322,364,50829,2,0,B|369:367|369:367|387:351|387:351|444:354,1,110.000003356934,0|0,1:0|0:0,0:0:0:0:
506,347,51201,1,0,1:0:0:0:
438,232,51449,2,0,L|445:177,1,55.0000016784668,2|0,1:2|1:0,0:0:0:0:
453,96,51697,2,0,P|409:64|358:78,1,110.000003356934,10|2,0:0|0:0,0:0:0:0:
288,122,52068,6,0,L|305:242,1,110.000003356934,0|0,1:0|1:0,0:0:0:0:
320,310,52440,1,2,0:0:0:0:
187,346,52688,1,10,0:0:0:0:
198,219,52936,1,2,0:0:0:0:
320,310,53184,6,0,B|365:303|365:303|384:315|384:315|453:307,1,110.000003356934,4|0,1:2|0:0,0:0:0:0:
509,325,53556,2,0,L|513:383,2,55.0000016784668,2|8|2,1:2|0:0|1:3,0:0:0:0:
497,246,53928,2,0,L|489:178,1,55.0000016784668,2|2,0:0|1:3,0:0:0:0:
490,191,54672,6,0,L|401:203,1,64.9999970245363,2|0,0:0|0:0,0:0:0:0:
356,273,55168,2,0,P|318:274|280:258,1,64.9999970245363,2|0,0:0|0:0,0:0:0:0:
219,194,55663,2,0,P|183:192|147:203,1,64.9999970245363,2|0,0:0|0:0,0:0:0:0:
66,142,56159,2,0,P|70:102|63:69,2,64.9999970245363,2|2|2,0:0|0:0|0:0,0:0:0:0:
155,199,56903,1,2,0:0:0:0:
239,92,57151,6,0,L|233:39,2,32.4999985122681,8|8|8,0:0|0:0|0:0,0:0:0:0:
252,173,57523,1,2,1:3:0:0:
153,331,58143,6,0,P|96:341|53:307,1,115.000002193451,4|0,1:1|0:0,0:0:0:0:
15,235,58515,2,0,P|21:172|23:113,1,115.000002193451,10|0,0:0|0:0,0:0:0:0:
92,66,58887,2,0,B|135:69|135:69|154:56|154:56|202:60,1,115.000002193451,2|0,1:2|0:0,0:0:0:0:
229,141,59259,2,0,B|277:145|277:145|296:132|296:132|368:137,1,115.000002193451,2|0,1:2|0:0,0:0:0:0:
416,188,59630,6,0,P|385:235|399:289,1,115.000002193451,10|0,1:2|0:0,0:0:0:0:
481,308,60002,2,0,P|511:260|497:206,1,115.000002193451,8|0,0:0|0:0,0:0:0:0:
416,188,60374,1,0,1:0:0:0:
266,295,60746,2,0,P|298:308|317:329,2,57.5000010967255,0|2|0,1:0|0:0|0:0,0:0:0:0:
213,356,61118,6,0,P|220:295|188:256,1,115.000002193451,10|2,1:2|0:0,0:0:0:0:
112,220,61490,1,8,0:0:0:0:
112,220,61614,1,2,0:0:0:0:
70,102,61862,2,0,B|96:91|96:91|126:96,1,57.5000010967255,10|8,0:0|0:0,0:0:0:0:
224,111,62110,6,0,P|274:113|313:64,1,115.000002193451,6|0,1:2|0:0,0:0:0:0:
393,115,62482,2,0,P|359:160|373:214,1,115.000002193451,2|0,1:2|0:0,0:0:0:0:
298,253,62854,2,0,P|263:207|208:203,1,115.000002193451,2|8,1:2|0:0,0:0:0:0:
263,343,63349,1,2,0:0:0:0:
418,345,63597,6,0,L|401:228,1,115.000002193451,6|0,1:2|0:0,0:0:0:0:
451,174,63969,2,0,L|327:191,1,115.000002193451,2|0,1:2|0:0,0:0:0:0:
282,139,64341,2,0,L|300:273,1,115.000002193451,10|8,0:0|0:0,0:0:0:0:
305,334,64713,1,0,1:0:0:0:
149,343,64961,1,0,1:0:0:0:
149,343,65085,2,0,P|189:296|183:229,1,115.000002193451,8|0,0:0|1:0,0:0:0:0:
56,156,65581,6,0,L|0:164,1,57.5000010967255,8|8,0:0|0:3,0:0:0:0:
2,68,65829,2,0,L|58:76,1,57.5000010967255,8|0,0:3|0:0,0:0:0:0:
145,120,66077,6,0,L|288:121,1,119.999996337891,4|0,1:1|0:0,0:0:0:0:
348,125,66449,1,2,1:2:0:0:
348,125,66573,1,8,0:0:0:0:
466,188,66820,2,0,P|458:253|456:316,1,119.999996337891,2|0,1:2|0:0,0:0:0:0:
391,344,67192,2,0,P|342:312|285:327,1,119.999996337891,2|0,1:2|0:0,0:0:0:0:
210,273,67564,6,0,B|209:222|209:222|217:201|217:201|215:153,1,119.999996337891,14|0,0:0|0:0,0:0:0:0:
128,142,67936,2,0,B|129:193|129:193|121:214|121:214|123:262,1,119.999996337891,0|0,1:0|0:0,0:0:0:0:
118,345,68308,1,0,1:0:0:0:
288,349,68556,1,8,0:0:0:0:
288,349,68680,2,0,P|340:318|395:336,1,119.999996337891,0|0,1:0|0:0,0:0:0:0:
465,289,69052,6,0,P|456:256|458:230,1,59.9999981689454,6|0,1:2|0:0,0:0:0:0:
394,184,69300,2,0,P|400:147|395:120,1,59.9999981689454,2|0,1:2|1:0,0:0:0:0:
305,123,69548,2,0,P|301:152|308:181,1,59.9999981689454,10|0,0:0|0:0,0:0:0:0:
245,225,69796,2,0,P|246:254|237:283,1,59.9999981689454,2|0,0:0|0:0,0:0:0:0:
173,333,70044,6,0,P|109:326|88:266,1,119.999996337891,6|0,1:2|0:0,0:0:0:0:
102,194,70416,1,2,1:2:0:0:
102,194,70539,1,10,0:0:0:0:
9,81,70787,2,0,L|153:68,1,119.999996337891,6|0,1:2|0:0,0:0:0:0:
204,58,71159,1,0,1:0:0:0:
299,154,71407,1,0,1:0:0:0:
299,154,71531,6,0,P|285:87|327:48,1,119.999996337891,12|0,1:2|0:0,0:0:0:0:
406,71,71903,2,0,P|419:137|377:176,1,119.999996337891,10|0,0:2|0:0,0:0:0:0:
329,228,72275,1,2,1:2:0:0:
264,332,72523,5,8,0:0:0:0:
253,316,72606,1,8,0:0:0:0:
240,302,72688,2,0,L|187:288,3,39.9999987792969,8|4|4|4,0:0|0:3|0:3|0:3,0:0:0:0:
178,302,73019,6,0,B|109:295|109:295|79:328|79:328|1:318,1,173.333325398763,8|2,0:0|0:0,0:0:0:0:
21,321,74011,6,0,B|51:273|51:273|39:214,1,110.000003356934,4|0,1:1|0:0,0:0:0:0:
159,133,74506,1,10,0:0:0:0:
159,133,74630,2,0,B|134:180|134:180|149:234,1,110.000003356934,0|0,1:0|0:0,0:0:0:0:
219,292,75002,2,0,P|251:295|286:286,1,55.0000016784668,0|0,1:0|1:0,0:0:0:0:
333,232,75250,2,0,P|360:224|402:231,1,55.0000016784668,0|0,1:0|1:0,0:0:0:0:
461,271,75498,2,0,L|456:338,1,55.0000016784668,8|0,0:0|1:0,0:0:0:0:
512,112,75870,6,0,P|503:54|499:0,2,110.000003356934,0|0|0,1:0|1:0|1:0,0:0:0:0:
460,182,76490,1,8,0:0:0:0:
366,106,76738,1,0,1:0:0:0:
296,217,76986,2,0,L|225:209,1,55.0000016784668,0|0,1:0|1:0,0:0:0:0:
189,146,77234,2,0,L|118:138,1,55.0000016784668,0|0,1:0|1:0,0:0:0:0:
52,181,77482,2,0,P|42:129|66:80,1,110.000003356934,8|0,0:0|1:0,0:0:0:0:
123,262,77978,6,0,B|81:292|81:292|24:277,1,110.000003356934,6|0,1:2|0:0,0:0:0:0:
203,358,78473,1,10,0:0:0:0:
203,358,78597,2,0,B|244:327|244:327|301:342,1,110.000003356934,0|0,1:0|0:0,0:0:0:0:
389,329,78969,2,0,P|396:298|394:273,1,55.0000016784668,0|0,1:0|1:0,0:0:0:0:
333,214,79217,2,0,P|329:182|338:158,1,55.0000016784668,0|0,1:0|1:0,0:0:0:0:
413,112,79465,2,0,L|470:119,1,55.0000016784668,8|0,0:0|1:0,0:0:0:0:
286,25,79837,6,0,B|247:15|247:15|219:26|219:26|176:15,2,110.000003356934,4|10|0,1:2|0:0|1:0,0:0:0:0:
329,98,80457,2,0,P|321:149|316:215,1,110.000003356934,10|0,0:0|0:0,0:0:0:0:
360,272,80829,2,0,P|312:249|262:269,1,110.000003356934,0|8,1:0|0:3,0:0:0:0:
191,319,81201,2,0,P|157:319|130:308,1,55.0000016784668,8|8,0:3|1:3,0:0:0:0:
64,276,81449,1,8,0:0:0:0:
150,141,81697,1,8,0:0:0:0:
150,141,81820,1,8,0:0:0:0:
150,141,81944,6,0,P|137:188|130:238,1,89.9999972534181,4|2,1:2|1:2,0:0:0:0:
26,132,82440,2,0,P|20:87|9:41,1,89.9999972534181,10|0,0:0|0:0,0:0:0:0:
141,39,82936,2,0,P|192:32|249:14,1,89.9999972534181,2|0,1:2|0:0,0:0:0:0:
310,55,83308,1,0,1:0:0:0:
310,55,83432,2,0,L|303:125,1,44.999998626709,10|0,0:0|1:0,0:0:0:0:
363,206,83804,6,0,P|413:189|456:204,1,89.9999972534181,2|0,1:2|1:0,0:0:0:0:
411,269,84176,1,2,0:0:0:0:
276,236,84424,1,10,0:0:0:0:
276,236,84548,2,0,L|266:330,1,89.9999972534181,2|0,1:2|0:0,0:0:0:0:
199,372,84920,2,0,P|155:369|124:338,1,89.9999972534181,2|0,1:2|1:0,0:0:0:0:
266,325,85416,1,10,0:0:0:0:
364,383,85663,6,0,P|413:372|459:363,2,89.9999972534181,2|0|0,0:0|1:0|1:0,0:0:0:0:
475,236,86407,2,0,L|457:147,1,89.9999972534181,10|0,0:2|0:0,0:0:0:0:
325,154,86903,2,0,L|321:244,1,89.9999972534181,2|2,1:2|0:0,0:0:0:0:
321,332,87275,1,0,1:0:0:0:
321,332,87399,1,10,0:0:0:0:
193,276,87647,6,0,P|149:282|109:263,1,89.9999972534181,2|0,0:0|0:0,0:0:0:0:
60,196,88019,1,0,1:0:0:0:
60,196,88143,2,0,L|77:96,1,89.9999972534181,2|8,0:0|0:0,0:0:0:0:
226,143,88639,2,0,P|269:149|309:130,1,89.9999972534181,2|0,0:0|0:0,0:0:0:0:
388,0,89135,2,0,L|399:60,1,44.999998626709,2|0,1:2|1:0,0:0:0:0:
421,129,89382,1,8,0:0:0:0:
421,129,89506,1,8,1:3:0:0:
421,129,89631,2,0,L|429:173,1,44.999998626709,8|8,0:3|0:3,0:0:0:0:
455,257,89878,6,0,P|384:245|337:240,1,110.000003356934,4|2,1:0|1:2,0:0:0:0:
218,376,90374,2,0,P|251:334|242:281,1,110.000003356934,10|0,0:0|0:0,0:0:0:0:
119,194,90870,2,0,L|131:307,1,110.000003356934,2|2,1:2|0:0,0:0:0:0:
70,363,91242,1,0,1:0:0:0:
70,363,91366,2,0,P|9:340|5:283,1,110.000003356934,10|2,0:0|0:0,0:0:0:0:
20,220,91738,6,0,P|24:160|21:97,1,110.000003356934,0|0,1:0|1:0,0:0:0:0:
12,28,92110,1,2,0:0:0:0:
160,96,92358,2,0,L|93:103,1,55.0000016784668,10|0,0:0|1:0,0:0:0:0:
22,110,92606,1,2,0:0:0:0:
121,214,92854,2,0,P|198:202|254:199,1,110.000003356934,2|0,1:2|1:0,0:0:0:0:
313,193,93225,1,0,1:0:0:0:
313,193,93349,1,10,0:0:0:0:
393,80,93597,6,0,L|410:192,2,110.000003356934,2|0|0,0:0|1:0|1:0,0:0:0:0:
255,12,94341,2,0,P|202:18|141:21,1,110.000003356934,10|0,0:0|0:0,0:0:0:0:
35,108,94837,1,2,1:2:0:0:
138,179,95085,2,0,L|196:176,1,55.0000016784668,2|0,0:0|1:0,0:0:0:0:
267,213,95333,2,0,P|263:272|256:337,1,110.000003356934,10|0,0:0|0:0,0:0:0:0:
325,375,95705,2,0,P|384:365|449:356,1,110.000003356934,6|8,1:2|0:0,0:0:0:0:
473,289,96077,2,0,P|443:236|484:194,1,110.000003356934,2|8,1:2|0:0,0:0:0:0:
316,65,96573,6,0,B|324:104|324:104|317:131|317:131|331:187,1,110.000003356934,6|0,0:2|0:0,0:0:0:0:
354,252,96944,1,8,0:0:0:0:
354,252,97068,1,2,1:2:0:0:
243,345,97316,2,0,B|210:346|210:346|179:332,1,55.0000016784668,8|8,0:0|0:0,0:0:0:0:
113,372,97564,2,0,B|84:356|84:356|70:326,1,55.0000016784668,8|8,0:0|0:0,0:0:0:0:
17,272,97812,6,0,L|10:141,1,110.000003356934,4|2,1:0|0:0,0:0:0:0:
136,51,98308,1,10,0:0:0:0:
136,51,98432,2,0,B|139:95|139:95|127:117|127:117|132:176,1,110.000003356934,0|0,1:0|0:0,0:0:0:0:
146,236,98804,1,0,1:0:0:0:
275,202,99052,2,0,L|336:201,1,55.0000016784668,2|0,1:2|0:0,0:0:0:0:
396,245,99300,2,0,P|376:191|393:141,1,110.000003356934,10|2,0:0|0:0,0:0:0:0:
331,76,99672,6,0,B|285:72|285:72|260:90|260:90|208:82,1,110.000003356934,0|0,1:0|1:0,0:0:0:0:
146,79,100044,1,2,0:0:0:0:
31,126,100292,1,10,0:0:0:0:
27,0,100539,1,2,0:0:0:0:
146,79,100787,6,0,L|130:202,1,110.000003356934,6|0,1:2|1:0,0:0:0:0:
71,242,101159,2,0,B|41:244|41:244|10:232,2,55.0000016784668,2|8|0,1:2|0:0|0:0,0:0:0:0:
137,301,101531,2,0,B|166:295|166:295|196:307,1,55.0000016784668,2|0,1:2|0:0,0:0:0:0:
241,360,101779,6,0,P|234:306|267:262,1,110.000003356934,4|2,1:2|0:0,0:0:0:0:
444,209,102275,1,10,0:0:0:0:
444,209,102399,2,0,B|393:200|393:200|379:210|379:210|328:199,1,110.000003356934,0|0,1:0|0:0,0:0:0:0:
277,151,102771,1,0,1:0:0:0:
151,198,103019,2,0,L|87:194,1,55.0000016784668,2|0,1:2|0:0,0:0:0:0:
46,134,103267,2,0,L|35:271,1,110.000003356934,10|2,0:2|0:0,0:0:0:0:
95,301,103639,6,0,B|153:287|153:287|206:318,1,110.000003356934,4|8,1:2|0:0,0:0:0:0:
280,367,104011,1,2,0:0:0:0:
280,367,104135,1,2,1:2:0:0:
280,367,104259,2,0,P|339:357|403:352,1,110.000003356934,10|2,0:0|0:0,0:0:0:0:
458,155,104754,6,0,P|508:182|512:232,1,110.000003356934,6|0,0:0|1:0,0:0:0:0:
483,307,105126,2,0,B|481:334|481:334|491:362,2,55.0000016784668,2|8|0,1:2|0:0|1:0,0:0:0:0:
411,263,105498,2,0,B|384:273|384:273|355:270,1,55.0000016784668,8|8,0:3|0:3,0:0:0:0:
278,246,105746,6,0,L|271:125,1,110.000003356934,4|2,1:2|0:0,0:0:0:0:
177,37,106242,1,10,0:0:0:0:
177,37,106366,2,0,B|124:32|124:32|110:42|110:42|62:38,1,110.000003356934,0|0,1:0|0:0,0:0:0:0:
1,75,106738,1,0,1:0:0:0:
68,193,106986,2,0,L|66:247,1,55.0000016784668,2|0,1:2|1:0,0:0:0:0:
118,310,107234,2,0,B|164:302|164:302|184:311|184:311|236:299,1,110.000003356934,10|2,0:0|0:0,0:0:0:0:
295,246,107606,6,0,P|284:186|279:128,1,110.000003356934,0|0,1:0|1:0,0:0:0:0:
271,56,107978,1,2,0:0:0:0:
401,7,108225,1,10,0:0:0:0:
400,140,108473,1,2,0:0:0:0:
271,56,108721,6,0,B|228:53|228:53|209:65|209:65|153:63,1,110.000003356934,6|0,1:2|1:0,0:0:0:0:
90,21,109093,2,0,B|29:18,2,55.0000016784668,2|8|2,1:2|0:0|1:3,0:0:0:0:
164,63,109465,2,0,L|161:120,1,55.0000016784668,2|2,0:0|1:3,0:0:0:0:
161,117,110209,5,0,1:0:0:0:
74,144,110705,1,0,1:0:0:0:
69,227,111201,1,0,1:0:0:0:
135,289,111697,5,2,1:2:0:0:
220,273,111944,1,2,1:2:0:0:
256,200,112192,1,2,1:2:0:0:
228,122,112440,1,2,1:2:0:0:
142,104,112688,6,0,L|145:47,2,37.5000014305115,8|8|8,0:0|0:0|0:0,0:0:0:0:
138,187,113060,1,2,1:3:0:0:
43,326,113680,6,0,P|95:304|150:318,1,115.000002193451,4|0,1:1|0:0,0:0:0:0:
223,357,114052,2,0,P|274:377|318:344,1,115.000002193451,10|0,0:0|0:0,0:0:0:0:
377,284,114424,2,0,L|509:286,1,115.000002193451,2|0,1:2|0:0,0:0:0:0:
512,206,114796,2,0,L|380:204,1,115.000002193451,2|0,1:2|0:0,0:0:0:0:
313,195,115168,6,0,P|332:142|305:92,1,115.000002193451,10|0,0:0|0:0,0:0:0:0:
224,100,115539,2,0,P|204:152|231:202,1,115.000002193451,8|0,0:0|0:0,0:0:0:0:
313,195,115911,1,0,1:0:0:0:
112,89,116283,2,0,P|136:71|152:44,2,57.5000010967255,0|2|0,1:0|0:0|0:0,0:0:0:0:
30,92,116655,6,0,P|79:116|92:170,1,115.000002193451,10|2,0:0|0:0,0:0:0:0:
54,244,117027,1,8,0:0:0:0:
54,244,117151,1,2,0:0:0:0:
98,355,117399,2,0,B|130:359|130:359|155:351,1,57.5000010967255,10|8,0:0|0:0,0:0:0:0:
214,303,117647,6,0,P|216:246|264:222,1,115.000002193451,6|0,1:2|0:0,0:0:0:0:
344,239,118019,2,0,P|390:267|438:240,1,115.000002193451,2|0,1:2|0:0,0:0:0:0:
493,180,118391,2,0,P|485:112|480:53,1,115.000002193451,2|8,1:2|0:0,0:0:0:0:
386,144,118887,1,2,0:0:0:0:
295,42,119135,6,0,B|245:44|245:44|233:49|233:49|166:56,1,115.000002193451,6|0,1:2|0:0,0:0:0:0:
123,5,119506,2,0,B|125:55|125:55|131:66|131:66|137:134,1,115.000002193451,2|0,1:2|0:0,0:0:0:0:
191,183,119878,2,0,P|139:163|87:184,1,115.000002193451,10|8,0:0|0:0,0:0:0:0:
33,240,120250,1,0,1:0:0:0:
138,367,120498,1,0,1:0:0:0:
138,367,120622,2,0,L|139:248,1,115.000002193451,8|0,0:0|1:0,0:0:0:0:
185,97,121118,6,0,L|192:39,1,57.5000010967255,8|8,0:0|0:3,0:0:0:0:
276,44,121366,2,0,L|283:101,1,57.5000010967255,8|0,0:3|0:0,0:0:0:0:
239,169,121614,6,0,P|290:135|349:152,1,119.999996337891,4|0,1:1|0:0,0:0:0:0:
412,206,121986,1,2,1:2:0:0:
412,206,122110,1,8,0:0:0:0:
325,306,122358,2,0,B|276:301|276:301|254:309|254:309|201:300,1,119.999996337891,2|0,1:2|0:0,0:0:0:0:
135,337,122730,2,0,P|81:359|20:331,1,119.999996337891,2|0,1:2|0:0,0:0:0:0:
80,280,123101,6,0,B|70:233|70:233|81:210|81:210|74:149,1,119.999996337891,14|0,0:0|0:0,0:0:0:0:
130,104,123473,2,0,B|176:114|176:114|199:103|199:103|260:110,1,119.999996337891,0|0,1:0|0:0,0:0:0:0:
325,126,123845,1,0,1:0:0:0:
477,27,124093,1,8,0:0:0:0:
477,27,124217,2,0,P|416:-5|364:25,1,119.999996337891,0|0,1:0|0:0,0:0:0:0:
318,68,124589,6,0,P|315:99|330:133,1,59.9999981689454,6|0,1:2|0:0,0:0:0:0:
403,139,124837,2,0,P|406:170|391:204,1,59.9999981689454,2|0,1:2|1:0,0:0:0:0:
321,218,125085,2,0,P|318:249|333:283,1,59.9999981689454,10|0,0:0|1:0,0:0:0:0:
404,291,125333,2,0,P|407:322|392:356,1,59.9999981689454,2|0,0:0|0:0,0:0:0:0:
325,378,125581,6,0,B|286:367|286:367|253:379|253:379|210:367,1,119.999996337891,6|0,1:2|0:0,0:0:0:0:
133,354,125953,1,2,1:2:0:0:
133,354,126077,1,8,0:0:0:0:
66,196,126325,2,0,P|61:257|58:325,1,119.999996337891,6|0,1:2|0:0,0:0:0:0:
133,354,126697,1,0,1:0:0:0:
217,238,126944,1,0,1:0:0:0:
217,238,127068,6,0,P|283:245|317:206,1,119.999996337891,14|0,1:2|0:0,0:0:0:0:
281,126,127440,2,0,P|215:119|181:158,1,119.999996337891,10|0,0:0|0:0,0:0:0:0:
137,221,127812,1,2,1:2:0:0:
211,323,128060,1,8,0:0:0:0:
336,314,128308,1,0,1:0:0:0:
411,218,128556,5,8,0:0:0:0:
405,200,128639,1,8,0:0:0:0:
398,180,128721,2,0,L|392:152,3,21.6666656748454,8|8|8|8,0:0|1:2|1:3|1:3,0:0:0:0:
405,133,129052,2,0,L|456:119,2,43.3333313496908,8|8|8,0:0|0:3|0:3,0:0:0:0:
336,76,129548,5,4,1:0:0:0:
22,285,134011,6,0,L|-7:236,2,43.3333313496908,2|2|2,0:0|0:0|0:0,0:0:0:0:
102,251,134506,2,0,L|97:194,2,43.3333313496908,2|2|2,0:0|0:0|0:0,0:0:0:0:
188,270,135002,2,0,L|211:218,2,43.3333313496908,2|0|0,0:0|0:0|0:0,0:0:0:0:
261,339,135498,6,0,L|329:325,1,56.6666677474976,10|10,0:3|0:3,0:0:0:0:
394,355,135829,1,10,0:3:0:0:
467,295,135994,2,0,L|453:230,1,59.9999981689454,10|10,0:3|0:3,0:0:0:0:
420,132,136325,1,10,0:3:0:0:
325,183,136490,2,0,L|260:193,1,63.3333316421509,10|10,0:3|0:3,0:0:0:0:
170,135,136820,1,10,1:3:0:0:
107,221,136986,1,10,0:0:0:0:
107,221,137482,6,0,B|54:237|54:237|10:215|16:148,1,139.999995727539,4|0,1:1|0:0,0:0:0:0:
49,77,137978,2,0,P|88:74|123:69,1,69.9999978637696,0|0,1:0|1:0,0:0:0:0:
192,21,138308,1,0,1:0:0:0:
246,90,138473,2,0,L|238:164,1,69.9999978637696,8|0,0:0|1:0,0:0:0:0:
191,257,138804,1,0,1:0:0:0:
191,257,138887,1,0,1:0:0:0:
191,257,138969,2,0,L|200:329,1,69.9999978637696,0|0,1:0|1:0,0:0:0:0:
290,363,139300,1,0,1:0:0:0:
343,293,139465,6,0,P|387:280|420:284,1,69.9999978637696,6|0,1:2|0:0,0:0:0:0:
474,205,139796,2,0,P|439:205|406:193,1,69.9999978637696,2|0,1:2|0:0,0:0:0:0:
340,129,140126,1,2,1:3:0:0:
362,48,140292,1,2,1:3:0:0:
461,40,140457,6,0,L|453:126,1,69.9999978637696,8|0,0:0|1:0,0:0:0:0:
406,193,140787,1,2,1:3:0:0:
340,129,140953,2,0,B|286:124|286:124|263:138|263:138|193:132,1,139.999995727539,6|0,1:2|0:0,0:0:0:0:
138,196,141449,6,0,P|167:137|120:90,1,139.999995727539,6|0,1:2|0:0,0:0:0:0:
37,125,141944,2,0,L|45:196,1,69.9999978637696,0|0,1:0|1:0,0:0:0:0:
25,280,142275,1,0,1:0:0:0:
104,326,142440,2,0,L|179:309,1,69.9999978637696,8|0,0:2|1:0,0:0:0:0:
254,255,142771,1,0,1:0:0:0:
254,255,142854,1,0,1:0:0:0:
254,255,142936,2,0,L|328:260,1,69.9999978637696,0|0,1:0|1:0,0:0:0:0:
396,308,143267,1,0,1:0:0:0:
480,261,143432,6,0,P|469:227|470:193,1,69.9999978637696,6|0,1:2|0:0,0:0:0:0:
395,142,143763,2,0,P|405:108|404:74,1,69.9999978637696,2|0,1:2|0:0,0:0:0:0:
335,9,144093,1,2,1:3:0:0:
232,17,144259,1,2,1:3:0:0:
214,116,144424,6,0,L|222:189,1,69.9999978637696,8|0,0:2|1:0,0:0:0:0:
283,261,144754,1,2,1:3:0:0:
213,319,144920,2,0,B|128:305|158:362|78:333,1,139.999995727539,6|2,1:2|0:0,0:0:0:0:
0,262,145416,6,0,P|40:226|19:144,1,139.999995727539,6|2,1:2|0:0,0:0:0:0:
37,63,145911,2,0,B|101:58|101:58|112:69|112:69|190:61,1,139.999995727539,2|2,0:0|0:0,0:0:0:0:
267,27,146407,2,0,P|262:63|258:101,1,69.9999978637696,10|0,0:0|0:0,0:0:0:0:
345,165,146738,1,2,1:2:0:0:
345,165,146820,1,0,1:0:0:0:
345,165,146903,2,0,P|389:152|433:142,2,69.9999978637696,2|0|0,1:2|1:0|1:0,0:0:0:0:
269,236,147399,6,0,P|283:275|299:329,1,69.9999978637696,6|0,1:2|1:0,0:0:0:0:
219,358,147730,1,0,1:0:0:0:
133,313,147895,2,0,P|95:321|58:328,1,69.9999978637696,2|0,0:0|1:0,0:0:0:0:
0,264,148225,1,2,1:2:0:0:
51,191,148391,2,0,L|121:199,1,69.9999978637696,10|0,0:0|1:0,0:0:0:0:
195,142,148721,1,2,1:2:0:0:
273,204,148887,2,0,P|262:273|248:373,1,139.999995727539,2|0,1:2|0:0,0:0:0:0:
357,342,149382,6,0,P|415:354|443:266,1,139.999995727539,4|0,1:2|0:0,0:0:0:0:
404,215,149878,2,0,L|419:144,1,69.9999978637696,6|0,1:2|1:0,0:0:0:0:
365,62,150209,1,0,1:2:0:0:
293,143,150374,2,0,L|307:211,1,69.9999978637696,10|0,0:0|1:0,0:0:0:0:
233,279,150705,1,2,1:2:0:0:
233,279,150787,1,0,1:0:0:0:
233,279,150870,2,0,L|152:262,1,69.9999978637696,2|0,1:2|1:0,0:0:0:0:
84,335,151201,1,0,1:0:0:0:
8,249,151366,6,0,B|21:207|21:207|13:184|13:184|32:127,1,115.000002193451,6|0,1:2|0:0,0:0:0:0:
52,151,151697,2,0,B|37:195|37:195|45:218|45:218|32:260,1,115.000002193451,6|0,1:2|0:0,0:0:0:0:
53,265,152027,2,0,B|66:223|66:223|58:200|58:200|73:156,1,115.000002193451,6|0,1:2|0:0,0:0:0:0:
94,163,152358,5,10,0:0:0:0:
233,266,152688,1,10,0:0:0:0:
331,128,153019,2,0,B|301:120|301:120|280:129|280:129|254:119|254:119|226:130|226:130|201:117|201:117|162:122,1,163.333328348796,10|0,0:0|0:0,0:0:0:0:
100,131,154341,6,0,P|108:189|115:254,1,104.999996795654,4|0,1:0|0:0,0:0:0:0:
76,319,154712,2,0,L|22:325,2,52.4999983978272,0|8|0,1:0|0:0|0:0,0:0:0:0:
160,360,155084,2,0,L|268:347,1,104.999996795654,0|0,1:0|0:0,0:0:0:0:
346,246,155580,1,0,1:0:0:0:
467,343,155828,2,0,P|473:288|480:239,1,104.999996795654,8|0,0:0|0:0,0:0:0:0:
437,163,156200,1,0,1:0:0:0:
437,163,156324,6,0,B|391:156|391:156|372:166|372:166|326:160,1,104.999996795654,2|2,0:0|1:2,0:0:0:0:
251,48,156820,2,0,B|204:45|204:45|187:57|187:57|144:55,1,104.999996795654,10|0,0:0|0:0,0:0:0:0:
111,127,157192,1,2,1:2:0:0:
111,127,157316,2,0,P|146:158|153:221,1,104.999996795654,2|2,0:0|1:2,0:0:0:0:
86,343,157812,1,10,0:0:0:0:
19,218,158060,2,0,L|82:215,1,52.4999983978272,2|0,0:0|1:0,0:0:0:0:
155,213,158307,6,0,P|207:212|259:209,1,104.999996795654,4|0,1:0|0:0,0:0:0:0:
317,148,158679,2,0,L|307:93,2,52.4999983978272,0|8|0,1:0|0:0|0:0,0:0:0:0:
381,208,159051,2,0,P|373:256|365:328,1,104.999996795654,0|0,1:0|0:0,0:0:0:0:
478,384,159547,1,0,1:0:0:0:
366,311,159795,2,0,P|311:301|258:337,1,104.999996795654,8|0,0:0|0:0,0:0:0:0:
198,369,160167,1,8,0:0:0:0:
198,369,160291,6,0,B|154:359|154:359|136:366|136:366|67:360,1,104.999996795654,2|0,0:0|1:0,0:0:0:0:
0,236,160787,2,0,B|44:246|44:246|62:239|62:239|131:245,1,104.999996795654,10|2,0:0|0:0,0:0:0:0:
191,255,161159,1,0,1:0:0:0:
191,255,161283,1,2,0:0:0:0:
124,144,161531,2,0,L|75:141,2,34.9999989318848,0|0|0,1:0|1:0|1:0,0:0:0:0:
143,123,161779,2,0,B|161:76|213:74|213:74|235:104|290:97,1,157.499995193482,10|0,1:2|0:0,0:0:0:0:
331,44,162274,6,0,L|326:163,1,104.999996795654,4|0,1:0|0:0,0:0:0:0:
386,208,162646,2,0,L|445:198,2,52.4999983978272,0|8|0,1:0|0:0|0:0,0:0:0:0:
333,272,163018,2,0,P|277:263|209:261,1,104.999996795654,0|0,1:0|0:0,0:0:0:0:
120,350,163514,1,2,1:2:0:0:
30,260,163762,2,0,P|35:204|42:150,1,104.999996795654,10|2,0:0|0:0,0:0:0:0:
56,76,164134,1,0,1:0:0:0:
56,76,164506,5,2,1:2:0:0:
159,148,164754,2,0,P|214:139|270:133,1,104.999996795654,10|2,0:0|0:0,0:0:0:0:
344,121,165126,1,0,1:0:0:0:
344,121,165498,1,2,1:2:0:0:
268,229,165745,2,0,P|276:283|286:340,1,104.999996795654,10|2,0:0|1:2,0:0:0:0:
364,369,166117,1,0,1:0:0:0:
364,369,166241,6,0,P|422:357|442:312,1,104.999996795654,4|0,1:0|0:0,0:0:0:0:
437,239,166613,2,0,L|423:180,2,52.4999983978272,0|8|0,1:0|0:0|0:0,0:0:0:0:
367,281,166985,2,0,L|249:294,1,104.999996795654,0|0,1:0|0:0,0:0:0:0:
117,312,167481,1,2,1:2:0:0:
70,181,167729,2,0,L|182:188,1,104.999996795654,10|2,0:0|0:0,0:0:0:0:
258,160,168101,1,10,0:0:0:0:
258,160,168225,6,0,B|247:115|247:115|256:96|256:96|249:58,1,104.999996795654,2|0,0:0|1:0,0:0:0:0:
80,55,168721,2,0,B|73:92|73:92|82:111|82:111|71:156,1,104.999996795654,10|0,0:0|1:0,0:0:0:0:
154,295,169217,2,0,L|146:356,2,52.4999983978272,4|8|0,1:2|0:0|1:0,0:0:0:0:
228,254,169588,1,8,0:0:0:0:
228,254,169712,2,0,L|304:262,1,57.5000010967255,10|8,1:2|1:2,0:0:0:0:
348,319,169960,2,0,L|426:325,1,57.5000010967255,8|8,1:2|1:2,0:0:0:0:
256,192,170208,12,8,172688,0:0:0:0:
45,116,173183,6,0,L|45:80,2,32.4999985122681,4|8|8,0:0|0:3|0:3,0:0:0:0:
0,206,173679,2,0,P|45:218|93:202,1,94.9999974632264,4|0,1:3|0:0,0:0:0:0:
182,134,174175,6,0,B|221:102|214:35|214:35|281:135|281:135|277:72|322:37,1,337.50000128746,4|0,1:0|0:0,0:0:0:0:
374,102,174919,6,0,P|371:164|444:75,1,312.5,4|0,1:0|0:0,0:0:0:0:
360,105,175663,6,0,B|339:149|369:184|382:195|382:195|348:234|311:235|311:235|270:204|276:149,1,262.499991989136,4|0,1:0|0:0,0:0:0:0:
198,133,176407,6,0,P|175:127|151:110,2,52.4999983978272,8|8|8,0:0|0:0|0:0,0:0:0:0:
186,214,176779,2,0,P|135:201|94:167,1,104.999996795654,2|0,1:3|1:0,0:0:0:0:
26,203,177150,6,0,L|35:256,1,52.4999983978272,10|0,0:0|1:0,0:0:0:0:
102,292,177398,2,0,L|93:343,1,52.4999983978272,4|8,1:3|0:3,0:0:0:0:
163,379,177646,2,0,L|224:367,3,52.4999983978272,10|8|8|8,1:2|0:3|0:3|0:3,0:0:0:0:
291,353,178142,6,0,B|338:329|338:329|372:347|372:347|411:327,1,125,6|0,1:2|0:0,0:0:0:0:
454,273,178514,2,0,B|431:208|431:208|455:190|455:190|446:147,1,125,4|0,1:2|0:0,0:0:0:0:
409,94,178886,2,0,B|376:88|376:88|342:111,1,62.5,4|0,1:2|0:0,0:0:0:0:
283,145,179134,1,8,0:0:0:0:
283,145,179258,2,0,B|233:160|233:160|204:134|204:134|167:134,1,125,4|0,1:2|0:0,0:0:0:0:
103,189,179630,6,0,B|116:232|116:232|108:259|108:259|120:330,1,125,4|0,1:2|0:0,0:0:0:0:
35,312,180002,2,0,B|26:261|26:261|35:234|35:234|21:191,1,125,4|0,1:2|0:0,0:0:0:0:
0,118,180374,1,8,0:0:0:0:
87,30,180621,1,8,0:0:0:0:
87,30,180745,2,0,B|135:32|135:32|146:37|146:37|216:40,1,115.000002193451,0|0,1:0|1:0,0:0:0:0:
277,47,181117,1,8,0:0:0:0:
338,163,181365,1,0,1:0:0:0:
449,82,181613,2,0,L|506:75,2,38.3333340644837,8|8|8,0:0|0:0|0:0,0:0:0:0:
432,114,181861,6,0,L|437:205,1,69.9999978637696,8|8,0:3|0:3,0:0:0:0:
408,222,182109,6,0,P|357:252|299:238,1,115.000002193451,4|0,1:1|0:0,0:0:0:0:
246,188,182481,2,0,L|256:318,1,115.000002193451,10|0,0:0|0:0,0:0:0:0:
191,354,182853,2,0,B|140:352|140:352|121:362|121:362|73:358,1,115.000002193451,2|0,1:2|0:0,0:0:0:0:
55,283,183225,2,0,B|105:284|105:284|124:274|124:274|172:278,1,115.000002193451,2|0,1:2|0:0,0:0:0:0:
203,202,183597,6,0,P|185:142|224:89,1,115.000002193451,14|0,0:0|0:0,0:0:0:0:
294,102,183969,2,0,P|312:162|273:215,1,115.000002193451,8|0,0:0|0:0,0:0:0:0:
203,202,184340,1,0,1:0:0:0:
412,113,184712,2,0,P|398:87|397:58,2,57.5000010967255,0|2|0,1:0|0:0|0:0,0:0:0:0:
477,158,185084,6,0,P|422:148|382:186,1,115.000002193451,10|2,0:0|0:0,0:0:0:0:
339,257,185456,1,8,0:0:0:0:
339,257,185580,1,2,0:0:0:0:
229,173,185828,2,0,B|198:168|198:168|170:178,1,57.5000010967255,8|8,0:0|0:0,0:0:0:0:
95,202,186076,6,0,P|47:191|25:126,1,115.000002193451,6|0,1:2|0:0,0:0:0:0:
54,57,186448,2,0,B|116:37|94:93|161:72,1,115.000002193451,2|0,1:2|0:0,0:0:0:0:
233,31,186820,2,0,P|283:14|312:60,1,115.000002193451,2|8,1:2|0:0,0:0:0:0:
305,141,187192,1,0,1:0:0:0:
432,233,187440,1,0,1:0:0:0:
432,233,187564,6,0,P|375:213|324:247,1,115.000002193451,10|0,0:0|1:0,0:0:0:0:
339,321,187936,2,0,P|395:340|447:307,1,115.000002193451,8|8,1:3|1:3,0:0:0:0:
505,265,188307,1,10,0:0:0:0:
480,156,188555,1,8,1:3:0:0:
480,156,188679,1,10,0:0:0:0:
362,103,188927,1,0,1:0:0:0:
362,103,189051,2,0,L|284:115,3,62.5,10|8|8|8,0:0|0:0|0:0|0:0,0:0:0:0:
242,172,189547,2,0,L|172:160,1,62.5,10|10,0:0|0:0,0:0:0:0:
122,106,189795,2,0,L|60:116,1,62.5,10|10,0:0|0:0,0:0:0:0:
13,187,190043,6,0,B|22:242|22:242|38:262|38:262|47:330,1,125,4|0,1:0|0:0,0:0:0:0:
69,384,190415,1,2,1:2:0:0:
69,384,190539,1,8,0:0:0:0:
211,291,190787,2,0,B|249:282|249:282|272:288|272:288|293:275|293:275|330:269,1,125,2|0,1:2|0:0,0:0:0:0:
394,316,191159,2,0,P|364:263|391:209,1,125,2|0,1:2|0:0,0:0:0:0:
469,155,191531,6,0,L|457:28,1,125,14|0,0:0|0:0,0:0:0:0:
373,8,191902,2,0,L|385:135,1,125,2|0,1:2|0:0,0:0:0:0:
391,209,192274,1,0,1:0:0:0:
265,106,192522,1,8,0:0:0:0:
265,106,192646,2,0,B|216:103|216:103|190:121|190:121|127:120,1,125,0|0,1:0|0:0,0:0:0:0:
72,167,193018,6,0,P|85:196|88:227,1,62.5,6|0,1:2|0:0,0:0:0:0:
169,247,193266,2,0,P|156:275|153:306,1,62.5,2|0,1:2|1:0,0:0:0:0:
214,363,193514,2,0,P|249:351|276:353,1,62.5,10|0,0:0|1:0,0:0:0:0:
323,291,193762,2,0,P|358:303|385:301,1,62.5,2|0,0:0|0:0,0:0:0:0:
460,269,194010,6,0,P|498:222|487:163,1,125,6|0,1:2|0:0,0:0:0:0:
432,108,194382,1,2,1:2:0:0:
432,108,194506,2,0,L|346:109,1,62.5,8|0,0:0|0:0,0:0:0:0:
325,45,194754,2,0,P|324:101|321:180,1,125,6|0,1:2|0:0,0:0:0:0:
244,280,195250,2,0,P|211:272|183:275,1,62.5,2|0,0:0|1:0,0:0:0:0:
118,317,195498,6,0,P|148:264|131:205,1,125,14|0,0:2|0:0,0:0:0:0:
46,197,195869,2,0,P|15:249|32:308,1,125,10|0,0:0|0:0,0:0:0:0:
118,317,196241,1,2,1:2:0:0:
224,190,196489,1,8,0:0:0:0:
224,190,196613,2,0,P|293:195|356:201,1,125,0|0,1:0|0:0,0:0:0:0:
429,206,196985,1,0,1:0:0:0:
464,44,197233,5,0,1:0:0:0:
464,44,197357,1,0,1:0:0:0:
464,44,197481,2,0,P|403:66|391:141,1,125,8|8,1:2|0:3,0:0:0:0:
348,200,197853,1,8,0:3:0:0:
348,200,197977,6,0,B|359:253|359:253|351:270|351:270|360:349,1,125,4|0,1:0|0:0,0:0:0:0:
427,377,198349,1,2,1:2:0:0:
427,377,198473,1,8,0:0:0:0:
261,301,198721,2,0,B|196:303|196:303|166:372,1,125,2|0,1:2|0:0,0:0:0:0:
86,370,199093,2,0,B|35:335|35:335|55:262,1,125,2|0,1:2|0:0,0:0:0:0:
89,210,199464,6,0,B|95:164|95:164|79:134|79:134|82:89,1,125,14|0,0:0|0:0,0:0:0:0:
163,75,199836,2,0,B|159:119|159:119|175:149|175:149|169:195,1,125,0|0,1:0|0:0,0:0:0:0:
164,278,200208,1,0,1:0:0:0:
289,363,200456,1,8,0:0:0:0:
289,363,200580,2,0,P|350:360|421:360,1,125,0|0,1:0|0:0,0:0:0:0:
487,327,200952,6,0,P|489:291|476:260,1,62.5,6|0,1:2|0:0,0:0:0:0:
406,231,201201,2,0,P|404:195|417:164,1,62.5,2|0,1:2|1:0,0:0:0:0:
489,146,201448,2,0,P|491:110|478:79,1,62.5,10|0,0:0|1:0,0:0:0:0:
404,66,201696,2,0,P|402:30|415:-1,1,62.5,2|0,0:0|0:0,0:0:0:0:
322,8,201944,6,0,B|247:0|286:53|199:35,1,125,6|0,1:2|0:0,0:0:0:0:
126,65,202316,1,2,1:2:0:0:
126,65,202440,2,0,L|129:134,1,62.5,8|0,0:0|0:0,0:0:0:0:
81,194,202688,2,0,P|22:204|2:144,1,125,6|0,1:2|0:0,0:0:0:0:
41,86,203060,1,0,1:0:0:0:
169,203,203307,1,0,1:0:0:0:
169,203,203431,6,0,P|143:264|178:310,1,125,14|0,0:0|0:0,0:0:0:0:
260,304,203803,2,0,P|285:242|250:196,1,125,10|0,0:0|0:0,0:0:0:0:
208,134,204175,1,2,1:2:0:0:
295,23,204423,5,8,0:0:0:0:
311,14,204506,1,8,0:0:0:0:
326,4,204588,2,0,L|378:15,3,41.6666666666667,8|8|8|8,0:0|1:3|1:3|1:3,0:0:0:0:
391,23,204919,6,0,B|369:88|369:88|402:124|402:124|382:203,1,186.666660970052,8|2,0:0|0:0,0:0:0:0:
385,191,205911,6,0,B|438:166|438:166|500:188,1,110.000003356934,4|0,1:0|0:0,0:0:0:0:
496,314,206407,1,10,0:0:0:0:
496,314,206531,2,0,B|443:339|443:339|381:317,1,110.000003356934,0|0,1:0|0:0,0:0:0:0:
323,284,206902,2,0,P|290:279|263:286,1,55.0000016784668,0|0,1:0|1:0,0:0:0:0:
192,301,207150,2,0,P|165:305|137:299,1,55.0000016784668,0|0,1:0|1:0,0:0:0:0:
76,249,207398,2,0,L|86:191,1,55.0000016784668,8|0,0:0|1:0,0:0:0:0:
52,42,207770,6,0,P|8:73|0:126,2,110.000003356934,4|0|0,1:2|1:0|1:0,0:0:0:0:
136,37,208390,1,8,0:0:0:0:
136,37,208514,1,0,1:0:0:0:
217,188,208886,2,0,L|211:248,1,55.0000016784668,0|0,1:0|1:0,0:0:0:0:
141,275,209134,2,0,L|135:335,1,55.0000016784668,0|0,1:0|1:0,0:0:0:0:
195,384,209382,1,8,0:0:0:0:
287,286,209630,1,0,1:0:0:0:
404,368,209878,6,0,B|446:353|446:353|471:361|471:361|540:344,1,110.000003356934,6|0,1:2|0:0,0:0:0:0:
512,207,210374,1,10,0:0:0:0:
512,207,210498,2,0,B|470:192|470:192|445:200|445:200|406:191,1,110.000003356934,0|0,1:0|0:0,0:0:0:0:
335,156,210869,2,0,P|304:152|278:160,1,55.0000016784668,0|0,1:0|1:0,0:0:0:0:
205,178,211117,2,0,P|174:181|148:173,1,55.0000016784668,0|0,1:0|1:0,0:0:0:0:
82,131,211365,2,0,L|82:74,1,55.0000016784668,8|0,0:0|1:0,0:0:0:0:
100,273,211737,6,0,B|60:290|60:290|35:281|35:281|-1:299,2,110.000003356934,4|10|0,1:2|0:0|1:0,0:0:0:0:
169,315,212357,2,0,P|216:342|267:326,1,110.000003356934,10|0,0:0|0:0,0:0:0:0:
334,278,212729,2,0,P|323:218|322:156,1,110.000003356934,0|8,1:0|0:0,0:0:0:0:
368,104,213101,2,0,L|423:94,1,55.0000016784668,0|0,1:0|1:0,0:0:0:0:
505,81,213349,1,8,0:0:0:0:
494,266,213597,1,8,0:3:0:0:
494,266,213721,1,8,0:3:0:0:
494,266,213845,6,0,B|472:218|472:218|479:192|479:192|462:145,1,110.000003356934,6|0,1:2|0:0,0:0:0:0:
305,164,214340,1,10,0:0:0:0:
305,164,214464,2,0,B|283:212|283:212|290:238|290:238|273:285,1,110.000003356934,0|0,1:0|0:0,0:0:0:0:
220,325,214836,2,0,P|193:317|165:320,1,55.0000016784668,0|0,1:0|1:0,0:0:0:0:
98,278,215084,2,0,P|106:251|103:223,1,55.0000016784668,0|0,1:0|1:0,0:0:0:0:
152,158,215332,2,0,L|211:161,1,55.0000016784668,8|0,0:0|1:0,0:0:0:0:
114,30,215704,6,0,P|53:35|-5:42,2,110.000003356934,4|0|0,1:2|1:0|1:0,0:0:0:0:
197,23,216324,1,8,0:0:0:0:
197,23,216448,1,0,1:0:0:0:
270,220,216820,2,0,L|331:218,1,55.0000016784668,0|0,1:0|1:0,0:0:0:0:
364,149,217068,2,0,L|425:147,1,55.0000016784668,0|0,1:0|1:0,0:0:0:0:
501,146,217316,1,8,0:0:0:0:
444,7,217564,1,0,1:0:0:0:
279,23,217812,6,0,L|285:132,1,110.000003356934,6|0,1:2|0:0,0:0:0:0:
178,258,218307,1,10,0:0:0:0:
178,258,218431,2,0,L|171:148,1,110.000003356934,0|0,1:0|0:0,0:0:0:0:
107,90,218803,2,0,P|78:85|52:92,1,55.0000016784668,0|0,1:0|1:0,0:0:0:0:
0,148,219051,2,0,L|4:208,1,55.0000016784668,0|0,1:0|1:0,0:0:0:0:
39,279,219299,2,0,L|96:272,1,55.0000016784668,8|0,0:0|1:0,0:0:0:0:
244,384,219671,6,0,B|197:372|197:372|186:353|186:353|144:343,2,110.000003356934,4|10|0,1:2|0:0|1:0,0:0:0:0:
324,353,220291,2,0,P|347:304|323:253,1,110.000003356934,10|0,0:0|0:0,0:0:0:0:
266,199,220663,2,0,L|284:87,1,110.000003356934,0|8,1:0|0:0,0:0:0:0:
303,10,221035,1,2,1:3:0:0:
176,94,221283,2,0,P|142:91|113:72,2,55.0000016784668,8|8|8,0:0|0:0|0:0,0:0:0:0:
169,12,221655,1,8,0:0:0:0:
