osu file format v14

[General]
AudioFilename: audio.mp3
AudioLeadIn: 0
PreviewTime: 173927
Countdown: 0
SampleSet: Soft
StackLeniency: 0.4
Mode: 0
LetterboxInBreaks: 0
WidescreenStoryboard: 0

[Editor]
Bookmarks: 10552,26419,42287,54064,58155,74023,81956,109353,113692,129560,154353,170220,174188,178155
DistanceSpacing: 0.7
BeatDivisor: 4
GridSize: 16
TimelineZoom: 2.3

[Metadata]
Title:MAYDAY (feat. Ryo from Crystal Lake)
TitleUnicode:MAYDAY (feat. Ryo from Crystal Lake)
Artist:coldrain
ArtistUnicode:coldrain
Creator:AirinCat
Version:Extra
Source:炎炎ノ消防隊
Tags:english rock anime enn Enen no Shouboutai shobotai shoubotai shoboutai brigade of flames fire force opening 2 two op second full version ver kinoshita the side effects david production fireforce
BeatmapID:2155699
BeatmapSetID:1030814

[Difficulty]
HPDrainRate:6
CircleSize:3.8
OverallDifficulty:8.8
ApproachRate:9.4
SliderMultiplier:2.6
SliderTickRate:1

[Events]
//Background and Video events
0,0,"blobpog.jpg",0,0
//Break Periods
2,129913,132851
//Storyboard Layer 0 (Background)
//Storyboard Layer 1 (Fail)
//Storyboard Layer 2 (Pass)
//Storyboard Layer 3 (Foreground)
//Storyboard Layer 4 (Overlay)
//Storyboard Sound Samples

[TimingPoints]
10540,495.867768595041,4,2,1,60,1,0
10540,-83.3333333333333,4,2,1,60,0,0
26407,-100,4,2,1,46,0,0
34341,-95.2380952380952,4,2,1,56,0,0
40044,-90.9090909090909,4,2,1,62,0,0
41035,-90.9090909090909,4,2,1,66,0,0
42275,-83.3333333333333,4,2,1,70,0,0
54052,-133.333333333333,4,2,1,50,0,0
54672,-153.846153846153,4,2,1,25,0,0
57151,-153.846153846153,4,2,1,60,0,0
58143,-80,4,2,1,74,0,1
66077,-74.0740740740741,4,2,1,78,0,1
73019,-153.846153846154,4,2,1,50,0,0
74011,-80,4,2,1,70,0,0
81944,-105.263157894737,4,2,1,44,0,0
89878,-86.9565217391304,4,2,1,60,0,0
96573,-76.9230769230769,4,2,1,70,0,0
96944,-83.3333333333333,4,2,1,70,0,0
109589,-133.333333333333,4,2,1,70,0,0
109961,-133.333333333333,4,2,1,50,0,0
113680,-80,4,2,1,74,0,1
121614,-74.0740740740741,4,2,1,78,0,1
128556,-153.846153846154,4,2,1,50,0,0
133391,-153.846153846154,4,2,1,38,0,0
133515,-153.846153846155,4,2,1,46,0,0
134011,-153.846153846155,4,2,1,30,0,0
135498,-153.846153846155,4,2,1,40,0,0
135994,-153.846153846155,4,2,1,52,0,0
136490,-153.846153846155,4,2,1,60,0,0
136986,-153.846153846155,4,2,1,68,0,0
137482,-95.2380952380952,4,2,1,68,0,0
151366,-86.9565217391304,4,2,1,70,0,0
152358,-74.0740740740741,4,2,1,66,0,0
152440,-74.0740740740741,4,2,1,5,0,0
152688,-74.0740740740741,4,2,1,66,0,0
152771,-74.0740740740741,4,2,1,5,0,0
153019,-285.714285714286,4,2,1,66,0,0
153515,-285.714285714286,4,2,1,5,0,0
154341,495.867768595041,4,2,1,64,1,0
154341,-95.2380952380952,4,2,1,64,0,0
170208,-95.2380952380952,4,2,1,24,0,0
173183,-153.846153846154,4,2,2,48,0,0
173307,-153.846153846154,4,2,2,30,0,0
173679,-181.818181818182,4,2,1,60,0,0
173927,-181.818181818182,4,2,1,20,0,0
174175,-68.9655172413793,4,2,1,60,0,0
174919,-80,4,2,1,60,0,0
175663,-95.2380952380954,4,2,1,60,0,0
177026,-86.9565217391304,4,2,1,60,0,0
178142,-74.0740740740741,4,2,1,78,0,1
180374,-74.0740740740741,4,2,1,60,0,0
181861,-117.647058823529,4,2,1,60,0,0
182109,-80,4,2,1,78,0,1
188679,-80,4,2,1,64,0,0
189547,-80,4,2,1,68,0,0
190043,-74.0740740740741,4,2,1,80,0,1
204919,-166.666666666667,4,2,1,50,0,0
205911,-83.3333333333333,4,2,1,70,0,0

[Colours]
Combo1 : 198,169,168
Combo2 : 231,107,111
Combo3 : 184,184,184
Combo4 : 228,116,141
SliderTrackOverride : 5,5,5
SliderBorder : 250,250,250

[HitObjects]
90,207,10540,5,4,1:1:0:0:
161,265,10663,2,0,P|238:264|277:193,1,155.999995239258,0|0,1:0|0:0,0:0:0:0:
107,57,11035,1,8,0:0:0:0:
197,30,11159,2,0,B|202:92|202:92|185:116|185:116|192:189,1,155.999995239258,0|0,1:0|0:0,0:0:0:0:
12,348,11531,6,0,L|-3:259,1,77.999997619629,0|0,1:0|1:0,0:0:0:0:
206,276,11779,2,0,L|191:362,1,77.999997619629,0|0,1:0|1:0,0:0:0:0:
90,207,12027,1,8,0:0:0:0:
90,207,12151,2,0,L|78:130,1,77.999997619629,0|0,1:0|0:0,0:0:0:0:
269,184,12399,6,0,P|310:175|346:169,1,77.999997619629,0|0,1:0|0:0,0:0:0:0:
155,84,12647,2,0,P|66:102|-7:110,1,155.999995239258,0|0,1:0|1:0,0:0:0:0:
206,276,13019,1,8,0:0:0:0:
276,202,13143,2,0,B|339:188|339:188|366:208|366:208|430:193,1,155.999995239258,0|0,1:0|0:0,0:0:0:0:
512,76,13515,5,0,1:0:0:0:
400,64,13639,1,0,1:0:0:0:
441,183,13763,1,0,1:0:0:0:
510,92,13887,1,0,1:0:0:0:
377,72,14011,2,0,P|336:66|292:60,1,77.999997619629,8|0,0:0|0:0,0:0:0:0:
139,171,14259,2,0,P|181:166|230:158,1,77.999997619629,0|0,1:0|0:0,0:0:0:0:
321,292,14506,5,4,1:2:0:0:
223,316,14630,2,0,P|223:237|215:150,1,155.999995239258,0|0,1:0|0:0,0:0:0:0:
49,54,15002,1,8,0:0:0:0:
0,143,15126,2,0,P|45:190|122:144,1,155.999995239258,0|0,1:0|0:0,0:0:0:0:
292,8,15498,6,0,L|214:-1,1,77.999997619629,0|0,1:0|1:0,0:0:0:0:
216,160,15746,2,0,L|293:150,1,77.999997619629,0|0,1:0|1:0,0:0:0:0:
126,63,15994,1,8,0:0:0:0:
126,63,16118,2,0,L|38:52,1,77.999997619629,0|0,1:0|0:0,0:0:0:0:
343,80,16366,6,0,P|383:72|422:64,1,77.999997619629,4|0,1:2|0:0,0:0:0:0:
445,295,16614,2,0,P|384:249|417:183,1,155.999995239258,8|0,0:0|1:0,0:0:0:0:
291,362,16986,2,0,B|233:344|233:344|202:361|202:361|131:342,1,155.999995239258,8|0,0:0|0:0,0:0:0:0:
0,84,17358,6,0,P|9:151|27:243,1,155.999995239258,4|8,1:2|1:3,0:0:0:0:
166,242,17730,1,8,1:3:0:0:
166,242,17854,1,8,1:3:0:0:
220,146,17978,1,8,0:0:0:0:
140,65,18101,2,0,B|107:77|77:63|77:63|54:90|54:90|26:78|-13:86,1,155.999995239258,0|0,1:0|0:0,0:0:0:0:
166,242,18473,5,4,1:2:0:0:
220,146,18597,2,0,P|287:126|349:189,1,155.999995239258,0|0,1:0|0:0,0:0:0:0:
512,329,18969,1,8,0:0:0:0:
415,363,19093,2,0,P|423:286|435:205,1,155.999995239258,0|0,1:0|0:0,0:0:0:0:
307,6,19465,6,0,P|313:42|320:92,1,77.999997619629,0|0,1:0|1:0,0:0:0:0:
475,133,19713,2,0,P|480:90|488:55,1,77.999997619629,0|0,1:0|1:0,0:0:0:0:
333,175,19961,1,8,0:0:0:0:
333,175,20085,2,0,P|341:214|347:253,1,77.999997619629,0|0,1:0|0:0,0:0:0:0:
501,304,20333,6,0,P|506:261|512:227,1,77.999997619629,0|0,1:0|0:0,0:0:0:0:
273,357,20581,2,0,B|320:348|320:348|360:374|360:374|418:360,1,155.999995239258,0|0,1:0|1:0,0:0:0:0:
217,251,20953,1,8,0:0:0:0:
144,316,21077,2,0,P|54:297|55:208,1,155.999995239258,0|0,1:0|0:0,0:0:0:0:
37,104,21449,5,0,1:0:0:0:
146,159,21573,1,0,1:0:0:0:
46,217,21697,1,0,1:0:0:0:
51,102,21820,1,0,1:0:0:0:
167,164,21944,2,0,P|206:154|243:150,1,77.999997619629,8|0,0:0|0:0,0:0:0:0:
325,17,22192,2,0,P|287:8|240:-3,1,77.999997619629,0|0,1:0|0:0,0:0:0:0:
392,196,22440,5,4,1:2:0:0:
397,99,22564,2,0,P|434:34|523:67,1,155.999995239258,0|0,1:0|0:0,0:0:0:0:
470,267,22936,1,8,0:0:0:0:
392,196,23060,2,0,B|333:185|333:185|298:204|298:204|231:193,1,155.999995239258,0|0,1:0|0:0,0:0:0:0:
143,349,23432,6,0,P|183:341|219:335,1,77.999997619629,0|0,1:0|1:0,0:0:0:0:
76,235,23680,2,0,L|-1:221,1,77.999997619629,0|0,1:0|1:0,0:0:0:0:
137,119,23928,1,8,0:0:0:0:
137,119,24052,2,0,P|178:114|218:109,1,77.999997619629,0|0,1:0|0:0,0:0:0:0:
397,307,24300,6,0,P|357:300|318:297,1,77.999997619629,4|0,1:2|0:0,0:0:0:0:
229,25,24548,2,0,P|286:48|302:156,1,155.999995239258,10|0,0:0|1:0,0:0:0:0:
262,365,24920,2,0,P|227:299|260:225,1,155.999995239258,10|0,0:0|0:0,0:0:0:0:
512,228,25292,6,0,P|437:218|353:214,1,155.999995239258,4|8,1:2|0:3,0:0:0:0:
150,331,25663,1,8,1:3:0:0:
48,291,25787,1,8,1:3:0:0:
42,179,25911,2,0,L|43:99,1,77.999997619629,8|8,0:0|0:3,0:0:0:0:
279,106,26159,1,8,0:0:0:0:
170,230,26283,1,8,0:0:0:0:
91,21,26407,6,0,L|227:32,1,130,2|2,1:2|1:2,0:0:0:0:
500,102,26903,1,10,0:0:0:0:
500,102,27027,2,0,P|441:99|395:147,1,130,0|0,1:0|0:0,0:0:0:0:
497,304,27399,2,0,P|474:243|474:168,1,130,2|0,1:2|0:0,0:0:0:0:
388,237,27771,1,0,1:0:0:0:
388,237,27895,2,0,B|303:232,1,65,10|0,0:0|1:0,0:0:0:0:
101,357,28267,6,0,P|156:343|173:273,1,130,2|0,1:2|1:0,0:0:0:0:
140,201,28639,2,0,P|108:197|68:195,1,65,2|0,0:0|1:0,0:0:0:0:
7,134,28887,1,10,0:0:0:0:
7,134,29011,2,0,P|-6:66|35:24,1,130,2|0,1:2|0:0,0:0:0:0:
127,16,29382,2,0,B|174:18|174:18|191:38|191:38|259:35,1,130,2|2,1:2|1:2,0:0:0:0:
355,45,29754,1,0,1:0:0:0:
355,45,29878,2,0,L|334:135,1,65,10|0,0:2|1:0,0:0:0:0:
392,205,30126,6,0,B|448:159|462:221|521:162,2,130,2|0|0,0:0|1:0|1:0,0:0:0:0:
170,376,30870,1,10,0:0:0:0:
170,376,30994,2,0,P|163:294|150:234,1,130,0|0,1:0|0:0,0:0:0:0:
0,153,31366,2,0,P|43:191|107:171,1,130,2|2,1:2|0:0,0:0:0:0:
165,112,31738,1,0,1:0:0:0:
165,112,31862,2,0,P|160:82|155:45,1,65,10|0,0:2|1:0,0:0:0:0:
263,24,32110,5,2,0:0:0:0:
263,24,32234,2,0,B|315:36|315:36|332:24|332:24|390:37,1,130,0|0,1:0|1:0,0:0:0:0:
512,120,32606,2,0,L|448:130,1,65,2|0,0:0|1:0,0:0:0:0:
420,240,32854,1,8,0:0:0:0:
420,240,33101,5,2,0:0:0:0:
327,212,33225,2,0,B|281:214|281:214|257:232|257:232|195:236,1,130,0|0,1:0|0:0,0:0:0:0:
85,338,33597,2,0,L|162:350,1,65,2|0,1:2|0:0,0:0:0:0:
161,156,33845,1,8,0:0:0:0:
89,237,33969,1,8,1:3:0:0:
0,182,34093,1,12,0:3:0:0:
0,182,34341,6,0,P|37:133|22:51,1,136.499995834351,6|2,1:2|1:2,0:0:0:0:
319,10,34837,1,10,0:0:0:0:
319,10,34961,2,0,B|261:3|261:3|233:14|233:14|170:5,1,136.499995834351,0|0,1:0|0:0,0:0:0:0:
317,143,35333,2,0,P|367:91|429:115,1,136.499995834351,2|0,1:2|0:0,0:0:0:0:
501,210,35705,1,0,1:0:0:0:
501,210,35829,2,0,B|511:137,1,68.2499979171754,10|0,0:0|1:0,0:0:0:0:
203,353,36201,6,0,P|277:355|314:298,1,136.499995834351,2|0,1:2|1:0,0:0:0:0:
219,172,36573,2,0,L|231:250,1,68.2499979171754,2|0,0:0|1:0,0:0:0:0:
89,355,36820,1,10,0:0:0:0:
89,355,36944,2,0,P|93:288|104:204,1,136.499995834351,2|0,1:2|0:0,0:0:0:0:
0,55,37316,6,0,P|9:111|20:200,1,136.499995834351,2|0,1:2|1:0,0:0:0:0:
180,128,37688,1,0,1:0:0:0:
180,128,37812,2,0,L|101:137,1,68.2499979171754,10|0,0:0|1:0,0:0:0:0:
268,51,38060,6,0,P|335:53|380:-6,2,136.499995834351,2|0|0,0:0|1:0|1:0,0:0:0:0:
506,119,38804,1,10,0:0:0:0:
506,119,38928,2,0,P|496:174|490:271,1,136.499995834351,0|0,1:0|0:0,0:0:0:0:
362,347,39300,2,0,L|430:361,1,68.2499979171754,2|0,1:2|0:0,0:0:0:0:
361,207,39548,2,0,L|292:221,1,68.2499979171754,2|0,0:0|1:0,0:0:0:0:
355,361,39796,2,0,L|423:375,1,68.2499979171754,10|0,0:0|1:0,0:0:0:0:
279,202,40044,5,2,0:0:0:0:
210,270,40168,2,0,B|223:367,1,71.5000021820069,2|0,1:3|0:0,0:0:0:0:
122,216,40416,1,8,0:0:0:0:
191,145,40539,2,0,L|180:56,1,71.5000021820069,2|0,0:0|1:0,0:0:0:0:
20,185,40787,2,0,B|29:276,1,71.5000021820069,8|0,0:0|0:0,0:0:0:0:
302,291,41035,6,0,B|354:299|354:299|386:279|386:279|446:290,1,143.000004364014,6|0,0:2|0:0,0:0:0:0:
512,160,41407,1,8,0:0:0:0:
417,100,41531,2,0,L|407:184,1,71.5000021820069,2|0,1:2|0:0,0:0:0:0:
235,272,41779,1,8,0:0:0:0:
306,111,41903,1,8,0:0:0:0:
357,272,42027,1,8,0:0:0:0:
208,164,42151,1,8,0:0:0:0:
409,171,42275,6,0,L|491:153,1,77.999997619629,4|0,1:1|0:0,0:0:0:0:
192,163,42523,2,0,L|106:140,1,77.999997619629,2|0,0:0|0:0,0:0:0:0:
0,343,42771,1,10,0:0:0:0:
85,377,42895,2,0,B|93:330|93:330|137:307|137:307|148:240,1,155.999995239258,0|0,1:0|0:0,0:0:0:0:
15,96,43267,6,0,L|33:191,1,77.999997619629,0|0,1:0|0:0,0:0:0:0:
103,15,43515,2,0,B|140:0|140:0|179:10,1,77.999997619629,2|0,1:2|0:0,0:0:0:0:
278,142,43763,2,0,B|241:155|241:155|200:144,1,77.999997619629,10|0,0:2|1:0,0:0:0:0:
353,44,44011,1,2,0:0:0:0:
427,118,44135,2,0,B|476:103|476:103|535:122|535:122|510:85,1,155.999995239258,0|0,1:0|1:0,0:0:0:0:
367,201,44506,6,0,B|343:234|343:234|348:275,1,77.999997619629,2|0,0:0|1:0,0:0:0:0:
469,382,44754,2,0,B|452:344|452:344|414:328,1,77.999997619629,10|0,0:0|1:0,0:0:0:0:
256,377,45002,2,0,B|296:381|296:381|329:356,1,77.999997619629,2|0,0:0|0:0,0:0:0:0:
135,191,45250,5,6,1:2:0:0:
220,227,45374,2,0,B|239:259|239:259|235:305,1,77.999997619629,0|0,1:0|1:0,0:0:0:0:
139,101,45622,1,2,1:2:0:0:
232,79,45746,2,0,B|242:41|242:41|233:3,1,77.999997619629,8|0,0:0|0:0,0:0:0:0:
47,104,45994,2,0,B|35:143|35:143|47:182,1,77.999997619629,2|0,1:2|0:0,0:0:0:0:
122,355,46242,6,0,L|40:339,1,77.999997619629,4|0,1:2|0:0,0:0:0:0:
231,97,46490,2,0,L|218:176,1,77.999997619629,2|0,0:0|0:0,0:0:0:0:
287,365,46738,1,10,0:0:0:0:
332,279,46862,2,0,B|274:263|274:263|234:290|234:290|185:277,1,155.999995239258,0|0,1:0|0:0,0:0:0:0:
395,353,47234,6,0,L|488:334,1,77.999997619629,0|0,1:0|0:0,0:0:0:0:
384,129,47482,2,0,B|370:163|370:163|383:213,1,77.999997619629,2|0,0:2|1:0,0:0:0:0:
512,84,47730,2,0,B|521:43|521:43|500:-2,1,77.999997619629,10|0,0:2|1:0,0:0:0:0:
255,108,47978,1,2,0:0:0:0:
246,21,48101,6,0,B|276:-19|314:-14|314:-14|342:22|326:60,1,155.999995239258,4|8,1:2|0:0,0:0:0:0:
171,118,48473,1,2,0:0:0:0:
90,28,48597,1,2,1:2:0:0:
38,122,48721,2,0,L|61:201,1,77.999997619629,10|0,0:0|0:0,0:0:0:0:
4,365,48969,2,0,P|14:320|18:288,1,77.999997619629,2|0,0:0|1:0,0:0:0:0:
259,319,49217,6,0,B|217:311|193:345|193:345|143:348|120:311,1,155.999995239258,6|0,0:0|1:0,0:0:0:0:
275,144,49589,1,2,1:2:0:0:
275,144,49713,2,0,P|280:182|292:227,1,77.999997619629,8|0,0:0|1:0,0:0:0:0:
137,79,49961,2,0,P|130:112|114:154,1,77.999997619629,8|8,0:3|0:3,0:0:0:0:
403,273,50209,6,0,L|484:255,1,77.999997619629,4|0,1:2|1:0,0:0:0:0:
470,76,50457,2,0,L|382:61,1,77.999997619629,2|0,0:0|0:0,0:0:0:0:
225,210,50705,1,10,0:0:0:0:
316,245,50829,2,0,B|324:193|324:193|298:153|298:153|305:97,1,155.999995239258,0|0,1:0|0:0,0:0:0:0:
192,304,51201,6,0,L|179:380,1,77.999997619629,0|0,1:0|0:0,0:0:0:0:
16,269,51449,2,0,B|2:193,1,77.999997619629,2|0,1:2|1:0,0:0:0:0:
192,118,51697,2,0,B|176:197,1,77.999997619629,10|0,0:0|1:0,0:0:0:0:
87,2,51944,1,2,0:0:0:0:
0,50,52068,2,0,B|11:105|11:105|9:113|9:113|31:205,1,155.999995239258,0|0,1:0|1:0,0:0:0:0:
267,120,52440,6,0,B|227:109|227:109|186:118,1,77.999997619629,2|0,0:0|1:0,0:0:0:0:
404,104,52688,2,0,B|431:75|431:75|443:34,1,77.999997619629,10|0,0:0|1:0,0:0:0:0:
369,245,52936,2,0,B|378:282|378:282|408:313,1,77.999997619629,2|0,0:0|0:0,0:0:0:0:
108,191,53184,5,4,1:2:0:0:
108,191,53308,2,0,L|13:205,1,77.999997619629,0|0,1:0|0:0,0:0:0:0:
218,370,53556,1,2,1:2:0:0:
218,370,53680,2,0,L|124:356,1,77.999997619629,8|2,0:0|1:3,0:0:0:0:
280,174,53928,5,2,0:0:0:0:
280,174,54052,2,0,B|208:188|208:188|197:187|197:187|114:204,1,146.250005578995,2|0,1:3|0:0,0:0:0:0:
136,200,54672,6,0,P|153:157|148:110,1,84.4999961318971,2|0,0:0|0:0,0:0:0:0:
19,182,55168,2,0,P|19:226|36:265,1,84.4999961318971,2|0,0:0|0:0,0:0:0:0:
191,329,55663,2,0,P|151:315|110:323,1,84.4999961318971,2|0,0:0|0:0,0:0:0:0:
292,321,56159,6,0,P|326:297|375:295,2,84.4999961318971,2|2|2,0:0|0:0|0:0,0:0:0:0:
355,384,56903,1,2,0:0:0:0:
108,116,57151,5,8,0:0:0:0:
111,293,57275,1,8,0:0:0:0:
261,203,57399,1,8,0:0:0:0:
117,127,57523,1,2,1:3:0:0:
222,280,58143,6,0,P|314:282|346:210,1,162.5,4|0,1:1|0:0,0:0:0:0:
251,47,58515,2,0,B|247:104|247:104|267:134|267:134|260:215,1,162.5,10|0,0:0|0:0,0:0:0:0:
39,246,58887,2,0,B|80:231|93:188|93:188|123:225|170:215,1,162.5,2|0,1:2|0:0,0:0:0:0:
321,305,59259,2,0,P|412:287|416:206,1,162.5,2|0,1:2|0:0,0:0:0:0:
217,109,59630,6,0,B|176:85|99:96|99:96|145:54,1,162.5,10|0,1:2|0:0,0:0:0:0:
352,11,60002,2,0,P|320:79|309:173,1,162.5,8|0,0:0|0:0,0:0:0:0:
427,332,60374,2,0,P|414:253|340:251,1,162.5,0|0,1:0|0:0,0:0:0:0:
165,324,60746,1,0,1:0:0:0:
257,376,60870,2,0,P|262:330|266:271,1,81.25,2|0,0:0|0:0,0:0:0:0:
18,93,61118,6,0,P|31:159|46:262,1,162.5,10|2,1:2|0:0,0:0:0:0:
200,101,61490,1,8,0:0:0:0:
249,207,61614,2,0,P|207:212|163:221,1,81.25,2|0,0:0|0:0,0:0:0:0:
30,255,61862,1,10,0:0:0:0:
108,140,61986,1,8,0:0:0:0:
231,297,62110,6,0,B|325:291|276:355|381:351,1,162.5,6|0,1:2|0:0,0:0:0:0:
481,166,62482,2,0,P|400:168|375:248,1,162.5,2|0,1:2|0:0,0:0:0:0:
486,384,62854,2,0,P|489:333|495:289,1,81.25,2|0,1:2|0:0,0:0:0:0:
437,82,63101,1,8,0:0:0:0:
339,126,63225,1,0,1:2:0:0:
371,235,63349,2,0,P|420:233|459:233,1,81.25,2|0,0:0|0:0,0:0:0:0:
207,184,63597,6,0,B|143:175|143:175|115:143|115:143|38:131,1,162.5,6|0,1:2|0:0,0:0:0:0:
19,345,63969,2,0,P|4:267|71:234,1,162.5,2|0,1:2|0:0,0:0:0:0:
231,371,64341,2,0,P|190:363|140:357,1,81.25,10|0,0:0|0:0,0:0:0:0:
350,217,64589,1,8,0:0:0:0:
409,319,64713,2,0,P|451:311|507:296,1,81.25,0|0,1:0|0:0,0:0:0:0:
323,102,64961,1,0,1:0:0:0:
247,191,65085,2,0,P|205:183|149:166,1,81.25,8|0,0:0|0:0,0:0:0:0:
308,0,65333,6,0,P|313:43|319:86,1,81.25,0|0,1:0|0:0,0:0:0:0:
194,271,65581,1,8,0:0:0:0:
90,206,65705,1,8,0:3:0:0:
142,85,65829,2,0,P|149:38|151:-7,1,81.25,8|0,0:3|0:0,0:0:0:0:
0,215,66077,6,0,B|14:273|14:273|-4:313|-4:313|11:384,1,175.500000669479,4|0,1:1|0:0,0:0:0:0:
274,220,66449,1,2,1:2:0:0:
261,342,66573,2,0,P|214:349|166:363,1,87.7500003347397,8|0,0:0|0:0,0:0:0:0:
224,148,66820,2,0,P|287:131|361:219,1,175.500000669479,2|0,1:2|0:0,0:0:0:0:
445,383,67192,2,0,B|485:347|482:302|449:270|449:270|436:290|406:303,1,175.500000669479,2|0,1:2|0:0,0:0:0:0:
140,268,67564,6,0,P|126:187|107:84,1,175.500000669479,14|0,0:0|0:0,0:0:0:0:
324,11,67936,2,0,P|301:69|205:30,1,175.500000669479,0|0,1:0|0:0,0:0:0:0:
0,15,68308,2,0,P|47:7|99:-2,1,87.7500003347397,0|0,1:0|0:0,0:0:0:0:
287,166,68556,1,8,0:0:0:0:
204,254,68680,1,0,1:0:0:0:
90,200,68804,2,0,L|70:93,1,87.7500003347397,2|0,0:0|0:0,0:0:0:0:
432,358,69052,6,0,P|478:335|511:320,1,87.7500003347397,6|0,1:2|0:0,0:0:0:0:
440,138,69300,2,0,P|400:117|358:98,1,87.7500003347397,2|0,1:2|1:0,0:0:0:0:
247,374,69548,2,0,P|296:349|330:334,1,87.7500003347397,10|0,0:0|0:0,0:0:0:0:
258,153,69796,2,0,P|218:132|176:113,1,87.7500003347397,2|0,0:0|0:0,0:0:0:0:
34,363,70044,6,0,P|23:272|7:183,1,175.500000669479,6|0,1:2|0:0,0:0:0:0:
150,34,70416,1,2,1:2:0:0:
42,0,70539,2,0,P|34:43|23:94,1,87.7500003347397,10|0,0:0|0:0,0:0:0:0:
269,235,70787,2,0,P|332:190|318:99,1,175.500000669479,6|0,1:2|0:0,0:0:0:0:
96,207,71159,2,0,L|114:304,1,87.7500003347397,0|0,1:0|0:0,0:0:0:0:
258,356,71407,5,0,1:0:0:0:
258,356,71469,1,0,1:0:0:0:
258,356,71531,2,0,B|306:334|306:334|351:362|351:362|428:331,1,175.500000669479,12|0,1:2|0:0,0:0:0:0:
450,152,71903,2,0,P|371:165|355:254,1,175.500000669479,10|0,0:2|0:0,0:0:0:0:
512,376,72275,2,0,P|502:323|498:278,1,87.7500003347397,2|0,1:2|0:0,0:0:0:0:
423,59,72523,5,8,0:0:0:0:
383,35,72606,1,8,0:0:0:0:
335,33,72688,1,8,0:0:0:0:
301,52,72771,1,4,0:3:0:0:
280,80,72854,1,4,0:3:0:0:
268,109,72936,1,4,0:3:0:0:
264,137,73019,6,0,P|207:180|136:121,1,168.999992263794,8|0,0:0|0:0,0:0:0:0:
62,24,73680,2,0,P|54:55|42:100,1,56.3333307545981,2|0,0:0|0:0,0:0:0:0:
26,335,74011,5,4,1:1:0:0:
95,275,74135,2,0,B|110:227|72:200|72:200|23:203|8:247,1,162.5,0|0,1:0|0:0,0:0:0:0:
178,357,74506,1,10,0:0:0:0:
246,299,74630,2,0,B|289:288|321:307|321:307|334:294|334:294|365:308|408:297,1,162.5,0|0,1:0|0:0,0:0:0:0:
302,90,75002,6,0,P|298:127|297:180,1,81.25,0|0,1:0|1:0,0:0:0:0:
400,299,75250,2,0,L|417:219,1,81.25,0|0,1:0|1:0,0:0:0:0:
195,283,75498,1,8,0:0:0:0:
195,283,75622,2,0,L|178:203,1,81.25,0|0,1:0|0:0,0:0:0:0:
320,83,75870,6,0,P|314:119|311:175,1,81.25,0|0,1:0|0:0,0:0:0:0:
78,94,76118,2,0,P|136:29|198:74,1,162.5,0|0,1:0|1:0,0:0:0:0:
79,230,76490,2,0,P|39:218|-5:212,1,81.25,8|0,0:0|0:0,0:0:0:0:
228,359,76738,2,0,P|272:348|313:334,1,81.25,0|0,1:0|0:0,0:0:0:0:
445,172,76986,5,0,1:0:0:0:
331,140,77110,1,0,1:0:0:0:
357,267,77234,1,0,1:0:0:0:
449,185,77358,1,0,1:0:0:0:
305,150,77482,2,0,P|264:158|214:169,1,81.25,8|0,0:0|0:0,0:0:0:0:
116,49,77730,2,0,P|154:58|207:68,1,81.25,0|0,1:0|0:0,0:0:0:0:
79,281,77978,5,6,1:2:0:0:
26,212,78101,2,0,B|2:149|2:149|45:105|45:105|54:138,1,162.5,0|0,1:0|0:0,0:0:0:0:
136,351,78473,1,10,0:0:0:0:
231,299,78597,2,0,B|274:293|274:293|307:311|307:311|340:296|340:296|414:302,1,162.5,0|0,1:0|0:0,0:0:0:0:
512,186,78969,6,0,L|497:106,1,81.25,0|0,1:0|1:0,0:0:0:0:
311,217,79217,2,0,L|325:137,1,81.25,0|0,1:0|1:0,0:0:0:0:
453,354,79465,1,8,0:0:0:0:
453,354,79589,2,0,L|438:274,1,81.25,0|0,1:0|0:0,0:0:0:0:
236,45,79837,6,0,L|222:129,1,81.25,4|0,1:2|0:0,0:0:0:0:
0,218,80085,2,0,P|82:177|132:233,1,162.5,10|0,0:0|1:0,0:0:0:0:
363,253,80457,2,0,P|298:294|235:251,1,162.5,10|0,0:0|0:0,0:0:0:0:
224,3,80829,6,0,L|198:181,1,162.5,0|8,1:0|0:3,0:0:0:0:
366,348,81201,1,8,0:3:0:0:
455,273,81325,1,8,1:3:0:0:
400,168,81449,2,0,L|306:152,1,81.25,8|0,0:0|1:0,0:0:0:0:
152,333,81697,1,8,0:0:0:0:
90,185,81820,1,8,0:0:0:0:
264,227,81944,6,0,L|247:362,1,123.499996702194,4|2,1:2|1:2,0:0:0:0:
0,156,82440,1,10,0:0:0:0:
0,156,82564,2,0,P|-21:81|11:35,1,123.499996702194,0|0,1:0|0:0,0:0:0:0:
192,89,82936,2,0,P|136:95|66:97,1,123.499996702194,2|0,1:2|0:0,0:0:0:0:
84,187,83308,1,0,1:0:0:0:
84,187,83432,2,0,L|81:257,1,61.7499983510972,10|0,0:0|1:0,0:0:0:0:
285,234,83804,6,0,P|241:246|227:324,1,123.499996702194,2|0,1:2|1:0,0:0:0:0:
284,380,84176,2,0,P|315:377|355:378,1,61.7499983510972,2|0,0:0|1:0,0:0:0:0:
435,336,84424,1,10,0:0:0:0:
435,336,84548,2,0,P|416:271|456:218,1,123.499996702194,2|0,1:2|0:0,0:0:0:0:
483,134,84920,2,0,B|438:126|438:126|412:137|412:137|352:127,1,123.499996702194,2|0,1:2|1:0,0:0:0:0:
281,69,85292,1,0,1:0:0:0:
281,69,85416,2,0,L|287:6,1,61.7499983510972,10|0,0:0|1:0,0:0:0:0:
188,121,85663,6,0,B|105:116|143:71|70:73,2,123.499996702194,2|0|0,0:0|1:0|1:0,0:0:0:0:
280,321,86407,1,10,0:2:0:0:
280,321,86531,2,0,P|283:252|326:225,1,123.499996702194,0|0,1:2|0:0,0:0:0:0:
186,343,86903,2,0,P|115:330|47:323,1,123.499996702194,2|2,1:2|0:0,0:0:0:0:
27,243,87275,1,0,1:0:0:0:
27,243,87399,2,0,L|41:177,1,61.7499983510972,10|0,0:0|1:0,0:0:0:0:
31,78,87647,5,2,0:0:0:0:
31,78,87771,2,0,B|80:85|80:85|112:69|112:69|160:78,1,123.499996702194,0|0,1:0|1:0,0:0:0:0:
267,153,88143,2,0,L|189:162,1,61.7499983510972,2|0,0:0|1:0,0:0:0:0:
214,13,88391,2,0,L|295:30,1,61.7499983510972,8|0,0:0|1:0,0:0:0:0:
414,128,88639,5,2,0:0:0:0:
414,128,88763,2,0,B|361:130|361:130|340:151|340:151|279:152,1,123.499996702194,0|0,1:0|0:0,0:0:0:0:
264,266,89135,2,0,L|342:281,1,61.7499983510972,2|0,1:2|1:0,0:0:0:0:
205,160,89382,1,8,0:0:0:0:
104,177,89506,1,8,1:3:0:0:
94,290,89630,1,8,0:3:0:0:
195,341,89754,1,8,0:3:0:0:
324,277,89878,6,0,B|386:286|386:286|408:312|408:312|484:318,1,149.500002851486,4|2,1:0|1:2,1:2:0:0:
512,27,90374,1,10,0:0:0:0:
512,27,90498,2,0,P|454:58|466:150,1,149.500002851486,0|0,1:0|0:0,0:0:0:0:
289,180,90870,2,0,L|369:192,1,74.7500014257431,2|0,1:2|0:0,0:0:0:0:
349,15,91118,2,0,L|272:28,1,74.7500014257431,2|0,0:0|1:0,0:0:0:0:
281,201,91366,2,0,L|357:212,1,74.7500014257431,10|0,0:0|1:0,0:0:0:0:
135,0,91614,5,2,0:0:0:0:
135,0,91738,2,0,B|150:74|86:53|108:142,1,149.500002851486,0|0,1:0|1:0,0:0:0:0:
27,223,92110,2,0,P|14:178|-6:147,1,74.7500014257431,2|0,0:0|1:0,0:0:0:0:
193,254,92358,2,0,P|207:201|224:174,1,74.7500014257431,10|0,0:0|1:0,0:0:0:0:
27,384,92606,2,0,P|14:339|-6:308,1,74.7500014257431,2|0,0:0|0:0,0:0:0:0:
193,254,92854,6,0,P|122:252|97:318,1,149.500002851486,2|0,1:2|1:0,0:0:0:0:
275,384,93225,1,0,1:0:0:0:
275,384,93349,2,0,P|267:332|269:288,1,74.7500014257431,10|0,0:0|1:0,0:0:0:0:
295,170,93597,6,0,B|288:125|317:98|317:98|314:55|280:40,2,149.500002851486,2|0|0,0:0|1:0|1:0,0:0:0:0:
512,356,94341,1,10,0:0:0:0:
512,356,94465,2,0,P|446:330|393:395,1,149.500002851486,0|0,1:0|0:0,0:0:0:0:
508,237,94837,2,0,L|518:153,1,74.7500014257431,2|0,1:2|0:0,0:0:0:0:
418,68,95085,2,0,L|421:147,1,74.7500014257431,2|0,0:0|1:0,0:0:0:0:
331,240,95333,2,0,L|318:155,1,74.7500014257431,10|0,0:0|1:0,0:0:0:0:
208,25,95581,1,2,0:0:0:0:
137,98,95705,6,0,L|57:90,1,74.7500014257431,6|0,1:2|0:0,0:0:0:0:
2,209,95953,1,8,0:0:0:0:
81,250,96077,2,0,L|174:227,1,74.7500014257431,2|0,1:2|0:0,0:0:0:0:
135,82,96325,2,0,L|59:74,1,74.7500014257431,8|0,0:0|0:0,0:0:0:0:
303,33,96573,6,0,B|308:72|308:72|294:101|294:101|302:128|302:128|286:155|286:155|289:195,1,168.999992263794,6|0,0:2|0:0,0:0:0:0:
357,370,96944,1,8,0:0:0:0:
454,264,97068,2,0,L|375:262,1,77.999997619629,2|0,1:2|0:0,0:0:0:0:
185,367,97316,1,8,0:0:0:0:
167,165,97440,1,8,0:0:0:0:
299,292,97564,1,8,0:0:0:0:
88,278,97688,1,8,0:0:0:0:
288,192,97812,6,0,L|374:181,1,77.999997619629,4|0,1:0|0:0,0:0:0:0:
512,61,98060,2,0,L|426:50,1,77.999997619629,2|0,0:0|0:0,0:0:0:0:
403,308,98308,1,10,0:0:0:0:
495,324,98432,2,0,B|504:268|504:268|474:232|474:232|488:171,1,155.999995239258,0|0,1:0|0:0,0:0:0:0:
288,18,98804,6,0,L|303:105,1,77.999997619629,0|0,1:0|1:0,0:0:0:0:
136,212,99052,2,0,B|164:189|164:189|206:189,1,77.999997619629,2|0,1:2|0:0,0:0:0:0:
264,354,99300,2,0,B|236:377|236:377|194:377,1,77.999997619629,10|0,0:0|1:0,0:0:0:0:
79,137,99548,1,2,0:0:0:0:
6,204,99672,2,0,B|-19:252|-19:252|6:295|6:295|5:363,1,155.999995239258,0|0,1:0|1:0,0:0:0:0:
184,377,100044,6,0,L|172:299,1,77.999997619629,2|0,0:0|1:0,0:0:0:0:
363,191,100292,2,0,L|351:269,1,77.999997619629,10|0,0:0|1:0,0:0:0:0:
158,380,100539,2,0,L|146:302,1,77.999997619629,2|0,0:0|0:0,0:0:0:0:
312,97,100787,5,6,1:2:0:0:
363,191,100911,2,0,B|403:196|403:196|448:177,1,77.999997619629,0|0,1:0|1:0,0:0:0:0:
197,99,101159,1,2,1:2:0:0:
149,182,101283,2,0,B|105:188|105:188|66:170,1,77.999997619629,8|0,0:0|0:0,0:0:0:0:
215,17,101531,2,0,B|257:5|257:5|299:18,1,77.999997619629,2|0,1:2|0:0,0:0:0:0:
255,245,101779,6,0,L|264:163,1,77.999997619629,4|0,1:2|1:0,0:0:0:0:
63,96,102027,2,0,L|75:177,1,77.999997619629,2|0,0:0|0:0,0:0:0:0:
141,367,102275,1,10,0:0:0:0:
152,267,102399,2,0,B|91:276|91:276|58:313|58:313|40:260,1,155.999995239258,0|0,1:0|0:0,0:0:0:0:
256,89,102771,6,0,L|264:179,1,77.999997619629,0|0,1:0|1:0,0:0:0:0:
472,185,103019,2,0,B|433:175|433:175|391:190,1,77.999997619629,2|0,1:2|0:0,0:0:0:0:
396,355,103267,2,0,B|433:363|433:363|475:348,1,77.999997619629,10|0,0:2|0:0,0:0:0:0:
318,247,103515,1,2,0:0:0:0:
228,305,103639,6,0,B|171:313|171:313|132:282|132:282|97:293|97:293|114:321,1,155.999995239258,4|8,1:2|0:0,0:0:0:0:
301,373,104011,1,2,0:0:0:0:
359,276,104135,1,2,1:2:0:0:
470,350,104259,2,0,P|474:300|477:265,1,77.999997619629,10|0,0:0|0:0,0:0:0:0:
379,111,104506,2,0,P|390:149|397:188,1,77.999997619629,2|0,0:0|1:0,0:0:0:0:
120,192,104754,6,0,B|111:141|160:120|160:120|207:137|207:137|182:168,1,155.999995239258,6|0,0:0|1:0,0:0:0:0:
35,327,105126,1,2,1:2:0:0:
35,327,105250,2,0,P|25:284|13:248,1,77.999997619629,8|0,0:0|1:0,0:0:0:0:
215,376,105498,2,0,P|224:334|235:300,1,77.999997619629,8|8,0:3|0:3,0:0:0:0:
393,105,105746,6,0,L|469:122,1,77.999997619629,4|0,1:2|1:0,0:0:0:0:
463,310,105994,2,0,L|386:327,1,77.999997619629,2|0,0:0|0:0,0:0:0:0:
215,183,106242,1,10,0:0:0:0:
306,148,106366,2,0,B|325:180|320:211|320:211|289:244|289:244|303:286,1,155.999995239258,0|0,1:0|0:0,0:0:0:0:
201,101,106738,6,0,L|207:23,1,77.999997619629,0|0,1:0|1:0,0:0:0:0:
22,62,106986,2,0,L|34:139,1,77.999997619629,2|0,1:2|1:0,0:0:0:0:
212,287,107234,2,0,L|224:208,1,77.999997619629,10|0,0:0|1:0,0:0:0:0:
121,378,107482,1,2,0:0:0:0:
33,324,107606,2,0,B|23:272|23:272|18:262|18:262|-2:162,1,155.999995239258,0|0,1:0|1:0,0:0:0:0:
221,123,107978,6,0,B|256:104|256:104|293:109,1,77.999997619629,2|0,0:0|1:0,0:0:0:0:
334,306,108225,2,0,B|299:325|299:325|261:319,1,77.999997619629,10|0,0:0|1:0,0:0:0:0:
211,95,108473,2,0,B|246:76|246:76|283:81,1,77.999997619629,2|0,0:0|0:0,0:0:0:0:
512,270,108721,5,6,1:2:0:0:
512,270,108845,2,0,L|492:354,1,77.999997619629,0|0,1:0|1:0,0:0:0:0:
326,150,109093,1,2,1:2:0:0:
326,150,109217,2,0,L|342:233,1,77.999997619629,8|2,0:0|1:3,0:0:0:0:
495,0,109465,5,2,0:0:0:0:
495,0,109589,2,0,B|486:68|486:68|488:75|488:75|477:164,1,146.250005578995,2|0,1:3|0:0,0:0:0:0:
456,158,110209,5,0,1:0:0:0:
432,175,110705,1,0,1:0:0:0:
394,170,111201,1,0,1:0:0:0:
364,141,111697,5,2,1:2:0:0:
350,41,111944,1,2,1:2:0:0:
232,4,112192,1,2,1:2:0:0:
145,86,112440,1,2,1:2:0:0:
173,312,112688,5,8,0:0:0:0:
271,95,112812,1,8,0:0:0:0:
96,172,112936,1,8,0:0:0:0:
335,246,113060,1,2,1:3:0:0:
202,6,113680,6,0,P|196:80|185:189,1,162.5,4|0,1:1|0:0,0:0:0:0:
357,278,114052,2,0,P|352:195|283:184,1,162.5,10|0,0:0|0:0,0:0:0:0:
127,359,114424,2,0,B|186:373|211:333|211:333|259:319|291:364,1,162.5,2|0,1:2|0:0,0:0:0:0:
89,196,114796,2,0,P|10:233|40:307,1,162.5,2|0,1:2|0:0,0:0:0:0:
325,237,115168,6,0,B|379:218|379:218|417:247|417:247|510:225,1,162.5,10|0,0:0|0:0,0:0:0:0:
267,383,115539,2,0,P|253:297|214:229,1,162.5,8|0,0:0|0:0,0:0:0:0:
343,55,115911,2,0,P|337:143|257:135,1,162.5,0|0,1:0|0:0,0:0:0:0:
99,27,116283,1,0,1:0:0:0:
218,7,116407,2,0,P|207:49|198:101,1,81.25,2|0,0:0|0:0,0:0:0:0:
47,304,116655,6,0,P|28:207|2:130,1,162.5,10|2,0:0|0:0,0:0:0:0:
215,290,117027,1,8,0:0:0:0:
242,170,117151,2,0,P|193:180|153:188,1,81.25,2|0,0:0|0:0,0:0:0:0:
24,297,117399,1,10,0:0:0:0:
27,148,117523,1,8,0:0:0:0:
215,290,117647,6,0,B|275:293|275:293|306:327|306:327|387:331,1,162.5,6|0,1:2|0:0,0:0:0:0:
505,154,118019,2,0,P|440:121|380:178,1,162.5,2|0,1:2|0:0,0:0:0:0:
247,0,118391,2,0,P|285:9|331:15,1,81.25,2|0,1:2|0:0,0:0:0:0:
283,209,118639,1,8,0:0:0:0:
174,228,118763,1,0,1:0:0:0:
115,136,118887,2,0,P|123:80|126:46,1,81.25,2|0,0:0|0:0,0:0:0:0:
379,97,119135,6,0,B|319:95|319:95|299:105|278:127|278:127|208:121,1,162.5,6|0,1:2|0:0,0:0:0:0:
457,314,119506,2,0,P|466:230|396:202,1,162.5,2|0,1:2|0:0,0:0:0:0:
268,384,119878,2,0,P|315:377|358:371,1,81.25,10|0,0:0|0:0,0:0:0:0:
152,214,120126,1,8,0:0:0:0:
90,311,120250,2,0,P|40:307|-2:298,1,81.25,0|0,1:0|0:0,0:0:0:0:
165,121,120498,1,0,1:0:0:0:
252,217,120622,2,0,P|303:212|343:205,1,81.25,8|0,0:0|0:0,0:0:0:0:
400,0,120870,6,0,P|396:48|392:86,1,81.25,0|0,1:0|0:0,0:0:0:0:
332,293,121118,1,8,0:0:0:0:
453,344,121242,1,8,0:3:0:0:
512,231,121366,2,0,P|499:178|495:145,1,81.25,8|0,0:3|0:0,0:0:0:0:
212,296,121614,6,0,B|160:278|160:278|122:303|122:303|79:310|40:282,1,175.500000669479,4|0,1:1|0:0,0:0:0:0:
233,117,121986,1,2,1:2:0:0:
121,56,122110,2,0,P|118:100|112:150,1,87.7500003347397,8|0,0:0|0:0,0:0:0:0:
311,161,122358,2,0,P|318:77|249:30,1,175.500000669479,2|0,1:2|0:0,0:0:0:0:
0,50,122730,2,0,P|14:127|23:233,1,175.500000669479,2|0,1:2|0:0,0:0:0:0:
372,216,123101,6,0,B|435:174|498:213|498:213|470:243,1,175.500000669479,14|0,0:0|0:0,0:0:0:0:
347,363,123473,2,0,B|302:340|302:340|263:346|224:363|224:363|163:345,1,175.500000669479,0|0,1:0|0:0,0:0:0:0:
219,127,123845,2,0,P|226:176|236:236,1,87.7500003347397,0|0,1:0|0:0,0:0:0:0:
89,383,124093,1,8,0:0:0:0:
0,298,124217,1,0,1:0:0:0:
35,170,124341,2,0,P|88:161|129:154,1,87.7500003347397,2|0,0:0|0:0,0:0:0:0:
409,382,124589,6,0,P|417:336|426:295,1,87.7500003347397,6|0,1:2|0:0,0:0:0:0:
232,213,124837,2,0,P|241:250|249:299,1,87.7500003347397,2|0,1:2|1:0,0:0:0:0:
495,196,125085,2,0,P|501:147|512:109,1,87.7500003347397,10|0,0:0|1:0,0:0:0:0:
283,7,125333,2,0,P|291:46|300:93,1,87.7500003347397,2|0,0:0|0:0,0:0:0:0:
0,230,125581,6,0,P|48:158|137:184,1,175.500000669479,6|0,1:2|0:0,0:0:0:0:
249,299,125953,1,2,1:2:0:0:
320,180,126077,2,0,P|270:191|228:198,1,87.7500003347397,8|0,0:0|0:0,0:0:0:0:
36,112,126325,2,0,P|114:58|190:95,1,175.500000669479,6|0,1:2|0:0,0:0:0:0:
52,338,126697,2,0,P|41:287|27:247,1,87.7500003347397,0|0,1:0|0:0,0:0:0:0:
218,360,126944,5,0,1:0:0:0:
218,360,127006,1,0,1:0:0:0:
218,360,127068,2,0,B|281:339|281:339|314:368|314:368|384:344,1,175.500000669479,14|0,1:2|0:0,0:0:0:0:
420,144,127440,2,0,B|368:122|368:122|311:161|337:227,1,175.500000669479,10|0,0:0|0:0,0:0:0:0:
508,357,127812,2,0,P|506:303|507:248,1,87.7500003347397,2|0,1:2|0:0,0:0:0:0:
236,171,128060,2,0,L|148:182,1,87.7500003347397,8|0,0:0|0:0,0:0:0:0:
336,61,128308,2,0,L|424:72,1,87.7500003347397,0|0,1:0|0:0,0:0:0:0:
126,257,128556,5,8,0:0:0:0:
82,228,128639,1,8,0:0:0:0:
63,186,128721,1,8,0:0:0:0:
79,135,128804,1,8,1:2:0:0:
113,110,128887,1,8,1:3:0:0:
141,102,128969,1,8,1:3:0:0:
169,106,129052,2,0,L|175:28,2,56.3333307545981,8|8|8,0:0|0:3|0:3,0:0:0:0:
292,234,129548,5,4,1:0:0:0:
0,206,133391,5,2,0:3:0:0:
0,206,133453,1,2,0:3:0:0:
0,206,133515,2,0,P|65:208|105:271,1,126.749994197846,2|0,0:3|0:0,0:0:0:0:
161,334,134011,5,2,0:0:0:0:
276,358,134176,1,2,0:0:0:0:
302,246,134341,1,2,0:0:0:0:
172,352,134506,5,2,0:0:0:0:
294,370,134672,1,2,0:0:0:0:
327,258,134837,1,2,0:0:0:0:
205,200,135002,2,0,L|212:274,2,56.3333307545981,2|0|0,0:0|0:0|0:0,0:0:0:0:
318,15,135498,5,10,0:3:0:0:
403,100,135663,1,10,0:3:0:0:
372,222,135829,1,10,0:3:0:0:
141,75,135994,5,10,0:3:0:0:
291,17,136159,1,10,0:3:0:0:
412,135,136325,1,10,0:3:0:0:
94,186,136490,5,10,0:3:0:0:
284,47,136655,1,10,0:3:0:0:
358,271,136820,1,10,1:3:0:0:
0,159,136986,5,10,0:0:0:0:
0,159,137151,2,0,P|7:200|17:249,1,84.4999961318971,2|0,0:0|0:0,0:0:0:0:
83,304,137482,6,0,B|135:288|135:288|195:310|195:310|231:274|222:242,1,181.999994445801,4|0,1:1|0:0,0:0:0:0:
179,23,137978,1,0,1:0:0:0:
305,151,138143,1,0,1:0:0:0:
100,157,138308,1,0,1:0:0:0:
309,36,138473,6,0,L|414:53,1,90.9999972229005,8|0,0:0|1:0,0:0:0:0:
442,275,138804,1,0,1:0:0:0:
442,275,138887,1,0,1:0:0:0:
442,275,138969,1,0,1:0:0:0:
305,151,139135,1,0,1:0:0:0:
499,125,139300,1,0,1:0:0:0:
308,256,139465,6,0,L|217:240,1,90.9999972229005,6|0,1:2|0:0,0:0:0:0:
9,358,139796,2,0,L|101:344,1,90.9999972229005,2|0,1:2|0:0,0:0:0:0:
185,136,140126,1,2,1:3:0:0:
54,228,140292,1,2,1:3:0:0:
221,341,140457,2,0,L|205:246,1,90.9999972229005,8|0,0:0|1:0,0:0:0:0:
162,39,140787,1,2,1:3:0:0:
383,105,140953,2,0,B|474:128|452:66|532:93|532:93|508:127,1,181.999994445801,6|0,1:2|0:0,0:0:0:0:
367,331,141449,6,0,P|329:251|408:224,1,181.999994445801,6|0,1:2|0:0,0:0:0:0:
243,384,141944,1,0,1:0:0:0:
174,198,142110,1,0,1:0:0:0:
329,242,142275,1,0,1:0:0:0:
110,329,142440,6,0,L|16:316,1,90.9999972229005,8|0,0:2|1:0,0:0:0:0:
97,87,142771,1,0,1:0:0:0:
97,87,142854,1,0,1:0:0:0:
97,87,142936,1,0,1:0:0:0:
175,248,143101,1,0,1:0:0:0:
5,204,143267,1,0,1:0:0:0:
196,35,143432,6,0,P|204:78|211:150,1,90.9999972229005,6|0,1:2|0:0,0:0:0:0:
319,345,143763,2,0,P|321:292|328:252,1,90.9999972229005,2|0,1:2|0:0,0:0:0:0:
412,65,144093,1,2,1:3:0:0:
481,241,144259,1,2,1:3:0:0:
292,109,144424,1,8,0:2:0:0:
512,109,144589,1,0,1:0:0:0:
393,315,144754,1,2,1:3:0:0:
160,204,144920,2,0,B|131:183|99:189|99:189|57:233|5:212|2:157,1,181.999994445801,6|2,1:2|0:0,0:0:0:0:
276,8,145416,6,0,B|256:59|256:59|280:113|280:113|253:200,1,181.999994445801,6|2,1:2|0:0,0:0:0:0:
334,307,145911,2,0,P|386:296|429:291,1,90.9999972229005,2|0,0:0|0:0,0:0:0:0:
252,200,146242,1,2,0:0:0:0:
162,384,146407,2,0,P|154:330|146:290,1,90.9999972229005,10|0,0:0|0:0,0:0:0:0:
35,78,146738,1,2,1:2:0:0:
35,78,146820,1,0,1:0:0:0:
35,78,146903,2,0,P|34:120|27:183,1,90.9999972229005,2|0,1:2|1:0,0:0:0:0:
0,332,147234,1,0,1:0:0:0:
189,182,147399,6,0,L|283:202,1,90.9999972229005,6|0,1:2|1:0,0:0:0:0:
463,242,147730,1,0,1:0:0:0:
389,25,147895,2,0,P|383:66|374:130,1,90.9999972229005,2|0,0:0|1:0,0:0:0:0:
512,141,148225,1,2,1:2:0:0:
377,297,148391,2,0,P|335:291|272:282,1,90.9999972229005,10|0,0:0|1:0,0:0:0:0:
189,182,148721,1,2,1:2:0:0:
73,363,148887,2,0,P|21:300|105:245,1,181.999994445801,2|0,1:2|0:0,0:0:0:0:
292,371,149382,6,0,B|353:346|353:346|400:376|400:376|477:342,1,181.999994445801,4|0,1:2|0:0,0:0:0:0:
480,128,149878,2,0,L|517:225,1,90.9999972229005,6|0,1:2|1:0,0:0:0:0:
406,276,150209,1,0,1:2:0:0:
276,84,150374,2,0,L|255:181,1,90.9999972229005,10|0,0:0|1:0,0:0:0:0:
472,7,150705,1,2,1:2:0:0:
472,7,150787,1,0,1:0:0:0:
472,7,150870,2,0,L|491:107,1,90.9999972229005,2|0,1:2|1:0,0:0:0:0:
373,188,151201,1,0,1:0:0:0:
210,44,151366,6,0,B|151:33|151:33|118:55|118:55|48:44,1,149.500002851486,6|0,1:2|0:0,0:0:0:0:
32,139,151697,2,0,B|130:151|130:151|88:196,1,149.500002851486,6|0,1:2|0:0,0:0:0:0:
32,252,152027,2,0,P|10:305|95:333,1,149.500002851486,6|0,1:2|0:0,0:0:0:0:
174,316,152358,6,0,L|192:378,1,58.5000002231598,10|0,0:0|0:0,0:0:0:0:
483,124,152688,2,0,L|465:186,1,58.5000002231598,10|0,0:0|0:0,0:0:0:0:
178,0,153019,6,0,B|187:25|187:25|181:48|181:48|197:63|197:63|192:84|192:84|208:107|208:107|202:128|202:128|219:150|219:150|213:175|213:175|227:203,1,227.499993057251,10|0,0:0|0:0,0:1:0:0:
321,200,154341,6,0,P|397:189|432:246,1,136.499995834351,4|0,1:0|0:0,0:0:0:0:
401,337,154712,1,0,1:0:0:0:
307,306,154836,2,0,L|220:313,1,68.2499979171754,8|0,0:0|0:0,0:0:0:0:
145,339,155084,2,0,P|92:317|105:239,1,136.499995834351,0|0,1:0|0:0,0:0:0:0:
96,246,155580,1,0,1:0:0:0:
0,46,155828,2,0,P|20:103|26:191,1,136.499995834351,8|0,0:0|0:0,0:0:0:0:
118,138,156200,1,0,1:0:0:0:
118,138,156324,6,0,L|187:146,1,68.2499979171754,2|0,0:0|0:0,0:0:0:0:
245,82,156572,2,0,L|312:74,1,68.2499979171754,2|0,1:2|0:0,0:0:0:0:
385,149,156820,2,0,P|330:194|342:271,1,136.499995834351,10|0,0:0|0:0,0:0:0:0:
385,331,157192,1,2,1:2:0:0:
481,298,157316,2,0,L|470:222,1,68.2499979171754,2|0,0:0|0:0,0:0:0:0:
404,156,157564,2,0,L|413:88,1,68.2499979171754,2|0,1:2|0:0,0:0:0:0:
296,19,157812,2,0,L|306:86,2,68.2499979171754,10|0|2,0:0|1:0|0:0,0:0:0:0:
238,136,158183,1,0,1:0:0:0:
163,106,158307,6,0,B|110:96|110:96|82:119|82:119|0:104,1,136.499995834351,4|0,1:0|0:0,0:0:0:0:
6,193,158679,1,0,1:0:0:0:
83,239,158803,2,0,L|76:324,1,68.2499979171754,8|0,0:0|0:0,0:0:0:0:
161,358,159051,2,0,P|231:338|300:338,1,136.499995834351,0|0,1:0|0:0,0:0:0:0:
294,337,159547,1,0,1:0:0:0:
414,145,159795,2,0,P|422:213|437:284,1,136.499995834351,8|0,0:0|0:0,0:0:0:0:
321,212,160167,1,8,0:0:0:0:
321,212,160291,6,0,B|265:202|265:202|236:224|236:224|182:213,1,136.499995834351,2|0,0:0|1:0,0:0:0:0:
0,75,160787,2,0,P|74:52|107:101,1,136.499995834351,10|2,0:0|0:0,0:0:0:0:
43,159,161159,1,0,1:0:0:0:
43,159,161283,2,0,L|38:233,1,68.2499979171754,2|0,0:0|0:0,0:0:0:0:
90,326,161531,1,0,1:0:0:0:
115,339,161613,1,0,1:0:0:0:
144,337,161696,1,0,1:0:0:0:
170,323,161779,2,0,B|212:294|252:324|252:324|269:300|304:295|304:295|333:323|373:313,1,204.749993751526,10|0,1:2|0:0,0:0:0:0:
504,352,162274,6,0,P|471:294|493:232,1,136.499995834351,4|0,1:0|0:0,0:0:0:0:
473,142,162646,1,0,1:0:0:0:
386,172,162770,2,0,L|308:169,1,68.2499979171754,8|0,0:0|0:0,0:0:0:0:
234,126,163018,2,0,P|217:51|265:13,1,136.499995834351,0|0,1:0|0:0,0:0:0:0:
255,15,163514,1,2,1:2:0:0:
61,115,163762,2,0,B|26:109|26:109|-15:79,1,68.2499979171754,10|0,0:0|0:0,0:0:0:0:
133,186,164010,1,2,0:0:0:0:
133,186,164134,6,0,P|120:240|110:326,1,136.499995834351,0|0,1:0|0:0,0:0:0:0:
184,372,164506,2,0,B|261:383,1,68.2499979171754,2|0,1:2|0:0,0:0:0:0:
390,289,164754,2,0,B|358:282|358:282|324:294,1,68.2499979171754,10|0,0:0|0:0,0:0:0:0:
473,242,165002,1,2,0:0:0:0:
473,242,165126,6,0,P|464:157|467:97,1,136.499995834351,0|0,1:0|0:0,0:0:0:0:
395,39,165498,2,0,B|328:45,1,68.2499979171754,2|0,1:2|0:0,0:0:0:0:
182,104,165745,2,0,B|217:112|217:112|249:98,1,68.2499979171754,10|0,0:0|0:0,0:0:0:0:
128,19,165993,1,2,1:2:0:0:
26,52,166117,1,0,1:0:0:0:
43,149,166241,6,0,B|52:197|52:197|37:220|37:220|49:304,1,136.499995834351,4|0,1:0|0:0,0:0:0:0:
119,335,166613,1,0,1:0:0:0:
192,282,166737,2,0,L|261:287,1,68.2499979171754,8|0,0:0|0:0,0:0:0:0:
319,222,166985,2,0,P|310:146|371:127,1,136.499995834351,0|0,1:0|0:0,0:0:0:0:
356,124,167481,1,2,1:2:0:0:
493,262,167729,2,0,L|479:329,1,68.2499979171754,10|0,0:0|0:0,0:0:0:0:
385,369,167977,1,2,0:0:0:0:
317,299,168101,1,10,0:0:0:0:
227,352,168225,6,0,B|172:346|172:346|142:373|142:373|81:362,1,136.499995834351,2|0,0:0|1:0,0:0:0:0:
0,36,168721,2,0,B|52:19|52:19|88:39|88:39|146:28,1,136.499995834351,10|0,0:0|1:0,0:0:0:0:
173,277,169217,1,4,1:2:0:0:
78,216,169341,2,0,L|83:139,1,68.2499979171754,8|0,0:0|1:0,0:0:0:0:
284,101,169588,1,8,1:2:0:0:
294,276,169712,1,10,1:2:0:0:
184,141,169836,1,8,1:2:0:0:
344,184,169960,1,8,1:2:0:0:
193,257,170084,1,8,1:2:0:0:
256,192,170208,12,8,172688,0:0:0:0:
44,376,173183,6,0,L|-9:387,2,42.2499980659486,4|8|8,0:0|0:3|0:3,0:0:0:0:
63,362,173679,6,0,P|51:312|45:233,1,107.25000327301,4|0,1:3|0:0,0:0:0:0:
75,136,174175,6,0,B|130:169|185:102|248:90|245:7|211:-20|162:-8|112:-8|76:45|149:104|181:161|268:75|255:212,1,471.250014381409,4|0,1:0|0:0,0:0:0:0:
334,274,174919,6,0,B|386:222|374:143|374:143|407:223|451:241|451:241|449:147|496:95,1,406.25,4|0,1:0|0:0,0:0:0:0:
255,176,175663,6,0,B|204:128|125:160|125:160|183:84|158:35|137:13|137:13|124:26|124:86,1,341.249989585877,4|0,1:0|0:0,0:0:0:0:
26,234,176407,5,8,0:0:0:0:
182,252,176531,1,8,0:0:0:0:
85,368,176655,1,8,0:0:0:0:
27,215,176779,2,0,L|32:137,1,68.2499979171754,2|2,1:3|0:0,0:0:0:0:
107,368,177026,5,0,1:0:0:0:
173,274,177150,2,0,P|209:281|245:290,1,74.7500014257431,10|0,0:0|1:0,0:0:0:0:
462,310,177399,2,0,P|433:318|384:332,1,74.7500014257431,4|8,1:3|0:3,0:0:0:0:
375,106,177646,1,10,1:2:0:0:
508,182,177770,1,8,0:3:0:0:
372,135,177894,1,8,0:3:0:0:
508,149,178018,1,8,0:3:0:0:
368,233,178142,6,0,B|327:217|327:217|289:241|289:241|247:222|247:222|202:240,1,175.500000669479,6|0,1:2|0:0,0:0:0:0:
88,67,178514,2,0,B|130:63|152:37|152:37|218:60|218:60|186:97,1,175.500000669479,4|0,1:2|0:0,0:0:0:0:
21,254,178886,2,0,B|5:208|5:208|23:154,1,87.7500003347397,4|0,1:2|0:0,0:0:0:0:
290,220,179134,1,8,0:0:0:0:
241,314,179258,2,0,B|182:323|182:323|140:283|140:283|114:338,1,175.500000669479,4|0,1:2|0:0,0:0:0:0:
478,369,179630,6,0,B|437:336|437:336|421:269|495:242,1,175.500000669479,4|0,1:2|0:0,0:0:0:0:
354,51,180002,2,0,B|372:107|372:107|349:125|344:164|344:164|364:227,1,175.500000669479,4|0,1:2|0:0,0:0:0:0:
235,359,180374,2,0,L|329:342,1,87.7500003347397,8|0,0:0|0:0,0:0:0:0:
163,159,180621,1,8,0:0:0:0:
84,243,180745,2,0,L|0:221,1,87.7500003347397,0|0,1:0|0:0,0:0:0:0:
161,76,180993,1,0,1:0:0:0:
247,157,181117,2,0,L|335:132,1,87.7500003347397,8|0,0:0|0:0,0:0:0:0:
466,285,181365,2,0,L|381:261,1,87.7500003347397,0|0,1:0|0:0,0:0:0:0:
389,34,181613,5,8,0:0:0:0:
433,14,181696,1,8,0:0:0:0:
473,31,181779,1,8,0:0:0:0:
494,71,181861,2,0,P|487:116|484:146,1,73.6666680717469,8|8,0:3|0:3,0:0:0:0:
394,177,182109,6,0,B|283:161|356:252|206:225,1,162.5,4|0,1:1|0:0,0:0:0:0:
13,317,182481,2,0,P|107:323|155:253,1,162.5,10|0,0:0|0:0,0:0:0:0:
70,65,182853,2,0,P|50:150|66:256,1,162.5,2|0,1:2|0:0,0:0:0:0:
269,147,183225,2,0,B|171:122|171:122|144:161|169:207,1,162.5,2|0,1:2|0:0,0:0:0:0:
337,363,183597,6,0,B|327:309|327:309|360:269|360:269|343:182,1,162.5,14|0,0:0|0:0,0:0:0:0:
512,111,183969,2,0,P|479:180|472:270,1,162.5,8|0,0:0|0:0,0:0:0:0:
317,66,184340,2,0,P|367:8|438:36,1,162.5,0|0,1:0|0:0,0:0:0:0:
361,205,184712,1,0,1:0:0:0:
266,148,184836,2,0,P|227:158|183:167,1,81.25,2|0,0:0|0:0,0:0:0:0:
94,358,185084,6,0,P|166:331|171:250,1,162.5,10|2,0:0|0:0,0:0:0:0:
0,138,185456,1,8,0:0:0:0:
125,66,185580,2,0,P|117:105|109:161,1,81.25,2|0,0:0|0:0,0:0:0:0:
79,345,185828,1,8,0:0:0:0:
0,227,185952,1,8,0:0:0:0:
193,251,186076,6,0,B|297:245|240:318|359:313,1,162.5,6|0,1:2|0:0,0:0:0:0:
512,173,186448,2,0,P|447:147|392:213,1,162.5,2|0,1:2|0:0,0:0:0:0:
469,378,186820,2,0,P|473:325|477:287,1,81.25,2|0,1:2|0:0,0:0:0:0:
318,152,187068,1,8,0:0:0:0:
247,236,187192,2,0,P|207:228|154:213,1,81.25,0|0,1:0|0:0,0:0:0:0:
10,134,187440,5,0,1:0:0:0:
10,134,187502,1,0,1:0:0:0:
10,134,187564,2,0,P|43:109|96:104,1,81.25,10|0,0:0|0:0,0:0:0:0:
247,236,187812,1,0,1:0:0:0:
318,152,187936,2,0,P|279:129|236:126,1,81.25,8|0,1:3|0:0,0:0:0:0:
0,247,188183,1,8,1:3:0:0:
42,333,188307,6,0,P|95:273|81:197,1,162.5,10|8,0:0|1:3,0:0:0:0:
167,0,188679,2,0,L|162:94,1,81.25,10|0,0:0|0:0,0:0:0:0:
337,209,188927,1,0,1:0:0:0:
390,86,189051,1,10,0:0:0:0:
254,101,189175,1,8,0:0:0:0:
344,226,189299,1,8,0:0:0:0:
404,85,189423,1,8,0:0:0:0:
239,197,189547,5,10,0:0:0:0:
432,169,189671,1,10,0:0:0:0:
221,199,189795,1,10,0:0:0:0:
450,166,189919,1,10,0:0:0:0:
143,122,190043,6,0,B|86:115|86:115|44:98|44:98|18:124|18:124|28:178,1,175.500000669479,4|0,1:0|0:0,0:0:0:0:
128,318,190415,1,2,1:2:0:0:
11,349,190539,2,0,P|21:292|27:250,1,87.7500003347397,8|0,0:0|0:0,0:0:0:0:
223,187,190787,2,0,P|234:274|250:380,1,175.500000669479,2|0,1:2|0:0,0:0:0:0:
501,341,191159,2,0,B|443:322|443:322|376:350|376:350|400:293,1,175.500000669479,2|0,1:2|0:0,0:0:0:0:
512,26,191531,6,0,B|499:105|499:105|507:129|507:129|493:227,1,175.500000669479,14|0,0:0|0:0,0:0:0:0:
255,174,191902,2,0,B|289:143|288:94|288:94|317:132|380:129,1,175.500000669479,2|0,1:2|0:0,0:0:0:0:
305,335,192275,2,0,P|261:329|217:325,1,87.7500003347397,0|0,1:0|0:0,0:0:0:0:
0,193,192522,1,8,0:0:0:0:
71,82,192646,1,0,1:0:0:0:
172,162,192770,2,0,P|166:201|161:267,1,87.7500003347397,2|0,0:0|0:0,0:0:0:0:
428,358,193018,6,0,P|472:344|516:334,1,87.7500003347397,6|0,1:2|0:0,0:0:0:0:
469,112,193266,2,0,P|425:98|381:88,1,87.7500003347397,2|0,1:2|1:0,0:0:0:0:
214,349,193514,2,0,P|258:335|302:325,1,87.7500003347397,10|0,0:0|1:0,0:0:0:0:
249,92,193762,2,0,P|205:78|161:68,1,87.7500003347397,2|0,0:0|0:0,0:0:0:0:
40,344,194010,6,0,P|-16:280|22:204,1,175.500000669479,6|0,1:2|0:0,0:0:0:0:
160,84,194382,1,2,1:2:0:0:
18,20,194506,2,0,P|26:53|34:117,1,87.7500003347397,8|0,0:0|0:0,0:0:0:0:
169,334,194754,2,0,B|226:351|261:305|261:305|303:300|334:343,1,175.500000669479,6|0,1:2|0:0,0:0:0:0:
510,180,195126,2,0,L|499:282,1,87.7500003347397,0|2,1:0|0:0,0:0:0:0:
312,80,195374,5,0,1:0:0:0:
312,80,195436,1,0,1:0:0:0:
312,80,195498,2,0,B|326:-1|403:-2|403:-2|399:47,1,175.500000669479,14|0,0:2|0:0,0:0:0:0:
167,161,195869,2,0,B|89:189|50:123|50:123|94:102,1,175.500000669479,10|0,0:0|0:0,0:0:0:0:
305,210,196241,2,0,P|328:246|334:291,1,87.7500003347397,2|0,1:2|0:0,0:0:0:0:
124,383,196489,1,8,0:0:0:0:
62,296,196613,2,0,B|124:279|124:279|172:296|172:296|237:279,1,175.500000669479,0|0,1:0|0:0,0:0:0:0:
263,56,196986,6,0,P|257:98|251:154,1,87.7500003347397,0|0,1:0|0:0,0:0:0:0:
385,357,197233,1,0,1:0:0:0:
479,272,197357,1,0,1:0:0:0:
439,142,197481,2,0,P|390:141|340:135,1,87.7500003347397,8|0,1:2|1:0,0:0:0:0:
128,187,197729,1,8,0:3:0:0:
143,22,197853,1,8,0:3:0:0:
252,143,197977,6,0,B|247:201|247:201|274:237|274:237|277:276|260:330,1,175.500000669479,4|0,1:0|0:0,0:0:0:0:
439,142,198349,1,2,1:2:0:0:
479,272,198473,2,0,P|436:260|392:256,1,87.7500003347397,8|0,0:0|0:0,0:0:0:0:
203,62,198721,2,0,B|253:48|253:48|291:54|326:77|326:77|386:59,1,175.500000669479,2|0,1:2|0:0,0:0:0:0:
121,262,199093,2,0,B|92:219|92:219|112:141|112:141|144:185,1,175.500000669479,2|0,1:2|0:0,0:0:0:0:
456,355,199464,6,0,B|400:348|400:348|387:363|387:363|341:359|341:359|289:371,1,175.500000669479,14|0,0:0|0:0,0:0:0:0:
33,353,199836,2,0,P|122:333|115:255,1,175.500000669479,0|0,1:0|0:0,0:0:0:0:
0,89,200208,2,0,P|10:131|23:189,1,87.7500003347397,0|0,1:0|0:0,0:0:0:0:
221,224,200456,1,8,0:0:0:0:
283,118,200580,1,0,1:0:0:0:
184,32,200704,2,0,P|141:43|86:55,1,87.7500003347397,2|0,0:0|0:0,0:0:0:0:
419,163,200952,6,0,L|433:69,1,87.7500003347397,6|0,1:2|0:0,0:0:0:0:
124,226,201200,2,0,L|110:132,1,87.7500003347397,2|0,1:2|1:0,0:0:0:0:
479,339,201448,2,0,L|493:245,1,87.7500003347397,10|0,0:0|1:0,0:0:0:0:
221,384,201696,2,0,L|207:290,1,87.7500003347397,2|0,0:0|0:0,0:0:0:0:
344,67,201944,6,0,P|311:146|232:139,1,175.500000669479,6|0,1:2|0:0,0:0:0:0:
44,28,202316,1,2,1:2:0:0:
170,0,202440,2,0,P|161:37|153:104,1,87.7500003347397,8|0,0:0|0:0,0:0:0:0:
0,257,202688,2,0,P|53:185|140:227,1,175.500000669479,6|0,1:2|0:0,0:0:0:0:
236,360,203060,2,0,P|284:352|329:344,1,87.7500003347397,0|0,1:0|0:0,0:0:0:0:
363,116,203307,1,0,1:0:0:0:
232,74,203431,6,0,L|260:256,1,175.500000669479,14|0,0:0|0:0,0:0:0:0:
512,63,203803,2,0,L|488:248,1,175.500000669479,10|0,0:0|0:0,0:0:0:0:
360,0,204176,2,0,L|364:96,1,87.7500003347397,2|0,1:2|0:0,0:0:0:0:
121,282,204423,5,8,0:0:0:0:
73,260,204506,1,8,0:0:0:0:
51,210,204588,1,8,0:0:0:0:
67,163,204671,1,8,1:3:0:0:
96,144,204754,1,8,1:3:0:0:
130,137,204836,1,8,1:3:0:0:
168,146,204919,6,0,P|252:118|234:61,1,155.999995239258,8|0,0:0|0:0,0:0:0:0:
162,6,205580,2,0,P|139:9|110:11,1,51.999998413086,2|0,0:0|0:0,0:0:0:0:
318,237,205911,5,4,1:0:0:0:
367,154,206035,2,0,B|422:139|422:139|462:163|462:163|523:146,1,155.999995239258,0|0,1:0|0:0,0:0:0:0:
321,342,206407,1,10,0:0:0:0:
238,299,206531,2,0,P|148:296|116:361,1,155.999995239258,0|0,1:0|0:0,0:0:0:0:
15,234,206902,6,0,L|0:156,1,77.999997619629,0|0,1:0|1:0,0:0:0:0:
198,86,207150,2,0,L|182:162,1,77.999997619629,0|0,1:0|1:0,0:0:0:0:
52,0,207398,1,8,0:0:0:0:
52,0,207523,2,0,L|67:76,1,77.999997619629,0|0,1:0|0:0,0:0:0:0:
300,0,207770,6,0,L|284:76,1,77.999997619629,4|0,1:2|0:0,0:0:0:0:
124,225,208018,2,0,P|184:169|246:211,1,155.999995239258,0|0,1:0|1:0,0:0:0:0:
403,367,208390,1,8,0:0:0:0:
443,267,208514,2,0,P|372:279|282:295,1,155.999995239258,0|0,1:0|0:0,0:0:0:0:
130,375,208886,5,0,1:0:0:0:
124,225,209010,1,0,1:0:0:0:
259,297,209134,1,0,1:0:0:0:
139,362,209258,1,0,1:0:0:0:
136,208,209382,2,0,L|143:118,1,77.999997619629,8|0,0:0|0:0,0:0:0:0:
260,0,209630,2,0,L|266:77,1,77.999997619629,0|0,1:0|0:0,0:0:0:0:
465,219,209878,5,6,1:2:0:0:
493,125,210002,2,0,B|432:120|432:120|402:143|402:143|344:137,1,155.999995239258,0|0,1:0|0:0,0:0:0:0:
173,297,210374,1,10,0:0:0:0:
287,360,210498,2,0,P|279:283|267:189,1,155.999995239258,0|0,1:0|0:0,0:0:0:0:
43,185,210869,6,0,L|131:200,1,77.999997619629,0|0,1:0|1:0,0:0:0:0:
131,0,211117,2,0,L|40:16,1,77.999997619629,0|0,1:0|1:0,0:0:0:0:
216,108,211365,1,8,0:0:0:0:
216,108,211489,2,0,L|293:108,1,77.999997619629,0|0,1:0|0:0,0:0:0:0:
512,263,211737,6,0,L|426:263,1,77.999997619629,4|0,1:2|0:0,0:0:0:0:
228,319,211985,2,0,P|279:373|353:361,1,155.999995239258,10|0,0:0|1:0,0:0:0:0:
424,145,212357,2,0,P|367:94|293:108,1,155.999995239258,10|0,0:0|0:0,0:0:0:0:
312,281,212730,2,0,L|332:201,1,77.999997619629,0|0,1:0|0:0,0:0:0:0:
150,47,212977,2,0,P|159:85|169:122,1,77.999997619629,8|0,0:0|1:0,0:0:0:0:
117,289,213225,1,0,1:0:0:0:
7,198,213349,2,0,P|49:187|93:173,1,77.999997619629,8|0,0:0|1:0,0:0:0:0:
260,256,213597,1,8,0:3:0:0:
119,273,213721,1,8,0:3:0:0:
169,122,213845,5,6,1:2:0:0:
267,169,213969,2,0,B|324:174|324:174|362:142|362:142|422:143,1,155.999995239258,0|0,1:0|0:0,0:0:0:0:
512,303,214340,1,10,0:0:0:0:
394,309,214464,2,0,L|424:155,1,155.999995239258,0|0,1:0|0:0,0:0:0:0:
383,20,214836,6,0,L|305:31,1,77.999997619629,0|0,1:0|1:0,0:0:0:0:
192,155,215084,2,0,L|269:166,1,77.999997619629,0|0,1:0|1:0,0:0:0:0:
159,12,215332,1,8,0:0:0:0:
159,12,215456,2,0,L|82:24,1,77.999997619629,0|0,1:0|0:0,0:0:0:0:
77,187,215704,6,0,L|-20:172,1,77.999997619629,4|0,1:2|0:0,0:0:0:0:
133,328,215952,2,0,P|216:297|296:284,1,155.999995239258,0|0,1:0|1:0,0:0:0:0:
511,315,216324,1,8,0:0:0:0:
421,366,216448,2,0,B|405:309|405:309|423:275|423:275|405:200,1,155.999995239258,0|0,1:0|0:0,0:0:0:0:
398,44,216820,5,0,1:0:0:0:
279,136,216944,1,0,1:0:0:0:
404,188,217068,1,0,1:0:0:0:
395,59,217192,1,0,1:0:0:0:
268,158,217316,2,0,L|286:260,1,77.999997619629,8|0,0:0|0:0,0:0:0:0:
150,365,217564,2,0,L|168:263,1,77.999997619629,0|0,1:0|0:0,0:0:0:0:
21,99,217812,5,6,1:2:0:0:
21,194,217936,2,0,B|82:185|82:185|100:149|100:149|175:138,1,155.999995239258,0|0,1:0|0:0,0:0:0:0:
332,32,218307,1,10,0:0:0:0:
235,0,218431,2,0,L|254:171,1,155.999995239258,0|0,1:0|0:0,0:0:0:0:
167,351,218803,6,0,L|151:264,1,77.999997619629,0|0,1:0|1:0,0:0:0:0:
379,280,219051,2,0,L|365:357,1,77.999997619629,0|0,1:0|1:0,0:0:0:0:
258,232,219299,1,8,0:0:0:0:
258,232,219423,2,0,L|251:154,1,77.999997619629,0|0,1:0|0:0,0:0:0:0:
411,64,219671,6,0,L|396:140,1,77.999997619629,4|0,1:2|0:0,0:0:0:0:
173,115,219919,2,0,P|233:66|308:85,1,155.999995239258,10|0,0:0|1:0,0:0:0:0:
478,197,220291,2,0,P|417:245|342:226,1,155.999995239258,10|0,0:0|0:0,0:0:0:0:
246,370,220663,2,0,P|289:362|335:357,1,77.999997619629,0|0,1:0|0:0,0:0:0:0:
155,214,220911,1,8,0:0:0:0:
83,301,221035,2,0,P|46:294|-8:285,1,77.999997619629,2|0,1:3|0:0,0:0:0:0:
190,84,221283,5,8,0:0:0:0:
248,251,221407,1,8,0:0:0:0:
50,197,221531,1,8,0:0:0:0:
199,61,221655,1,8,0:0:0:0:
