osu file format v14

[General]
AudioFilename: audio.mp3
AudioLeadIn: 0
PreviewTime: 62895
Countdown: 1
SampleSet: Soft
StackLeniency: 0.7
Mode: 0
LetterboxInBreaks: 0
WidescreenStoryboard: 1

[Editor]
Bookmarks: 31020,47895,77895,92895,107895,122895,152895,186645,201645,216645,231645,246645,276645
DistanceSpacing: 0.7
BeatDivisor: 8
GridSize: 4
TimelineZoom: 1.6

[Metadata]
Title:Good Night
TitleUnicode:Good Night
Artist:colate feat. Nanahira
ArtistUnicode:colate feat. ななひら
Creator:Chaoslitz
Version:Sweet Dreams
Source:
Tags:Moecho Moeri Lilium X1 Records
BeatmapID:1437794
BeatmapSetID:679935

[Difficulty]
HPDrainRate:5
CircleSize:4.3
OverallDifficulty:8
ApproachRate:9
SliderMultiplier:1.8
SliderTickRate:1

[Events]
//Background and Video events
0,0,"bg.jpg",0,0
//Break Periods
//Storyboard Layer 0 (Background)
//Storyboard Layer 1 (Fail)
//Storyboard Layer 2 (Pass)
//Storyboard Layer 3 (Foreground)
//Storyboard Sound Samples

[TimingPoints]
1020,468.75,4,2,1,40,1,0
1020,-133.333333333333,4,2,1,40,0,0
4535,-62.5,4,2,3,40,0,0
4770,-133.333333333333,4,2,1,40,0,0
12035,-62.5,4,2,3,40,0,0
12270,-133.333333333333,4,2,1,40,0,0
14145,-111.111111111111,4,2,1,60,0,0
14613,-100,4,2,2,60,0,0
15551,-133.333333333333,4,2,1,60,0,0
16020,-100,4,2,3,70,0,0
19535,-76.9230769230769,4,2,3,70,0,0
19770,-100,4,2,3,70,0,0
27035,-76.9230769230769,4,2,3,70,0,0
27270,-100,4,2,3,70,0,0
30316,-166.666666666667,4,2,3,70,0,0
31020,-142.857142857143,4,2,30,70,0,0
31723,-142.857142857143,4,2,11,70,0,0
32895,-142.857142857143,4,2,12,70,0,0
33598,-142.857142857143,4,2,13,70,0,0
34535,-142.857142857143,4,2,14,70,0,0
34770,-142.857142857143,4,2,30,70,0,0
35238,-142.857142857143,4,2,11,70,0,0
35941,-142.857142857143,4,2,15,70,0,0
36410,-142.857142857143,4,2,11,70,0,0
36879,-142.857142857143,4,2,16,70,0,0
37348,-142.857142857143,4,2,30,70,0,0
37816,-142.857142857143,4,2,17,70,0,0
38051,-142.857142857143,4,2,16,70,0,0
38285,-142.857142857143,4,2,18,70,0,0
39223,-142.857142857143,4,2,17,70,0,0
39691,-142.857142857143,4,2,16,70,0,0
39926,-142.857142857143,4,2,18,70,0,0
40160,-142.857142857143,4,2,11,70,0,0
41098,-142.857142857143,4,2,16,70,0,0
41566,-142.857142857143,4,2,18,70,0,0
41801,-142.857142857143,4,2,11,70,0,0
42035,-142.857142857143,4,2,15,70,0,0
42270,-142.857142857143,4,2,19,70,0,0
42738,-142.857142857143,4,2,11,70,0,0
42973,-142.857142857143,4,2,30,70,0,0
43207,-142.857142857143,4,2,10,70,0,0
43441,-142.857142857143,4,2,11,70,0,0
43676,-142.857142857143,4,2,20,70,0,0
44379,-142.857142857143,4,2,18,70,0,0
45082,-142.857142857143,4,2,3,70,0,0
45199,-142.857142857143,4,2,18,70,0,0
45551,-100,4,2,3,70,0,0
46020,-133.333333333333,4,2,3,70,0,0
46488,-76.9230769230769,4,2,2,60,0,0
47426,-76.9230769230769,4,2,3,60,0,0
47484,-76.9230769230769,4,2,3,10,0,0
47660,-76.9230769230769,4,2,3,60,0,0
47895,-100,4,2,4,70,0,0
55395,-100,4,2,4,80,0,0
58676,-200,4,2,4,80,0,0
59145,-133.333333333333,4,2,3,70,0,0
59613,-100,4,2,3,75,0,0
60082,-83.3333333333333,4,2,3,80,0,0
60551,-66.6666666666667,4,2,3,85,0,0
61020,-66.6666666666667,4,2,3,85,0,0
61254,-66.6666666666667,4,2,17,85,0,0
61488,-200,4,2,17,85,0,0
61840,-200,4,2,4,85,0,0
61957,-100,4,2,3,85,0,0
62895,-66.6666666666667,4,2,3,100,0,1
63363,-90.9090909090909,4,2,5,100,0,1
63715,-76.9230769230769,4,2,1,100,0,1
63832,-76.9230769230769,4,2,5,100,0,1
64301,-62.5,4,2,5,100,0,1
64535,-76.9230769230769,4,2,5,100,0,1
64770,-76.9230769230769,4,2,1,100,0,1
65004,-76.9230769230769,4,2,2,100,0,1
65238,-76.9230769230769,4,2,5,100,0,1
65707,-76.9230769230769,4,2,1,100,0,1
65824,-76.9230769230769,4,2,5,100,0,1
66645,-90.9090909090909,4,2,3,100,0,1
67113,-66.6666666666667,4,2,2,100,0,1
67582,-76.9230769230769,4,2,5,100,0,1
67934,-76.9230769230769,4,2,2,100,0,1
68051,-76.9230769230769,4,2,5,100,0,1
68520,-76.9230769230769,4,2,3,100,0,1
68754,-66.6666666666667,4,2,5,100,0,1
69457,-76.9230769230769,4,2,5,100,0,1
69574,-76.9230769230769,4,2,2,100,0,1
69926,-90.9090909090909,4,2,5,100,0,1
70395,-66.6666666666667,4,2,3,100,0,1
70863,-76.9230769230769,4,2,5,100,0,1
70980,-76.9230769230769,4,2,3,100,0,1
71098,-76.9230769230769,4,2,5,100,0,1
72973,-76.9230769230769,4,2,4,100,0,1
73090,-76.9230769230769,4,2,5,100,0,1
75785,-66.6666666666667,4,2,5,100,0,1
76020,-76.9230769230769,4,2,3,100,0,1
76488,-76.9230769230769,4,2,5,100,0,1
77660,-133.333333333333,4,2,5,100,0,1
77895,-66.6666666666667,4,2,3,100,0,1
78363,-90.9090909090909,4,2,5,100,0,1
78715,-76.9230769230769,4,2,1,100,0,1
78832,-76.9230769230769,4,2,5,100,0,1
79301,-62.5,4,2,5,100,0,1
79535,-76.9230769230769,4,2,5,100,0,1
79770,-76.9230769230769,4,2,1,100,0,1
80004,-76.9230769230769,4,2,2,100,0,1
80238,-76.9230769230769,4,2,5,100,0,1
80707,-76.9230769230769,4,2,1,100,0,1
80824,-76.9230769230769,4,2,5,100,0,1
81645,-76.9230769230769,4,2,3,100,0,1
81762,-100,4,2,5,100,0,1
81879,-100,4,2,4,100,0,1
81996,-100,4,2,5,100,0,1
82113,-66.6666666666667,4,2,2,100,0,1
82582,-66.6666666666667,4,2,5,100,0,1
82934,-66.6666666666667,4,2,2,100,0,1
83051,-66.6666666666667,4,2,5,100,0,1
83520,-66.6666666666667,4,2,3,100,0,1
83754,-66.6666666666667,4,2,5,100,0,1
84457,-66.6666666666667,4,2,5,100,0,1
84574,-66.6666666666667,4,2,2,100,0,1
84926,-133.333333333333,4,2,5,100,0,1
85395,-66.6666666666667,4,2,3,100,0,1
85863,-76.9230769230769,4,2,5,100,0,1
85980,-76.9230769230769,4,2,3,100,0,1
86098,-76.9230769230769,4,2,5,100,0,1
87973,-76.9230769230769,4,2,4,100,0,1
88090,-76.9230769230769,4,2,5,100,0,1
90785,-66.6666666666667,4,2,5,100,0,1
91020,-100,4,2,3,100,0,1
91488,-100,4,2,5,100,0,1
91840,-76.9230769230769,4,2,5,100,0,1
92660,-133.333333333333,4,2,5,100,0,1
92777,-133.333333333333,4,2,5,100,0,0
92895,-90.9090909090909,4,2,5,100,0,1
98754,-100,4,2,5,100,0,1
98988,-111.111111111111,4,2,5,100,0,1
99223,-125,4,2,5,100,0,1
99926,-90.9090909090909,4,2,5,100,0,1
107074,-76.9230769230769,4,2,5,100,0,1
107660,-133.333333333333,4,2,5,100,0,1
107895,-200,4,2,5,100,0,1
108363,-66.6666666666667,4,2,5,100,0,1
108832,-90.9090909090909,4,2,5,100,0,1
117270,-117.647058823529,4,2,5,100,0,1
119145,-90.9090909090909,4,2,5,100,0,1
122660,-133.333333333333,4,2,5,100,0,1
122895,-142.857142857143,4,2,3,50,0,0
137895,-125,4,2,3,60,0,0
141410,-100,4,2,3,60,0,0
141645,-125,4,2,3,60,0,0
145395,-125,4,2,3,60,0,0
148910,-100,4,2,3,60,0,0
149145,-125,4,2,3,60,0,0
152426,-125,4,2,3,60,0,0
152895,-111.111111111111,4,2,10,70,0,0
153012,-111.111111111111,4,2,3,70,0,0
153246,-111.111111111111,4,2,3,70,0,0
153363,-111.111111111111,4,2,10,70,0,0
153598,-111.111111111111,4,2,11,70,0,0
154301,-111.111111111111,4,2,3,70,0,0
154535,-111.111111111111,4,2,11,70,0,0
154770,-111.111111111111,4,2,12,70,0,0
155473,-111.111111111111,4,2,13,70,0,0
156410,-111.111111111111,4,2,14,70,0,0
156645,-111.111111111111,4,2,10,70,0,0
157113,-111.111111111111,4,2,15,70,0,0
157348,-111.111111111111,4,2,11,70,0,0
157699,-111.111111111111,4,2,3,70,0,0
157816,-111.111111111111,4,2,15,70,0,0
158051,-111.111111111111,4,2,3,70,0,0
158285,-111.111111111111,4,2,11,70,0,0
158754,-111.111111111111,4,2,16,70,0,0
159223,-111.111111111111,4,2,10,70,0,0
159691,-111.111111111111,4,2,17,70,0,0
159926,-111.111111111111,4,2,16,70,0,0
160160,-111.111111111111,4,2,18,70,0,0
161098,-111.111111111111,4,2,17,70,0,0
161566,-111.111111111111,4,2,16,70,0,0
161801,-111.111111111111,4,2,18,70,0,0
162035,-111.111111111111,4,2,11,70,0,0
162973,-111.111111111111,4,2,16,70,0,0
163441,-111.111111111111,4,2,18,70,0,0
163676,-111.111111111111,4,2,11,70,0,0
163910,-111.111111111111,4,2,15,70,0,0
164145,-111.111111111111,4,2,19,70,0,0
164613,-111.111111111111,4,2,11,70,0,0
164848,-111.111111111111,4,2,10,70,0,0
165316,-111.111111111111,4,2,11,70,0,0
165551,-111.111111111111,4,2,20,70,0,0
166254,-111.111111111111,4,2,18,70,0,0
166957,-111.111111111111,4,2,3,70,0,0
167074,-111.111111111111,4,2,18,70,0,0
167426,-111.111111111111,4,2,3,70,0,0
167895,-76.9230769230769,4,2,3,70,0,0
168363,-76.9230769230769,4,2,2,65,0,0
168715,-76.9230769230769,4,2,2,60,0,0
169301,-76.9230769230769,4,2,3,60,0,0
169359,-76.9230769230769,4,2,3,10,0,0
169535,-76.9230769230769,4,2,3,60,0,0
169770,-100,4,2,3,70,0,0
173285,-100,4,2,3,70,0,0
173520,-100,4,2,3,70,0,0
177270,-90.9090909090909,4,2,4,70,0,0
178207,-83.3333333333333,4,2,4,70,0,0
179145,-76.9230769230769,4,2,4,70,0,0
179613,-71.4285714285714,4,2,4,70,0,0
180082,-66.6666666666667,4,2,4,70,0,0
180551,-200,4,2,4,70,0,0
181020,-100,4,2,4,70,0,0
181957,-100,4,2,4,80,0,0
182895,-100,4,2,3,90,0,0
183129,-100,4,2,17,95,0,0
183598,-100,4,2,3,95,0,0
184770,-76.9230769230769,4,2,5,95,0,0
185238,-66.6666666666667,4,2,5,95,0,0
185707,-55.5555555555556,4,2,5,95,0,0
186176,-100,4,2,4,95,0,0
186645,-66.6666666666667,4,2,3,100,0,1
187113,-90.9090909090909,4,2,5,100,0,1
187465,-76.9230769230769,4,2,1,100,0,1
187582,-76.9230769230769,4,2,5,100,0,1
188051,-62.5,4,2,5,100,0,1
188285,-76.9230769230769,4,2,5,100,0,1
188520,-76.9230769230769,4,2,1,100,0,1
188754,-76.9230769230769,4,2,2,100,0,1
188988,-76.9230769230769,4,2,5,100,0,1
189457,-76.9230769230769,4,2,1,100,0,1
189574,-76.9230769230769,4,2,5,100,0,1
190395,-90.9090909090909,4,2,3,100,0,1
190863,-66.6666666666667,4,2,2,100,0,1
191332,-76.9230769230769,4,2,5,100,0,1
191684,-76.9230769230769,4,2,2,100,0,1
191801,-76.9230769230769,4,2,5,100,0,1
192270,-76.9230769230769,4,2,3,100,0,1
192504,-66.6666666666667,4,2,5,100,0,1
193207,-76.9230769230769,4,2,5,100,0,1
193324,-76.9230769230769,4,2,2,100,0,1
193676,-90.9090909090909,4,2,5,100,0,1
194145,-66.6666666666667,4,2,3,100,0,1
194613,-76.9230769230769,4,2,5,100,0,1
194730,-76.9230769230769,4,2,3,100,0,1
194848,-76.9230769230769,4,2,5,100,0,1
196723,-76.9230769230769,4,2,4,100,0,1
196840,-76.9230769230769,4,2,5,100,0,1
199535,-66.6666666666667,4,2,5,100,0,1
199770,-76.9230769230769,4,2,3,100,0,1
200238,-76.9230769230769,4,2,5,100,0,1
201410,-133.333333333333,4,2,5,100,0,1
201645,-66.6666666666667,4,2,3,100,0,1
202113,-90.9090909090909,4,2,5,100,0,1
202465,-76.9230769230769,4,2,1,100,0,1
202582,-76.9230769230769,4,2,5,100,0,1
203051,-62.5,4,2,5,100,0,1
203285,-76.9230769230769,4,2,5,100,0,1
203520,-76.9230769230769,4,2,1,100,0,1
203754,-76.9230769230769,4,2,2,100,0,1
203988,-76.9230769230769,4,2,5,100,0,1
204457,-76.9230769230769,4,2,1,100,0,1
204574,-76.9230769230769,4,2,5,100,0,1
205395,-76.9230769230769,4,2,3,100,0,1
205512,-100,4,2,5,100,0,1
205629,-76.9230769230769,4,2,4,100,0,1
205746,-76.9230769230769,4,2,5,100,0,1
205863,-66.6666666666667,4,2,2,100,0,1
206332,-66.6666666666667,4,2,5,100,0,1
206684,-66.6666666666667,4,2,2,100,0,1
206801,-66.6666666666667,4,2,5,100,0,1
207270,-66.6666666666667,4,2,3,100,0,1
207504,-66.6666666666667,4,2,5,100,0,1
208207,-66.6666666666667,4,2,5,100,0,1
208324,-66.6666666666667,4,2,2,100,0,1
208676,-133.333333333333,4,2,5,100,0,1
209145,-66.6666666666667,4,2,3,100,0,1
209613,-76.9230769230769,4,2,5,100,0,1
209730,-76.9230769230769,4,2,3,100,0,1
209848,-76.9230769230769,4,2,5,100,0,1
211723,-76.9230769230769,4,2,4,100,0,1
211840,-76.9230769230769,4,2,5,100,0,1
214535,-66.6666666666667,4,2,5,100,0,1
214770,-100,4,2,3,100,0,1
215238,-100,4,2,5,100,0,1
215590,-76.9230769230769,4,2,5,100,0,1
216410,-133.333333333333,4,2,5,100,0,1
216527,-133.333333333333,4,2,5,100,0,0
216645,-76.9230769230769,4,2,3,100,0,1
217113,-76.9230769230769,4,2,5,100,0,1
217465,-76.9230769230769,4,2,1,100,0,1
217582,-76.9230769230769,4,2,5,100,0,1
218051,-66.6666666666667,4,2,5,100,0,1
218285,-76.9230769230769,4,2,5,100,0,1
218520,-76.9230769230769,4,2,1,100,0,1
218754,-76.9230769230769,4,2,2,100,0,1
218988,-76.9230769230769,4,2,5,100,0,1
219457,-76.9230769230769,4,2,1,100,0,1
219574,-76.9230769230769,4,2,5,100,0,1
220395,-90.9090909090909,4,2,3,100,0,1
220863,-66.6666666666667,4,2,2,100,0,1
221332,-76.9230769230769,4,2,5,100,0,1
221684,-76.9230769230769,4,2,2,100,0,1
221801,-76.9230769230769,4,2,5,100,0,1
222270,-76.9230769230769,4,2,3,100,0,1
222504,-90.9090909090909,4,2,5,100,0,1
222738,-90.9090909090909,4,2,5,100,0,1
222973,-90.9090909090909,4,2,5,100,0,1
223207,-100,4,2,5,100,0,1
223324,-100,4,2,2,100,0,1
223676,-90.9090909090909,4,2,5,100,0,1
224145,-66.6666666666667,4,2,3,100,0,1
224613,-76.9230769230769,4,2,5,100,0,1
224730,-76.9230769230769,4,2,3,100,0,1
224848,-76.9230769230769,4,2,5,100,0,1
226723,-76.9230769230769,4,2,4,100,0,1
226840,-76.9230769230769,4,2,5,100,0,1
229535,-66.6666666666667,4,2,5,100,0,1
229770,-76.9230769230769,4,2,3,100,0,1
230238,-76.9230769230769,4,2,5,100,0,1
230824,-76.9230769230769,4,2,5,100,0,1
231176,-133.333333333333,4,2,5,100,0,1
231410,-133.333333333333,4,2,5,100,0,1
231645,-76.9230769230769,4,2,3,100,0,1
232113,-76.9230769230769,4,2,5,100,0,1
232465,-76.9230769230769,4,2,1,100,0,1
232582,-76.9230769230769,4,2,5,100,0,1
233051,-66.6666666666667,4,2,5,100,0,1
233285,-76.9230769230769,4,2,5,100,0,1
233520,-76.9230769230769,4,2,1,100,0,1
233754,-76.9230769230769,4,2,2,100,0,1
233988,-76.9230769230769,4,2,5,100,0,1
234457,-76.9230769230769,4,2,1,100,0,1
234574,-76.9230769230769,4,2,5,100,0,1
235395,-76.9230769230769,4,2,3,100,0,1
235512,-76.9230769230769,4,2,5,100,0,1
235629,-76.9230769230769,4,2,4,100,0,1
235746,-76.9230769230769,4,2,5,100,0,1
235863,-76.9230769230769,4,2,2,100,0,1
236332,-76.9230769230769,4,2,5,100,0,1
236684,-76.9230769230769,4,2,2,100,0,1
236801,-76.9230769230769,4,2,5,100,0,1
237035,-90.9090909090909,4,2,3,100,0,1
237270,-90.9090909090909,4,2,3,100,0,1
237504,-90.9090909090909,4,2,5,100,0,1
238207,-76.9230769230769,4,2,5,100,0,1
238324,-76.9230769230769,4,2,2,100,0,1
238676,-76.9230769230769,4,2,5,100,0,1
239145,-66.6666666666667,4,2,3,100,0,1
239613,-76.9230769230769,4,2,5,100,0,1
239730,-76.9230769230769,4,2,3,100,0,1
239848,-76.9230769230769,4,2,5,100,0,1
241020,-76.9230769230769,4,2,5,100,0,1
241723,-90.9090909090909,4,2,4,100,0,1
241840,-90.9090909090909,4,2,5,100,0,1
242191,-76.9230769230769,4,2,5,100,0,1
242895,-76.9230769230769,4,2,5,100,0,1
244535,-66.6666666666667,4,2,5,100,0,1
244770,-76.9230769230769,4,2,3,100,0,1
245238,-76.9230769230769,4,2,5,100,0,1
245590,-76.9230769230769,4,2,5,100,0,1
246410,-76.9230769230769,4,2,5,100,0,1
246645,-100,4,2,3,70,0,0
250160,-76.9230769230769,4,2,3,70,0,0
250395,-100,4,2,3,70,0,0
254145,-100,4,2,3,70,0,0
257660,-76.9230769230769,4,2,3,70,0,0
257895,-100,4,2,3,70,0,0
261176,-125,4,2,3,70,0,0
261645,-111.111111111111,4,2,3,60,0,0
265160,-90.9090909090908,4,2,3,60,0,0
265395,-111.111111111111,4,2,3,60,0,0
269145,-111.111111111111,4,2,3,60,0,0
272660,-90.9090909090909,4,2,3,60,0,0
272895,-111.111111111111,4,2,3,60,0,0
274770,-111.111111111111,4,2,3,70,0,0
276645,-133.333333333333,4,2,3,50,0,0
291645,-133.333333333333,4,2,1,40,0,0
295160,-133.333333333333,4,2,3,40,0,0
295395,-133.333333333333,4,2,3,40,0,0
297270,-133.333333333333,4,2,3,50,0,0
299145,-133.333333333333,4,2,3,60,0,0
301020,-133.333333333333,4,2,3,70,0,0
302895,-133.333333333333,4,2,3,80,0,0
306645,-133.333333333333,4,2,3,60,0,0

[Colours]
Combo1 : 255,223,125
Combo2 : 148,222,116
Combo3 : 129,220,239
Combo4 : 250,159,184

[HitObjects]
75,236,1020,6,0,L|69:303,1,67.5000025749208,8|0,0:1|0:0,0:0:0:0:
193,353,1488,2,0,L|198:285,1,67.5000025749208,8|0,0:0|0:0,0:0:0:0:
66,242,1957,2,0,L|60:309,1,67.5000025749208,8|0,0:1|0:0,0:0:0:0:
184,359,2426,2,0,L|189:291,1,67.5000025749208,8|0,0:0|0:0,0:0:0:0:
57,248,2895,6,0,L|51:315,1,67.5000025749208,8|0,0:1|0:0,0:0:0:0:
175,365,3363,2,0,L|180:297,1,67.5000025749208,8|0,0:0|0:0,0:0:0:0:
187,219,3715,1,2,3:2:0:0:
187,219,3832,2,0,L|192:162,2,33.7500012874604,8|0|0,0:1|0:0|0:0,0:0:0:0:
251,263,4184,1,0,3:0:0:0:
251,263,4301,2,0,L|308:268,1,33.7500012874604,8|0,0:1|0:0,0:0:0:0:
432,278,4535,6,0,L|360:272,1,72,8|0,1:2|0:0,0:0:0:0:
280,183,4770,5,8,0:1:0:0:
273,171,5004,1,0,0:0:0:0:
347,140,5238,5,8,0:0:0:0:
345,126,5472,1,0,0:0:0:0:
425,123,5707,6,0,L|429:55,1,67.5000025749208,8|0,0:1|0:0,0:0:0:0:
430,48,6059,1,0,0:0:0:0:
431,41,6176,1,8,0:0:0:0:
506,89,6410,1,0,0:0:0:0:
343,39,6645,5,8,0:1:0:0:
329,41,6879,1,0,0:0:0:0:
255,83,7113,6,0,L|188:77,1,67.5000025749208,8|0,0:0|0:0,0:0:0:0:
109,70,7465,1,2,3:2:0:0:
109,70,7582,2,0,L|106:36,2,33.7500012874604,8|0|0,0:1|0:0|0:0,0:0:0:0:
142,140,7934,1,0,3:0:0:0:
142,140,8051,2,0,L|139:173,2,33.7500012874604,8|0|2,0:1|0:0|0:0,0:0:0:0:
0,188,8520,5,8,0:1:0:0:
12,181,8754,1,0,0:0:0:0:
40,256,8988,5,8,0:0:0:0:
54,254,9222,1,0,0:0:0:0:
54,335,9457,6,0,L|121:341,1,67.5000025749208,8|0,0:1|0:0,0:0:0:0:
127,341,9809,1,0,0:0:0:0:
134,342,9926,1,8,0:0:0:0:
215,368,10160,1,0,0:0:0:0:
204,217,10395,6,0,L|198:284,1,67.5000025749208,8|0,0:1|0:0,0:0:0:0:
307,185,10863,2,0,L|302:253,1,67.5000025749208,8|0,0:0|0:0,0:0:0:0:
295,331,11215,1,2,3:2:0:0:
295,331,11332,2,0,L|290:388,2,33.7500012874604,8|0|0,0:1|0:0|0:0,0:0:0:0:
231,287,11684,1,0,3:0:0:0:
231,287,11801,2,0,L|174:282,1,33.7500012874604,8|0,0:1|0:0,0:0:0:0:
302,252,12035,6,0,L|374:258,1,72,8|0,1:2|0:0,0:0:0:0:
492,295,12270,5,8,0:1:0:0:
511,225,12504,1,0,0:0:0:0:
477,161,12739,1,8,0:0:0:0:
408,139,12973,1,0,0:0:0:0:
342,171,13207,1,8,0:1:0:0:
347,99,13441,1,0,0:0:0:0:
347,99,13559,1,0,0:0:0:0:
347,99,13676,1,8,0:0:0:0:
408,139,13910,1,0,0:0:0:0:
282,132,14145,5,8,0:1:0:0:
282,132,14262,2,0,P|243:135|201:139,1,80.9999975280763,8|0,3:2|0:0,0:0:0:0:
185,149,14613,6,0,P|174:129|166:108,1,45,8|0,0:0|0:0,0:0:0:0:
238,15,14848,1,0,0:0:0:0:
238,15,14965,2,0,P|235:37|232:59,1,45,8|0,0:0|0:0,0:0:0:0:
282,132,15199,1,0,0:0:0:0:
281,145,15316,1,8,0:0:0:0:
280,159,15433,1,0,0:0:0:0:
279,172,15551,6,0,L|271:272,1,101.250003862381,4|0,0:3|0:0,0:0:0:0:
201,307,16020,6,0,P|195:285|195:262,1,45,6|0,0:0|0:0,0:0:0:0:
348,281,16254,1,0,0:0:0:0:
348,281,16371,2,0,P|331:324|294:348,1,90,2|0,0:0|0:0,0:0:0:0:
282,348,16723,1,2,0:3:0:0:
275,228,16957,1,8,0:1:0:0:
275,228,17074,2,0,L|271:272,2,45,2|0|0,0:3|0:0|0:0,0:0:0:0:
353,237,17426,2,0,L|348:281,1,45,10|0,0:0|0:0,0:0:0:0:
426,290,17660,1,2,0:3:0:0:
265,91,17895,6,0,L|310:87,1,45,10|0,0:1|0:0,0:0:0:0:
472,109,18129,1,0,0:0:0:0:
472,108,18246,2,0,L|383:117,1,90,2|0,0:0|0:0,0:0:0:0:
310,87,18598,2,0,P|305:109|306:132,1,45,2|0,0:3|0:0,0:0:0:0:
356,191,18832,1,8,0:1:0:0:
356,191,18949,2,0,P|357:214|352:236,2,45,2|0|0,0:3|0:0|0:0,0:0:0:0:
278,205,19301,2,0,L|233:209,1,45,10|0,0:0|0:0,0:0:0:0:
107,306,19535,6,0,L|165:300,1,58.4999973220826,8|0,1:2|0:0,0:0:0:0:
158,177,19770,6,0,P|152:199|153:221,1,45,10|0,0:1|0:0,0:0:0:0:
235,378,20004,1,0,0:0:0:0:
235,378,20121,2,0,P|239:333|243:288,1,90,2|0,0:0|0:0,0:0:0:0:
237,281,20473,2,0,P|274:305|323:302,1,90,2|8,0:3|0:1,0:0:0:0:
330,297,20825,1,2,0:0:0:0:
343,292,20942,1,0,0:0:0:0:
356,290,21059,1,0,0:0:0:0:
370,290,21176,2,0,P|395:293|420:302,1,45,10|0,0:0|0:0,0:0:0:0:
474,352,21410,1,2,0:3:0:0:
295,225,21645,6,0,P|298:202|299:180,1,45,10|0,0:1|0:0,0:0:0:0:
453,153,21879,1,0,0:0:0:0:
453,153,21996,2,0,P|410:163|369:148,1,90,2|0,0:0|0:0,0:0:0:0:
307,103,22348,2,0,P|285:104|264:112,1,45,2|0,0:0|0:0,0:0:0:0:
223,177,22582,1,8,0:1:0:0:
209,176,22699,1,2,0:0:0:0:
196,176,22816,1,0,0:0:0:0:
182,175,22933,1,2,0:0:0:0:
170,175,23051,2,0,L|125:172,2,45,10|0|2,0:0|0:0|0:3,0:0:0:0:
373,245,23520,6,0,P|372:267|370:290,1,45,10|0,0:1|0:0,0:0:0:0:
255,369,23754,1,0,0:0:0:0:
255,369,23871,2,0,P|242:323|265:269,1,90,2|0,0:0|0:0,0:0:0:0:
264,275,24223,1,2,0:3:0:0:
373,245,24457,1,8,0:1:0:0:
373,245,24574,2,0,P|395:243|418:240,2,45,2|0|0,0:3|0:0|0:0,0:0:0:0:
342,169,24926,2,0,P|364:167|387:165,1,45,10|0,0:0|0:0,0:0:0:0:
311,93,25160,1,2,0:3:0:0:
133,256,25395,6,0,P|110:258|88:261,1,45,10|0,0:1|0:0,0:0:0:0:
0,152,25629,1,0,0:0:0:0:
0,152,25746,2,0,P|6:196|10:241,1,90,2|0,0:0|0:0,0:0:0:0:
88,261,26098,2,0,P|87:283|83:305,1,45,2|0,0:3|0:0,0:0:0:0:
159,332,26332,1,8,0:1:0:0:
159,332,26449,2,0,P|151:353|140:375,2,45,2|0|0,0:3|0:0|0:0,0:0:0:0:
239,344,26801,2,0,P|237:321|233:299,1,45,10|0,0:0|0:0,0:0:0:0:
352,118,27035,6,0,P|350:147|346:176,1,58.4999973220826,8|0,1:2|0:0,0:0:0:0:
181,235,27270,5,10,0:1:0:0:
208,220,27387,1,0,0:0:0:0:
239,216,27504,1,0,0:0:0:0:
269,224,27621,1,2,0:0:0:0:
294,242,27738,1,8,0:0:0:0:
321,257,27855,1,0,0:0:0:0:
352,261,27972,1,2,0:3:0:0:
382,253,28089,1,0,0:0:0:0:
407,234,28207,5,8,0:1:0:0:
386,257,28324,1,2,0:0:0:0:
380,288,28441,1,0,0:0:0:0:
387,318,28558,1,0,0:0:0:0:
408,343,28675,1,10,0:0:0:0:
437,355,28792,1,0,0:0:0:0:
468,351,28910,1,2,0:3:0:0:
494,335,29028,1,0,0:0:0:0:
510,308,29145,5,8,0:1:0:0:
502,218,29379,5,2,0:0:0:0:
502,218,29613,1,2,0:0:0:0:
495,128,29848,5,0,0:0:0:0:
495,128,29965,1,0,3:0:0:0:
495,128,30082,1,0,0:0:0:0:
415,84,30316,6,0,P|420:56|423:25,2,53.9999983520508,2|0|2,0:0|0:0|0:0,0:0:0:0:
357,152,31020,6,0,P|295:164|240:125,1,125.999996154785,14|0,0:0|0:0,0:0:0:0:
223,48,31723,1,8,0:0:0:0:
223,48,31957,1,8,0:0:0:0:
97,169,32660,1,8,0:0:0:0:
45,99,32895,6,0,P|104:81|160:108,1,125.999996154785,10|0,0:0|0:0,0:0:0:0:
151,238,33598,1,10,0:0:0:0:
151,238,33832,2,0,P|92:255|37:228,1,125.999996154785,10|2,0:0|0:0,0:0:0:0:
97,169,34535,1,8,0:0:0:0:
206,308,34770,6,0,P|265:290|320:318,1,125.999996154785,10|8,0:0|0:0,0:0:0:0:
389,368,35473,1,8,0:0:0:0:
399,360,35941,1,8,0:0:0:0:
408,351,36410,2,0,P|439:299|423:240,1,125.999996154785,8|10,0:0|0:0,0:0:0:0:
271,179,37348,5,10,0:0:0:0:
233,251,37582,1,10,0:0:0:0:
155,276,37816,1,8,0:0:0:0:
82,238,38051,1,8,0:0:0:0:
57,160,38285,1,8,0:0:0:0:
57,160,38520,1,12,0:0:0:0:
164,169,38754,1,0,0:0:0:0:
164,169,38871,1,0,0:0:0:0:
164,169,38988,1,0,3:0:0:0:
57,160,39223,5,10,0:0:0:0:
95,87,39457,1,10,0:0:0:0:
173,63,39691,1,8,0:0:0:0:
246,100,39925,1,8,0:0:0:0:
271,178,40160,1,8,0:0:0:0:
271,178,40395,1,12,0:0:0:0:
164,169,40629,1,0,0:0:0:0:
164,169,40746,1,0,0:0:0:0:
164,169,40863,1,0,3:0:0:0:
336,126,41098,6,0,P|352:185|326:240,1,125.999996154785,10|8,0:0|0:0,0:0:0:0:
242,256,41801,1,10,0:0:0:0:
242,256,42035,1,8,0:0:0:0:
295,343,42270,6,0,P|326:338|357:335,1,62.9999980773926,10|0,0:0|0:0,0:0:0:0:
366,336,42621,1,0,0:0:0:0:
375,337,42738,1,12,0:0:0:0:
465,366,42973,2,0,P|470:325|472:286,1,62.9999980773926,10|2,0:0|0:0,0:0:0:0:
436,226,43441,1,8,0:0:0:0:
487,160,43676,2,0,P|428:142|374:171,1,125.999996154785,14|4,0:0|0:0,0:0:0:0:
326,240,44379,5,14,0:0:0:0:
326,240,44613,1,14,0:0:0:0:
336,98,44848,1,4,0:0:0:0:
209,161,45082,1,8,0:0:0:0:
187,167,45199,1,4,0:0:0:0:
165,167,45316,1,4,0:0:0:0:
144,163,45433,1,4,0:0:0:0:
124,152,45551,2,0,L|129:112,6,22.5,8|8|8|8|8|8|8,0:1|0:1|0:1|0:1|0:1|0:1|0:1,0:0:0:0:
58,191,46020,5,8,0:1:0:0:
59,201,46137,2,0,L|64:247,1,33.7500012874604,0|0,3:0|0:0,0:0:0:0:
175,365,46488,6,0,B|184:288|184:288|158:253,1,116.999994644165,8|0,0:0|0:0,0:0:0:0:
147,242,46840,1,8,0:0:0:0:
147,242,46957,2,0,P|176:239|205:235,1,58.4999973220826,0|0,0:0|0:0,0:0:0:0:
97,313,47191,2,0,P|68:315|37:318,1,58.4999973220826,8|0,0:0|0:0,0:0:0:0:
175,365,47426,6,0,L|204:363,1,29.2499986610413,8|0,0:0|0:0,0:0:0:0:
282,228,47660,1,2,0:0:0:0:
382,368,47895,6,0,P|360:374|338:373,1,45,6|0,0:0|0:0,0:0:0:0:
282,228,48129,1,0,0:0:0:0:
282,228,48246,2,0,L|275:318,1,90,2|0,0:0|0:0,0:0:0:0:
274,331,48598,1,2,0:3:0:0:
349,181,48832,1,8,0:0:0:0:
349,181,48949,2,0,P|346:159|341:137,2,45,2|0|0,0:3|0:0|0:0,0:0:0:0:
434,167,49301,2,0,P|430:189|424:211,1,45,10|0,0:0|0:0,0:0:0:0:
357,262,49535,1,2,0:3:0:0:
460,69,49770,6,0,P|437:70|415:72,1,45,10|0,0:0|0:0,0:0:0:0:
256,131,50004,1,0,0:0:0:0:
256,131,50121,2,0,P|297:147|340:137,1,90,2|0,0:0|0:0,0:0:0:0:
352,129,50473,1,2,0:3:0:0:
297,24,50707,1,8,0:0:0:0:
297,24,50824,2,0,P|301:54|303:79,2,45,2|0|0,0:3|0:0|0:0,0:0:0:0:
215,24,51176,2,0,P|211:54|209:79,1,45,10|0,0:0|0:0,0:0:0:0:
256,131,51410,1,2,0:3:0:0:
47,248,51645,6,0,P|43:225|37:202,1,45,10|0,0:0|0:0,0:0:0:0:
137,110,51879,1,0,0:0:0:0:
137,110,51996,2,0,P|134:153|130:199,1,90,2|0,0:0|0:0,0:0:0:0:
122,210,52348,2,0,P|165:201|207:216,1,90,2|8,0:3|0:0,0:0:0:0:
219,222,52699,1,2,0:0:0:0:
231,226,52816,1,0,0:0:0:0:
244,229,52933,1,0,0:0:0:0:
257,230,53051,2,0,P|281:229|302:225,1,45,10|0,0:0|0:0,0:0:0:0:
372,183,53285,1,2,0:3:0:0:
383,367,53520,6,0,P|381:345|379:323,1,45,10|0,0:0|0:0,0:0:0:0:
512,263,53754,1,0,0:0:0:0:
512,263,53871,2,0,P|475:240|426:248,1,90,2|0,0:0|0:0,0:0:0:0:
419,253,54223,1,2,0:0:0:0:
302,225,54457,1,8,0:0:0:0:
304,238,54574,1,2,0:0:0:0:
305,252,54691,1,0,0:0:0:0:
306,265,54809,1,2,0:0:0:0:
308,279,54926,2,0,P|305:302|302:335,2,45,10|0|2,0:0|0:0|0:3,0:0:0:0:
326,99,55395,6,0,P|303:101|281:103,1,45,6|0,0:0|0:0,0:0:0:0:
139,174,55629,1,0,0:0:0:0:
139,174,55746,2,0,P|181:189|224:178,1,90,2|0,0:0|0:0,0:0:0:0:
236,172,56098,1,2,0:3:0:0:
183,14,56332,1,8,0:0:0:0:
181,27,56449,1,2,0:3:0:0:
180,40,56566,1,0,0:0:0:0:
179,54,56683,1,0,0:0:0:0:
177,66,56801,2,0,P|181:89|184:111,1,45,10|0,0:0|0:0,0:0:0:0:
139,174,57035,2,0,P|142:196|145:218,1,45,2|0,0:3|0:0,0:0:0:0:
100,281,57270,5,8,0:0:0:0:
102,295,57387,1,0,0:0:0:0:
104,310,57504,1,0,0:0:0:0:
106,325,57621,1,2,0:0:0:0:
100,342,57738,5,8,0:0:0:0:
127,326,57855,1,0,0:0:0:0:
158,320,57972,1,2,0:3:0:0:
189,326,58089,1,0,0:0:0:0:
215,343,58207,1,8,0:0:0:0:
241,357,58325,1,0,0:3:0:0:
272,364,58442,1,0,0:0:0:0:
303,358,58559,1,0,0:0:0:0:
329,342,58676,6,0,P|334:308|337:275,1,67.5,10|0,0:0|0:0,0:0:0:0:
306,205,59145,6,0,L|298:191,7,16.8750006437302,10|0|0|0|0|0|2|0,0:1|0:0|0:0|0:0|0:0|0:0|0:0|0:0,0:0:0:0:
374,174,59613,6,0,P|380:164|386:152,7,22.5,8|0|0|0|2|0|0|0,0:1|0:0|0:0|0:0|0:0|0:0|0:0|0:0,0:0:0:0:
319,115,60082,6,0,P|315:101|310:88,7,26.9999991760254,8|0|2|0|2|0|2|0,0:1|0:0|0:0|0:0|0:0|0:0|0:3|0:0,0:0:0:0:
385,76,60551,6,0,P|390:59|394:34,7,33.7500012874604,10|0|0|0|2|0|0|0,0:1|0:0|0:0|0:0|0:3|0:0|0:0|0:0,0:0:0:0:
325,12,61020,5,12,0:1:0:0:
490,201,61254,1,8,0:0:0:0:
490,201,61488,2,0,P|469:203|446:205,1,45,8|0,0:0|0:0,0:0:0:0:
372,228,61840,1,8,0:0:0:0:
370,241,61957,6,0,P|365:285|360:330,1,90,8|0,0:0|0:0,0:0:0:0:
364,348,62309,1,4,0:3:0:0:
369,366,62426,5,8,0:3:0:0:
325,360,62543,1,8,0:3:0:0:
280,354,62660,2,0,L|228:349,1,45,4|0,0:3|0:0,0:0:0:0:
23,246,62895,6,0,P|116:223|173:299,1,202.500007724762,6|0,0:0|0:0,0:0:0:0:
167,314,63363,6,0,P|159:337|159:362,1,49.5000015106202,12|0,0:3|0:0,0:0:0:0:
205,189,63598,5,0,3:0:0:0:
209,179,63715,2,0,L|201:108,1,58.4999973220826,10|0,0:0|0:0,0:0:0:0:
376,180,63949,2,0,P|376:214|363:244,1,58.4999973220826,2|0,0:3|0:0,0:0:0:0:
256,316,64184,1,2,0:0:0:0:
315,369,64301,6,0,L|439:358,1,108,10|0,0:0|0:0,0:0:0:0:
435,352,64535,6,0,P|404:334|384:308,1,58.4999973220826,2|0,0:1|0:0,0:0:0:0:
256,316,64770,2,0,P|284:298|318:293,1,58.4999973220826,8|0,0:1|0:0,0:0:0:0:
458,273,65004,6,0,L|456:244,1,29.2499986610413,2|0,0:3|0:0,0:0:0:0:
471,226,65121,2,0,L|469:197,1,29.2499986610413,2|0,0:3|0:0,0:0:0:0:
484,179,65238,2,0,L|476:100,1,58.4999973220826,8|0,0:0|0:0,0:0:0:0:
335,30,65473,1,2,0:0:0:0:
336,41,65590,2,0,L|341:99,1,58.4999973220826,0|8,0:0|0:1,0:0:0:0:
218,203,65824,1,0,0:0:0:0:
213,179,65941,1,2,0:0:0:0:
211,156,66058,1,2,0:0:0:0:
222,129,66176,6,0,B|136:166|133:94|39:130,1,175.499991966248,8|0,0:0|0:0,0:0:0:0:
46,134,66645,6,0,P|7:183|77:200,1,148.50000453186,4|0,0:3|0:0,0:0:0:0:
172,215,67113,6,0,B|123:189|68:208|68:208|117:176|162:189,1,202.500007724762,6|0,0:0|0:0,0:0:0:0:
247,200,67582,6,0,P|247:232|231:264,1,58.4999973220826,8|0,0:1|0:0,0:0:0:0:
122,368,67816,1,4,0:3:0:0:
117,358,67934,1,2,0:3:0:0:
112,348,68051,2,0,L|117:288,1,58.4999973220826,8|0,0:0|0:0,0:0:0:0:
220,87,68285,6,0,L|161:92,1,58.4999973220826,2|0,0:0|0:0,0:0:0:0:
67,207,68520,2,0,L|125:202,1,58.4999973220826,10|0,0:1|0:0,0:0:0:0:
253,6,68754,6,0,L|185:11,1,67.5000025749208,2|0,0:0|0:0,0:0:0:0:
23,132,68988,2,0,L|90:126,1,67.5000025749208,10|0,0:0|0:0,0:0:0:0:
271,220,69223,2,0,L|203:226,1,67.5000025749208,2|0,0:0|0:0,0:0:0:0:
41,346,69457,5,8,0:1:0:0:
64,343,69574,1,2,0:3:0:0:
90,355,69691,1,0,0:0:0:0:
113,353,69808,1,2,3:2:0:0:
138,363,69926,6,0,P|141:339|143:314,1,49.5000015106202,8|2,0:0|0:1,0:0:0:0:
125,202,70160,1,2,3:2:0:0:
420,280,70395,6,0,B|319:250|326:333|226:304,1,202.500007724762,6|0,0:0|0:0,0:0:0:0:
204,226,70863,6,0,P|232:223|260:231,1,58.4999973220826,8|8,0:0|0:3,0:0:0:0:
382,357,71098,1,0,0:0:0:0:
382,357,71215,2,0,P|409:365|438:362,1,58.4999973220826,4|8,0:3|0:1,0:0:0:0:
338,198,71449,1,0,0:0:0:0:
343,187,71566,1,0,3:0:0:0:
348,176,71684,1,2,0:0:0:0:
353,165,71801,2,0,P|350:135|345:107,1,58.4999973220826,8|0,0:0|0:0,0:0:0:0:
154,63,72035,1,2,0:0:0:0:
150,90,72152,1,0,0:0:0:0:
146,118,72270,6,0,P|197:142|250:122,1,116.999994644165,8|0,0:1|0:0,0:0:0:0:
289,42,72621,1,0,0:0:0:0:
289,42,72738,2,0,P|259:45|230:48,1,58.4999973220826,8|0,0:0|0:0,0:0:0:0:
58,255,72973,1,8,0:3:0:0:
20,183,73090,2,0,B|101:155|106:224|189:191,1,175.499991966248,6|0,0:3|0:0,0:0:0:0:
336,368,73676,2,0,P|372:320|359:262,1,116.999994644165,8|0,0:0|0:0,0:0:0:0:
190,191,74145,6,0,P|195:249|198:307,1,116.999994644165,8|0,0:1|0:0,0:0:0:0:
130,353,74496,1,0,0:0:0:0:
130,353,74613,2,0,P|117:315|125:276,1,58.4999973220826,8|2,0:0|0:1,0:0:0:0:
190,191,74848,1,0,3:0:0:0:
268,184,74965,2,0,P|297:181|328:179,1,58.4999973220826,2|8,0:0|0:1,0:0:0:0:
465,319,75199,2,0,P|399:348|353:324,1,116.999994644165,2|0,0:0|0:0,0:0:0:0:
352,314,75551,2,0,P|356:285|359:255,1,58.4999973220826,8|0,0:0|0:0,0:0:0:0:
264,319,75785,6,0,P|231:325|199:315,1,67.5000025749208,2|2,0:1|0:0,0:0:0:0:
40,265,76020,6,0,P|27:340|121:341,1,175.499991966248,10|0,0:1|0:0,0:0:0:0:
126,281,76488,2,0,P|123:264|120:251,2,29.2499986610413,8|0|10,0:0|0:0|0:1,0:0:0:0:
200,316,76723,1,2,3:2:0:0:
201,305,76840,2,0,P|204:270|206:247,1,58.4999973220826,0|0,0:0|0:1,0:0:0:0:
432,277,77074,2,0,P|385:245|329:255,1,116.999994644165,2|0,0:0|0:0,0:0:0:0:
279,315,77426,5,8,0:0:0:0:
280,326,77543,1,0,0:0:0:0:
281,338,77660,2,0,L|285:382,1,33.7500012874604,2|0,3:2|0:0,0:0:0:0:
102,319,77895,6,0,P|162:225|251:230,1,202.500007724762,6|0,0:0|0:0,0:0:0:0:
327,255,78363,6,0,P|332:230|330:206,1,49.5000015106202,12|0,0:3|0:0,0:0:0:0:
202,142,78598,5,0,3:0:0:0:
195,134,78715,2,0,L|189:76,1,58.4999973220826,10|0,0:0|0:0,0:0:0:0:
358,136,78949,2,0,P|329:130|300:135,1,58.4999973220826,2|0,0:3|0:0,0:0:0:0:
243,226,79184,1,2,0:0:0:0:
327,255,79301,6,0,L|446:243,1,108,10|0,0:0|0:0,0:0:0:0:
488,261,79535,6,0,P|462:247|433:243,1,58.4999973220826,2|0,0:1|0:0,0:0:0:0:
374,329,79770,2,0,P|348:342|319:346,1,58.4999973220826,8|0,0:1|0:0,0:0:0:0:
240,255,80004,6,0,L|242:226,1,29.2499986610413,2|0,0:3|0:0,0:0:0:0:
227,208,80121,2,0,L|229:179,1,29.2499986610413,2|0,0:3|0:0,0:0:0:0:
214,161,80238,2,0,L|222:82,1,58.4999973220826,8|0,0:0|0:0,0:0:0:0:
90,198,80473,1,2,0:0:0:0:
79,196,80590,2,0,L|0:188,1,58.4999973220826,0|8,0:0|0:1,0:0:0:0:
166,288,80824,1,0,0:0:0:0:
170,312,80941,1,2,0:0:0:0:
174,336,81059,1,2,0:0:0:0:
157,361,81176,6,0,B|249:391|236:314|328:343,1,175.499991966248,8|0,0:0|0:0,0:0:0:0:
430,345,81645,5,4,0:3:0:0:
405,364,81762,2,0,P|399:342|400:320,1,45,2|8,0:1|0:0,0:0:0:0:
342,263,81996,1,0,3:0:0:0:
450,158,82113,6,0,B|501:161|511:225|511:225|461:267|418:239,1,202.500007724762,6|0,0:0|0:0,0:0:0:0:
278,213,82582,2,0,P|304:191|337:184,1,67.5000025749208,8|0,0:1|0:0,0:0:0:0:
400,320,82816,1,4,0:3:0:0:
396,332,82934,1,2,0:3:0:0:
391,344,83051,2,0,L|325:335,1,67.5000025749208,8|0,0:0|0:0,0:0:0:0:
60,325,83285,6,0,L|51:259,1,67.5000025749208,2|0,0:0|0:0,0:0:0:0:
209,135,83520,2,0,L|200:201,1,67.5000025749208,10|0,0:1|0:0,0:0:0:0:
45,315,83754,6,0,L|36:249,1,67.5000025749208,2|0,0:0|0:0,0:0:0:0:
223,154,83988,2,0,L|214:220,1,67.5000025749208,10|0,0:0|0:0,0:0:0:0:
25,118,84223,2,0,L|16:52,1,67.5000025749208,2|0,0:0|0:0,0:0:0:0:
227,239,84457,5,8,0:1:0:0:
153,272,84574,2,0,P|107:233|20:254,1,135.000005149842,2|2,0:3|3:2,0:0:0:0:
20,238,84926,6,0,L|29:304,1,67.5000025749208,8|2,0:0|3:2,0:0:0:0:
220,316,85395,6,0,B|312:346|308:265|417:304,1,202.500007724762,6|0,0:0|0:0,0:0:0:0:
485,348,85863,6,0,P|496:320|493:284,1,58.4999973220826,8|8,0:0|0:3,0:0:0:0:
380,149,86098,1,0,0:0:0:0:
380,149,86215,2,0,P|369:177|372:213,1,58.4999973220826,4|8,0:3|0:1,0:0:0:0:
415,303,86449,1,0,0:0:0:0:
404,298,86566,1,0,3:0:0:0:
393,293,86684,1,2,0:0:0:0:
382,288,86801,2,0,L|324:296,1,58.4999973220826,8|0,0:0|0:0,0:0:0:0:
131,281,87035,1,2,0:0:0:0:
136,310,87152,1,0,0:0:0:0:
144,339,87270,6,0,P|200:344|246:310,1,116.999994644165,8|0,0:1|0:0,0:0:0:0:
316,353,87621,1,0,0:0:0:0:
316,353,87738,2,0,L|324:295,1,58.4999973220826,8|0,0:0|0:0,0:0:0:0:
344,100,87973,5,8,0:3:0:0:
248,62,88090,2,0,L|272:236,1,175.499991966248,6|0,0:3|0:0,0:0:0:0:
494,355,88676,2,0,P|446:319|388:332,1,116.999994644165,8|0,0:0|0:0,0:0:0:0:
251,379,89145,6,0,L|134:366,1,116.999994644165,8|0,0:1|0:0,0:0:0:0:
86,311,89496,1,0,0:0:0:0:
86,311,89613,2,0,P|110:296|139:293,1,58.4999973220826,8|2,0:0|0:1,0:0:0:0:
251,379,89848,1,0,3:0:0:0:
244,301,89965,2,0,L|237:242,1,58.4999973220826,2|8,0:0|0:1,0:0:0:0:
87,83,90199,2,0,P|75:139|103:189,1,116.999994644165,2|0,0:0|0:0,0:0:0:0:
118,176,90551,2,0,L|176:182,1,58.4999973220826,8|0,0:0|0:0,0:0:0:0:
317,139,90785,6,0,P|287:122|254:120,1,67.5000025749208,2|2,0:1|0:0,0:0:0:0:
176,182,91020,5,10,0:1:0:0:
244,301,91254,2,0,L|239:256,1,45
324,79,91488,1,8,0:0:0:0:
317,139,91605,2,0,L|312:183,1,45,10|2,0:1|3:2,0:0:0:0:
426,251,91840,6,0,P|397:255|369:248,1,58.4999973220826,0|0,0:0|0:1,0:0:0:0:
118,175,92074,2,0,P|168:148|226:152,1,116.999994644165,2|0,0:0|0:0,0:0:0:0:
402,178,92426,5,8,0:0:0:0:
415,176,92543,1,0,0:0:0:0:
428,174,92660,2,0,L|461:169,1,33.7500012874604,2|0,3:2|0:0,0:0:0:0:
327,40,92895,6,0,L|317:139,1,99.0000030212403,4|0,0:0|0:0,0:0:0:0:
391,276,93363,2,0,L|401:177,1,99.0000030212403,8|2,0:0|0:0,0:0:0:0:
327,40,93832,1,8,0:1:0:0:
323,36,93949,1,0,0:0:0:0:
319,32,94066,2,0,L|308:130,1,99.0000030212403,0|8,0:0|0:0,0:0:0:0:
297,228,94535,1,2,0:0:0:0:
123,159,94770,6,0,B|172:149|172:149|218:168,1,99.0000030212403,8|0,0:1|0:0,0:0:0:0:
207,301,95238,2,0,B|158:311|158:311|112:292,1,99.0000030212403,8|2,0:0|0:0,0:0:0:0:
123,159,95707,1,8,0:1:0:0:
124,152,95824,1,0,0:0:0:0:
125,145,95941,2,0,B|173:134|173:134|219:153,1,99.0000030212403,0|8,0:0|0:0,0:0:0:0:
297,228,96410,1,2,0:0:0:0:
406,120,96645,6,0,L|308:130,1,99.0000030212403,8|0,0:1|0:0,0:0:0:0:
165,230,97113,1,8,0:0:0:0:
237,325,97348,2,0,P|284:315|329:333,1,99.0000030212403,2|8,0:0|0:1,0:0:0:0:
340,344,97699,1,0,0:0:0:0:
348,355,97816,2,0,L|446:345,1,99.0000030212403,0|8,0:0|0:0,0:0:0:0:
507,254,98285,1,2,0:0:0:0:
318,203,98520,6,0,B|314:226|314:226|323:250,1,49.5000015106202,8|0,0:1|0:0,0:0:0:0:
439,214,98754,6,0,L|394:219,1,45,0|0,0:0|0:0,0:0:0:0:
254,133,98988,6,0,L|294:128,1,40.4999987640381,8|0,0:0|0:0,0:0:0:0:
371,145,99223,6,0,B|376:128|376:128|372:110,1,36,2|0,0:0|0:0,0:0:0:0:
316,52,99457,1,8,0:1:0:0:
162,174,99691,1,2,0:0:0:0:
173,76,99926,2,0,L|162:174,1,99.0000030212403,8|2,0:0|0:0,0:0:0:0:
0,245,100395,6,0,B|99:233|99:233|65:269,1,148.50000453186,8|0,0:1|0:0,0:0:0:0:
65,268,100863,1,8,0:0:0:0:
178,371,101098,2,0,L|189:273,1,99.0000030212403,2|8,0:0|0:1,0:0:0:0:
181,259,101449,1,0,0:0:0:0:
181,259,101566,2,0,L|279:248,1,99.0000030212403,0|8,0:0|0:0,0:0:0:0:
365,332,102035,1,2,0:0:0:0:
445,226,102270,6,0,B|439:280|439:280|452:319|452:319|446:375,1,148.50000453186,8|0,0:1|0:0,0:0:0:0:
446,371,102738,1,8,0:0:0:0:
267,343,102973,2,0,L|365:332,1,99.0000030212403,2|8,0:0|0:1,0:0:0:0:
363,346,103324,1,0,0:0:0:0:
361,360,103441,1,0,0:0:0:0:
279,247,103676,1,8,0:0:0:0:
291,151,103910,1,2,0:0:0:0:
466,198,104145,6,0,L|368:209,1,99.0000030212403,8|0,0:1|0:0,0:0:0:0:
367,209,104496,1,0,0:0:0:0:
367,209,104613,2,0,L|372:159,1,49.5000015106202,8|0,0:0|0:0,0:0:0:0:
384,63,104848,1,2,0:0:0:0:
295,101,105082,1,8,0:1:0:0:
295,101,105199,1,0,0:0:0:0:
295,101,105316,2,0,L|197:112,1,99.0000030212403,0|8,0:0|0:0,0:0:0:0:
99,58,105785,1,2,0:0:0:0:
9,158,106020,6,0,P|57:149|100:170,1,99.0000030212403,8|0,0:1|0:0,0:0:0:0:
115,322,106488,2,0,L|109:375,1,49.5000015106202,8|0,0:0|0:0,0:0:0:0:
10,343,106723,1,2,0:0:0:0:
10,343,106840,2,0,B|2:320|2:320|8:294,1,49.5000015106202,0|8,0:0|0:1,0:0:0:0:
47,229,107074,2,0,P|106:223|164:217,1,116.999994644165,2|0,0:0|0:0,0:0:0:0:
187,223,107426,5,8,0:0:0:0:
212,237,107543,1,0,0:0:0:0:
231,266,107660,2,0,L|226:312,1,33.7500012874604,0|0,0:0|0:0,0:0:0:0:
297,372,107895,5,4,0:3:0:0:
302,362,108012,2,0,L|293:324,2,22.5,2|0|0,0:1|0:0|3:0,0:0:0:0:
403,232,108363,6,0,B|454:235|464:299|464:299|414:341|371:313,1,202.500007724762,12|0,0:0|0:0,0:0:0:0:
226,299,108832,6,0,P|242:280|264:268,1,49.5000015106202,8|0,0:1|0:0,0:0:0:0:
333,254,109066,1,0,0:0:0:0:
293,110,109301,2,0,P|303:157|284:202,1,99.0000030212403,8|2,0:0|0:0,0:0:0:0:
188,234,109652,1,0,0:0:0:0:
188,234,109770,6,0,L|89:223,1,99.0000030212403,8|0,0:1|0:0,0:0:0:0:
44,117,110238,2,0,P|62:132|74:154,1,49.5000015106202,8|0,0:0|0:0,0:0:0:0:
89,223,110473,1,2,0:0:0:0:
35,367,110707,2,0,P|24:319|43:274,1,99.0000030212403,8|0,0:1|0:0,0:0:0:0:
236,183,111176,2,0,P|188:194|143:175,1,99.0000030212403,8|2,0:0|0:0,0:0:0:0:
30,18,111527,1,0,0:0:0:0:
30,18,111645,6,0,L|42:116,1,99.0000030212403,8|0,0:1|0:0,0:0:0:0:
143,175,112113,1,8,0:0:0:0:
8,275,112348,2,0,P|49:250|97:255,1,99.0000030212403,2|8,0:0|0:1,0:0:0:0:
108,265,112699,1,0,0:0:0:0:
117,276,112816,2,0,L|215:262,1,99.0000030212403,0|8,0:0|0:0,0:0:0:0:
332,365,113285,6,0,P|345:344|350:320,1,49.5000015106202,2|0,0:0|0:0,0:0:0:0:
326,254,113520,1,8,0:1:0:0:
326,68,113753,6,0,P|312:88|307:112,1,49.5000015106202,0|0,0:0|0:0,0:0:0:0:
332,179,113988,1,8,0:0:0:0:
215,261,114222,6,0,P|235:274|259:279,1,49.5000015106202,2|0,0:0|0:0,0:0:0:0:
326,254,114457,1,8,0:1:0:0:
442,173,114691,6,0,P|421:159|397:154,1,49.5000015106202,0|0,0:0|0:0,0:0:0:0:
332,179,114926,1,8,0:0:0:0:
215,261,115160,2,0,L|165:253,1,49.5000015106202,2|0,0:0|0:0,0:0:0:0:
13,233,115395,6,0,P|64:181|136:177,1,148.50000453186,8|0,0:1|0:0,0:0:0:0:
136,177,115863,1,8,0:0:0:0:
241,147,116098,2,0,L|226:245,1,99.0000030212403,2|8,0:0|0:1,0:0:0:0:
215,261,116449,1,0,0:0:0:0:
215,261,116566,2,0,L|313:246,1,99.0000030212403,0|8,0:0|0:0,0:0:0:0:
373,132,117035,1,2,0:0:0:0:
497,222,117270,6,0,P|459:263|403:276,1,114.750002188683,8|0,0:1|0:0,0:0:0:0:
403,276,117738,1,8,0:0:0:0:
312,246,117973,2,0,L|323:321,1,76.5000014591217,2|8,0:0|0:1,0:0:0:0:
334,336,118324,1,0,0:0:0:0:
334,336,118441,2,0,L|258:324,1,76.5000014591217,0|8,0:0|0:0,0:0:0:0:
173,208,118910,1,2,0:0:0:0:
29,293,119145,6,0,P|99:276|159:316,1,148.50000453186,8|0,0:1|0:0,0:0:0:0:
164,336,119613,2,0,P|212:342|257:324,1,99.0000030212403,8|2,0:0|0:0,0:0:0:0:
339,365,119965,1,0,0:0:0:0:
339,365,120082,6,0,L|346:316,1,49.5000015106202,8|0,0:1|0:0,0:0:0:0:
438,246,120316,2,0,L|389:253,1,49.5000015106202,0|0,0:0|0:0,0:0:0:0:
460,122,120551,6,0,L|452:170,1,49.5000015106202,8|0,0:0|0:0,0:0:0:0:
361,241,120785,2,0,L|409:233,1,49.5000015106202,2|0,0:0|0:0,0:0:0:0:
478,362,121020,6,0,P|419:320|346:316,1,148.50000453186,8|0,0:1|0:0,0:0:0:0:
241,330,121488,5,8,0:0:0:0:
267,343,121605,2,0,P|272:319|270:294,1,49.5000015106202,0|2,0:0|0:0,0:0:0:0:
181,235,121840,6,0,L|131:228,1,49.5000015106202,0|0,0:0|0:0,0:0:0:0:
68,368,122074,1,2,0:0:0:0:
65,343,122191,2,0,L|58:293,1,49.5000015106202,0|0,0:0|0:0,0:0:0:0:
10,180,122426,5,8,0:0:0:0:
148,42,122660,2,0,L|141:91,1,33.7500012874604,2|0,0:0|0:0,0:0:0:0:
10,180,122895,6,0,L|41:176,1,31.4999990386963,6|0,0:0|0:0,0:0:0:0:
109,224,123129,1,0,0:0:0:0:
109,224,123246,2,0,L|203:215,1,94.499997116089,2|2,0:0|0:3,0:0:0:0:
332,270,123949,2,0,L|324:333,1,62.9999980773926,2|0,0:3|0:0,0:0:0:0:
322,348,124301,2,0,P|348:367|378:374,1,62.9999980773926,2|2,0:0|0:3,0:0:0:0:
472,276,124770,6,0,L|476:244,1,31.4999990386963,2|0,0:0|0:0,0:0:0:0:
496,163,125004,1,0,0:0:0:0:
496,163,125121,2,0,P|456:138|411:145,1,94.499997116089,2|2,0:0|0:3,0:0:0:0:
332,270,125824,2,0,L|269:262,1,62.9999980773926,2|0,0:3|0:0,0:0:0:0:
257,251,126176,2,0,L|194:259,1,62.9999980773926,2|2,0:0|0:3,0:0:0:0:
70,315,126645,6,0,L|66:283,1,31.4999990386963,2|0,0:0|0:0,0:0:0:0:
46,202,126879,1,0,0:0:0:0:
46,202,126996,2,0,P|86:177|131:184,1,94.499997116089,2|2,0:0|0:3,0:0:0:0:
227,345,127699,2,0,L|223:377,2,31.4999990386963,2|0|2,0:0|0:0|0:3,0:0:0:0:
233,330,128051,2,0,P|230:298|226:267,1,62.9999980773926,2|2,0:0|0:3,0:0:0:0:
169,87,128520,6,0,L|165:118,1,31.4999990386963,2|0,0:0|0:0,0:0:0:0:
140,198,128754,1,0,0:0:0:0:
140,198,128871,2,0,L|234:189,1,94.499997116089,2|2,0:0|0:0,0:0:0:0:
330,196,129457,1,0,0:0:0:0:
330,196,129574,2,0,L|361:192,2,31.4999990386963,2|0|2,0:0|0:0|0:0,0:0:0:0:
319,206,129926,2,0,P|314:237|311:268,1,62.9999980773926,2|2,0:0|0:3,0:0:0:0:
372,369,130395,6,0,L|404:365,1,31.4999990386963,2|0,0:0|0:0,0:0:0:0:
487,364,130629,1,0,0:0:0:0:
487,364,130746,2,0,P|501:319|483:277,1,94.499997116089,2|2,0:0|0:3,0:0:0:0:
384,177,131449,2,0,P|372:148|375:117,1,62.9999980773926,2|0,0:3|0:0,0:0:0:0:
383,103,131801,2,0,L|445:95,1,62.9999980773926,2|2,0:0|0:3,0:0:0:0:
342,29,132270,6,0,L|310:32,1,31.4999990386963,2|0,0:0|0:0,0:0:0:0:
256,93,132504,1,0,0:0:0:0:
256,93,132621,2,0,L|149:82,1,94.499997116089,2|2,0:0|0:3,0:0:0:0:
54,35,133324,2,0,P|58:66|61:97,1,62.9999980773926,2|0,0:3|0:0,0:0:0:0:
68,111,133676,2,0,P|65:142|62:173,1,62.9999980773926,2|2,0:0|0:3,0:0:0:0:
3,276,134145,6,0,L|7:307,1,31.4999990386963,2|0,0:0|0:0,0:0:0:0:
69,363,134379,1,0,0:0:0:0:
69,363,134496,2,0,P|114:371|155:350,1,94.499997116089,2|2,0:0|0:3,0:0:0:0:
203,201,135199,2,0,L|198:169,2,31.4999990386963,2|0|2,0:0|0:0|0:3,0:0:0:0:
209,213,135551,2,0,P|206:244|203:275,1,62.9999980773926,2|2,0:0|0:3,0:0:0:0:
284,365,136020,6,0,L|287:332,1,31.4999990386963,2|0,0:0|0:0,0:0:0:0:
287,248,136254,1,0,0:0:0:0:
287,248,136371,2,0,P|332:236|373:256,1,94.499997116089,2|2,0:0|0:0,0:0:0:0:
471,290,136957,1,0,0:0:0:0:
471,290,137074,2,0,L|502:286,2,31.4999990386963,2|0|2,0:0|0:0|0:0,0:0:0:0:
456,296,137426,2,0,P|459:265|462:234,1,62.9999980773926,2|2,0:0|0:3,0:0:0:0:
498,96,137895,6,0,P|484:84|468:75,1,36,6|0,0:0|0:0,0:0:0:0:
402,128,138129,1,0,0:0:0:0:
402,128,138246,2,0,P|366:131|330:134,1,72,2|0,0:0|0:0,0:0:0:0:
315,136,138598,1,2,0:3:0:0:
200,191,138832,1,8,0:1:0:0:
200,191,138949,2,0,L|164:187,2,36,2|0|0,0:3|0:0|0:0,0:0:0:0:
213,184,139301,2,0,P|209:148|205:112,1,72,10|2,0:0|0:3,0:0:0:0:
152,18,139770,6,0,L|147:53,1,36,10|0,0:1|0:0,0:0:0:0:
82,100,140004,1,0,0:0:0:0:
82,100,140121,2,0,P|47:105|11:109,1,72,2|0,0:0|0:0,0:0:0:0:
3,122,140473,2,0,P|-1:139|-1:156,1,36,2|0,0:3|0:0,0:0:0:0:
44,223,140707,2,0,L|86:217,3,36,8|2|0|0,0:1|0:3|0:0|0:0,0:0:0:0:
93,223,141176,1,10,0:0:0:0:
73,345,141410,6,0,B|63:326|63:326|67:303,1,45,8|0,1:2|0:0,0:0:0:0:
93,223,141645,6,0,L|135:217,1,36,10|0,0:1|0:0,0:0:0:0:
207,191,141879,1,0,0:0:0:0:
207,191,141996,2,0,P|225:221|225:257,1,72,2|0,0:0|0:0,0:0:0:0:
218,269,142348,2,0,P|202:315|211:344,1,72,2|8,0:3|0:1,0:0:0:0:
217,350,142699,1,2,0:0:0:0:
231,361,142816,1,0,0:0:0:0:
248,368,142933,1,0,0:0:0:0:
266,370,143050,1,10,0:0:0:0:
329,293,143285,1,2,0:3:0:0:
419,335,143520,6,0,L|414:370,1,36,10|0,0:1|0:0,0:0:0:0:
495,363,143754,1,0,0:0:0:0:
495,363,143871,2,0,L|504:291,1,72,2|0,0:0|0:0,0:0:0:0:
507,277,144223,2,0,L|502:241,1,36,2|0,0:0|0:0,0:0:0:0:
490,162,144457,1,8,0:1:0:0:
470,171,144574,1,2,0:0:0:0:
449,174,144691,1,0,0:0:0:0:
428,170,144808,1,2,0:0:0:0:
409,159,144926,2,0,P|388:161|368:166,2,36,10|0|2,0:0|0:0|0:3,0:0:0:0:
347,44,145395,6,0,L|352:79,1,36,2|0,0:0|0:0,0:0:0:0:
292,139,145629,1,0,0:0:0:0:
292,139,145746,2,0,L|307:240,1,72,2|0,0:0|0:0,0:0:0:0:
304,224,146098,1,2,0:3:0:0:
356,330,146332,1,8,0:1:0:0:
356,330,146449,2,0,P|373:335|389:342,2,36,2|0|0,0:3|0:0|0:0,0:0:0:0:
347,318,146801,2,0,P|311:322|275:326,1,72,10|2,0:0|0:3,0:0:0:0:
169,364,147270,6,0,L|125:359,1,36,10|0,0:1|0:0,0:0:0:0:
53,373,147504,1,0,0:0:0:0:
53,373,147621,2,0,P|39:342|44:300,1,72,2|0,0:0|0:0,0:0:0:0:
48,292,147973,2,0,L|83:287,1,36,2|0,0:3|0:0,0:0:0:0:
143,231,148207,2,0,L|147:195,3,36,8|2|0|0,0:1|0:3|0:0|0:0,0:0:0:0:
140,182,148676,1,10,0:0:0:0:
22,202,148910,6,0,B|41:212|41:212|64:208,1,45,8|0,1:2|0:0,0:0:0:0:
140,182,149145,6,0,L|144:146,1,36,10|0,0:1|0:0,0:0:0:0:
129,65,149379,1,0,0:0:0:0:
129,65,149496,2,0,L|200:58,1,72,2|0,0:0|0:0,0:0:0:0:
214,55,149848,2,0,P|240:78|250:112,1,72,2|8,0:3|0:1,0:0:0:0:
243,129,150199,1,2,0:0:0:0:
238,146,150316,1,0,0:0:0:0:
238,164,150433,1,0,0:0:0:0:
242,181,150550,1,10,0:0:0:0:
322,239,150785,1,2,0:3:0:0:
407,192,151020,6,0,L|413:154,1,36,10|0,0:1|0:0,0:0:0:0:
495,149,151254,1,0,0:0:0:0:
495,149,151371,2,0,L|484:220,1,72,2|0,0:0|0:0,0:0:0:0:
478,233,151723,2,0,L|483:268,1,36,2|0,0:0|0:0,0:0:0:0:
475,348,151957,1,8,0:1:0:0:
461,359,152074,1,2,0:0:0:0:
444,366,152191,1,0,0:0:0:0:
427,369,152308,1,2,0:0:0:0:
409,368,152426,2,0,P|391:364|373:361,2,36,10|0|2,0:0|0:0|0:3,0:0:0:0:
177,354,152895,5,12,0:0:0:0:
160,341,153012,2,0,P|188:312|227:304,1,80.9999975280763,2|2,0:0|0:0,0:0:0:0:
309,335,153363,2,0,L|296:246,1,80.9999975280763,0|8,0:0|0:0,0:0:0:0:
303,144,153832,2,0,L|308:104,2,40.4999987640381,12|0|0,0:0|0:0|0:0,0:0:0:0:
313,161,154184,1,0,0:0:0:0:
326,176,154301,2,0,L|245:186,1,80.9999975280763,2|8,0:0|0:0,0:0:0:0:
140,75,154770,6,0,P|118:150|165:213,1,161.999995056153,10|0,0:0|0:0,0:0:0:0:
253,194,155473,1,8,0:0:0:0:
253,194,155590,1,0,0:0:0:0:
253,194,155707,1,8,0:0:0:0:
346,251,155941,2,0,L|337:200,2,40.4999987640381,0|0|2,0:0|0:0|0:0,0:0:0:0:
427,152,156410,1,10,0:0:0:0:
463,286,156645,6,0,P|411:299|350:267,1,121.499996292114,8|0,0:0|0:0,0:0:0:0:
346,251,157113,1,8,0:0:0:0:
274,321,157348,2,0,L|180:304,1,80.9999975280763,8|0,0:0|0:0,0:0:0:0:
186,325,157699,1,2,0:0:0:0:
176,342,157816,2,0,L|119:351,2,40.4999987640381,8|0|2,0:0|0:0|0:0,0:0:0:0:
249,229,158285,1,8,0:0:0:0:
101,148,158520,5,2,0:0:0:0:
106,167,158637,1,0,0:0:0:0:
111,186,158754,2,0,L|70:179,1,40.4999987640381,8|2,0:0|0:0,0:0:0:0:
26,118,158988,1,0,0:0:0:0:
97,12,159223,2,0,L|90:53,1,40.4999987640381,8|0,0:0|0:0,0:0:0:0:
86,71,159457,2,0,L|193:52,1,80.9999975280763,8|8,0:0|0:0,0:0:0:0:
179,72,159809,1,2,0:0:0:0:
192,86,159926,1,10,0:0:0:0:
204,101,160043,2,0,L|283:114,1,80.9999975280763,0|0,0:0|0:0,0:0:0:0:
331,63,160395,5,12,0:0:0:0:
349,76,160512,2,0,P|321:105|282:114,1,80.9999975280763,0|2,0:0|0:0,0:0:0:0:
204,101,160863,2,0,L|218:189,1,80.9999975280763,0|8,3:0|0:0,0:0:0:0:
135,265,161332,2,0,L|95:258,2,40.4999987640381,8|0|8,0:0|0:0|0:0,0:0:0:0:
144,282,161684,1,0,0:0:0:0:
152,299,161801,2,0,L|231:285,1,80.9999975280763,10|8,0:0|0:0,0:0:0:0:
367,343,162270,5,14,0:0:0:0:
354,361,162387,2,0,P|324:333|315:294,1,80.9999975280763,2|2,0:0|0:0,0:0:0:0:
350,221,162738,1,0,3:0:0:0:
298,91,162973,2,0,L|288:146,1,40.4999987640381,8|0,0:0|0:0,0:0:0:0:
289,151,163207,2,0,L|398:133,1,80.9999975280763,0|8,0:0|0:0,0:0:0:0:
384,150,163559,1,0,0:0:0:0:
399,162,163676,1,10,0:0:0:0:
383,55,163910,1,10,0:0:0:0:
487,197,164145,5,10,0:0:0:0:
413,246,164379,1,0,0:0:0:0:
324,233,164613,1,12,0:0:0:0:
289,151,164848,2,0,L|368:137,1,80.9999975280763,8|2,0:0|0:0,0:0:0:0:
476,70,165316,1,8,0:0:0:0:
486,197,165551,2,0,P|427:198|380:161,1,121.499996292114,14|0,0:0|0:0,0:0:0:0:
368,137,166020,5,4,0:0:0:0:
243,228,166254,1,12,0:0:0:0:
269,142,166488,1,12,0:0:0:0:
335,224,166723,2,0,L|323:262,2,40.4999987640381,4|0|8,0:0|0:0|0:0,0:0:0:0:
317,207,167074,1,4,0:0:0:0:
292,207,167191,1,4,0:0:0:0:
267,211,167309,1,4,0:0:0:0:
243,228,167426,2,0,L|204:216,2,40.4999987640381,8|8|8,0:1|0:1|0:1,0:0:0:0:
92,80,167895,5,8,0:1:0:0:
150,68,168012,2,0,L|130:130,1,58.4999973220826,0|0,3:0|0:0,0:0:0:0:
229,302,168363,6,0,L|169:283,1,58.4999973220826,8|0,0:0|0:0,0:0:0:0:
188,141,168715,6,0,L|132:123,1,58.4999973220826,8|0,0:0|0:0,0:0:0:0:
157,341,169066,6,0,L|173:283,1,58.4999973220826,8|0,0:0|0:0,0:0:0:0:
229,76,169301,6,0,L|240:37,1,29.2499986610413,8|0,0:0|0:0,0:0:0:0:
132,123,169535,5,2,0:0:0:0:
223,226,169770,6,0,P|246:227|268:221,1,45,6|0,0:0|0:0,0:0:0:0:
368,101,170004,1,0,0:0:0:0:
368,101,170121,2,0,L|358:208,1,90,2|0,0:0|0:0,0:0:0:0:
365,202,170473,1,2,0:3:0:0:
484,325,170707,1,8,0:1:0:0:
484,325,170824,2,0,P|484:302|478:280,2,45,2|0|0,0:3|0:0|0:0,0:0:0:0:
390,358,171176,2,0,P|370:347|354:331,1,45,10|0,0:0|0:0,0:0:0:0:
404,272,171410,1,2,0:3:0:0:
486,147,171645,6,0,L|441:152,1,45,10|0,0:1|0:0,0:0:0:0:
337,42,171879,1,0,0:0:0:0:
336,41,171996,2,0,P|308:75|307:120,1,90,2|0,0:0|0:0,0:0:0:0:
315,130,172348,1,2,0:3:0:0:
198,245,172582,1,8,0:1:0:0:
198,245,172699,2,0,L|183:191,2,45,2|0|0,0:3|0:0|0:0,0:0:0:0:
314,245,173051,2,0,L|329:191,1,45,10|0,0:0|0:0,0:0:0:0:
257,182,173285,1,8,1:2:0:0:
183,322,173520,6,0,P|163:310|141:303,1,45,10|0,0:1|0:0,0:0:0:0:
0,248,173754,1,0,0:0:0:0:
0,248,173871,2,0,P|44:248|86:232,1,90,2|0,0:0|0:0,0:0:0:0:
99,237,174223,2,0,L|111:135,1,90,2|8,0:3|0:1,0:0:0:0:
101,136,174574,1,2,0:0:0:0:
93,124,174691,1,0,0:0:0:0:
85,112,174809,1,0,0:0:0:0:
77,100,174926,2,0,L|84:33,1,45,10|0,0:0|0:0,0:0:0:0:
153,12,175160,1,2,0:3:0:0:
292,72,175395,6,0,P|272:83|249:91,1,45,10|0,0:1|0:0,0:0:0:0:
113,151,175629,1,0,0:0:0:0:
113,151,175746,2,0,P|157:150|199:166,1,90,2|0,0:0|0:0,0:0:0:0:
205,178,176098,1,2,0:0:0:0:
303,249,176332,1,8,0:1:0:0:
316,251,176449,1,2,0:0:0:0:
329,253,176566,1,0,0:0:0:0:
342,255,176684,1,2,0:0:0:0:
355,258,176801,2,0,L|399:252,2,45,10|0|2,0:0|0:0|0:3,0:0:0:0:
140,331,177270,6,0,L|89:324,1,49.5000015106202,14|0,0:0|0:0,0:0:0:0:
72,311,177504,2,0,L|121:317,1,49.5000015106202,10|0,0:0|0:0,0:0:0:0:
204,264,177738,6,0,L|197:213,1,49.5000015106202,10|0,0:0|0:0,0:0:0:0:
184,196,177973,2,0,L|190:245,1,49.5000015106202,10|0,0:0|0:0,0:0:0:0:
311,269,178207,6,0,L|319:215,1,53.9999983520508,10|0,0:0|0:0,0:0:0:0:
332,196,178441,2,0,L|325:248,1,53.9999983520508,10|0,0:0|0:0,0:0:0:0:
369,331,178676,6,0,L|423:324,1,53.9999983520508,10|0,0:0|0:0,0:0:0:0:
442,310,178910,2,0,L|389:317,1,53.9999983520508,10|0,0:0|0:0,0:0:0:0:
220,384,179145,6,0,L|209:326,1,58.4999973220826,10|0,0:0|0:0,0:0:0:0:
297,285,179379,2,0,L|290:342,1,58.4999973220826,10|0,0:0|0:0,0:0:0:0:
196,256,179613,6,0,L|184:193,1,62.9999980773926,10|0,0:0|0:0,0:0:0:0:
314,148,179847,2,0,L|307:210,1,62.9999980773926,10|0,0:0|0:0,0:0:0:0:
169,126,180082,6,0,L|156:59,1,67.5000025749208,10|0,0:0|0:0,0:0:0:0:
333,6,180316,2,0,L|326:73,1,67.5000025749208,10|0,0:0|0:0,0:0:0:0:
156,59,180551,6,0,L|147:14,1,45,10|0,0:0|0:0,0:0:0:0:
32,182,181020,5,4,0:0:0:0:
52,172,181137,1,0,0:0:0:0:
74,169,181254,1,0,0:0:0:0:
96,172,181371,1,2,0:0:0:0:
116,180,181488,5,8,0:0:0:0:
148,195,181605,1,0,0:0:0:0:
183,203,181723,1,0,0:0:0:0:
218,201,181840,1,0,0:0:0:0:
251,187,181957,5,8,0:0:0:0:
240,230,182074,1,2,0:0:0:0:
254,272,182191,1,0,0:0:0:0:
290,298,182309,1,0,0:0:0:0:
332,311,182426,5,10,0:0:0:0:
365,268,182543,1,0,0:0:0:0:
413,245,182660,1,0,0:0:0:0:
466,248,182777,1,0,0:0:0:0:
510,279,182895,5,12,0:1:0:0:
497,212,183012,1,0,0:0:0:0:
482,146,183129,2,0,L|437:141,1,45,8|0,0:0|0:0,0:0:0:0:
330,17,183363,2,0,L|334:61,1,45,8|0,0:0|0:0,0:0:0:0:
345,168,183598,5,0,0:0:0:0:
293,140,183715,1,0,0:0:0:0:
234,139,183832,1,8,0:0:0:0:
183,167,183949,1,0,0:0:0:0:
130,192,184066,1,0,0:0:0:0:
71,187,184184,1,0,0:0:0:0:
24,152,184301,2,0,L|30:107,1,45,10|0,0:0|0:0,0:0:0:0:
124,268,184535,2,0,L|168:261,1,45,2|0,0:0|0:0,0:0:0:0:
299,27,184770,6,0,L|294:55,6,29.2499986610413,8|0|0|0|0|0|0,0:1|0:0|0:0|0:0|0:0|0:0|0:0,0:0:0:0:
210,91,185238,6,0,L|214:124,6,33.7500012874604,8|0|0|0|0|0|0,0:1|0:0|0:0|0:0|0:0|0:0|0:0,0:0:0:0:
348,197,185707,6,0,L|307:191,6,40.4999987640381,8|0|0|0|0|0|0,0:1|0:0|0:0|0:0|0:0|0:0|0:0,0:0:0:0:
202,241,186176,5,8,0:3:0:0:
193,285,186293,1,8,0:3:0:0:
183,329,186410,2,0,L|227:322,1,45,4|0,0:3|0:0,0:0:0:0:
425,383,186645,6,0,P|413:286|315:285,1,202.500007724762,6|0,0:0|0:0,0:0:0:0:
306,294,187113,6,0,L|310:343,1,49.5000015106202,12|0,0:3|0:0,0:0:0:0:
429,203,187348,5,0,3:0:0:0:
439,207,187465,2,0,L|497:201,1,58.4999973220826,10|0,0:0|0:0,0:0:0:0:
338,101,187699,6,0,L|331:159,1,58.4999973220826,2|0,0:3|0:0,0:0:0:0:
306,294,187934,1,2,0:0:0:0:
255,232,188051,6,0,P|204:220|158:244,1,108,10|0,0:0|0:0,0:0:0:0:
160,259,188285,6,0,P|132:263|103:267,1,58.4999973220826,2|0,0:1|0:0,0:0:0:0:
11,357,188520,2,0,P|21:329|32:302,1,58.4999973220826,8|0,0:1|0:0,0:0:0:0:
1,179,188753,6,0,L|19:201,1,29.2499986610413,2|0,0:3|0:0,0:0:0:0:
23,171,188871,2,0,L|50:181,1,29.2499986610413,2|0,0:3|0:0,0:0:0:0:
43,159,188988,2,0,L|100:150,1,58.4999973220826,8|0,0:0|0:0,0:0:0:0:
136,27,189223,1,2,0:0:0:0:
124,28,189340,2,0,L|67:37,1,58.4999973220826,0|8,0:0|0:1,0:0:0:0:
188,177,189574,5,0,0:0:0:0:
193,153,189691,1,2,0:0:0:0:
190,130,189808,1,2,0:0:0:0:
175,105,189926,6,0,B|264:126|255:54|341:71,1,175.499991966248,8|0,0:0|0:0,0:0:0:0:
348,79,190395,6,0,P|416:93|423:162,1,148.50000453186,4|0,0:3|0:0,0:0:0:0:
474,217,190863,6,0,B|476:176|422:162|422:162|393:211|404:252|429:277,1,202.500007724762,6|0,0:0|0:0,0:0:0:0:
500,286,191332,6,0,P|492:314|486:342,1,58.4999973220826,8|0,0:1|0:0,0:0:0:0:
315,225,191566,1,4,0:3:0:0:
319,214,191683,1,2,0:3:0:0:
322,203,191801,2,0,P|329:231|335:259,1,58.4999973220826,8|0,0:0|0:0,0:0:0:0:
195,369,192035,6,0,L|252:360,1,58.4999973220826,2|0,0:0|0:0,0:0:0:0:
101,266,192270,2,0,L|158:257,1,58.4999973220826,10|0,0:1|0:0,0:0:0:0:
0,164,192504,6,0,L|67:155,1,67.5000025749208,2|0,0:0|0:0,0:0:0:0:
97,275,192738,2,0,L|164:266,1,67.5000025749208,10|0,0:0|0:0,0:0:0:0:
258,369,192973,2,0,L|191:378,1,67.5000025749208,2|0,0:0|0:0,0:0:0:0:
226,138,193207,5,8,0:1:0:0:
223,161,193324,1,2,0:3:0:0:
235,187,193441,1,0,0:0:0:0:
233,210,193558,1,2,3:2:0:0:
245,236,193676,6,0,P|240:263|236:288,1,49.5000015106202,8|2,0:0|0:1,0:0:0:0:
191,377,193910,1,2,3:2:0:0:
42,260,194145,6,0,B|143:230|136:313|236:284,1,202.500007724762,6|0,0:0|0:0,0:0:0:0:
320,252,194613,6,0,P|314:280|310:309,1,58.4999973220826,8|8,0:0|0:3,0:0:0:0:
466,368,194848,1,0,0:0:0:0:
466,368,194965,2,0,P|461:339|456:310,1,58.4999973220826,4|8,0:3|0:1,0:0:0:0:
295,173,195199,1,0,0:0:0:0:
306,170,195316,1,0,3:0:0:0:
318,168,195434,1,2,0:0:0:0:
330,166,195551,2,0,P|359:169|387:175,1,58.4999973220826,8|0,0:0|0:0,0:0:0:0:
504,26,195785,1,2,0:0:0:0:
508,53,195902,1,0,0:0:0:0:
512,81,196020,6,0,P|463:109|408:94,1,116.999994644165,8|0,0:1|0:0,0:0:0:0:
342,41,196371,1,0,0:0:0:0:
342,41,196488,2,0,P|313:47|284:50,1,58.4999973220826,8|0,0:0|0:0,0:0:0:0:
150,124,196723,1,8,0:3:0:0:
111,58,196840,6,0,P|168:49|217:161,1,175.499991966248,6|0,0:3|0:0,0:0:0:0:
103,268,197426,2,0,P|90:326|127:378,1,116.999994644165,8|0,0:0|0:0,0:0:0:0:
282,302,197895,6,0,P|224:306|166:312,1,116.999994644165,8|0,0:1|0:0,0:0:0:0:
103,267,198246,1,0,0:0:0:0:
103,267,198363,2,0,P|120:245|148:236,1,58.4999973220826,8|2,0:0|0:1,0:0:0:0:
298,166,198598,1,0,3:0:0:0:
288,243,198715,2,0,L|282:302,1,58.4999973220826,2|8,0:0|0:1,0:0:0:0:
478,361,198949,2,0,P|480:304|436:269,1,116.999994644165,2|0,0:0|0:0,0:0:0:0:
423,279,199301,2,0,P|394:283|365:287,1,58.4999973220826,8|0,0:0|0:0,0:0:0:0:
471,183,199535,6,0,P|475:149|480:116,1,67.5000025749208,2|2,0:1|0:0,0:0:0:0:
379,42,199770,6,0,P|301:56|314:134,1,175.499991966248,10|0,0:1|0:0,0:0:0:0:
393,154,200238,2,0,P|395:139|397:125,2,29.2499986610413,8|0|10,0:0|0:0|0:1,0:0:0:0:
336,212,200473,1,2,3:2:0:0:
325,213,200590,2,0,P|290:216|267:218,1,58.4999973220826,0|0,0:0|0:1,0:0:0:0:
98,330,200824,2,0,P|148:356|203:340,1,116.999994644165,2|0,0:0|0:0,0:0:0:0:
188,259,201176,5,8,0:0:0:0:
187,248,201293,1,0,0:0:0:0:
186,236,201410,2,0,L|182:192,1,33.7500012874604,2|0,3:2|0:0,0:0:0:0:
43,166,201645,6,0,P|116:102|223:137,1,202.500007724762,6|0,0:0|0:0,0:0:0:0:
222,134,202113,6,0,L|271:138,1,49.5000015106202,12|0,0:3|0:0,0:0:0:0:
363,20,202348,5,0,3:0:0:0:
364,31,202465,2,0,L|368:89,1,58.4999973220826,10|0,0:0|0:0,0:0:0:0:
459,203,202699,6,0,L|401:207,1,58.4999973220826,2|0,0:3|0:0,0:0:0:0:
264,219,202934,1,2,0:0:0:0:
326,271,203051,6,0,P|375:253|400:206,1,108,10|0,0:0|0:0,0:0:0:0:
389,196,203285,6,0,L|331:192,1,58.4999973220826,2|0,0:1|0:0,0:0:0:0:
235,96,203520,2,0,L|260:148,1,58.4999973220826,8|0,0:1|0:0,0:0:0:0:
226,280,203754,6,0,L|242:255,1,29.2499986610413,2|0,0:3|0:0,0:0:0:0:
202,272,203871,2,0,L|204:242,1,29.2499986610413,2|0,0:3|0:0,0:0:0:0:
173,280,203988,2,0,P|145:282|117:272,1,58.4999973220826,8|0,0:0|0:0,0:0:0:0:
1,216,204223,1,2,0:0:0:0:
8,207,204340,2,0,P|35:197|64:199,1,58.4999973220826,0|8,0:0|0:1,0:0:0:0:
158,52,204574,5,0,0:0:0:0:
162,76,204691,1,2,0:0:0:0:
167,100,204809,1,2,0:0:0:0:
150,123,204926,6,0,B|239:144|230:72|316:89,1,175.499991966248,8|0,0:0|0:0,0:0:0:0:
421,78,205395,5,4,0:3:0:0:
396,59,205512,2,0,P|390:81|391:103,1,45,2|8,0:1|0:0,0:0:0:0:
333,160,205746,1,0,3:0:0:0:
441,263,205863,6,0,B|492:260|502:196|502:196|452:154|409:182,1,202.500007724762,6|0,0:0|0:0,0:0:0:0:
269,210,206332,2,0,P|295:232|328:239,1,67.5000025749208,8|0,0:1|0:0,0:0:0:0:
391,103,206566,1,4,0:3:0:0:
387,91,206684,1,2,0:3:0:0:
382,79,206801,2,0,L|316:88,1,67.5000025749208,8|0,0:0|0:0,0:0:0:0:
66,41,207035,6,0,L|132:50,1,67.5000025749208,2|0,0:0|0:0,0:0:0:0:
200,202,207270,2,0,L|134:193,1,67.5000025749208,10|0,0:1|0:0,0:0:0:0:
52,52,207503,6,0,L|118:61,1,67.5000025749208,2|0,0:0|0:0,0:0:0:0:
186,213,207738,2,0,L|120:204,1,67.5000025749208,10|0,0:0|0:0,0:0:0:0:
24,341,207973,2,0,L|90:350,1,67.5000025749208,2|0,0:0|0:0,0:0:0:0:
324,328,208207,5,8,0:1:0:0:
246,354,208324,2,0,P|194:313|128:319,1,135.000005149842,2|2,0:3|3:2,0:0:0:0:
104,339,208676,6,0,L|38:330,1,67.5000025749208,8|2,0:0|3:2,0:0:0:0:
0,127,209145,6,0,B|92:97|88:178|197:139,1,202.500007724762,6|0,0:0|0:0,0:0:0:0:
257,84,209613,6,0,P|273:109|278:137,1,58.4999973220826,8|8,0:0|0:3,0:0:0:0:
407,221,209848,1,0,0:0:0:0:
407,221,209965,2,0,P|382:205|353:199,1,58.4999973220826,4|8,0:3|0:1,0:0:0:0:
255,243,210199,1,0,0:0:0:0:
258,254,210316,1,0,3:0:0:0:
261,265,210434,1,2,0:0:0:0:
264,276,210551,2,0,L|259:334,1,58.4999973220826,8|0,0:0|0:0,0:0:0:0:
67,355,210785,1,2,0:0:0:0:
60,326,210902,1,0,0:0:0:0:
50,297,211020,6,0,P|97:265|154:271,1,116.999994644165,8|0,0:1|0:0,0:0:0:0:
200,339,211371,1,0,0:0:0:0:
200,339,211488,2,0,L|258:334,1,58.4999973220826,8|0,0:0|0:0,0:0:0:0:
442,272,211723,5,8,0:3:0:0:
413,372,211840,2,0,P|342:323|257:333,1,175.499991966248,6|0,0:3|0:0,0:0:0:0:
46,244,212426,2,0,P|96:273|154:270,1,116.999994644165,8|0,0:0|0:0,0:0:0:0:
313,207,212895,6,0,L|327:90,1,116.999994644165,8|0,0:1|0:0,0:0:0:0:
373,28,213246,1,0,0:0:0:0:
373,28,213363,2,0,P|393:48|403:80,1,58.4999973220826,8|2,0:0|0:1,0:0:0:0:
313,207,213598,1,0,3:0:0:0:
243,198,213715,2,0,L|184:190,1,58.4999973220826,2|8,0:0|0:1,0:0:0:0:
18,334,213949,2,0,P|-5:281|9:226,1,116.999994644165,2|0,0:0|0:0,0:0:0:0:
22,208,214301,2,0,L|14:149,1,58.4999973220826,8|0,0:0|0:0,0:0:0:0:
58,9,214535,6,0,P|49:41|59:73,1,67.5000025749208,2|2,0:1|0:0,0:0:0:0:
120,130,214770,5,10,0:1:0:0:
127,284,215004,2,0,L|82:277,1,45,0|0,3:0|0:0,0:0:0:0:
264,356,215238,1,8,0:0:0:0:
323,345,215355,2,0,L|367:338,1,45,10|2,0:1|3:2,0:0:0:0:
187,377,215590,6,0,L|194:318,1,58.4999973220826,0|0,0:0|0:1,0:0:0:0:
427,265,215824,2,0,P|374:240|319:255,1,116.999994644165,2|0,0:0|0:0,0:0:0:0:
193,318,216176,5,8,0:0:0:0:
176,316,216293,1,0,0:0:0:0:
160,313,216410,2,0,L|127:308,1,33.7500012874604,2|0,3:2|0:0,0:0:0:0:
8,174,216645,6,0,B|99:159|99:159|72:238,1,175.499991966248,6|0,0:0|0:0,0:0:0:0:
40,318,217113,2,0,L|48:376,1,58.4999973220826,12|0,0:3|0:0,0:0:0:0:
158,227,217348,1,0,3:0:0:0:
169,228,217465,2,0,L|231:237,1,58.4999973220826,10|0,0:0|0:0,0:0:0:0:
355,365,217699,2,0,P|326:374|298:370,1,58.4999973220826,2|0,0:3|0:0,0:0:0:0:
237,244,217934,1,2,0:0:0:0:
309,186,218051,6,0,L|318:286,1,101.250003862381,10|0,0:0|0:0,0:0:0:0:
318,301,218285,6,0,P|345:291|374:294,1,58.4999973220826,2|0,0:1|0:0,0:0:0:0:
483,339,218520,2,0,L|425:345,1,58.4999973220826,8|0,0:1|0:0,0:0:0:0:
396,207,218754,6,0,L|407:181,1,29.2499986610413,2|0,0:3|0:0,0:0:0:0:
419,215,218871,2,0,L|442:198,1,29.2499986610413,2|0,0:3|0:0,0:0:0:0:
437,230,218989,2,0,L|494:223,1,58.4999973220826,8|0,0:0|0:0,0:0:0:0:
464,67,219223,1,2,0:0:0:0:
454,60,219340,2,0,L|461:117,1,58.4999973220826,0|8,0:0|0:1,0:0:0:0:
309,186,219574,1,0,0:0:0:0:
311,162,219691,1,2,0:0:0:0:
314,139,219808,1,2,0:0:0:0:
329,115,219926,6,0,P|301:70|180:89,1,175.499991966248,8|0,0:0|0:0,0:0:0:0:
195,86,220395,6,0,P|155:111|111:35,1,148.50000453186,4|0,0:3|0:0,0:0:0:0:
182,8,220863,6,0,L|190:76,1,67.5000025749208,6|0,0:0|0:0,0:0:0:0:
201,177,221098,1,0,0:0:0:0:
218,337,221332,6,0,L|212:278,1,58.4999973220826,8|0,0:1|0:0,0:0:0:0:
79,217,221566,1,4,0:3:0:0:
68,222,221683,1,2,0:3:0:0:
58,228,221801,2,0,L|115:236,1,58.4999973220826,8|0,0:0|0:0,0:0:0:0:
222,284,222035,6,0,L|228:342,1,58.4999973220826,2|0,0:0|0:0,0:0:0:0:
368,152,222270,2,0,L|374:210,1,58.4999973220826,10|0,0:1|0:0,0:0:0:0:
230,287,222504,6,0,L|235:336,1,49.5000015106202,2|0,0:0|0:0,0:0:0:0:
303,221,222738,2,0,L|308:270,1,49.5000015106202,10|0,0:0|0:0,0:0:0:0:
376,155,222973,2,0,L|381:204,1,49.5000015106202,2|0,0:0|0:0,0:0:0:0:
372,345,223207,5,8,0:1:0:0:
395,342,223324,1,2,0:3:0:0:
421,354,223441,1,0,0:0:0:0:
444,352,223558,1,2,3:2:0:0:
469,362,223676,6,0,L|474:313,1,49.5000015106202,8|2,0:0|0:1,0:0:0:0:
487,192,223910,1,2,3:2:0:0:
356,74,224145,6,0,B|304:69|285:132|285:132|322:178|376:155,1,202.500007724762,6|0,0:0|0:0,0:0:0:0:
434,98,224613,6,0,P|437:68|441:39,1,58.4999973220826,8|8,0:0|0:3,0:0:0:0:
487,192,224848,1,0,0:0:0:0:
492,197,224965,1,4,0:3:0:0:
497,202,225082,2,0,P|440:207|407:253,1,116.999994644165,8|0,0:1|3:0,0:0:0:0:
285,370,225551,2,0,L|278:311,1,58.4999973220826,8|0,0:0|0:0,0:0:0:0:
266,232,225785,1,2,0:0:0:0:
103,329,226020,6,0,P|157:314|204:346,1,116.999994644165,8|0,0:1|0:0,0:0:0:0:
285,370,226371,1,0,0:0:0:0:
285,370,226488,2,0,P|313:366|343:363,1,58.4999973220826,8|0,0:0|0:0,0:0:0:0:
478,271,226723,1,8,0:3:0:0:
478,271,226840,1,4,0:3:0:0:
478,271,226957,2,0,P|431:303|376:288,1,116.999994644165,0|0,0:0|0:0,0:0:0:0:
253,152,227426,2,0,L|312:145,1,58.4999973220826,8|0,0:0|0:0,0:0:0:0:
392,134,227660,1,2,0:0:0:0:
238,35,227895,6,0,P|245:93|252:151,1,116.999994644165,8|0,0:1|0:0,0:0:0:0:
188,195,228246,1,0,0:0:0:0:
188,195,228363,2,0,P|176:168|177:132,1,58.4999973220826,8|2,0:0|0:1,0:0:0:0:
238,35,228598,1,0,3:0:0:0:
314,41,228715,2,0,L|373:34,1,58.4999973220826,2|8,0:0|0:1,0:0:0:0:
493,151,228949,2,0,P|446:118|391:133,1,116.999994644165,2|0,0:0|0:0,0:0:0:0:
383,147,229301,2,0,L|376:206,1,58.4999973220826,8|0,0:0|0:0,0:0:0:0:
243,268,229535,6,0,P|274:256|307:260,1,67.5000025749208,2|2,0:1|0:0,0:0:0:0:
441,370,229770,6,0,P|441:304|363:351,1,175.499991966248,10|0,0:1|0:0,0:0:0:0:
292,365,230238,2,0,P|286:351|284:337,2,29.2499986610413,8|0|10,0:0|0:0|0:1,0:0:0:0:
212,372,230473,1,2,3:2:0:0:
212,372,230590,2,0,P|183:367|154:363,1,58.4999973220826,0|0,0:0|0:1,0:0:0:0:
0,271,230824,2,0,P|34:241|119:265,1,116.999994644165,2|0,0:0|0:0,0:0:0:0:
159,307,231176,5,8,0:0:0:0:
158,318,231293,1,0,0:0:0:0:
157,330,231410,2,0,L|153:374,1,33.7500012874604,2|0,3:2|0:0,0:0:0:0:
291,168,231645,6,0,B|200:153|200:153|227:232,1,175.499991966248,6|0,0:0|0:0,0:0:0:0:
297,284,232113,2,0,L|355:278,1,58.4999973220826,12|0,0:3|0:0,0:0:0:0:
478,361,232348,1,0,3:0:0:0:
472,344,232465,1,10,0:0:0:0:
503,278,232582,2,0,P|474:271|445:276,1,58.4999973220826,0|2,0:0|0:3,0:0:0:0:
295,359,232816,1,0,0:0:0:0:
255,346,232934,1,2,0:0:0:0:
217,332,233051,6,0,L|226:231,1,101.250003862381,10|0,0:0|0:0,0:0:0:0:
238,224,233285,6,0,P|213:211|184:207,1,58.4999973220826,2|0,0:1|0:0,0:0:0:0:
74,267,233520,2,0,L|132:273,1,58.4999973220826,8|0,0:1|0:0,0:0:0:0:
161,135,233754,6,0,L|150:109,1,29.2499986610413,2|0,0:3|0:0,0:0:0:0:
138,143,233871,2,0,L|115:126,1,29.2499986610413,2|0,0:3|0:0,0:0:0:0:
120,158,233989,2,0,L|63:151,1,58.4999973220826,8|0,0:0|0:0,0:0:0:0:
22,264,234223,1,2,0:0:0:0:
15,274,234340,2,0,L|72:267,1,58.4999973220826,0|8,0:0|0:1,0:0:0:0:
145,384,234574,1,0,0:0:0:0:
147,360,234691,1,2,0:0:0:0:
150,337,234808,1,2,0:0:0:0:
140,309,234926,6,0,P|168:264|289:283,1,175.499991966248,8|0,0:0|0:0,0:0:0:0:
329,325,235395,6,0,L|452:313,1,116.999994644165,4|8,0:3|0:0,0:0:0:0:
467,245,235746,1,0,3:0:0:0:
485,173,235863,2,0,L|362:161,1,116.999994644165,6|0,0:0|0:0,0:0:0:0:
205,31,236332,6,0,P|198:59|203:88,1,58.4999973220826,8|0,0:1|0:0,0:0:0:0:
310,167,236566,1,4,0:3:0:0:
310,167,236684,1,2,0:3:0:0:
310,167,236801,2,0,L|368:161,1,58.4999973220826,8|0,0:0|0:0,0:0:0:0:
456,307,237035,6,0,L|462:249,1,49.5000015106202,2|0,0:0|0:0,0:0:0:0:
304,216,237270,2,0,L|310:158,1,49.5000015106202,10|0,0:1|0:0,0:0:0:0:
467,295,237504,6,0,L|473:237,1,49.5000015106202,2|0,0:0|0:0,0:0:0:0:
390,244,237738,2,0,L|396:186,1,49.5000015106202,10|0,0:0|0:0,0:0:0:0:
315,204,237973,2,0,L|321:146,1,49.5000015106202,2|0,0:0|0:0,0:0:0:0:
452,136,238207,5,8,0:1:0:0:
501,77,238324,2,0,P|476:63|448:60,1,58.4999973220826,2|0,0:3|0:0,0:0:0:0:
330,79,238559,5,2,3:2:0:0:
254,70,238676,2,0,L|196:64,1,58.4999973220826,8|0,0:0|0:0,0:0:0:0:
68,50,238910,5,2,3:2:0:0:
330,79,239145,6,0,B|238:49|242:130|133:91,1,202.500007724762,6|0,0:0|0:0,0:0:0:0:
68,50,239613,6,0,P|58:78|61:112,1,58.4999973220826,8|8,0:0|0:3,0:0:0:0:
6,222,239848,1,0,0:0:0:0:
6,222,239965,1,4,0:3:0:0:
6,222,240082,2,0,L|64:216,1,58.4999973220826,8|0,0:1|0:0,0:0:0:0:
140,212,240316,1,0,3:0:0:0:
311,296,240551,2,0,P|267:258|210:249,1,116.999994644165,8|2,0:0|0:0,0:0:0:0:
133,270,240902,1,0,0:0:0:0:
133,270,241020,6,0,L|139:212,1,58.4999973220826,8|0,0:1|0:0,0:0:0:0:
67,114,241254,1,0,0:0:0:0:
67,114,241371,1,0,0:0:0:0:
67,114,241488,2,0,P|94:122|123:121,1,58.4999973220826,8|0,0:0|0:0,0:0:0:0:
242,47,241723,6,0,L|192:41,1,49.5000015106202,8|4,0:3|0:3,0:0:0:0:
103,31,241957,1,0,0:0:0:0:
229,157,242191,6,0,P|279:127|337:124,1,116.999994644165,0|8,0:0|0:0,0:0:0:0:
465,208,242660,2,0,L|458:266,1,58.4999973220826,2|0,0:0|0:0,0:0:0:0:
447,342,242895,6,0,L|330:328,1,116.999994644165,8|0,0:1|0:0,0:0:0:0:
263,364,243246,1,0,0:0:0:0:
263,364,243363,2,0,L|255:305,1,58.4999973220826,8|0,0:0|0:0,0:0:0:0:
322,183,243598,1,0,3:0:0:0:
320,200,243715,2,0,L|312:258,1,58.4999973220826,2|0,0:0|0:0,0:0:0:0:
185,254,243949,1,2,0:0:0:0:
185,254,244066,6,0,P|210:240|239:236,1,58.4999973220826,0|0,0:0|0:0,0:0:0:0:
385,346,244301,2,0,P|356:342|330:328,1,58.4999973220826,8|0,0:0|0:0,0:0:0:0:
239,236,244535,6,0,L|230:169,1,67.5000025749208,2|2,0:1|0:0,0:0:0:0:
213,67,244770,5,10,0:1:0:0:
95,59,245004,2,0,P|118:42|147:36,1,58.4999973220826,0|0,0:0|0:0,0:0:0:0:
288,63,245238,1,8,0:0:0:0:
285,86,245355,1,10,0:1:0:0:
282,109,245473,1,2,3:2:0:0:
285,184,245590,6,0,P|256:181|230:168,1,58.4999973220826,0|0,0:0|0:1,0:0:0:0:
419,111,245824,2,0,P|389:114|363:127,1,58.4999973220826,2|0,0:0|0:0,0:0:0:0:
306,269,246176,5,8,0:0:0:0:
315,303,246293,1,0,0:0:0:0:
325,336,246410,2,0,L|385:339,1,58.4999973220826,2|0,3:2|0:0,0:0:0:0:
472,265,246645,6,0,L|427:262,1,45,6|0,0:0|0:0,0:0:0:0:
285,184,246879,1,0,0:0:0:0:
285,184,246996,2,0,L|396:190,1,90,2|0,0:0|0:0,0:0:0:0:
387,188,247348,1,2,0:3:0:0:
497,97,247582,1,8,0:1:0:0:
497,97,247699,2,0,L|493:141,2,45,2|0|0,0:3|0:0|0:0,0:0:0:0:
422,65,248051,2,0,L|418:109,1,45,10|0,0:0|0:0,0:0:0:0:
347,33,248285,1,2,0:3:0:0:
210,119,248520,6,0,P|187:123|165:126,1,45,10|0,0:1|0:0,0:0:0:0:
30,178,248754,1,0,0:0:0:0:
30,178,248871,2,0,P|74:171|114:191,1,90,2|0,0:0|0:0,0:0:0:0:
177,243,249223,2,0,P|174:266|171:288,1,45,2|0,0:3|0:0,0:0:0:0:
102,326,249457,1,8,0:1:0:0:
102,326,249574,2,0,P|104:349|107:371,2,45,2|0|0,0:3|0:0|0:0,0:0:0:0:
171,288,249926,2,0,L|215:282,1,45,10|0,0:0|0:0,0:0:0:0:
326,348,250160,6,0,P|297:350|269:341,1,58.4999973220826,8|0,1:2|0:0,0:0:0:0:
289,198,250395,6,0,L|283:242,1,45,10|0,0:1|0:0,0:0:0:0:
403,375,250629,1,0,0:0:0:0:
403,375,250746,2,0,P|406:331|386:291,1,90,2|0,0:0|0:0,0:0:0:0:
378,288,251098,2,0,L|467:277,1,90,2|8,0:3|0:1,0:0:0:0:
480,281,251449,1,2,0:0:0:0:
484,268,251566,1,0,0:0:0:0:
487,255,251683,1,0,0:0:0:0:
489,241,251801,2,0,P|486:219|482:197,1,45,10|0,0:0|0:0,0:0:0:0:
415,151,252035,1,2,0:3:0:0:
326,17,252270,6,0,L|319:61,1,45,10|0,0:1|0:0,0:0:0:0:
165,124,252504,1,0,0:0:0:0:
165,124,252621,2,0,L|254:115,1,90,2|0,0:0|0:0,0:0:0:0:
332,143,252973,2,0,P|320:161|309:181,1,45,2|0,0:0|0:0,0:0:0:0:
261,250,253207,1,8,0:1:0:0:
262,263,253324,1,2,0:0:0:0:
264,276,253441,1,0,0:0:0:0:
266,290,253558,1,2,0:0:0:0:
268,304,253676,2,0,L|272:348,2,45,10|0|2,0:0|0:0|0:3,0:0:0:0:
194,201,254145,6,0,L|149:205,1,45,2|0,0:0|0:0,0:0:0:0:
10,276,254379,1,0,0:0:0:0:
10,276,254496,2,0,L|99:266,1,90,2|0,0:0|0:0,0:0:0:0:
110,274,254848,1,2,0:3:0:0:
44,118,255082,1,8,0:1:0:0:
44,118,255199,2,0,P|48:95|53:73,2,45,2|0|0,0:3|0:0|0:0,0:0:0:0:
27,197,255551,2,0,L|71:192,1,45,10|0,0:0|0:0,0:0:0:0:
149,205,255785,1,2,0:3:0:0:
343,258,256020,6,0,L|347:302,1,45,10|0,0:1|0:0,0:0:0:0:
186,362,256254,1,0,0:0:0:0:
186,362,256371,2,0,P|168:321|176:278,1,90,2|0,0:0|0:0,0:0:0:0:
226,218,256723,2,0,L|270:213,1,45,2|0,0:3|0:0,0:0:0:0:
344,172,256957,1,8,0:1:0:0:
344,172,257074,2,0,L|388:167,2,45,2|0|0,0:3|0:0|0:0,0:0:0:0:
269,125,257426,2,0,P|262:104|264:82,1,45,10|0,0:0|0:0,0:0:0:0:
405,29,257660,6,0,P|403:59|399:88,1,58.4999973220826,8|0,1:2|0:0,0:0:0:0:
378,245,257895,6,0,L|422:240,1,45,10|0,0:1|0:0,0:0:0:0:
506,360,258129,1,0,0:0:0:0:
506,360,258246,2,0,P|481:323|438:313,1,90,2|0,0:0|0:0,0:0:0:0:
428,322,258598,2,0,L|338:330,1,90,2|8,0:3|0:1,0:0:0:0:
327,337,258950,1,2,0:0:0:0:
316,345,259067,1,0,0:0:0:0:
304,352,259184,1,0,0:0:0:0:
293,360,259301,2,0,P|266:356|242:353,1,45,10|0,0:0|0:0,0:0:0:0:
184,309,259535,1,2,0:3:0:0:
45,363,259770,6,0,L|38:318,1,45,10|0,0:1|0:0,0:0:0:0:
69,209,260004,1,2,0:0:0:0:
65,222,260121,1,0,0:0:0:0:
61,236,260238,2,0,L|17:242,1,45,10|0,0:0|0:0,0:0:0:0:
90,125,260473,2,0,L|84:81,1,45,2|0,0:0|0:0,0:0:0:0:
152,185,260707,1,8,0:1:0:0:
165,182,260824,1,2,0:0:0:0:
178,180,260941,1,0,0:0:0:0:
192,178,261058,1,2,0:0:0:0:
205,176,261176,2,0,L|240:170,2,36,10|0|2,0:0|0:0|0:3,0:0:0:0:
297,270,261645,6,0,L|302:230,1,40.4999987640381,6|0,0:0|0:0,0:0:0:0:
256,93,261879,1,0,0:0:0:0:
256,93,261996,2,0,L|337:82,1,80.9999975280763,2|0,0:0|0:0,0:0:0:0:
347,87,262348,1,2,0:3:0:0:
440,33,262582,1,8,0:1:0:0:
440,33,262699,2,0,P|420:26|400:28,2,40.4999987640381,2|0|0,0:3|0:0|0:0,0:0:0:0:
502,92,263051,2,0,L|497:132,1,40.4999987640381,10|0,0:0|0:0,0:0:0:0:
444,193,263285,1,2,0:3:0:0:
512,321,263520,6,0,P|492:323|472:325,1,40.4999987640381,10|0,0:1|0:0,0:0:0:0:
330,363,263754,1,0,0:0:0:0:
330,363,263871,2,0,L|410:370,1,80.9999975280763,2|0,0:0|0:0,0:0:0:0:
472,325,264223,2,0,P|458:310|440:300,1,40.4999987640381,2|0,0:3|0:0,0:0:0:0:
365,290,264457,1,8,0:1:0:0:
365,290,264574,2,0,L|370:249,2,40.4999987640381,2|0|0,0:3|0:0|0:0,0:0:0:0:
292,256,264926,2,0,L|297:215,1,40.4999987640381,10|0,0:0|0:0,0:0:0:0:
222,304,265160,6,0,L|173:312,1,49.5000015106202,8|0,1:2|0:0,0:0:0:0:
224,181,265395,6,0,L|219:222,1,40.4999987640381,10|0,0:1|0:0,0:0:0:0:
103,361,265629,1,0,0:0:0:0:
103,361,265746,2,0,P|86:324|91:284,1,80.9999975280763,2|0,0:0|0:0,0:0:0:0:
95,273,266098,2,0,P|99:233|82:196,1,80.9999975280763,2|8,0:3|0:1,0:0:0:0:
72,190,266449,2,0,L|31:196,2,40.4999987640381,2|0|0,0:0|0:0|0:0,0:0:0:0:
86,112,266801,2,0,L|46:118,1,40.4999987640381,10|0,0:0|0:0,0:0:0:0:
100,34,267035,1,2,0:3:0:0:
224,181,267270,6,0,L|263:174,1,40.4999987640381,10|0,0:1|0:0,0:0:0:0:
345,47,267504,1,0,0:0:0:0:
345,47,267621,2,0,L|331:126,1,80.9999975280763,2|0,0:0|0:0,0:0:0:0:
338,208,267973,2,0,L|331:251,1,40.4999987640381,2|0,0:0|0:0,0:0:0:0:
444,153,268207,1,8,0:1:0:0:
444,153,268324,2,0,L|405:160,2,40.4999987640381,2|0|2,0:0|0:0|0:0,0:0:0:0:
512,106,268676,2,0,L|519:63,2,40.4999987640381,10|0|2,0:0|0:0|0:3,0:0:0:0:
411,240,269145,6,0,L|404:283,1,40.4999987640381,2|0,0:0|0:0,0:0:0:0:
481,355,269379,1,0,0:0:0:0:
481,355,269496,2,0,P|430:362|372:369,1,80.9999975280763,2|0,0:0|0:0,0:0:0:0:
388,362,269848,1,2,0:3:0:0:
233,338,270082,1,8,0:1:0:0:
233,338,270199,2,0,P|235:317|238:297,2,40.4999987640381,2|0|0,0:3|0:0|0:0,0:0:0:0:
307,370,270551,2,0,P|309:349|312:329,1,40.4999987640381,10|0,0:0|0:0,0:0:0:0:
302,249,270785,1,2,0:3:0:0:
158,305,271020,6,0,P|139:299|120:294,1,40.4999987640381,10|0,0:1|0:0,0:0:0:0:
57,155,271254,1,0,0:0:0:0:
57,155,271371,2,0,P|62:195|66:235,1,80.9999975280763,2|0,0:0|0:0,0:0:0:0:
42,310,271723,2,0,P|27:324|12:337,1,40.4999987640381,2|0,0:3|0:0,0:0:0:0:
144,219,271957,1,8,0:1:0:0:
144,219,272074,2,0,L|138:168,2,40.4999987640381,2|0|0,0:3|0:0|0:0,0:0:0:0:
215,254,272426,2,0,P|221:235|222:215,1,40.4999987640381,10|0,0:0|0:0,0:0:0:0:
168,89,272660,6,0,L|118:95,1,49.5000015106202,8|0,1:2|0:0,0:0:0:0:
251,28,272895,6,0,L|256:69,1,40.4999987640381,10|0,0:1|0:0,0:0:0:0:
415,121,273129,1,0,0:0:0:0:
415,121,273246,2,0,P|374:116|334:111,1,80.9999975280763,2|0,0:0|0:0,0:0:0:0:
322,115,273598,2,0,P|298:146|298:186,1,80.9999975280763,2|8,0:3|0:1,0:0:0:0:
305,196,273949,2,0,P|303:216|300:236,2,40.4999987640381,2|0|0,0:0|0:0|0:0,0:0:0:0:
380,231,274301,2,0,P|377:251|373:270,1,40.4999987640381,10|0,0:0|0:0,0:0:0:0:
306,316,274535,1,2,0:3:0:0:
454,368,274770,5,8,0:1:0:0:
454,368,274887,2,0,P|419:350|379:350,1,80.9999975280763,2|2,0:0|0:0,0:0:0:0:
306,316,275238,2,0,L|225:323,1,80.9999975280763,8|2,0:0|0:0,0:0:0:0:
147,318,275590,2,0,P|151:337|154:357,1,40.4999987640381,8|8,0:0|0:1,0:0:0:0:
192,252,275824,2,0,P|195:232|197:211,2,40.4999987640381,2|0|2,0:0|0:0|0:0,0:0:0:0:
147,318,276176,2,0,L|106:321,1,40.4999987640381,10|0,0:0|0:0,0:0:0:0:
0,229,276410,1,8,0:0:0:0:
4,248,276527,1,8,0:0:0:0:
9,268,276645,6,0,L|49:264,1,33.7500012874604,6|0,0:0|0:0,0:0:0:0:
85,207,276879,1,0,0:0:0:0:
85,207,276996,2,0,L|125:211,1,33.7500012874604,2|0,0:0|0:0,0:0:0:0:
240,265,277348,6,0,P|206:267|175:255,1,67.5000025749208,2|8,0:3|0:1,0:0:0:0:
118,210,277699,2,0,L|114:170,1,33.7500012874604,2|0,0:3|0:0,0:0:0:0:
195,148,277934,1,0,0:0:0:0:
195,148,278051,2,0,L|191:188,1,33.7500012874604,10|0,0:0|0:0,0:0:0:0:
175,255,278285,1,2,0:3:0:0:
262,344,278520,5,10,0:1:0:0:
262,344,278637,2,0,P|275:334|290:328,1,33.7500012874604,0|0,0:0|0:0,0:0:0:0:
363,353,278871,2,0,L|403:356,1,33.7500012874604,2|0,0:0|0:0,0:0:0:0:
512,264,279223,6,0,P|471:263|436:282,1,67.5000025749208,2|8,0:3|0:1,0:0:0:0:
396,355,279574,2,0,L|390:321,1,33.7500012874604,2|0,0:3|0:0,0:0:0:0:
339,236,279809,1,0,0:0:0:0:
339,236,279926,2,0,L|333:269,1,33.7500012874604,10|0,0:0|0:0,0:0:0:0:
349,157,280160,1,8,1:2:0:0:
468,107,280395,6,0,L|434:101,1,33.7500012874604,10|0,0:1|0:0,0:0:0:0:
382,151,280629,1,0,0:0:0:0:
382,151,280746,2,0,L|348:156,1,33.7500012874604,2|0,0:0|0:0,0:0:0:0:
215,120,281098,6,0,P|247:129|280:124,1,67.5000025749208,2|8,0:3|0:1,0:0:0:0:
344,83,281449,2,0,L|349:49,2,33.7500012874604,2|0|0,0:0|0:0|0:0,0:0:0:0:
382,151,281801,2,0,L|348:156,1,33.7500012874604,10|0,0:0|0:0,0:0:0:0:
280,124,282035,1,2,0:3:0:0:
179,190,282270,6,0,P|159:174|138:164,1,33.7500012874604,10|0,0:1|0:0,0:0:0:0:
78,184,282504,1,0,0:0:0:0:
78,184,282621,2,0,L|44:178,1,33.7500012874604,2|0,0:0|0:0,0:0:0:0:
96,45,282973,6,0,P|90:77|102:108,1,67.5000025749208,2|8,0:0|0:1,0:0:0:0:
155,174,283324,1,2,0:0:0:0:
155,174,283441,2,0,L|188:168,1,33.7500012874604,0|2,0:0|0:0,0:0:0:0:
253,218,283676,2,0,L|247:251,2,33.7500012874604,10|0|2,0:0|0:0|0:3,0:0:0:0:
326,355,284145,5,2,0:0:0:0:
326,355,284262,2,0,P|353:334|386:330,1,67.5000025749208,0|2,0:0|0:0,0:0:0:0:
462,318,284613,1,0,0:0:0:0:
462,318,284730,2,0,L|458:370,1,33.7500012874604,0|2,0:0|0:3,0:0:0:0:
372,225,285082,6,0,L|368:173,1,33.7500012874604,8|2,0:1|0:3,0:0:0:0:
332,113,285316,1,0,0:0:0:0:
332,113,285434,2,0,L|365:115,2,33.7500012874604,0|10|0,0:0|0:0|0:0,0:0:0:0:
266,162,285785,1,2,0:3:0:0:
263,171,285902,1,0,0:0:0:0:
261,181,286020,6,0,L|227:183,1,33.7500012874604,10|0,0:1|0:0,0:0:0:0:
165,96,286254,2,0,L|167:130,1,33.7500012874604,0|2,0:0|0:0,0:0:0:0:
103,221,286488,6,0,L|69:219,1,33.7500012874604,0|0,0:0|0:0,0:0:0:0:
7,306,286723,1,2,0:3:0:0:
7,306,286840,2,0,L|9:272,1,33.7500012874604,0|8,0:0|0:1,0:0:0:0:
132,373,287191,6,0,P|156:349|188:337,1,67.5000025749208,0|10,0:0|0:0,0:0:0:0:
238,272,287543,2,0,P|248:285|266:295,1,33.7500012874604,0|8,0:0|1:2,0:0:0:0:
367,340,287777,6,0,L|360:306,1,33.7500012874604,0|10,0:0|0:1,0:0:0:0:
447,271,288012,2,0,L|415:259,1,33.7500012874604,0|0,0:0|0:0,0:0:0:0:
427,167,288246,2,0,L|401:189,1,33.7500012874604,2|0,0:0|0:0,0:0:0:0:
247,201,288480,2,0,L|278:212,2,33.7500012874604,0|2|0,0:0|0:3|0:0,0:0:0:0:
179,258,288832,6,0,P|163:264|147:268,1,33.7500012874604,8|2,0:1|0:0,0:0:0:0:
71,241,289066,2,0,L|64:198,2,33.7500012874604,0|0|10,0:0|0:0|0:0,0:0:0:0:
22,339,289535,5,2,0:3:0:0:
22,339,289652,2,0,P|37:332|53:328,1,33.7500012874604,0|10,0:0|0:1,0:0:0:0:
198,373,290004,1,0,0:0:0:0:
198,373,290121,2,0,P|213:380|229:384,1,33.7500012874604,2|0,0:0|0:0,0:0:0:0:
356,354,290473,6,0,L|351:320,1,33.7500012874604,2|0,0:0|0:0,0:0:0:0:
306,260,290707,1,8,0:1:0:0:
306,260,290824,2,0,L|310:226,2,33.7500012874604,2|0|2,0:0|0:0|0:0,0:0:0:0:
237,310,291176,2,0,P|224:287|221:264,1,33.7500012874604,10|0,0:0|0:0,0:0:0:0:
267,158,291410,2,0,P|253:180|235:194,1,33.7500012874604,2|0,0:3|0:0,0:0:0:0:
162,211,291645,6,0,L|95:202,1,67.5000025749208,8|0,0:1|0:0,0:0:0:0:
51,109,292113,2,0,L|117:117,1,67.5000025749208,8|0,0:0|0:0,0:0:0:0:
176,227,292582,6,0,L|109:218,1,67.5000025749208,8|0,0:1|0:0,0:0:0:0:
35,258,292934,1,0,0:0:0:0:
35,258,293051,2,0,L|42:314,1,33.7500012874604,8|0,0:0|0:0,0:0:0:0:
49,363,293285,1,0,0:0:0:0:
177,382,293520,6,0,P|200:358|232:346,1,67.5000025749208,8|0,0:1|0:0,0:0:0:0:
362,314,293988,2,0,P|330:301|306:278,1,67.5000025749208,8|0,0:0|0:0,0:0:0:0:
273,207,294340,1,2,3:2:0:0:
273,207,294457,2,0,L|278:173,2,33.7500012874604,8|0|0,0:1|0:0|0:0,0:0:0:0:
215,265,294809,2,0,L|181:270,1,33.7500012874604,0|8,3:0|0:1,0:0:0:0:
39,291,295160,1,8,1:2:0:0:
256,192,295395,12,4,306645,0:0:0:0:
