osu file format v14

[General]
AudioFilename: macaron .mp3
AudioLeadIn: 0
PreviewTime: 73276
Countdown: 0
SampleSet: Soft
StackLeniency: 0.7
Mode: 3
LetterboxInBreaks: 0
SpecialStyle: 0
WidescreenStoryboard: 0

[Editor]
Bookmarks: 57627,62168,68127
DistanceSpacing: 1.2
BeatDivisor: 4
GridSize: 4
TimelineZoom: 1.099999

[Metadata]
Title:macaron
TitleUnicode:macaron
Artist:colate
ArtistUnicode:colate
Creator:hokin1995
Version:ADVANCED
Source:SOUND VOLTEX III GRAVITY WARS
Tags:sdvx sky_demon bemani konami
BeatmapID:736978
BeatmapSetID:330806

[Difficulty]
HPDrainRate:7
CircleSize:4
OverallDifficulty:8
ApproachRate:5
SliderMultiplier:1.4
SliderTickRate:1

[Events]
//Background and Video events
0,0,"BG.png",0,0
//Break Periods
//Storyboard Layer 0 (Background)
//Storyboard Layer 1 (Fail)
//Storyboard Layer 2 (Pass)
//Storyboard Layer 3 (Foreground)
//Storyboard Sound Samples

[TimingPoints]
628,324.324324324324,4,2,1,40,1,0
73276,-100,4,2,1,40,0,1
94033,-100,4,2,1,40,0,0

[HitObjects]
448,192,628,128,0,1114:0:0:0:0:
192,192,628,1,0,0:0:0:0:
64,192,1114,128,0,1600:0:0:0:0:
320,192,1114,1,0,0:0:0:0:
320,192,1763,128,0,2411:0:0:0:0:
448,192,1763,1,0,0:0:0:0:
192,192,2573,128,0,2736:0:0:0:0:
64,192,2573,1,0,0:0:0:0:
320,192,2898,128,0,3222:0:0:0:0:
448,192,2898,1,0,0:0:0:0:
448,192,3222,128,0,3709:0:0:0:0:
64,192,3222,1,0,0:0:0:0:
64,192,3709,128,0,4195:0:0:0:0:
192,192,3709,1,0,0:0:0:0:
320,192,4357,128,0,5006:0:0:0:0:
448,192,4357,1,0,0:0:0:0:
192,192,5168,128,0,5330:0:0:0:0:
64,192,5168,1,0,0:0:0:0:
320,192,5492,128,0,5817:0:0:0:0:
448,192,5492,1,0,0:0:0:0:
448,192,5817,128,0,6303:0:0:0:0:
64,192,5817,1,0,0:0:0:0:
64,192,6303,128,0,6790:0:0:0:0:
192,192,6303,1,0,0:0:0:0:
320,192,6952,128,0,7600:0:0:0:0:
448,192,6952,1,0,0:0:0:0:
192,192,7763,128,0,7925:0:0:0:0:
64,192,7763,1,0,0:0:0:0:
320,192,8087,128,0,8411:0:0:0:0:
448,192,8087,1,0,0:0:0:0:
448,192,8411,128,0,8898:0:0:0:0:
64,192,8411,1,0,0:0:0:0:
64,192,8898,128,0,9546:0:0:0:0:
192,192,8898,1,0,0:0:0:0:
320,192,9546,1,2,0:0:0:0:
448,192,9546,1,6,0:0:0:0:
64,192,9871,1,2,0:0:0:0:
192,192,9871,1,6,0:0:0:0:
320,192,10195,1,2,0:0:0:0:
448,192,10195,1,6,0:0:0:0:
192,192,10357,1,6,0:0:0:0:
64,192,10357,1,2,0:0:0:0:
448,192,10682,1,8,0:0:0:0:
64,192,10682,1,8,0:0:0:0:
192,192,11006,128,6,12141:0:0:0:0:
64,192,11006,1,2,0:0:0:0:
448,192,12141,128,6,13600:0:0:0:0:
320,192,12141,1,2,0:0:0:0:
192,192,13600,1,6,0:0:0:0:
64,192,13600,128,2,14736:0:0:0:0:
448,192,14736,1,4,0:0:0:0:
192,192,14736,128,2,15871:0:0:0:0:
64,192,15871,1,2,0:0:0:0:
320,192,15871,1,8,0:0:0:0:
448,192,16195,1,6,0:0:0:0:
320,192,16195,128,2,16682:0:0:0:0:
64,192,16682,1,2,0:0:0:0:
192,192,16682,128,6,17168:0:0:0:0:
448,192,17168,128,6,18141:0:0:0:0:
320,192,17168,1,2,0:0:0:0:
64,192,18141,1,2,0:0:0:0:
320,192,18141,1,8,0:0:0:0:
448,192,18627,5,6,0:0:0:0:
64,192,18627,1,2,0:0:0:0:
192,192,18790,128,2,19276:0:0:0:0:
320,192,18790,1,6,0:0:0:0:
64,192,19276,1,2,0:0:0:0:
448,192,19276,128,6,19763:0:0:0:0:
320,192,19763,128,6,20736:0:0:0:0:
192,192,19763,1,2,0:0:0:0:
448,192,20736,1,8,0:0:0:0:
64,192,20736,1,2,0:0:0:0:
192,192,20898,1,8,0:0:0:0:
448,192,21060,1,8,0:0:0:0:
64,192,21222,1,2,0:0:0:0:
320,192,21222,1,6,0:0:0:0:
192,192,21384,1,0,0:0:0:0:
448,192,21384,1,0,0:0:0:0:
64,192,21546,1,0,0:0:0:0:
192,192,21709,1,0,0:0:0:0:
448,192,21871,1,0,0:0:0:0:
320,192,22033,1,0,0:0:0:0:
64,192,22195,1,0,0:0:0:0:
192,192,22357,1,0,0:0:0:0:
320,192,22519,1,0,0:0:0:0:
448,192,22682,1,0,0:0:0:0:
64,192,22763,1,0,0:0:0:0:
320,192,22844,1,0,0:0:0:0:
192,192,22925,1,0,0:0:0:0:
448,192,23006,1,0,0:0:0:0:
64,192,23087,1,0,0:0:0:0:
192,192,23168,1,0,0:0:0:0:
448,192,23330,1,0,0:0:0:0:
64,192,23492,1,0,0:0:0:0:
320,192,23655,1,0,0:0:0:0:
192,192,23817,1,0,0:0:0:0:
448,192,23979,1,0,0:0:0:0:
320,192,24141,1,0,0:0:0:0:
192,192,24303,1,0,0:0:0:0:
64,192,24465,1,0,0:0:0:0:
192,192,24627,1,0,0:0:0:0:
448,192,24790,1,0,0:0:0:0:
320,192,24952,1,0,0:0:0:0:
64,192,25114,1,0,0:0:0:0:
320,192,25276,1,0,0:0:0:0:
448,192,25357,1,0,0:0:0:0:
192,192,25438,1,0,0:0:0:0:
64,192,25519,1,0,0:0:0:0:
448,192,25600,1,0,0:0:0:0:
320,192,25682,1,0,0:0:0:0:
64,192,25763,1,0,0:0:0:0:
192,192,25925,1,0,0:0:0:0:
448,192,26087,1,0,0:0:0:0:
320,192,26249,1,0,0:0:0:0:
192,192,26411,1,0,0:0:0:0:
320,192,26573,1,2,0:0:0:0:
448,192,26573,1,6,0:0:0:0:
192,192,26736,1,0,0:0:0:0:
64,192,26898,1,0,0:0:0:0:
448,192,27060,1,0,0:0:0:0:
320,192,27222,1,0,0:0:0:0:
192,192,27384,1,0,0:0:0:0:
320,192,27465,1,0,0:0:0:0:
64,192,27627,1,0,0:0:0:0:
448,192,27709,1,0,0:0:0:0:
64,192,27871,1,0,0:0:0:0:
192,192,27952,1,0,0:0:0:0:
448,192,28033,1,0,0:0:0:0:
320,192,28114,1,0,0:0:0:0:
64,192,28195,1,0,0:0:0:0:
192,192,28276,1,0,0:0:0:0:
320,192,28357,1,0,0:0:0:0:
448,192,28519,1,0,0:0:0:0:
192,192,28682,1,0,0:0:0:0:
320,192,28844,1,0,0:0:0:0:
64,192,29006,1,0,0:0:0:0:
448,192,29168,128,0,29492:0:0:0:0:
320,192,29492,1,0,0:0:0:0:
64,192,29655,128,0,29979:0:0:0:0:
192,192,29979,5,0,0:0:0:0:
320,192,30141,128,0,30465:0:0:0:0:
64,192,30465,1,2,0:0:0:0:
448,192,30465,1,8,0:0:0:0:
448,192,30952,5,2,0:0:0:0:
320,192,31033,1,4,0:0:0:0:
64,192,31114,1,2,0:0:0:0:
192,192,31114,1,6,0:0:0:0:
64,192,31357,1,2,0:0:0:0:
192,192,31357,1,6,0:0:0:0:
64,192,31600,1,2,0:0:0:0:
192,192,31600,1,6,0:0:0:0:
448,192,31763,128,0,32087:0:0:0:0:
320,192,31763,1,2,0:0:0:0:
64,192,32087,1,4,0:0:0:0:
192,192,32087,1,2,0:0:0:0:
320,192,32411,1,2,0:0:0:0:
448,192,32411,1,6,0:0:0:0:
64,192,32573,1,0,0:0:0:0:
320,192,32736,1,4,0:0:0:0:
192,192,32736,1,2,0:0:0:0:
448,192,32898,1,0,0:0:0:0:
192,192,33060,1,2,0:0:0:0:
64,192,33060,1,2,0:0:0:0:
448,192,33222,1,0,0:0:0:0:
320,192,33384,1,10,0:0:0:0:
192,192,33384,1,2,0:0:0:0:
64,192,33546,1,0,0:0:0:0:
192,192,33709,1,2,0:0:0:0:
448,192,33709,1,8,0:0:0:0:
64,192,33871,1,0,0:0:0:0:
320,192,34033,1,10,0:0:0:0:
192,192,34033,1,2,0:0:0:0:
448,192,34357,1,2,0:0:0:0:
64,192,34357,1,2,0:0:0:0:
192,192,34519,1,0,0:0:0:0:
320,192,34682,1,2,0:0:0:0:
448,192,34682,1,8,0:0:0:0:
192,192,34844,1,0,0:0:0:0:
64,192,35006,1,2,0:0:0:0:
320,192,35006,1,8,0:0:0:0:
448,192,35168,1,0,0:0:0:0:
320,192,35249,1,0,0:0:0:0:
192,192,35330,1,8,0:0:0:0:
64,192,35330,1,2,0:0:0:0:
448,192,35411,1,0,0:0:0:0:
320,192,35492,1,6,0:0:0:0:
192,192,35492,1,2,0:0:0:0:
192,192,35817,1,6,0:0:0:0:
64,192,35817,1,2,0:0:0:0:
320,192,36141,1,6,0:0:0:0:
192,192,36141,1,2,0:0:0:0:
448,192,36465,1,6,0:0:0:0:
320,192,36465,1,2,0:0:0:0:
64,192,36627,1,8,0:0:0:0:
192,192,36627,1,10,0:0:0:0:
448,192,36952,128,6,37276:0:0:0:0:
64,192,36952,1,2,0:0:0:0:
192,192,37276,1,2,0:0:0:0:
320,192,37276,1,8,0:0:0:0:
64,192,37438,1,0,0:0:0:0:
192,192,37600,1,2,0:0:0:0:
448,192,37600,1,2,0:0:0:0:
320,192,37763,1,0,0:0:0:0:
192,192,37925,1,8,0:0:0:0:
64,192,37925,1,2,0:0:0:0:
448,192,38087,1,0,0:0:0:0:
320,192,38249,1,10,0:0:0:0:
64,192,38249,1,2,0:0:0:0:
192,192,38411,1,0,0:0:0:0:
448,192,38573,1,2,0:0:0:0:
64,192,38573,1,2,0:0:0:0:
320,192,38736,1,0,0:0:0:0:
192,192,38898,1,2,0:0:0:0:
64,192,38898,1,2,0:0:0:0:
448,192,39060,1,0,0:0:0:0:
320,192,39222,1,10,0:0:0:0:
192,192,39222,1,2,0:0:0:0:
64,192,39546,1,2,0:0:0:0:
448,192,39546,1,10,0:0:0:0:
320,192,39871,1,4,0:0:0:0:
64,192,39871,1,2,0:0:0:0:
192,192,40033,1,0,0:0:0:0:
320,192,40195,1,2,0:0:0:0:
448,192,40195,1,8,0:0:0:0:
64,192,40276,1,0,0:0:0:0:
192,192,40357,1,0,0:0:0:0:
448,192,40438,1,0,0:0:0:0:
320,192,40519,1,4,0:0:0:0:
64,192,40519,1,2,0:0:0:0:
192,192,40682,1,2,0:0:0:0:
448,192,40682,1,6,0:0:0:0:
64,192,41006,1,0,0:0:0:0:
320,192,41168,1,2,0:0:0:0:
448,192,41168,1,8,0:0:0:0:
64,192,41330,1,2,0:0:0:0:
192,192,41330,1,2,0:0:0:0:
192,192,41655,1,0,0:0:0:0:
448,192,41817,1,10,0:0:0:0:
320,192,41817,1,8,0:0:0:0:
448,192,42141,1,8,0:0:0:0:
64,192,42141,128,2,42465:0:0:0:0:
320,192,42465,1,10,0:0:0:0:
192,192,42465,1,0,0:0:0:0:
448,192,42790,1,2,0:0:0:0:
64,192,42790,1,0,0:0:0:0:
320,192,42952,1,0,0:0:0:0:
192,192,43114,1,8,0:0:0:0:
64,192,43114,1,2,0:0:0:0:
448,192,43276,1,0,0:0:0:0:
320,192,43438,1,10,0:0:0:0:
192,192,43438,1,2,0:0:0:0:
64,192,43600,1,0,0:0:0:0:
448,192,43763,1,8,0:0:0:0:
320,192,43763,1,2,0:0:0:0:
192,192,43925,1,0,0:0:0:0:
64,192,44087,1,2,0:0:0:0:
448,192,44087,1,8,0:0:0:0:
320,192,44249,1,0,0:0:0:0:
192,192,44411,1,2,0:0:0:0:
448,192,44411,1,10,0:0:0:0:
64,192,44736,1,2,0:0:0:0:
320,192,44736,1,8,0:0:0:0:
192,192,44898,1,0,0:0:0:0:
448,192,45060,1,10,0:0:0:0:
320,192,45060,1,2,0:0:0:0:
64,192,45222,1,0,0:0:0:0:
192,192,45384,1,2,0:0:0:0:
448,192,45384,1,2,0:0:0:0:
320,192,45465,1,0,0:0:0:0:
64,192,45546,1,0,0:0:0:0:
192,192,45627,1,0,0:0:0:0:
320,192,45709,1,8,0:0:0:0:
448,192,45709,1,2,0:0:0:0:
64,192,45790,1,0,0:0:0:0:
320,192,45871,1,10,0:0:0:0:
192,192,45871,128,2,46357:0:0:0:0:
448,192,46357,1,10,0:0:0:0:
320,192,46519,128,6,47006:0:0:0:0:
64,192,46519,1,6,0:0:0:0:
192,192,47006,1,8,0:0:0:0:
448,192,47330,128,6,47655:0:0:0:0:
64,192,47330,1,2,0:0:0:0:
320,192,47655,1,8,0:0:0:0:
192,192,47655,1,2,0:0:0:0:
64,192,47817,1,0,0:0:0:0:
192,192,47979,1,2,0:0:0:0:
448,192,47979,1,2,0:0:0:0:
320,192,48141,1,0,0:0:0:0:
64,192,48303,1,2,0:0:0:0:
192,192,48303,1,8,0:0:0:0:
448,192,48465,1,0,0:0:0:0:
320,192,48627,1,10,0:0:0:0:
64,192,48627,1,2,0:0:0:0:
192,192,48790,1,0,0:0:0:0:
448,192,48952,1,10,0:0:0:0:
64,192,48952,1,2,0:0:0:0:
320,192,49114,1,0,0:0:0:0:
64,192,49276,1,2,0:0:0:0:
448,192,49276,1,2,0:0:0:0:
192,192,49438,1,0,0:0:0:0:
64,192,49600,1,2,0:0:0:0:
320,192,49600,1,10,0:0:0:0:
320,192,49925,1,2,0:0:0:0:
448,192,49925,1,10,0:0:0:0:
64,192,50249,1,2,0:0:0:0:
320,192,50249,1,8,0:0:0:0:
192,192,50411,1,0,0:0:0:0:
448,192,50573,1,8,0:0:0:0:
64,192,50573,1,2,0:0:0:0:
320,192,50655,1,0,0:0:0:0:
64,192,50736,1,0,0:0:0:0:
192,192,50817,1,0,0:0:0:0:
320,192,50898,1,2,0:0:0:0:
448,192,50898,1,10,0:0:0:0:
64,192,51060,1,2,0:0:0:0:
192,192,51060,1,2,0:0:0:0:
320,192,51384,1,0,0:0:0:0:
64,192,51546,1,2,0:0:0:0:
192,192,51546,1,8,0:0:0:0:
320,192,51709,1,2,0:0:0:0:
448,192,51709,1,10,0:0:0:0:
192,192,52033,1,0,0:0:0:0:
64,192,52195,1,8,0:0:0:0:
448,192,52195,1,10,0:0:0:0:
320,192,52519,1,6,0:0:0:0:
192,192,52519,1,2,0:0:0:0:
64,192,52682,1,0,0:0:0:0:
192,192,52844,1,0,0:0:0:0:
448,192,53006,1,0,0:0:0:0:
320,192,53168,1,0,0:0:0:0:
64,192,53330,1,0,0:0:0:0:
192,192,53492,1,0,0:0:0:0:
320,192,53655,1,0,0:0:0:0:
448,192,53817,1,6,0:0:0:0:
64,192,53817,1,2,0:0:0:0:
320,192,53898,1,0,0:0:0:0:
192,192,53979,1,0,0:0:0:0:
64,192,54060,1,0,0:0:0:0:
448,192,54141,1,0,0:0:0:0:
192,192,54222,1,0,0:0:0:0:
320,192,54303,1,0,0:0:0:0:
64,192,54465,1,0,0:0:0:0:
192,192,54627,1,0,0:0:0:0:
448,192,54790,1,0,0:0:0:0:
320,192,54952,1,0,0:0:0:0:
448,192,55114,1,6,0:0:0:0:
64,192,55114,1,2,0:0:0:0:
320,192,55276,1,0,0:0:0:0:
64,192,55438,1,0,0:0:0:0:
192,192,55600,1,0,0:0:0:0:
448,192,55763,1,0,0:0:0:0:
320,192,55925,1,6,0:0:0:0:
64,192,55925,1,2,0:0:0:0:
192,192,56087,1,0,0:0:0:0:
320,192,56249,1,2,0:0:0:0:
448,192,56249,1,6,0:0:0:0:
64,192,56411,1,2,0:0:0:0:
192,192,56411,1,2,0:0:0:0:
448,192,56492,1,0,0:0:0:0:
320,192,56573,1,0,0:0:0:0:
192,192,56655,1,0,0:0:0:0:
64,192,56817,1,0,0:0:0:0:
448,192,56898,1,0,0:0:0:0:
192,192,57060,1,2,0:0:0:0:
320,192,57060,1,6,0:0:0:0:
64,192,57222,1,0,0:0:0:0:
192,192,57384,1,0,0:0:0:0:
320,192,57546,1,0,0:0:0:0:
64,192,57709,1,2,0:0:0:0:
448,192,57709,1,6,0:0:0:0:
192,192,57871,1,0,0:0:0:0:
448,192,58033,1,0,0:0:0:0:
320,192,58195,1,0,0:0:0:0:
64,192,58357,1,0,0:0:0:0:
192,192,58519,1,0,0:0:0:0:
448,192,58600,1,0,0:0:0:0:
64,192,58763,1,0,0:0:0:0:
320,192,58844,1,0,0:0:0:0:
192,192,59006,1,0,0:0:0:0:
448,192,59087,1,0,0:0:0:0:
64,192,59168,1,0,0:0:0:0:
320,192,59249,1,0,0:0:0:0:
192,192,59330,1,0,0:0:0:0:
448,192,59411,1,0,0:0:0:0:
64,192,59492,1,0,0:0:0:0:
320,192,59655,1,0,0:0:0:0:
192,192,59817,1,0,0:0:0:0:
448,192,59979,1,0,0:0:0:0:
320,192,60141,1,0,0:0:0:0:
192,192,60303,128,0,60627:0:0:0:0:
448,192,60627,1,0,0:0:0:0:
320,192,60790,128,0,61114:0:0:0:0:
64,192,61114,1,0,0:0:0:0:
448,192,61276,128,0,61600:0:0:0:0:
64,192,61600,1,2,0:0:0:0:
320,192,61600,1,8,0:0:0:0:
320,192,62249,1,0,0:0:0:0:
448,192,62330,1,0,0:0:0:0:
192,192,62411,1,0,0:0:0:0:
64,192,62492,1,0,0:0:0:0:
448,192,62573,1,8,0:0:0:0:
320,192,62655,1,0,0:0:0:0:
64,192,62736,1,0,0:0:0:0:
192,192,62817,1,0,0:0:0:0:
320,192,62898,5,2,0:0:0:0:
448,192,62898,1,6,0:0:0:0:
64,192,63141,1,2,0:0:0:0:
192,192,63141,1,6,0:0:0:0:
320,192,63384,1,2,0:0:0:0:
448,192,63384,1,6,0:0:0:0:
64,192,63546,1,0,0:0:0:0:
448,192,63627,1,0,0:0:0:0:
64,192,63709,1,0,0:0:0:0:
192,192,63871,1,10,0:0:0:0:
320,192,63871,1,8,0:0:0:0:
64,192,64195,1,2,0:0:0:0:
192,192,64195,1,6,0:0:0:0:
448,192,64438,1,6,0:0:0:0:
320,192,64438,1,2,0:0:0:0:
192,192,64682,1,6,0:0:0:0:
64,192,64682,1,2,0:0:0:0:
320,192,64844,1,0,0:0:0:0:
448,192,64925,1,0,0:0:0:0:
192,192,65006,1,0,0:0:0:0:
64,192,65087,1,0,0:0:0:0:
320,192,65168,1,8,0:0:0:0:
448,192,65168,1,10,0:0:0:0:
320,192,65492,1,6,0:0:0:0:
64,192,65492,1,2,0:0:0:0:
448,192,65736,1,6,0:0:0:0:
192,192,65736,1,2,0:0:0:0:
320,192,65979,1,6,0:0:0:0:
64,192,65979,1,2,0:0:0:0:
448,192,66141,1,0,0:0:0:0:
320,192,66222,1,0,0:0:0:0:
192,192,66303,1,0,0:0:0:0:
64,192,66384,1,0,0:0:0:0:
448,192,66465,1,10,0:0:0:0:
320,192,66465,1,2,0:0:0:0:
448,192,66790,1,6,0:0:0:0:
192,192,66790,1,2,0:0:0:0:
64,192,67033,1,2,0:0:0:0:
320,192,67033,1,6,0:0:0:0:
192,192,67276,1,2,0:0:0:0:
448,192,67276,1,6,0:0:0:0:
320,192,67438,1,0,0:0:0:0:
448,192,67519,1,0,0:0:0:0:
192,192,67600,1,0,0:0:0:0:
64,192,67682,1,0,0:0:0:0:
448,192,67763,1,10,0:0:0:0:
320,192,67844,1,0,0:0:0:0:
64,192,67925,1,0,0:0:0:0:
192,192,68006,1,0,0:0:0:0:
448,192,68087,1,6,0:0:0:0:
320,192,68087,1,2,0:0:0:0:
64,192,68249,1,0,0:0:0:0:
320,192,68411,1,0,0:0:0:0:
192,192,68573,1,0,0:0:0:0:
448,192,68736,1,0,0:0:0:0:
64,192,68898,1,0,0:0:0:0:
320,192,68979,1,0,0:0:0:0:
192,192,69141,1,0,0:0:0:0:
448,192,69222,1,0,0:0:0:0:
64,192,69384,1,0,0:0:0:0:
192,192,69465,1,0,0:0:0:0:
448,192,69546,1,0,0:0:0:0:
320,192,69627,1,0,0:0:0:0:
64,192,69709,1,0,0:0:0:0:
192,192,69790,1,0,0:0:0:0:
320,192,69871,1,0,0:0:0:0:
448,192,70033,1,0,0:0:0:0:
320,192,70195,1,0,0:0:0:0:
64,192,70357,1,0,0:0:0:0:
192,192,70519,1,0,0:0:0:0:
320,192,70682,128,0,71006:0:0:0:0:
448,192,71006,1,0,0:0:0:0:
192,192,71168,128,0,71492:0:0:0:0:
320,192,71492,1,0,0:0:0:0:
448,192,71655,1,0,0:0:0:0:
64,192,71817,5,2,0:0:0:0:
192,192,71817,1,6,0:0:0:0:
64,192,72141,1,2,0:0:0:0:
192,192,72141,1,6,0:0:0:0:
64,192,72465,1,2,0:0:0:0:
192,192,72465,1,6,0:0:0:0:
320,192,72627,1,2,0:0:0:0:
448,192,72627,1,6,0:0:0:0:
448,192,72952,128,8,73276:0:0:0:0:
192,192,72952,1,8,0:0:0:0:
320,192,73276,1,6,0:0:0:0:
64,192,73276,1,2,0:0:0:0:
192,192,73438,1,0,0:0:0:0:
448,192,73600,1,2,0:0:0:0:
320,192,73600,1,2,0:0:0:0:
192,192,73763,1,0,0:0:0:0:
320,192,73925,1,2,0:0:0:0:
64,192,73925,1,2,0:0:0:0:
448,192,74087,1,0,0:0:0:0:
320,192,74249,1,8,0:0:0:0:
64,192,74249,1,2,0:0:0:0:
192,192,74411,1,0,0:0:0:0:
320,192,74573,1,2,0:0:0:0:
448,192,74573,1,2,0:0:0:0:
192,192,74736,1,0,0:0:0:0:
64,192,74898,1,2,0:0:0:0:
448,192,74898,1,8,0:0:0:0:
320,192,75060,1,0,0:0:0:0:
64,192,75222,1,2,0:0:0:0:
192,192,75222,1,2,0:0:0:0:
320,192,75384,1,0,0:0:0:0:
448,192,75546,1,8,0:0:0:0:
64,192,75546,1,2,0:0:0:0:
192,192,75709,1,0,0:0:0:0:
448,192,75871,1,2,0:0:0:0:
320,192,75871,1,2,0:0:0:0:
192,192,76033,1,0,0:0:0:0:
448,192,76195,1,8,0:0:0:0:
64,192,76195,1,2,0:0:0:0:
320,192,76357,1,0,0:0:0:0:
192,192,76519,1,2,0:0:0:0:
64,192,76519,1,2,0:0:0:0:
320,192,76682,1,0,0:0:0:0:
192,192,76844,1,2,0:0:0:0:
448,192,76844,1,8,0:0:0:0:
320,192,77006,1,0,0:0:0:0:
64,192,77168,1,2,0:0:0:0:
192,192,77168,1,2,0:0:0:0:
320,192,77330,1,0,0:0:0:0:
448,192,77492,1,8,0:0:0:0:
192,192,77492,1,2,0:0:0:0:
64,192,77655,1,0,0:0:0:0:
192,192,77817,1,2,0:0:0:0:
320,192,77817,1,10,0:0:0:0:
448,192,77979,1,0,0:0:0:0:
320,192,78141,1,8,0:0:0:0:
64,192,78141,1,2,0:0:0:0:
192,192,78303,1,0,0:0:0:0:
320,192,78465,1,2,0:0:0:0:
448,192,78465,1,8,0:0:0:0:
64,192,78627,1,0,0:0:0:0:
192,192,78790,1,2,0:0:0:0:
448,192,78790,1,8,0:0:0:0:
320,192,78952,1,0,0:0:0:0:
64,192,79114,1,2,0:0:0:0:
192,192,79114,1,2,0:0:0:0:
320,192,79276,1,0,0:0:0:0:
64,192,79438,1,2,0:0:0:0:
448,192,79438,1,8,0:0:0:0:
320,192,79600,1,0,0:0:0:0:
192,192,79763,1,2,0:0:0:0:
448,192,79763,1,2,0:0:0:0:
64,192,79925,1,0,0:0:0:0:
448,192,80087,1,8,0:0:0:0:
192,192,80087,1,2,0:0:0:0:
320,192,80249,1,0,0:0:0:0:
64,192,80411,1,2,0:0:0:0:
192,192,80411,1,2,0:0:0:0:
320,192,80573,1,0,0:0:0:0:
448,192,80736,1,8,0:0:0:0:
64,192,80736,1,2,0:0:0:0:
192,192,80898,1,0,0:0:0:0:
448,192,81060,128,2,81384:0:0:0:0:
320,192,81060,1,2,0:0:0:0:
192,192,81384,1,10,0:0:0:0:
320,192,81546,128,0,81871:0:0:0:0:
64,192,81871,1,0,0:0:0:0:
192,192,82033,128,10,82357:0:0:0:0:
448,192,82357,1,2,0:0:0:0:
320,192,82357,1,2,0:0:0:0:
64,192,82519,1,0,0:0:0:0:
192,192,82600,1,0,0:0:0:0:
320,192,82682,1,2,0:0:0:0:
448,192,82682,1,8,0:0:0:0:
192,192,82844,1,0,0:0:0:0:
320,192,83006,1,2,0:0:0:0:
64,192,83006,1,2,0:0:0:0:
192,192,83168,1,0,0:0:0:0:
448,192,83330,1,8,0:0:0:0:
320,192,83330,1,2,0:0:0:0:
192,192,83492,1,0,0:0:0:0:
448,192,83655,1,6,0:0:0:0:
64,192,83655,1,2,0:0:0:0:
320,192,83817,1,0,0:0:0:0:
192,192,83979,1,2,0:0:0:0:
448,192,83979,1,8,0:0:0:0:
64,192,84141,1,0,0:0:0:0:
192,192,84303,1,2,0:0:0:0:
448,192,84303,1,2,0:0:0:0:
320,192,84465,1,0,0:0:0:0:
64,192,84627,1,2,0:0:0:0:
192,192,84627,1,8,0:0:0:0:
320,192,84790,1,0,0:0:0:0:
64,192,84952,1,2,0:0:0:0:
448,192,84952,1,2,0:0:0:0:
192,192,85114,1,0,0:0:0:0:
320,192,85276,1,2,0:0:0:0:
448,192,85276,1,8,0:0:0:0:
192,192,85438,1,0,0:0:0:0:
64,192,85600,1,2,0:0:0:0:
320,192,85600,1,2,0:0:0:0:
192,192,85763,1,0,0:0:0:0:
320,192,85925,1,2,0:0:0:0:
448,192,85925,1,8,0:0:0:0:
192,192,86087,1,0,0:0:0:0:
64,192,86249,1,2,0:0:0:0:
448,192,86249,1,2,0:0:0:0:
320,192,86411,1,0,0:0:0:0:
192,192,86573,1,8,0:0:0:0:
64,192,86573,1,2,0:0:0:0:
448,192,86736,1,0,0:0:0:0:
320,192,86898,1,2,0:0:0:0:
64,192,86898,1,2,0:0:0:0:
192,192,87060,1,0,0:0:0:0:
320,192,87222,1,2,0:0:0:0:
448,192,87222,1,8,0:0:0:0:
192,192,87384,1,0,0:0:0:0:
320,192,87546,1,2,0:0:0:0:
64,192,87546,1,2,0:0:0:0:
192,192,87709,1,0,0:0:0:0:
320,192,87871,1,2,0:0:0:0:
448,192,87871,1,8,0:0:0:0:
192,192,88033,1,0,0:0:0:0:
448,192,88195,1,10,0:0:0:0:
64,192,88195,1,2,0:0:0:0:
320,192,88357,1,0,0:0:0:0:
192,192,88519,1,8,0:0:0:0:
64,192,88519,1,2,0:0:0:0:
320,192,88682,1,0,0:0:0:0:
192,192,88844,1,2,0:0:0:0:
448,192,88844,1,8,0:0:0:0:
320,192,89006,1,0,0:0:0:0:
64,192,89168,1,2,0:0:0:0:
448,192,89168,1,8,0:0:0:0:
192,192,89330,1,0,0:0:0:0:
320,192,89492,1,2,0:0:0:0:
448,192,89492,1,8,0:0:0:0:
64,192,89655,1,0,0:0:0:0:
192,192,89817,1,0,0:0:0:0:
320,192,89817,1,0,0:0:0:0:
448,192,89979,1,0,0:0:0:0:
64,192,90141,1,2,0:0:0:0:
320,192,90141,1,8,0:0:0:0:
192,192,90303,1,0,0:0:0:0:
320,192,90465,1,2,0:0:0:0:
448,192,90465,1,8,0:0:0:0:
64,192,90627,1,0,0:0:0:0:
192,192,90790,1,2,0:0:0:0:
448,192,90790,1,2,0:0:0:0:
320,192,90952,1,0,0:0:0:0:
64,192,91114,1,0,0:0:0:0:
448,192,91114,1,0,0:0:0:0:
320,192,91276,1,0,0:0:0:0:
192,192,91438,1,10,0:0:0:0:
64,192,91438,1,2,0:0:0:0:
320,192,91600,1,2,0:0:0:0:
448,192,91600,1,6,0:0:0:0:
192,192,91763,1,10,0:0:0:0:
64,192,91763,1,2,0:0:0:0:
320,192,91925,1,2,0:0:0:0:
448,192,91925,1,10,0:0:0:0:
64,192,92087,1,10,0:0:0:0:
192,192,92168,1,10,0:0:0:0:
320,192,92249,1,10,0:0:0:0:
448,192,92330,1,10,0:0:0:0:
64,192,92411,1,10,0:0:0:0:
192,192,92492,1,2,0:0:0:0:
320,192,92573,1,2,0:0:0:0:
448,192,92655,1,2,0:0:0:0:
320,192,92736,5,6,0:0:0:0:
192,192,92736,1,2,0:0:0:0:
320,192,92979,1,6,0:0:0:0:
192,192,92979,1,2,0:0:0:0:
64,192,93222,1,2,0:0:0:0:
448,192,93222,128,6,93709:0:0:0:0:
192,192,93709,1,8,0:0:0:0:
320,192,93709,1,8,0:0:0:0:
64,192,94033,1,2,0:0:0:0:
320,192,94033,1,10,0:0:0:0:
192,192,94195,1,0,0:0:0:0:
448,192,94357,1,8,0:0:0:0:
320,192,94357,1,2,0:0:0:0:
64,192,94682,1,2,0:0:0:0:
192,192,94844,1,0,0:0:0:0:
320,192,95006,1,2,0:0:0:0:
448,192,95006,1,8,0:0:0:0:
192,192,95168,1,0,0:0:0:0:
64,192,95330,1,2,0:0:0:0:
448,192,95330,1,2,0:0:0:0:
320,192,95492,1,0,0:0:0:0:
64,192,95655,1,10,0:0:0:0:
192,192,95817,1,0,0:0:0:0:
320,192,95979,1,2,0:0:0:0:
448,192,95979,1,2,0:0:0:0:
64,192,96141,1,0,0:0:0:0:
192,192,96303,1,2,0:0:0:0:
448,192,96303,1,8,0:0:0:0:
320,192,96465,1,0,0:0:0:0:
64,192,96627,1,2,0:0:0:0:
192,192,96627,1,2,0:0:0:0:
448,192,96790,1,0,0:0:0:0:
192,192,96952,1,2,0:0:0:0:
320,192,96952,1,8,0:0:0:0:
64,192,97276,1,2,0:0:0:0:
448,192,97276,1,2,0:0:0:0:
192,192,97438,1,0,0:0:0:0:
320,192,97600,1,2,0:0:0:0:
448,192,97600,1,8,0:0:0:0:
192,192,97763,1,6,0:0:0:0:
64,192,97763,128,6,98249:0:0:0:0:
320,192,98249,1,0,0:0:0:0:
448,192,98411,128,6,98898:0:0:0:0:
192,192,98411,1,2,0:0:0:0:
64,192,98898,1,10,0:0:0:0:
320,192,99222,128,2,99546:0:0:0:0:
448,192,99222,1,6,0:0:0:0:
64,192,99546,1,2,0:0:0:0:
192,192,99546,1,8,0:0:0:0:
320,192,99871,1,2,0:0:0:0:
448,192,99871,1,2,0:0:0:0:
192,192,100033,1,0,0:0:0:0:
64,192,100195,1,2,0:0:0:0:
448,192,100195,1,8,0:0:0:0:
320,192,100357,1,0,0:0:0:0:
192,192,100519,1,8,0:0:0:0:
64,192,100519,1,2,0:0:0:0:
320,192,100682,1,0,0:0:0:0:
192,192,100844,1,2,0:0:0:0:
448,192,100844,1,8,0:0:0:0:
64,192,101168,1,2,0:0:0:0:
320,192,101168,1,2,0:0:0:0:
192,192,101330,1,0,0:0:0:0:
448,192,101492,1,8,0:0:0:0:
320,192,101492,1,2,0:0:0:0:
64,192,101655,1,0,0:0:0:0:
192,192,101817,1,2,0:0:0:0:
320,192,101817,1,0,0:0:0:0:
64,192,102141,1,2,0:0:0:0:
448,192,102141,1,8,0:0:0:0:
320,192,102303,1,0,0:0:0:0:
192,192,102465,1,10,0:0:0:0:
64,192,102465,1,2,0:0:0:0:
320,192,102627,1,0,0:0:0:0:
64,192,102790,1,2,0:0:0:0:
448,192,102790,1,8,0:0:0:0:
320,192,102952,1,2,0:0:0:0:
192,192,102952,1,2,0:0:0:0:
448,192,103276,1,0,0:0:0:0:
192,192,103276,1,0,0:0:0:0:
64,192,103438,1,2,0:0:0:0:
320,192,103438,1,8,0:0:0:0:
192,192,103600,1,2,0:0:0:0:
448,192,103600,1,10,0:0:0:0:
448,192,103925,1,0,0:0:0:0:
192,192,103925,1,0,0:0:0:0:
64,192,104087,1,2,0:0:0:0:
320,192,104087,1,8,0:0:0:0:
448,192,104411,128,6,104898:0:0:0:0:
64,192,104411,1,2,0:0:0:0:
192,192,104573,1,0,0:0:0:0:
320,192,104736,1,0,0:0:0:0:
64,192,104898,128,2,105384:0:0:0:0:
192,192,104898,1,6,0:0:0:0:
320,192,105060,1,0,0:0:0:0:
448,192,105222,1,0,0:0:0:0:
448,192,105546,128,6,106195:0:0:0:0:
320,192,105546,1,2,0:0:0:0:
64,192,105709,1,0,0:0:0:0:
192,192,105871,1,0,0:0:0:0:
320,192,106033,1,0,0:0:0:0:
64,192,106357,1,2,0:0:0:0:
192,192,106357,1,6,0:0:0:0:
192,192,106682,1,2,0:0:0:0:
320,192,106682,1,6,0:0:0:0:
320,192,107006,1,2,0:0:0:0:
448,192,107006,128,6,107492:0:0:0:0:
64,192,107168,1,0,0:0:0:0:
320,192,107330,1,0,0:0:0:0:
192,192,107492,1,6,0:0:0:0:
64,192,107492,128,2,107979:0:0:0:0:
320,192,107655,1,0,0:0:0:0:
192,192,107817,1,0,0:0:0:0:
448,192,108141,128,6,108790:0:0:0:0:
320,192,108141,1,2,0:0:0:0:
192,192,108303,1,0,0:0:0:0:
320,192,108465,1,0,0:0:0:0:
192,192,108627,1,0,0:0:0:0:
64,192,108952,1,2,0:0:0:0:
192,192,108952,1,6,0:0:0:0:
192,192,109276,1,2,0:0:0:0:
320,192,109276,1,6,0:0:0:0:
320,192,109600,1,2,0:0:0:0:
448,192,109600,1,6,0:0:0:0:
64,192,109925,1,2,0:0:0:0:
192,192,109925,1,8,0:0:0:0:
320,192,110249,1,2,0:0:0:0:
448,192,110249,1,2,0:0:0:0:
192,192,110573,1,2,0:0:0:0:
64,192,110573,1,2,0:0:0:0:
192,192,110898,1,2,0:0:0:0:
448,192,110898,1,2,0:0:0:0:
64,192,111222,1,2,0:0:0:0:
320,192,111222,1,2,0:0:0:0:
192,192,111546,1,2,0:0:0:0:
448,192,111546,1,2,0:0:0:0:
64,192,111871,1,0,0:0:0:0:
320,192,111871,1,0,0:0:0:0:
448,192,112195,1,10,0:0:0:0:
320,192,112357,1,10,0:0:0:0:
64,192,112519,1,10,0:0:0:0:
192,192,112682,1,2,0:0:0:0:
448,192,112844,1,10,0:0:0:0:
320,192,112925,1,10,0:0:0:0:
64,192,113006,1,10,0:0:0:0:
192,192,113087,1,10,0:0:0:0:
448,192,113168,1,10,0:0:0:0:
320,192,113249,1,10,0:0:0:0:
192,192,113330,1,6,0:0:0:0:
64,192,113330,1,2,0:0:0:0:
448,192,113655,1,6,0:0:0:0:
320,192,113655,1,2,0:0:0:0:
64,192,113979,1,2,0:0:0:0:
192,192,113979,1,6,0:0:0:0:
448,192,114141,1,6,0:0:0:0:
320,192,114141,1,2,0:0:0:0:
448,192,114465,128,8,114790:0:0:0:0:
64,192,114465,1,8,0:0:0:0:
192,192,114790,1,2,0:0:0:0:
320,192,114790,1,8,0:0:0:0:
