osu file format v14

[General]
AudioFilename: audio.mp3
AudioLeadIn: 0
PreviewTime: 63361
Countdown: 0
SampleSet: Soft
StackLeniency: 0.7
Mode: 0
LetterboxInBreaks: 0
WidescreenStoryboard: 0

[Editor]
Bookmarks: 3352,3521,26233,40132,44199,59956,62683,68107,73192,84378
DistanceSpacing: 1
BeatDivisor: 4
GridSize: 4
TimelineZoom: 2.4

[Metadata]
Title:Kairaku Genri
TitleUnicode:快楽原理
Artist:coffin princess
ArtistUnicode:coffin princess
Creator:NEVlR
Version:Sorrow
Source:棺姫のチャイカ
Tags:Hitsugi no Chaika
BeatmapID:1450924
BeatmapSetID:685451

[Difficulty]
HPDrainRate:6
CircleSize:4
OverallDifficulty:8.5
ApproachRate:9.4
SliderMultiplier:1.5
SliderTickRate:1

[Events]
//Background and Video events
0,0,"chaika01.jpg",0,0
//Break Periods
//Storyboard Layer 0 (Background)
//Storyboard Layer 1 (Fail)
//Storyboard Layer 2 (Pass)
//Storyboard Layer 3 (Foreground)
//Storyboard Sound Samples

[TimingPoints]
132,338.983050847458,4,2,0,40,1,0
132,-125,4,2,0,40,0,0
12335,-83.3333333333333,4,1,0,60,0,0
23182,-100,4,2,0,50,0,0
31318,-100,4,2,0,65,0,0
34030,-100,4,2,0,50,0,0
42165,-100,4,2,0,65,0,0
44877,-100,4,2,0,40,0,0
46233,-166.666666666667,4,2,0,40,0,0
46911,-100,4,2,0,40,0,0
49962,-166.666666666667,4,2,0,40,0,0
50640,-100,4,2,0,40,0,0
52335,340.909090909091,4,1,0,50,1,0
53357,342.857142857143,4,1,0,50,1,0
54385,344.827586206897,4,1,0,50,1,0
55419,350.877192982456,4,1,0,50,1,0
56471,352.941176470588,4,1,0,40,1,0
57529,346.820809248555,4,1,0,50,1,0
58569,-166.666666666667,4,1,0,50,0,0
60650,338.983050847458,4,1,0,60,1,0
63361,-71.4285714285714,4,1,0,60,0,1
85056,-100,4,1,0,60,0,0

[HitObjects]
437,296,132,6,0,L|413:176,1,120
414,179,640,2,0,P|358:199|302:184,1,120
303,186,1318,2,0,P|276:131|217:112,1,120
224,112,1996,2,0,P|140:164|132:240,1,180
132,240,2843,6,0,P|168:292|224:312,1,120
328,256,3352,1,0,0:0:0:0:
328,256,3691,2,0,P|383:233|415:184,1,120
328,80,4199,1,2,0:0:0:0:
328,80,4877,6,0,P|268:96|224:136,1,120
164,324,5555,1,0,0:0:0:0:
164,324,6233,6,0,P|224:308|268:268,1,120
287,91,6911,1,0,0:0:0:0:
287,91,7589,6,0,P|324:137|324:196,1,120
231,311,8267,2,0,P|180:240|184:152,1,180
256,192,8945,12,0,11995,0:0:0:0:
104,72,12335,5,0,0:0:0:0:
260,180,12504,1,0,0:0:0:0:
222,37,12674,1,0,0:0:0:0:
148,192,12843,2,0,P|160:236|192:272,1,89.9999972534181
420,320,13182,1,0,0:0:0:0:
328,240,13352,2,0,L|304:328,1,89.9999972534181
328,156,13691,5,0,0:0:0:0:
408,48,13860,1,0,0:0:0:0:
444,156,14030,1,0,0:0:0:0:
264,60,14199,2,0,P|232:92|216:136,1,89.9999972534181
188,269,14538,2,0,P|235:331|284:268,1,179.999994506836
368,72,15047,5,0,0:0:0:0:
264,176,15216,1,0,0:0:0:0:
232,40,15386,1,0,0:0:0:0:
420,168,15555,2,0,P|420:212|400:256,1,89.9999972534181
308,184,15894,1,0,0:0:0:0:
176,284,16064,2,0,L|100:332,1,89.9999972534181
120,160,16403,5,2,0:0:0:0:
120,160,16487,1,0,0:0:0:0:
120,160,16572,2,0,L|158:184,1,44.999998626709
376,152,16742,5,2,0:0:0:0:
376,152,16826,1,0,0:0:0:0:
376,152,16911,2,0,L|338:176,1,44.999998626709
256,336,17081,5,2,0:0:0:0:
256,336,17165,1,0,0:0:0:0:
256,336,17250,2,0,L|256:288,1,44.999998626709
244,100,17420,5,2,0:0:0:0:
216,68,17504,1,0,0:0:0:0:
180,44,17589,1,0,0:0:0:0:
136,44,17674,1,0,0:0:0:0:
96,64,17759,6,0,P|64:100|52:140,1,89.9999972534181,2|0,0:0|0:0,0:0:0:0:
52,320,18098,1,0,0:0:0:0:
128,248,18267,2,0,B|158:215|168:168,1,89.9999972534181
392,72,18606,1,0,0:0:0:0:
312,144,18776,2,0,L|240:88,1,89.9999972534181
455,191,19115,5,0,0:0:0:0:
296,256,19284,1,0,0:0:0:0:
413,317,19454,1,0,0:0:0:0:
212,336,19623,2,0,P|188:296|184:252,1,89.9999972534181
92,128,19962,2,0,B|69:79|37:55|37:55|76:32|124:40,1,179.999994506836
300,124,20470,6,0,P|336:97|379:88,1,89.9999972534181
464,36,20809,1,0,0:0:0:0:
384,204,20979,2,0,P|348:231|305:240,1,89.9999972534181
144,324,21318,1,0,0:0:0:0:
88,148,21487,2,0,L|60:60,1,89.9999972534181
328,92,21826,6,0,P|296:132|256:140,1,89.9999972534181
259,140,22081,2,0,P|216:127|190:91,1,89.9999972534181
188,64,22335,1,0,0:0:0:0:
280,264,22547,1,0,0:0:0:0:
280,308,22716,1,0,0:0:0:0:
96,192,22970,1,0,0:0:0:0:
416,168,23182,6,0,P|412:132|386:104,1,75,6|0,0:0|0:0,0:0:0:0:
200,44,23521,1,0,0:0:0:0:
304,144,23691,2,0,P|310:184|334:208,1,75
276,332,24030,1,0,0:0:0:0:
424,276,24199,1,0,0:0:0:0:
192,248,24369,2,0,L|128:324,1,75,2|0,0:0|0:0,0:0:0:0:
148,180,24708,2,0,L|196:122,1,75
136,44,25047,1,0,0:0:0:0:
64,112,25216,5,0,0:0:0:0:
328,64,25386,1,0,0:0:0:0:
264,288,25555,1,8,0:0:0:0:
404,204,25725,1,0,0:0:0:0:
220,164,25894,6,0,P|188:180|160:208,1,75,2|0,0:0|0:0,0:0:0:0:
96,308,26233,1,0,0:0:0:0:
112,128,26403,2,0,P|128:92|156:68,1,75
295,59,26742,2,0,P|323:84|338:119,1,75
264,288,27081,1,2,0:0:0:0:
392,204,27250,6,0,P|420:176|432:144,1,75
295,59,27589,2,0,P|258:50|222:58,1,75
88,192,27928,1,0,0:0:0:0:
232,268,28098,1,0,0:0:0:0:
240,148,28267,1,8,0:0:0:0:
100,312,28437,1,0,0:0:0:0:
140,96,28606,6,0,P|192:44|268:36,1,150,2|0,0:0|0:0,0:0:0:0:
265,35,29115,1,0,0:0:0:0:
408,152,29284,1,0,0:0:0:0:
336,312,29454,1,0,0:0:0:0:
256,192,29624,1,8,0:0:0:0:
460,284,29794,1,0,0:0:0:0:
172,265,29962,6,0,P|98:270|41:317,1,150,2|0,0:0|0:0,0:0:0:0:
41,317,30470,1,0,0:0:0:0:
148,172,30640,1,0,0:0:0:0:
56,48,30809,1,0,0:0:0:0:
240,120,30979,5,8,0:0:0:0:
268,144,31064,1,0,0:0:0:0:
292,172,31148,1,0,0:0:0:0:
308,204,31233,1,0,0:0:0:0:
320,240,31318,6,0,P|352:260|388:268,1,75,2|0,0:0|0:0,0:0:0:0:
192,144,31657,2,0,P|160:124|123:115,1,75
164,240,31996,1,0,0:0:0:0:
348,144,32165,1,0,0:0:0:0:
256,296,32335,1,8,0:0:0:0:
256,88,32504,1,0,0:0:0:0:
60,224,32674,5,0,0:0:0:0:
256,192,32843,1,0,0:0:0:0:
96,72,33013,1,8,0:0:0:0:
292,192,33182,1,0,0:0:0:0:
120,312,33352,5,0,0:0:0:0:
412,132,33521,1,0,0:0:0:0:
316,328,33691,1,8,0:0:0:0:
252,44,33860,1,0,0:0:0:0:
100,96,34030,5,2,0:0:0:0:
352,176,34199,2,0,P|386:191|424:196,1,75
412,96,34538,5,0,0:0:0:0:
159,176,34708,2,0,P|125:191|88:196,1,75
156,304,35047,1,8,0:0:0:0:
256,88,35216,1,2,0:0:0:0:
356,304,35386,5,0,0:0:0:0:
372,312,35725,1,0,0:0:0:0:
280,208,36064,1,0,0:0:0:0:
388,320,36233,1,0,0:0:0:0:
292,72,36403,2,0,P|256:64|220:72,1,75,8|0,0:0|0:0,0:0:0:0:
116,264,36742,5,2,0:0:0:0:
356,156,36911,2,0,P|392:147|428:155,1,75
396,264,37250,5,0,0:0:0:0:
156,156,37420,2,0,P|119:147|83:155,1,75
200,304,37759,1,8,0:0:0:0:
312,80,37928,1,0,0:0:0:0:
80,76,38098,5,0,0:0:0:0:
80,76,38267,1,0,0:0:0:0:
240,164,38437,2,0,L|276:232,1,75,8|0,0:0|0:0,0:0:0:0:
200,328,38776,5,0,0:0:0:0:
400,212,38945,1,0,0:0:0:0:
144,172,39115,1,8,0:0:0:0:
428,64,39284,1,0,0:0:0:0:
428,64,39369,1,0,0:0:0:0:
428,64,39454,6,0,P|392:84|356:88,1,75,2|0,0:0|0:0,0:0:0:0:
153,88,39793,2,0,P|116:82|83:63,1,75
64,304,40132,1,0,0:0:0:0:
248,144,40301,1,0,0:0:0:0:
96,180,40470,1,8,0:0:0:0:
224,324,40640,1,0,0:0:0:0:
332,200,40809,6,0,P|344:160|344:124,1,75
416,236,41148,2,0,P|417:273|428:308,1,75
132,208,41487,1,0,0:0:0:0:
248,76,41657,1,0,0:0:0:0:
312,280,41826,1,8,0:0:0:0:
432,76,41996,1,0,0:0:0:0:
264,192,42165,6,0,P|236:216|216:248,1,75,2|0,0:0|0:0,0:0:0:0:
180,112,42504,1,0,0:0:0:0:
352,152,42674,1,0,0:0:0:0:
336,120,42759,1,0,0:0:0:0:
300,100,42843,1,0,0:0:0:0:
368,288,43013,1,0,0:0:0:0:
444,152,43182,2,0,P|468:120|480:84,1,75,8|0,0:0|0:0,0:0:0:0:
152,288,43521,5,0,0:0:0:0:
252,44,43691,1,0,0:0:0:0:
300,304,43860,1,8,0:0:0:0:
92,64,44030,1,0,0:0:0:0:
240,132,44199,6,0,P|280:164|328:176,1,100
416,60,44538,5,0,0:0:0:0:
372,40,44651,1,0,0:0:0:0:
328,64,44764,1,0,0:0:0:0:
420,264,44877,6,0,P|368:288|312:288,1,112.5,6|0,0:0|0:0,0:0:0:0:
313,288,45216,2,0,P|272:256|248:200,1,112.5
248,202,45555,2,0,P|226:253|182:288,1,112.5
160,296,45894,1,0,0:0:0:0:
160,127,46233,2,0,L|190:94,1,44.999998626709
322,94,46572,2,0,L|352:128,1,44.999998626709
312,332,46911,5,2,0:0:0:0:
428,172,47081,1,0,0:0:0:0:
448,312,47250,1,2,0:0:0:0:
260,184,47420,1,0,0:0:0:0:
200,332,47589,1,2,0:0:0:0:
352,244,47759,1,0,0:0:0:0:
160,244,47928,1,2,0:0:0:0:
432,44,48606,6,0,P|404:96|356:120,1,112.5,2|0,0:0|0:0,0:0:0:0:
357,119,48945,2,0,P|300:144|264:176,1,112.5
263,176,49284,2,0,P|220:139|168:118,1,112.5
144,116,49623,1,2,0:0:0:0:
160,256,49962,2,0,L|196:284,1,44.999998626709
316,284,50301,2,0,L|352:256,1,44.999998626709
400,44,50640,5,2,0:0:0:0:
200,136,50809,1,0,0:0:0:0:
376,156,50979,1,2,0:0:0:0:
252,40,51148,1,0,0:0:0:0:
252,224,51318,1,2,0:0:0:0:
80,120,51487,1,0,0:0:0:0:
88,324,51657,1,2,0:0:0:0:
420,273,52335,6,0,B|428:308|428:308|368:284|316:304,1,150,4|0,0:0|0:0,0:0:0:0:
236,240,52846,1,0,0:0:0:0:
384,80,53016,1,0,0:0:0:0:
384,80,53357,6,0,P|348:132|312:76,1,150,4|0,0:0|0:0,0:0:0:0:
420,204,53871,1,0,0:0:0:0:
184,232,54042,1,0,0:0:0:0:
184,232,54385,6,0,P|184:196|160:164,1,75,4|0,0:0|0:0,0:0:0:0:
84,292,54729,2,0,P|108:320|140:340,1,75
304,260,55074,2,0,L|304:184,1,75
104,88,55419,2,0,B|144:88|168:56|168:56|192:76|196:104|196:104|212:76|228:52|288:52|316:72|328:116,1,300,4|0,0:0|0:0,0:0:0:0:
272,296,56471,6,0,P|240:320|204:328,1,75,4|0,0:0|0:0,0:0:0:0:
136,268,56823,2,0,P|165:245|201:236,1,75
320,228,57176,2,0,P|344:256|356:296,1,75
184,88,57529,6,0,P|148:80|104:80,1,75,4|0,0:0|0:0,0:0:0:0:
40,212,57875,2,0,P|76:220|120:220,1,75
336,152,58222,2,0,L|276:196,1,75
308,56,58569,6,0,B|360:44|416:56|448:128|432:176|432:176|488:200|488:276|440:300,1,359.999989013672,4|0,0:0|0:0,0:0:0:0:
432,300,60043,1,0,0:0:0:0:
420,300,60130,1,0,0:0:0:0:
168,224,60303,2,0,L|196:264,1,44.999998626709
152,44,60650,5,0,0:0:0:0:
316,324,60819,1,0,0:0:0:0:
68,304,60988,1,0,0:0:0:0:
440,80,61158,1,0,0:0:0:0:
268,192,61327,6,0,L|245:225,3,37.5
380,206,61666,2,0,L|403:239,3,37.5
363,261,62005,5,0,0:0:0:0:
329,290,62090,1,0,0:0:0:0:
287,307,62175,1,0,0:0:0:0:
241,305,62260,1,0,0:0:0:0:
200,286,62344,5,0,0:0:0:0:
168,253,62429,1,0,0:0:0:0:
153,210,62514,1,0,0:0:0:0:
153,164,62599,1,0,0:0:0:0:
172,123,62683,6,0,P|186:108|205:96,1,37.5,2|0,0:0|0:0,0:0:0:0:
429,78,62853,2,0,P|415:93|396:105,1,37.5,2|0,0:0|0:0,0:0:0:0:
68,241,63022,1,8,0:0:0:0:
415,306,63361,6,0,P|417:252|392:206,1,104.999996795654,2|0,0:0|0:0,0:0:0:0:
226,48,63700,1,0,0:0:0:0:
101,210,63870,2,0,P|98:261|122:308,1,104.999996795654
60,52,64209,1,0,0:0:0:0:
211,236,64378,1,0,0:0:0:0:
332,117,64547,1,0,0:0:0:0:
332,117,64632,1,0,0:0:0:0:
332,117,64717,6,0,P|362:82|421:59,1,104.999996795654,2|0,0:0|0:0,0:0:0:0:
448,270,65056,2,0,P|418:305|359:328,1,104.999996795654
94,205,65395,1,0,0:0:0:0:
346,215,65565,1,0,0:0:0:0:
191,51,65734,1,0,0:0:0:0:
269,288,65904,1,0,0:0:0:0:
117,115,66073,6,0,L|43:39,1,104.999996795654,2|0,0:0|0:0,0:0:0:0:
149,293,66412,1,0,0:0:0:0:
368,140,66582,2,0,P|406:113|464:111,1,104.999996795654
336,304,66921,2,0,P|240:340|148:292,1,209.999993591309
248,208,67344,1,0,0:0:0:0:
248,208,67429,6,0,P|272:164|264:112,1,104.999996795654,2|0,0:0|0:0,0:0:0:0:
96,48,67768,2,0,P|72:92|80:144,1,104.999996795654
408,216,68107,2,0,P|432:260|424:312,1,104.999996795654
149,293,68446,2,0,L|45:285,1,104.999996795654
312,136,68785,6,0,P|400:132|456:32,1,209.999993591309,2|0,0:0|0:0,0:0:0:0:
128,52,69294,1,0,0:0:0:0:
101,251,69463,2,0,P|140:284|192:292,1,104.999996795654
432,252,69802,2,0,L|328:252,1,104.999996795654
332,128,70141,6,0,P|404:92|324:60,1,209.999993591309,2|0,0:0|0:0,0:0:0:0:
256,292,70650,1,0,0:0:0:0:
96,108,70819,2,0,P|56:76|32:28,1,104.999996795654
108,248,71158,2,0,L|104:352,1,104.999996795654
312,148,71497,6,0,P|404:156|440:260,1,209.999993591309,2|0,0:0|0:0,0:0:0:0:
256,292,72005,1,2,0:0:0:0:
216,136,72175,2,0,P|232:88|276:56,1,104.999996795654
388,52,72514,5,0,0:0:0:0:
124,92,72683,1,0,0:0:0:0:
344,200,72853,1,0,0:0:0:0:
80,240,73022,1,0,0:0:0:0:
256,320,73192,5,2,0:0:0:0:
256,320,73277,1,0,0:0:0:0:
256,320,73361,2,0,L|295:284,1,52.4999983978272
416,52,73531,5,2,0:0:0:0:
416,52,73616,1,0,0:0:0:0:
416,52,73700,2,0,L|376:87,1,52.4999983978272
96,196,73870,5,2,0:0:0:0:
96,196,73955,1,0,0:0:0:0:
96,196,74039,2,0,L|148:196,1,52.4999983978272
460,296,74209,6,0,P|424:196|332:164,1,209.999993591309,6|0,0:0|0:0,0:0:0:0:
96,52,74717,1,0,0:0:0:0:
224,308,74887,1,0,0:0:0:0:
312,52,75056,1,0,0:0:0:0:
208,168,75226,1,0,0:0:0:0:
332,196,75395,6,0,P|384:188|432:208,1,104.999996795654,0|2,0:0|0:0,0:0:0:0:
179,255,75734,2,0,P|127:263|79:243,1,104.999996795654
176,72,76073,1,0,0:0:0:0:
176,72,76158,1,0,0:0:0:0:
176,72,76243,2,0,P|272:36|368:80,1,209.999993591309
431,207,76751,1,0,0:0:0:0:
208,168,76921,6,0,P|157:174|121:211,1,104.999996795654,2|0,0:0|0:0,0:0:0:0:
201,329,77260,2,0,P|229:325|245:307,1,52.4999983978272
301,169,77429,1,0,0:0:0:0:
397,321,77599,1,0,0:0:0:0:
101,113,77768,2,0,P|25:189|53:281,1,209.999993591309
344,228,78192,1,0,0:0:0:0:
344,228,78277,6,0,P|376:188|384:136,1,104.999996795654,2|0,0:0|0:0,0:0:0:0:
168,156,78616,2,0,P|136:196|128:248,1,104.999996795654
260,324,78955,1,0,0:0:0:0:
384,48,79124,1,0,0:0:0:0:
452,292,79294,1,0,0:0:0:0:
256,48,79463,1,0,0:0:0:0:
152,192,79633,6,0,P|256:220|348:176,1,209.999993591309
456,128,80141,1,0,0:0:0:0:
344,328,80311,1,0,0:0:0:0:
256,48,80480,1,0,0:0:0:0:
168,328,80650,1,0,0:0:0:0:
56,128,80819,1,0,0:0:0:0:
164,168,80988,6,0,P|268:196|360:152,1,209.999993591309
128,52,81497,1,0,0:0:0:0:
252,336,81666,1,0,0:0:0:0:
56,216,81836,1,0,0:0:0:0:
436,259,82005,1,0,0:0:0:0:
104,332,82175,1,0,0:0:0:0:
323,191,82344,6,0,P|334:106|259:147,1,209.999993591309
252,336,82853,1,0,0:0:0:0:
448,158,83022,2,0,P|452:210|436:260,1,104.999996795654
144,216,83361,2,0,P|127:166|131:114,1,104.999996795654
272,40,83700,5,0,0:0:0:0:
400,192,83870,1,0,0:0:0:0:
248,332,84039,1,0,0:0:0:0:
344,192,84209,1,0,0:0:0:0:
131,114,84378,5,2,0:0:0:0:
83,138,84463,1,0,0:0:0:0:
55,182,84548,1,0,0:0:0:0:
59,234,84633,1,0,0:0:0:0:
91,274,84717,1,2,0:0:0:0:
139,290,84802,1,0,0:0:0:0:
191,278,84887,1,0,0:0:0:0:
223,238,84972,1,0,0:0:0:0:
231,202,85056,6,0,P|255:134|323:134,1,150,6|0,0:0|0:0,0:0:0:0:
416,320,85734,5,2,0:0:0:0:
256,40,85904,1,0,0:0:0:0:
160,320,86073,1,2,0:0:0:0:
416,92,86243,1,0,0:0:0:0:
104,184,86412,5,6,0:0:0:0:
104,184,87090,1,2,0:0:0:0:
432,260,87260,1,0,0:0:0:0:
56,328,87429,1,2,0:0:0:0:
432,124,87599,1,0,0:0:0:0:
64,44,87768,5,6,0:0:0:0:
