osu file format v14

[General]
AudioFilename: audio.mp3
AudioLeadIn: 0
PreviewTime: 454
Countdown: 0
SampleSet: Soft
StackLeniency: 0.7
Mode: 3
LetterboxInBreaks: 0
SpecialStyle: 0
WidescreenStoryboard: 0

[Editor]
Bookmarks: 6132
DistanceSpacing: 0.6
BeatDivisor: 4
GridSize: 4
TimelineZoom: 2.206432

[Metadata]
Title:drive real fast (on fire) (Extended Edit)
TitleUnicode:drive real fast (on fire) (Extended Edit)
Artist:coda
ArtistUnicode:coda
Creator:Ucitysm
Version:(tires on fire)
Source:Drive Ahead!
Tags:indoroid tigerinity ken snyder codatrigger tires on fire instrumental edm electronic dance music eurobeat chordjack roblox robeats!
BeatmapID:3904972
BeatmapSetID:1894849

[Difficulty]
HPDrainRate:8.5
CircleSize:4
OverallDifficulty:8.5
ApproachRate:5
SliderMultiplier:1.4
SliderTickRate:1

[Events]
//Background and Video events
0,0,"drove.jpg",0,0
//Break Periods
//Storyboard Layer 0 (Background)
//Storyboard Layer 1 (Fail)
//Storyboard Layer 2 (Pass)
//Storyboard Layer 3 (Foreground)
//Storyboard Layer 4 (Overlay)
//Storyboard Sound Samples

[TimingPoints]
477,376.998089876345,4,2,1,40,1,0
1984,-100.0,4,2,1,40,0,1
14048,-100.0,4,2,1,40,0,0
32144,-100.0,4,2,1,40,0,1
44208,-100.0,4,2,1,40,0,0
62304,-100.0,4,2,1,40,0,1
74368,-100.0,4,2,1,40,0,0

[HitObjects]
64,192,477,1,0,0:0:0:100:funny_orchestra_hit_(g).ogg
192,192,477,1,0,0:0:0:60:kick.wav
448,192,477,1,0,0:0:0:70:cymbal.wav
64,192,571,1,0,0:0:0:60:kick.wav
320,192,665,1,0,0:0:0:60:kick.wav
448,192,665,1,0,0:0:0:0:
192,192,759,1,0,0:0:0:60:kick.wav
64,192,853,1,0,0:0:0:100:funny_orchestra_hit_(g).ogg
320,192,853,1,0,0:0:0:60:kick.wav
448,192,853,1,0,0:0:0:70:cymbal.wav
448,192,948,1,0,0:0:0:60:kick.wav
64,192,1042,1,0,0:0:0:60:kick.wav
192,192,1042,1,0,0:0:0:0:
320,192,1136,1,0,0:0:0:60:kick.wav
64,192,1230,1,0,0:0:0:100:funny_orchestra_hit_(g).ogg
192,192,1230,1,0,0:0:0:60:kick.wav
448,192,1230,1,0,0:0:0:70:cymbal.wav
64,192,1325,1,0,0:0:0:60:kick.wav
320,192,1419,1,0,0:0:0:60:kick.wav
448,192,1419,1,0,0:0:0:0:
192,192,1513,1,0,0:0:0:60:kick.wav
64,192,1607,1,0,0:0:0:100:funny_orchestra_hit_(g).ogg
320,192,1607,1,0,0:0:0:60:kick.wav
448,192,1607,1,0,0:0:0:70:cymbal.wav
448,192,1702,1,0,0:0:0:60:kick.wav
64,192,1796,1,0,0:0:0:60:kick.wav
192,192,1796,1,0,0:0:0:0:
320,192,1890,1,0,0:0:0:60:kick.wav
64,192,1984,1,0,0:0:0:100:funny_orchestra_hit_(c).ogg
192,192,1984,1,0,0:0:0:60:kick.wav
448,192,1984,1,0,0:0:0:70:cymbal.wav
64,192,2079,1,0,0:0:0:0:
192,192,2079,1,0,0:0:0:0:
320,192,2173,1,0,0:0:0:0:
448,192,2173,1,0,0:0:0:0:
64,192,2361,1,0,0:0:0:85:snare.wav
192,192,2361,1,0,0:0:0:0:
320,192,2361,1,0,0:0:0:0:
64,192,2456,1,0,0:0:0:0:
448,192,2456,1,0,0:0:0:0:
320,192,2644,1,0,0:0:0:0:
448,192,2644,1,0,0:0:0:0:
64,192,2738,1,0,0:0:0:60:kick.wav
192,192,2738,1,0,0:0:0:0:
192,192,2833,1,0,0:0:0:0:
320,192,2833,1,0,0:0:0:0:
64,192,2927,1,0,0:0:0:0:
448,192,2927,1,0,0:0:0:0:
64,192,3115,1,0,0:0:0:85:snare.wav
320,192,3115,1,0,0:0:0:0:
448,192,3115,1,0,0:0:0:0:
192,192,3210,1,0,0:0:0:0:
448,192,3210,1,0,0:0:0:0:
64,192,3304,1,0,0:0:0:0:
320,192,3304,1,0,0:0:0:0:
192,192,3398,1,0,0:0:0:0:
64,192,3492,1,0,0:0:0:100:funny_orchestra_hit_(f).ogg
320,192,3492,1,0,0:0:0:60:kick.wav
448,192,3492,1,0,0:0:0:0:
64,192,3681,1,0,0:0:0:0:
448,192,3681,1,0,0:0:0:0:
192,192,3869,1,0,0:0:0:85:snare.wav
320,192,3869,1,0,0:0:0:0:
448,192,3869,1,0,0:0:0:0:
64,192,3964,1,0,0:0:0:0:
448,192,3964,1,0,0:0:0:0:
64,192,4246,1,0,0:0:0:60:kick.wav
448,192,4246,1,0,0:0:0:0:
320,192,4341,1,0,0:0:0:0:
448,192,4341,1,0,0:0:0:0:
64,192,4435,1,0,0:0:0:0:
192,192,4529,1,0,0:0:0:0:
64,192,4623,1,0,0:0:0:85:snare.wav
320,192,4623,1,0,0:0:0:0:
448,192,4623,1,0,0:0:0:0:
192,192,4718,1,0,0:0:0:0:
320,192,4718,1,0,0:0:0:0:
448,192,4812,1,0,0:0:0:0:
192,192,4906,1,0,0:0:0:0:
64,192,5000,1,0,0:0:0:100:funny_orchestra_hit_(g#).ogg
320,192,5000,1,0,0:0:0:60:kick.wav
448,192,5000,1,0,0:0:0:0:
320,192,5095,1,0,0:0:0:0:
448,192,5095,1,0,0:0:0:0:
64,192,5189,1,0,0:0:0:0:
192,192,5189,1,0,0:0:0:0:
64,192,5377,1,0,0:0:0:85:snare.wav
192,192,5377,1,0,0:0:0:0:
448,192,5377,1,0,0:0:0:0:
320,192,5472,1,0,0:0:0:0:
448,192,5472,1,0,0:0:0:0:
64,192,5566,1,0,0:0:0:0:
192,192,5566,1,0,0:0:0:0:
64,192,5660,1,0,0:0:0:0:
448,192,5660,1,0,0:0:0:0:
320,192,5754,1,0,0:0:0:60:kick.wav
448,192,5754,1,0,0:0:0:0:
192,192,5849,1,0,0:0:0:0:
320,192,5849,1,0,0:0:0:0:
64,192,5943,1,0,0:0:0:0:
448,192,5943,1,0,0:0:0:0:
64,192,6131,1,0,0:0:0:85:snare.wav
192,192,6131,1,0,0:0:0:0:
448,192,6131,1,0,0:0:0:0:
64,192,6226,1,0,0:0:0:0:
320,192,6226,1,0,0:0:0:0:
192,192,6320,1,0,0:0:0:0:
448,192,6320,1,0,0:0:0:0:
320,192,6414,1,0,0:0:0:0:
64,192,6508,1,0,0:0:0:100:funny_orchestra_hit_(f).ogg
192,192,6508,1,0,0:0:0:60:kick.wav
448,192,6508,1,0,0:0:0:70:cymbal.wav
320,192,6603,1,0,0:0:0:0:
448,192,6603,1,0,0:0:0:0:
64,192,6697,1,0,0:0:0:0:
192,192,6791,1,0,0:0:0:0:
64,192,6885,1,0,0:0:0:100:funny_orchestra_hit_(g).ogg
320,192,6885,1,0,0:0:0:60:kick.wav
448,192,6885,1,0,0:0:0:70:cymbal.wav
192,192,6980,1,0,0:0:0:0:
320,192,6980,1,0,0:0:0:0:
448,192,7074,1,0,0:0:0:0:
192,192,7168,1,0,0:0:0:0:
64,192,7262,1,0,0:0:0:100:funny_orchestra_hit_(g#).ogg
320,192,7262,1,0,0:0:0:60:kick.wav
448,192,7262,1,0,0:0:0:70:cymbal.wav
64,192,7357,1,0,0:0:0:0:
192,192,7357,1,0,0:0:0:0:
448,192,7451,1,0,0:0:0:0:
320,192,7545,1,0,0:0:0:0:
64,192,7639,1,0,0:0:0:100:funny_orchestra_hit_(f#).ogg
192,192,7639,1,0,0:0:0:60:kick.wav
448,192,7639,1,0,0:0:0:70:cymbal.wav
192,192,7734,1,0,0:0:0:0:
320,192,7734,1,0,0:0:0:0:
64,192,7828,1,0,0:0:0:0:
320,192,7922,1,0,0:0:0:0:
64,192,8016,1,0,0:0:0:100:funny_orchestra_hit_(c).ogg
192,192,8016,1,0,0:0:0:60:kick.wav
448,192,8016,1,0,0:0:0:70:cymbal.wav
64,192,8111,1,0,0:0:0:0:
448,192,8111,1,0,0:0:0:0:
192,192,8205,1,0,0:0:0:0:
320,192,8205,1,0,0:0:0:0:
64,192,8393,1,0,0:0:0:85:snare.wav
192,192,8393,1,0,0:0:0:0:
320,192,8393,1,0,0:0:0:0:
64,192,8488,1,0,0:0:0:0:
448,192,8488,1,0,0:0:0:0:
320,192,8676,1,0,0:0:0:0:
448,192,8676,1,0,0:0:0:0:
64,192,8770,1,0,0:0:0:60:kick.wav
192,192,8770,1,0,0:0:0:0:
320,192,8865,1,0,0:0:0:0:
448,192,8865,1,0,0:0:0:0:
64,192,8959,1,0,0:0:0:0:
448,192,8959,1,0,0:0:0:0:
64,192,9147,1,0,0:0:0:85:snare.wav
192,192,9147,1,0,0:0:0:0:
448,192,9147,1,0,0:0:0:0:
64,192,9242,1,0,0:0:0:0:
320,192,9242,1,0,0:0:0:0:
192,192,9336,1,0,0:0:0:0:
448,192,9336,1,0,0:0:0:0:
320,192,9430,1,0,0:0:0:0:
64,192,9524,1,0,0:0:0:100:funny_orchestra_hit_(f).ogg
192,192,9524,1,0,0:0:0:60:kick.wav
448,192,9524,1,0,0:0:0:0:
64,192,9713,1,0,0:0:0:0:
448,192,9713,1,0,0:0:0:0:
64,192,9901,1,0,0:0:0:85:snare.wav
192,192,9901,1,0,0:0:0:0:
320,192,9901,1,0,0:0:0:0:
64,192,9996,1,0,0:0:0:0:
448,192,9996,1,0,0:0:0:0:
64,192,10278,1,0,0:0:0:60:kick.wav
448,192,10278,1,0,0:0:0:0:
320,192,10373,1,0,0:0:0:0:
448,192,10373,1,0,0:0:0:0:
64,192,10467,1,0,0:0:0:0:
192,192,10561,1,0,0:0:0:0:
64,192,10655,1,0,0:0:0:85:snare.wav
320,192,10655,1,0,0:0:0:0:
448,192,10655,1,0,0:0:0:0:
192,192,10750,1,0,0:0:0:0:
320,192,10750,1,0,0:0:0:0:
448,192,10844,1,0,0:0:0:0:
192,192,10938,1,0,0:0:0:0:
64,192,11032,1,0,0:0:0:100:funny_orchestra_hit_(g#).ogg
320,192,11032,1,0,0:0:0:60:kick.wav
448,192,11032,1,0,0:0:0:0:
320,192,11127,1,0,0:0:0:0:
448,192,11127,1,0,0:0:0:0:
64,192,11221,1,0,0:0:0:0:
192,192,11221,1,0,0:0:0:0:
64,192,11409,1,0,0:0:0:85:snare.wav
192,192,11409,1,0,0:0:0:0:
448,192,11409,1,0,0:0:0:0:
64,192,11504,1,0,0:0:0:0:
192,192,11504,1,0,0:0:0:0:
320,192,11598,1,0,0:0:0:0:
448,192,11598,1,0,0:0:0:0:
64,192,11786,1,0,0:0:0:60:kick.wav
320,192,11786,1,0,0:0:0:0:
320,192,11881,1,0,0:0:0:0:
448,192,11881,1,0,0:0:0:0:
64,192,11975,1,0,0:0:0:0:
192,192,11975,1,0,0:0:0:0:
320,192,12069,1,0,0:0:0:0:
64,192,12163,1,0,0:0:0:85:snare.wav
192,192,12163,1,0,0:0:0:0:
448,192,12163,1,0,0:0:0:0:
64,192,12258,1,0,0:0:0:0:
320,192,12258,1,0,0:0:0:0:
320,192,12352,1,0,0:0:0:0:
448,192,12352,1,0,0:0:0:0:
192,192,12446,1,0,0:0:0:0:
64,192,12540,1,0,0:0:0:100:funny_orchestra_hit_(f).ogg
320,192,12540,1,0,0:0:0:60:kick.wav
448,192,12540,1,0,0:0:0:70:cymbal.wav
64,192,12635,1,0,0:0:0:60:kick.wav
192,192,12635,1,0,0:0:0:0:
320,192,12729,1,0,0:0:0:60:kick.wav
448,192,12729,1,0,0:0:0:0:
192,192,12823,1,0,0:0:0:60:kick.wav
64,192,12917,1,0,0:0:0:100:funny_orchestra_hit_(g).ogg
320,192,12917,1,0,0:0:0:60:kick.wav
448,192,12917,1,0,0:0:0:70:cymbal.wav
192,192,13012,1,0,0:0:0:60:kick.wav
320,192,13012,1,0,0:0:0:0:
64,192,13106,1,0,0:0:0:60:kick.wav
448,192,13106,1,0,0:0:0:0:
320,192,13200,1,0,0:0:0:60:kick.wav
64,192,13294,1,0,0:0:0:100:funny_orchestra_hit_(g#).ogg
192,192,13294,1,0,0:0:0:60:kick.wav
448,192,13294,1,0,0:0:0:70:cymbal.wav
320,192,13389,1,0,0:0:0:60:kick.wav
448,192,13389,1,0,0:0:0:0:
64,192,13483,1,0,0:0:0:60:kick.wav
192,192,13483,1,0,0:0:0:0:
320,192,13577,1,0,0:0:0:60:kick.wav
64,192,13671,1,0,0:0:0:100:funny_orchestra_hit_(f#).ogg
192,192,13671,1,0,0:0:0:60:kick.wav
448,192,13671,1,0,0:0:0:70:cymbal.wav
192,192,13766,1,0,0:0:0:60:kick.wav
320,192,13766,1,0,0:0:0:0:
64,192,13860,1,0,0:0:0:60:kick.wav
448,192,13860,1,0,0:0:0:0:
192,192,13954,1,0,0:0:0:60:kick.wav
64,192,14048,1,0,0:0:0:100:funny_orchestra_hit_(c).ogg
320,192,14048,1,0,0:0:0:60:kick.wav
448,192,14048,1,0,0:0:0:70:cymbal.wav
64,192,14425,1,0,0:0:0:85:snare.wav
320,192,14425,1,0,0:0:0:0:
448,192,14425,1,0,0:0:0:0:
64,192,14614,1,0,0:0:0:0:
192,192,14614,1,0,0:0:0:0:
448,192,14708,1,0,0:0:0:0:
320,192,14755,1,0,0:0:0:0:
64,192,14802,1,0,0:0:0:60:kick.wav
192,192,14802,1,0,0:0:0:0:
320,192,14991,1,0,0:0:0:0:
448,192,14991,1,0,0:0:0:0:
64,192,15179,1,0,0:0:0:85:snare.wav
192,192,15179,1,0,0:0:0:0:
448,192,15179,1,0,0:0:0:0:
320,192,15368,1,0,0:0:0:0:
64,192,15556,1,0,0:0:0:100:funny_orchestra_hit_(f).ogg
192,192,15556,1,0,0:0:0:60:kick.wav
448,192,15604,1,0,0:0:0:0:
320,192,15651,1,0,0:0:0:0:
64,192,15745,1,0,0:0:0:0:
448,192,15745,1,0,0:0:0:0:
192,192,15839,1,0,0:0:0:0:
64,192,15933,1,0,0:0:0:85:snare.wav
320,192,15933,1,0,0:0:0:0:
448,192,15933,1,0,0:0:0:0:
192,192,16028,1,0,0:0:0:0:
448,192,16122,1,0,0:0:0:0:
320,192,16169,1,0,0:0:0:0:
64,192,16216,1,0,0:0:0:0:
320,192,16310,1,0,0:0:0:60:kick.wav
448,192,16310,1,0,0:0:0:0:
64,192,16405,1,0,0:0:0:0:
192,192,16452,1,0,0:0:0:0:
448,192,16499,1,0,0:0:0:0:
320,192,16593,1,0,0:0:0:0:
64,192,16687,1,0,0:0:0:85:snare.wav
192,192,16687,1,0,0:0:0:0:
448,192,16687,1,0,0:0:0:0:
320,192,16782,1,0,0:0:0:0:
64,192,16876,1,0,0:0:0:0:
192,192,16970,1,0,0:0:0:0:
64,192,17064,1,0,0:0:0:100:funny_orchestra_hit_(g#).ogg
320,192,17064,1,0,0:0:0:60:kick.wav
448,192,17064,1,0,0:0:0:0:
192,192,17253,1,0,0:0:0:0:
448,192,17253,1,0,0:0:0:0:
320,192,17347,1,0,0:0:0:0:
64,192,17441,1,0,0:0:0:85:snare.wav
192,192,17441,1,0,0:0:0:0:
448,192,17441,1,0,0:0:0:0:
320,192,17536,1,0,0:0:0:0:
64,192,17724,1,0,0:0:0:0:
192,192,17771,1,0,0:0:0:0:
320,192,17818,1,0,0:0:0:60:kick.wav
448,192,17818,1,0,0:0:0:0:
64,192,18007,1,0,0:0:0:0:
192,192,18007,1,0,0:0:0:0:
64,192,18195,1,0,0:0:0:85:snare.wav
320,192,18195,1,0,0:0:0:0:
448,192,18195,1,0,0:0:0:0:
192,192,18384,1,0,0:0:0:0:
64,192,18572,1,0,0:0:0:100:funny_orchestra_hit_(g).ogg
320,192,18572,1,0,0:0:0:60:kick.wav
448,192,18572,1,0,0:0:0:0:
192,192,18667,1,0,0:0:0:0:
448,192,18761,1,0,0:0:0:0:
320,192,18855,1,0,0:0:0:0:
64,192,18949,1,0,0:0:0:85:snare.wav
192,192,18949,1,0,0:0:0:0:
448,192,18949,1,0,0:0:0:0:
320,192,19044,1,0,0:0:0:0:
64,192,19138,1,0,0:0:0:0:
448,192,19232,1,0,0:0:0:0:
64,192,19326,1,0,0:0:0:60:kick.wav
192,192,19326,1,0,0:0:0:0:
320,192,19421,1,0,0:0:0:0:
192,192,19515,1,0,0:0:0:0:
448,192,19515,1,0,0:0:0:0:
320,192,19609,1,0,0:0:0:0:
64,192,19703,1,0,0:0:0:85:snare.wav
192,192,19703,1,0,0:0:0:0:
448,192,19703,1,0,0:0:0:0:
64,192,20080,1,0,0:0:0:100:funny_orchestra_hit_(c).ogg
320,192,20080,1,0,0:0:0:60:kick.wav
448,192,20080,1,0,0:0:0:70:cymbal.wav
64,192,20457,1,0,0:0:0:85:snare.wav
192,192,20457,1,0,0:0:0:0:
448,192,20457,1,0,0:0:0:0:
320,192,20646,1,0,0:0:0:0:
448,192,20646,1,0,0:0:0:0:
64,192,20740,1,0,0:0:0:0:
192,192,20787,1,0,0:0:0:0:
320,192,20834,1,0,0:0:0:60:kick.wav
448,192,20834,1,0,0:0:0:0:
64,192,21023,1,0,0:0:0:0:
192,192,21023,1,0,0:0:0:0:
64,192,21211,1,0,0:0:0:85:snare.wav
320,192,21211,1,0,0:0:0:0:
448,192,21211,1,0,0:0:0:0:
192,192,21400,1,0,0:0:0:0:
64,192,21588,1,0,0:0:0:100:funny_orchestra_hit_(f).ogg
192,192,21588,1,0,0:0:0:60:kick.wav
448,192,21636,1,0,0:0:0:0:
320,192,21683,1,0,0:0:0:0:
64,192,21777,1,0,0:0:0:0:
320,192,21871,1,0,0:0:0:0:
448,192,21871,1,0,0:0:0:0:
192,192,21965,1,0,0:0:0:85:snare.wav
320,192,21965,1,0,0:0:0:0:
448,192,21965,1,0,0:0:0:0:
64,192,22060,1,0,0:0:0:0:
320,192,22154,1,0,0:0:0:0:
192,192,22201,1,0,0:0:0:0:
64,192,22248,1,0,0:0:0:0:
320,192,22342,1,0,0:0:0:60:kick.wav
448,192,22342,1,0,0:0:0:0:
192,192,22437,1,0,0:0:0:0:
320,192,22484,1,0,0:0:0:0:
448,192,22531,1,0,0:0:0:0:
192,192,22625,1,0,0:0:0:0:
64,192,22719,1,0,0:0:0:85:snare.wav
320,192,22719,1,0,0:0:0:0:
448,192,22719,1,0,0:0:0:0:
192,192,22814,1,0,0:0:0:0:
448,192,22908,1,0,0:0:0:0:
320,192,23002,1,0,0:0:0:0:
64,192,23096,1,0,0:0:0:100:funny_orchestra_hit_(g#).ogg
192,192,23096,1,0,0:0:0:60:kick.wav
448,192,23096,1,0,0:0:0:0:
64,192,23285,1,0,0:0:0:0:
320,192,23285,1,0,0:0:0:0:
192,192,23379,1,0,0:0:0:0:
64,192,23473,1,0,0:0:0:85:snare.wav
320,192,23473,1,0,0:0:0:0:
448,192,23473,1,0,0:0:0:0:
192,192,23568,1,0,0:0:0:0:
448,192,23756,1,0,0:0:0:0:
320,192,23803,1,0,0:0:0:0:
64,192,23850,1,0,0:0:0:60:kick.wav
192,192,23850,1,0,0:0:0:0:
320,192,24039,1,0,0:0:0:0:
448,192,24039,1,0,0:0:0:0:
64,192,24227,1,0,0:0:0:85:snare.wav
192,192,24227,1,0,0:0:0:0:
448,192,24227,1,0,0:0:0:0:
320,192,24416,1,0,0:0:0:0:
64,192,24604,1,0,0:0:0:100:funny_orchestra_hit_(g).ogg
192,192,24604,1,0,0:0:0:60:kick.wav
320,192,24604,1,0,0:0:0:0:
448,192,24699,1,0,0:0:0:0:
192,192,24793,1,0,0:0:0:0:
320,192,24887,1,0,0:0:0:0:
64,192,24981,1,0,0:0:0:85:snare.wav
192,192,24981,1,0,0:0:0:0:
448,192,24981,1,0,0:0:0:0:
320,192,25076,1,0,0:0:0:0:
448,192,25170,1,0,0:0:0:0:
192,192,25217,1,0,0:0:0:0:
64,192,25264,1,0,0:0:0:0:
320,192,25358,1,0,0:0:0:60:kick.wav
448,192,25358,1,0,0:0:0:0:
192,192,25453,1,0,0:0:0:0:
64,192,25547,1,0,0:0:0:0:
320,192,25641,1,0,0:0:0:0:
64,192,25735,1,0,0:0:0:85:snare.wav
192,192,25735,1,0,0:0:0:0:
448,192,25735,1,0,0:0:0:0:
64,192,26112,1,0,0:0:0:100:funny_orchestra_hit_(g#).ogg
320,192,26112,1,0,0:0:0:60:kick.wav
448,192,26112,1,0,0:0:0:70:cymbal.wav
192,192,26301,1,0,0:0:0:0:
320,192,26301,1,0,0:0:0:0:
64,192,26489,1,0,0:0:0:85:snare.wav
320,192,26489,1,0,0:0:0:0:
448,192,26489,1,0,0:0:0:0:
192,192,26584,1,0,0:0:0:0:
320,192,26678,1,0,0:0:0:0:
448,192,26678,1,0,0:0:0:0:
64,192,26772,1,0,0:0:0:0:
192,192,26866,1,0,0:0:0:60:kick.wav
320,192,26866,1,0,0:0:0:0:
64,192,27055,1,0,0:0:0:0:
448,192,27055,1,0,0:0:0:0:
64,192,27243,1,0,0:0:0:85:snare.wav
192,192,27243,1,0,0:0:0:0:
320,192,27243,1,0,0:0:0:0:
320,192,27432,1,0,0:0:0:0:
448,192,27432,1,0,0:0:0:0:
64,192,27620,1,0,0:0:0:100:funny_orchestra_hit_(d#).ogg
192,192,27620,1,0,0:0:0:60:kick.wav
448,192,27667,1,0,0:0:0:0:
192,192,27809,1,0,0:0:0:0:
320,192,27809,1,0,0:0:0:0:
64,192,27997,1,0,0:0:0:85:snare.wav
320,192,27997,1,0,0:0:0:0:
448,192,27997,1,0,0:0:0:0:
320,192,28186,1,0,0:0:0:0:
192,192,28233,1,0,0:0:0:0:
64,192,28280,1,0,0:0:0:0:
320,192,28374,1,0,0:0:0:60:kick.wav
448,192,28374,1,0,0:0:0:0:
64,192,28469,1,0,0:0:0:0:
448,192,28516,1,0,0:0:0:0:
192,192,28563,1,0,0:0:0:0:
64,192,28751,1,0,0:0:0:85:snare.wav
320,192,28751,1,0,0:0:0:0:
448,192,28751,1,0,0:0:0:0:
64,192,29128,1,0,0:0:0:100:funny_orchestra_hit_(f).ogg
192,192,29128,1,0,0:0:0:60:kick.wav
448,192,29128,1,0,0:0:0:0:
320,192,29223,1,0,0:0:0:0:
64,192,29317,1,0,0:0:0:0:
448,192,29317,1,0,0:0:0:0:
192,192,29411,1,0,0:0:0:0:
64,192,29505,1,0,0:0:0:85:snare.wav
320,192,29505,1,0,0:0:0:0:
448,192,29505,1,0,0:0:0:0:
192,192,29600,1,0,0:0:0:0:
320,192,29694,1,0,0:0:0:0:
448,192,29694,1,0,0:0:0:0:
192,192,29788,1,0,0:0:0:0:
64,192,29882,1,0,0:0:0:60:kick.wav
448,192,29882,1,0,0:0:0:0:
320,192,29977,1,0,0:0:0:0:
64,192,30071,1,0,0:0:0:0:
192,192,30071,1,0,0:0:0:0:
320,192,30165,1,0,0:0:0:0:
64,192,30259,1,0,0:0:0:85:snare.wav
192,192,30259,1,0,0:0:0:0:
448,192,30259,1,0,0:0:0:0:
320,192,30354,1,0,0:0:0:0:
64,192,30448,1,0,0:0:0:0:
448,192,30448,1,0,0:0:0:0:
192,192,30542,1,0,0:0:0:0:
64,192,30636,1,0,0:0:0:100:funny_orchestra_hit_(g).ogg
320,192,30636,1,0,0:0:0:60:kick.wav
448,192,30636,1,0,0:0:0:70:cymbal.wav
320,192,30731,1,0,0:0:0:60:kick.wav
448,192,30731,1,0,0:0:0:0:
64,192,30825,1,0,0:0:0:60:kick.wav
192,192,30825,1,0,0:0:0:0:
320,192,30919,1,0,0:0:0:60:kick.wav
64,192,31013,1,0,0:0:0:100:funny_orchestra_hit_(g).ogg
192,192,31013,1,0,0:0:0:60:kick.wav
448,192,31013,1,0,0:0:0:70:cymbal.wav
64,192,31108,1,0,0:0:0:60:kick.wav
192,192,31108,1,0,0:0:0:0:
320,192,31202,1,0,0:0:0:60:kick.wav
448,192,31202,1,0,0:0:0:0:
192,192,31296,1,0,0:0:0:60:kick.wav
64,192,31390,1,0,0:0:0:100:funny_orchestra_hit_(g).ogg
320,192,31390,1,0,0:0:0:60:kick.wav
448,192,31390,1,0,0:0:0:70:cymbal.wav
320,192,31485,1,0,0:0:0:60:kick.wav
448,192,31485,1,0,0:0:0:0:
64,192,31579,1,0,0:0:0:60:kick.wav
192,192,31579,1,0,0:0:0:0:
448,192,31673,1,0,0:0:0:60:kick.wav
64,192,31767,1,0,0:0:0:100:funny_orchestra_hit_(g).ogg
192,192,31767,1,0,0:0:0:60:kick.wav
320,192,31767,1,0,0:0:0:70:cymbal.wav
192,192,31862,1,0,0:0:0:60:kick.wav
320,192,31862,1,0,0:0:0:0:
64,192,31956,1,0,0:0:0:60:kick.wav
448,192,31956,1,0,0:0:0:0:
320,192,32050,1,0,0:0:0:60:kick.wav
64,192,32144,1,0,0:0:0:100:funny_orchestra_hit_(c).ogg
192,192,32144,1,0,0:0:0:60:kick.wav
448,192,32144,1,0,0:0:0:70:cymbal.wav
64,192,32239,1,0,0:0:0:0:
192,192,32239,1,0,0:0:0:0:
320,192,32333,1,0,0:0:0:0:
448,192,32333,1,0,0:0:0:0:
192,192,32521,1,0,0:0:0:85:snare.wav
320,192,32521,1,0,0:0:0:0:
448,192,32521,1,0,0:0:0:0:
64,192,32616,1,0,0:0:0:0:
448,192,32616,1,0,0:0:0:0:
64,192,32804,1,0,0:0:0:0:
192,192,32804,1,0,0:0:0:0:
320,192,32898,1,0,0:0:0:60:kick.wav
448,192,32898,1,0,0:0:0:0:
192,192,32993,1,0,0:0:0:0:
320,192,32993,1,0,0:0:0:0:
64,192,33087,1,0,0:0:0:0:
448,192,33087,1,0,0:0:0:0:
64,192,33275,1,0,0:0:0:85:snare.wav
192,192,33275,1,0,0:0:0:0:
448,192,33275,1,0,0:0:0:0:
64,192,33370,1,0,0:0:0:0:
320,192,33370,1,0,0:0:0:0:
192,192,33464,1,0,0:0:0:0:
448,192,33464,1,0,0:0:0:0:
320,192,33558,1,0,0:0:0:0:
64,192,33652,1,0,0:0:0:100:funny_orchestra_hit_(f).ogg
192,192,33652,1,0,0:0:0:60:kick.wav
448,192,33652,1,0,0:0:0:0:
64,192,33841,1,0,0:0:0:0:
448,192,33841,1,0,0:0:0:0:
64,192,34029,1,0,0:0:0:85:snare.wav
192,192,34029,1,0,0:0:0:0:
320,192,34029,1,0,0:0:0:0:
64,192,34124,1,0,0:0:0:0:
448,192,34124,1,0,0:0:0:0:
64,192,34406,1,0,0:0:0:60:kick.wav
448,192,34406,1,0,0:0:0:0:
64,192,34501,1,0,0:0:0:0:
192,192,34501,1,0,0:0:0:0:
448,192,34595,1,0,0:0:0:0:
320,192,34689,1,0,0:0:0:0:
64,192,34783,1,0,0:0:0:85:snare.wav
192,192,34783,1,0,0:0:0:0:
448,192,34783,1,0,0:0:0:0:
192,192,34878,1,0,0:0:0:0:
320,192,34878,1,0,0:0:0:0:
64,192,34972,1,0,0:0:0:0:
320,192,35066,1,0,0:0:0:0:
64,192,35160,1,0,0:0:0:100:funny_orchestra_hit_(g#).ogg
192,192,35160,1,0,0:0:0:60:kick.wav
448,192,35160,1,0,0:0:0:0:
64,192,35255,1,0,0:0:0:0:
192,192,35255,1,0,0:0:0:0:
320,192,35349,1,0,0:0:0:0:
448,192,35349,1,0,0:0:0:0:
64,192,35537,1,0,0:0:0:85:snare.wav
320,192,35537,1,0,0:0:0:0:
448,192,35537,1,0,0:0:0:0:
64,192,35632,1,0,0:0:0:0:
192,192,35632,1,0,0:0:0:0:
320,192,35726,1,0,0:0:0:0:
448,192,35726,1,0,0:0:0:0:
64,192,35820,1,0,0:0:0:0:
448,192,35820,1,0,0:0:0:0:
64,192,35914,1,0,0:0:0:60:kick.wav
192,192,35914,1,0,0:0:0:0:
192,192,36009,1,0,0:0:0:0:
320,192,36009,1,0,0:0:0:0:
64,192,36103,1,0,0:0:0:0:
448,192,36103,1,0,0:0:0:0:
64,192,36291,1,0,0:0:0:85:snare.wav
320,192,36291,1,0,0:0:0:0:
448,192,36291,1,0,0:0:0:0:
192,192,36386,1,0,0:0:0:0:
448,192,36386,1,0,0:0:0:0:
64,192,36480,1,0,0:0:0:0:
320,192,36480,1,0,0:0:0:0:
192,192,36574,1,0,0:0:0:0:
64,192,36668,1,0,0:0:0:100:funny_orchestra_hit_(f).ogg
320,192,36668,1,0,0:0:0:60:kick.wav
448,192,36668,1,0,0:0:0:70:cymbal.wav
64,192,36763,1,0,0:0:0:0:
192,192,36763,1,0,0:0:0:0:
448,192,36857,1,0,0:0:0:0:
320,192,36951,1,0,0:0:0:0:
64,192,37045,1,0,0:0:0:100:funny_orchestra_hit_(g).ogg
192,192,37045,1,0,0:0:0:60:kick.wav
448,192,37045,1,0,0:0:0:70:cymbal.wav
192,192,37140,1,0,0:0:0:0:
320,192,37140,1,0,0:0:0:0:
64,192,37234,1,0,0:0:0:0:
320,192,37328,1,0,0:0:0:0:
64,192,37422,1,0,0:0:0:100:funny_orchestra_hit_(g#).ogg
192,192,37422,1,0,0:0:0:60:kick.wav
448,192,37422,1,0,0:0:0:70:cymbal.wav
320,192,37517,1,0,0:0:0:0:
448,192,37517,1,0,0:0:0:0:
64,192,37611,1,0,0:0:0:0:
192,192,37705,1,0,0:0:0:0:
64,192,37799,1,0,0:0:0:100:funny_orchestra_hit_(f#).ogg
320,192,37799,1,0,0:0:0:60:kick.wav
448,192,37799,1,0,0:0:0:70:cymbal.wav
192,192,37894,1,0,0:0:0:0:
320,192,37894,1,0,0:0:0:0:
448,192,37988,1,0,0:0:0:0:
192,192,38082,1,0,0:0:0:0:
64,192,38176,1,0,0:0:0:100:funny_orchestra_hit_(c).ogg
320,192,38176,1,0,0:0:0:60:kick.wav
448,192,38176,1,0,0:0:0:70:cymbal.wav
64,192,38271,1,0,0:0:0:0:
448,192,38271,1,0,0:0:0:0:
192,192,38365,1,0,0:0:0:0:
320,192,38365,1,0,0:0:0:0:
192,192,38553,1,0,0:0:0:85:snare.wav
320,192,38553,1,0,0:0:0:0:
448,192,38553,1,0,0:0:0:0:
64,192,38648,1,0,0:0:0:0:
448,192,38648,1,0,0:0:0:0:
64,192,38836,1,0,0:0:0:0:
192,192,38836,1,0,0:0:0:0:
320,192,38930,1,0,0:0:0:60:kick.wav
448,192,38930,1,0,0:0:0:0:
64,192,39025,1,0,0:0:0:0:
192,192,39025,1,0,0:0:0:0:
64,192,39119,1,0,0:0:0:0:
448,192,39119,1,0,0:0:0:0:
64,192,39307,1,0,0:0:0:85:snare.wav
320,192,39307,1,0,0:0:0:0:
448,192,39307,1,0,0:0:0:0:
192,192,39402,1,0,0:0:0:0:
448,192,39402,1,0,0:0:0:0:
64,192,39496,1,0,0:0:0:0:
320,192,39496,1,0,0:0:0:0:
192,192,39590,1,0,0:0:0:0:
64,192,39684,1,0,0:0:0:100:funny_orchestra_hit_(f).ogg
320,192,39684,1,0,0:0:0:60:kick.wav
448,192,39684,1,0,0:0:0:0:
64,192,39873,1,0,0:0:0:0:
448,192,39873,1,0,0:0:0:0:
192,192,40061,1,0,0:0:0:85:snare.wav
320,192,40061,1,0,0:0:0:0:
448,192,40061,1,0,0:0:0:0:
64,192,40156,1,0,0:0:0:0:
448,192,40156,1,0,0:0:0:0:
64,192,40438,1,0,0:0:0:60:kick.wav
448,192,40438,1,0,0:0:0:0:
64,192,40533,1,0,0:0:0:0:
192,192,40533,1,0,0:0:0:0:
448,192,40627,1,0,0:0:0:0:
320,192,40721,1,0,0:0:0:0:
64,192,40815,1,0,0:0:0:85:snare.wav
192,192,40815,1,0,0:0:0:0:
448,192,40815,1,0,0:0:0:0:
192,192,40910,1,0,0:0:0:0:
320,192,40910,1,0,0:0:0:0:
64,192,41004,1,0,0:0:0:0:
320,192,41098,1,0,0:0:0:0:
64,192,41192,1,0,0:0:0:100:funny_orchestra_hit_(g#).ogg
192,192,41192,1,0,0:0:0:60:kick.wav
448,192,41192,1,0,0:0:0:0:
64,192,41287,1,0,0:0:0:0:
192,192,41287,1,0,0:0:0:0:
320,192,41381,1,0,0:0:0:0:
448,192,41381,1,0,0:0:0:0:
64,192,41569,1,0,0:0:0:85:snare.wav
320,192,41569,1,0,0:0:0:0:
448,192,41569,1,0,0:0:0:0:
320,192,41664,1,0,0:0:0:0:
448,192,41664,1,0,0:0:0:0:
64,192,41758,1,0,0:0:0:0:
192,192,41758,1,0,0:0:0:0:
192,192,41946,1,0,0:0:0:60:kick.wav
448,192,41946,1,0,0:0:0:0:
64,192,42041,1,0,0:0:0:0:
192,192,42041,1,0,0:0:0:0:
320,192,42135,1,0,0:0:0:0:
448,192,42135,1,0,0:0:0:0:
192,192,42229,1,0,0:0:0:0:
64,192,42323,1,0,0:0:0:85:snare.wav
320,192,42323,1,0,0:0:0:0:
448,192,42323,1,0,0:0:0:0:
192,192,42418,1,0,0:0:0:0:
448,192,42418,1,0,0:0:0:0:
64,192,42512,1,0,0:0:0:0:
192,192,42512,1,0,0:0:0:0:
320,192,42606,1,0,0:0:0:0:
64,192,42700,1,0,0:0:0:100:funny_orchestra_hit_(f).ogg
192,192,42700,1,0,0:0:0:60:kick.wav
448,192,42700,1,0,0:0:0:70:cymbal.wav
320,192,42795,1,0,0:0:0:60:kick.wav
448,192,42795,1,0,0:0:0:0:
64,192,42889,1,0,0:0:0:60:kick.wav
192,192,42889,1,0,0:0:0:0:
320,192,42983,1,0,0:0:0:60:kick.wav
64,192,43077,1,0,0:0:0:100:funny_orchestra_hit_(g).ogg
192,192,43077,1,0,0:0:0:60:kick.wav
448,192,43077,1,0,0:0:0:70:cymbal.wav
192,192,43172,1,0,0:0:0:60:kick.wav
320,192,43172,1,0,0:0:0:0:
64,192,43266,1,0,0:0:0:60:kick.wav
448,192,43266,1,0,0:0:0:0:
192,192,43360,1,0,0:0:0:60:kick.wav
64,192,43454,1,0,0:0:0:100:funny_orchestra_hit_(g#).ogg
320,192,43454,1,0,0:0:0:60:kick.wav
448,192,43454,1,0,0:0:0:70:cymbal.wav
64,192,43549,1,0,0:0:0:60:kick.wav
192,192,43549,1,0,0:0:0:0:
320,192,43643,1,0,0:0:0:60:kick.wav
448,192,43643,1,0,0:0:0:0:
192,192,43737,1,0,0:0:0:60:kick.wav
64,192,43831,1,0,0:0:0:100:funny_orchestra_hit_(f#).ogg
320,192,43831,1,0,0:0:0:60:kick.wav
448,192,43831,1,0,0:0:0:70:cymbal.wav
192,192,43926,1,0,0:0:0:60:kick.wav
320,192,43926,1,0,0:0:0:0:
64,192,44020,1,0,0:0:0:60:kick.wav
448,192,44020,1,0,0:0:0:0:
320,192,44114,1,0,0:0:0:60:kick.wav
64,192,44208,1,0,0:0:0:100:funny_orchestra_hit_(c).ogg
192,192,44208,1,0,0:0:0:60:kick.wav
448,192,44208,1,0,0:0:0:70:cymbal.wav
64,192,44585,1,0,0:0:0:85:snare.wav
192,192,44585,1,0,0:0:0:0:
448,192,44585,1,0,0:0:0:0:
320,192,44774,1,0,0:0:0:0:
448,192,44774,1,0,0:0:0:0:
64,192,44868,1,0,0:0:0:0:
192,192,44915,1,0,0:0:0:0:
320,192,44962,1,0,0:0:0:60:kick.wav
448,192,44962,1,0,0:0:0:0:
64,192,45151,1,0,0:0:0:0:
192,192,45151,1,0,0:0:0:0:
64,192,45339,1,0,0:0:0:85:snare.wav
320,192,45339,1,0,0:0:0:0:
448,192,45339,1,0,0:0:0:0:
192,192,45528,1,0,0:0:0:0:
320,192,45716,1,0,0:0:0:100:funny_orchestra_hit_(f).ogg
448,192,45716,1,0,0:0:0:60:kick.wav
64,192,45763,1,0,0:0:0:0:
192,192,45811,1,0,0:0:0:0:
64,192,45905,1,0,0:0:0:0:
448,192,45905,1,0,0:0:0:0:
320,192,45999,1,0,0:0:0:0:
64,192,46093,1,0,0:0:0:85:snare.wav
192,192,46093,1,0,0:0:0:0:
448,192,46093,1,0,0:0:0:0:
320,192,46188,1,0,0:0:0:0:
64,192,46282,1,0,0:0:0:0:
192,192,46329,1,0,0:0:0:0:
448,192,46376,1,0,0:0:0:0:
64,192,46470,1,0,0:0:0:60:kick.wav
192,192,46470,1,0,0:0:0:0:
448,192,46565,1,0,0:0:0:0:
320,192,46612,1,0,0:0:0:0:
64,192,46659,1,0,0:0:0:0:
192,192,46753,1,0,0:0:0:0:
64,192,46847,1,0,0:0:0:85:snare.wav
320,192,46847,1,0,0:0:0:0:
448,192,46847,1,0,0:0:0:0:
192,192,46942,1,0,0:0:0:0:
448,192,47036,1,0,0:0:0:0:
320,192,47130,1,0,0:0:0:0:
64,192,47224,1,0,0:0:0:100:funny_orchestra_hit_(g#).ogg
192,192,47224,1,0,0:0:0:60:kick.wav
448,192,47224,1,0,0:0:0:0:
64,192,47413,1,0,0:0:0:0:
320,192,47413,1,0,0:0:0:0:
192,192,47507,1,0,0:0:0:0:
64,192,47601,1,0,0:0:0:85:snare.wav
320,192,47601,1,0,0:0:0:0:
448,192,47601,1,0,0:0:0:0:
192,192,47696,1,0,0:0:0:0:
448,192,47884,1,0,0:0:0:0:
320,192,47931,1,0,0:0:0:0:
64,192,47978,1,0,0:0:0:60:kick.wav
192,192,47978,1,0,0:0:0:0:
320,192,48167,1,0,0:0:0:0:
448,192,48167,1,0,0:0:0:0:
64,192,48355,1,0,0:0:0:85:snare.wav
192,192,48355,1,0,0:0:0:0:
448,192,48355,1,0,0:0:0:0:
320,192,48544,1,0,0:0:0:0:
64,192,48732,1,0,0:0:0:100:funny_orchestra_hit_(g).ogg
192,192,48732,1,0,0:0:0:60:kick.wav
448,192,48732,1,0,0:0:0:0:
320,192,48827,1,0,0:0:0:0:
64,192,48921,1,0,0:0:0:0:
192,192,49015,1,0,0:0:0:0:
64,192,49109,1,0,0:0:0:85:snare.wav
320,192,49109,1,0,0:0:0:0:
448,192,49109,1,0,0:0:0:0:
192,192,49204,1,0,0:0:0:0:
448,192,49298,1,0,0:0:0:0:
64,192,49392,1,0,0:0:0:0:
320,192,49486,1,0,0:0:0:60:kick.wav
448,192,49486,1,0,0:0:0:0:
192,192,49581,1,0,0:0:0:0:
64,192,49675,1,0,0:0:0:0:
320,192,49675,1,0,0:0:0:0:
192,192,49769,1,0,0:0:0:0:
64,192,49863,1,0,0:0:0:85:snare.wav
320,192,49863,1,0,0:0:0:0:
448,192,49863,1,0,0:0:0:0:
64,192,50240,1,0,0:0:0:100:funny_orchestra_hit_(c).ogg
192,192,50240,1,0,0:0:0:60:kick.wav
448,192,50240,1,0,0:0:0:70:cymbal.wav
64,192,50617,1,0,0:0:0:85:snare.wav
320,192,50617,1,0,0:0:0:0:
448,192,50617,1,0,0:0:0:0:
64,192,50806,1,0,0:0:0:0:
192,192,50806,1,0,0:0:0:0:
448,192,50900,1,0,0:0:0:0:
320,192,50947,1,0,0:0:0:0:
64,192,50994,1,0,0:0:0:60:kick.wav
192,192,50994,1,0,0:0:0:0:
320,192,51183,1,0,0:0:0:0:
448,192,51183,1,0,0:0:0:0:
64,192,51371,1,0,0:0:0:85:snare.wav
192,192,51371,1,0,0:0:0:0:
448,192,51371,1,0,0:0:0:0:
320,192,51560,1,0,0:0:0:0:
320,192,51748,1,0,0:0:0:100:funny_orchestra_hit_(f).ogg
448,192,51748,1,0,0:0:0:60:kick.wav
64,192,51795,1,0,0:0:0:0:
192,192,51842,1,0,0:0:0:0:
448,192,51937,1,0,0:0:0:0:
64,192,52031,1,0,0:0:0:0:
192,192,52031,1,0,0:0:0:0:
64,192,52125,1,0,0:0:0:85:snare.wav
192,192,52125,1,0,0:0:0:0:
320,192,52125,1,0,0:0:0:0:
448,192,52219,1,0,0:0:0:0:
192,192,52314,1,0,0:0:0:0:
320,192,52361,1,0,0:0:0:0:
448,192,52408,1,0,0:0:0:0:
64,192,52502,1,0,0:0:0:60:kick.wav
192,192,52502,1,0,0:0:0:0:
320,192,52596,1,0,0:0:0:0:
192,192,52644,1,0,0:0:0:0:
64,192,52691,1,0,0:0:0:0:
320,192,52785,1,0,0:0:0:0:
64,192,52879,1,0,0:0:0:85:snare.wav
192,192,52879,1,0,0:0:0:0:
448,192,52879,1,0,0:0:0:0:
320,192,52973,1,0,0:0:0:0:
64,192,53068,1,0,0:0:0:0:
192,192,53162,1,0,0:0:0:0:
64,192,53256,1,0,0:0:0:100:funny_orchestra_hit_(g#).ogg
320,192,53256,1,0,0:0:0:60:kick.wav
448,192,53256,1,0,0:0:0:0:
192,192,53445,1,0,0:0:0:0:
448,192,53445,1,0,0:0:0:0:
320,192,53539,1,0,0:0:0:0:
64,192,53633,1,0,0:0:0:85:snare.wav
192,192,53633,1,0,0:0:0:0:
448,192,53633,1,0,0:0:0:0:
320,192,53727,1,0,0:0:0:0:
64,192,53916,1,0,0:0:0:0:
192,192,53963,1,0,0:0:0:0:
320,192,54010,1,0,0:0:0:60:kick.wav
448,192,54010,1,0,0:0:0:0:
64,192,54199,1,0,0:0:0:0:
192,192,54199,1,0,0:0:0:0:
64,192,54387,1,0,0:0:0:85:snare.wav
320,192,54387,1,0,0:0:0:0:
448,192,54387,1,0,0:0:0:0:
192,192,54576,1,0,0:0:0:0:
192,192,54764,1,0,0:0:0:100:funny_orchestra_hit_(g).ogg
320,192,54764,1,0,0:0:0:60:kick.wav
448,192,54764,1,0,0:0:0:0:
64,192,54858,1,0,0:0:0:0:
320,192,54953,1,0,0:0:0:0:
192,192,55047,1,0,0:0:0:0:
64,192,55141,1,0,0:0:0:85:snare.wav
320,192,55141,1,0,0:0:0:0:
448,192,55141,1,0,0:0:0:0:
192,192,55235,1,0,0:0:0:0:
64,192,55330,1,0,0:0:0:0:
320,192,55377,1,0,0:0:0:0:
448,192,55424,1,0,0:0:0:0:
64,192,55518,1,0,0:0:0:60:kick.wav
192,192,55518,1,0,0:0:0:0:
320,192,55612,1,0,0:0:0:0:
448,192,55707,1,0,0:0:0:0:
192,192,55801,1,0,0:0:0:0:
64,192,55895,1,0,0:0:0:85:snare.wav
320,192,55895,1,0,0:0:0:0:
448,192,55895,1,0,0:0:0:0:
64,192,56272,1,0,0:0:0:100:funny_orchestra_hit_(g#).ogg
192,192,56272,1,0,0:0:0:60:kick.wav
448,192,56272,1,0,0:0:0:70:cymbal.wav
192,192,56461,1,0,0:0:0:0:
320,192,56461,1,0,0:0:0:0:
64,192,56649,1,0,0:0:0:85:snare.wav
192,192,56649,1,0,0:0:0:0:
448,192,56649,1,0,0:0:0:0:
320,192,56743,1,0,0:0:0:0:
64,192,56838,1,0,0:0:0:0:
192,192,56838,1,0,0:0:0:0:
448,192,56932,1,0,0:0:0:0:
192,192,57026,1,0,0:0:0:60:kick.wav
320,192,57026,1,0,0:0:0:0:
64,192,57215,1,0,0:0:0:0:
448,192,57215,1,0,0:0:0:0:
192,192,57403,1,0,0:0:0:85:snare.wav
320,192,57403,1,0,0:0:0:0:
448,192,57403,1,0,0:0:0:0:
64,192,57592,1,0,0:0:0:0:
192,192,57592,1,0,0:0:0:0:
320,192,57780,1,0,0:0:0:100:funny_orchestra_hit_(d#).ogg
448,192,57780,1,0,0:0:0:60:kick.wav
64,192,57827,1,0,0:0:0:0:
192,192,57969,1,0,0:0:0:0:
320,192,57969,1,0,0:0:0:0:
64,192,58157,1,0,0:0:0:85:snare.wav
192,192,58157,1,0,0:0:0:0:
448,192,58157,1,0,0:0:0:0:
192,192,58346,1,0,0:0:0:0:
320,192,58393,1,0,0:0:0:0:
448,192,58440,1,0,0:0:0:0:
64,192,58534,1,0,0:0:0:60:kick.wav
192,192,58534,1,0,0:0:0:0:
448,192,58628,1,0,0:0:0:0:
64,192,58676,1,0,0:0:0:0:
320,192,58723,1,0,0:0:0:0:
64,192,58911,1,0,0:0:0:85:snare.wav
192,192,58911,1,0,0:0:0:0:
448,192,58911,1,0,0:0:0:0:
64,192,59288,1,0,0:0:0:100:funny_orchestra_hit_(f).ogg
320,192,59288,1,0,0:0:0:60:kick.wav
448,192,59288,1,0,0:0:0:0:
192,192,59382,1,0,0:0:0:0:
64,192,59477,1,0,0:0:0:0:
448,192,59477,1,0,0:0:0:0:
320,192,59571,1,0,0:0:0:0:
64,192,59665,1,0,0:0:0:85:snare.wav
192,192,59665,1,0,0:0:0:0:
448,192,59665,1,0,0:0:0:0:
320,192,59759,1,0,0:0:0:0:
64,192,59854,1,0,0:0:0:0:
192,192,59854,1,0,0:0:0:0:
320,192,59948,1,0,0:0:0:0:
64,192,60042,1,0,0:0:0:60:kick.wav
448,192,60042,1,0,0:0:0:0:
192,192,60136,1,0,0:0:0:0:
320,192,60231,1,0,0:0:0:0:
448,192,60231,1,0,0:0:0:0:
192,192,60325,1,0,0:0:0:0:
64,192,60419,1,0,0:0:0:85:snare.wav
320,192,60419,1,0,0:0:0:0:
448,192,60419,1,0,0:0:0:0:
192,192,60513,1,0,0:0:0:0:
64,192,60608,1,0,0:0:0:0:
448,192,60608,1,0,0:0:0:0:
320,192,60702,1,0,0:0:0:0:
64,192,60796,1,0,0:0:0:100:funny_orchestra_hit_(g).ogg
192,192,60796,1,0,0:0:0:60:kick.wav
448,192,60796,1,0,0:0:0:70:cymbal.wav
64,192,60890,1,0,0:0:0:60:kick.wav
192,192,60890,1,0,0:0:0:0:
320,192,60985,1,0,0:0:0:60:kick.wav
448,192,60985,1,0,0:0:0:0:
192,192,61079,1,0,0:0:0:60:kick.wav
64,192,61173,1,0,0:0:0:100:funny_orchestra_hit_(g).ogg
320,192,61173,1,0,0:0:0:60:kick.wav
448,192,61173,1,0,0:0:0:70:cymbal.wav
320,192,61267,1,0,0:0:0:60:kick.wav
448,192,61267,1,0,0:0:0:0:
64,192,61362,1,0,0:0:0:60:kick.wav
192,192,61362,1,0,0:0:0:0:
320,192,61456,1,0,0:0:0:60:kick.wav
64,192,61550,1,0,0:0:0:100:funny_orchestra_hit_(g).ogg
192,192,61550,1,0,0:0:0:60:kick.wav
448,192,61550,1,0,0:0:0:70:cymbal.wav
64,192,61644,1,0,0:0:0:60:kick.wav
192,192,61644,1,0,0:0:0:0:
320,192,61739,1,0,0:0:0:60:kick.wav
448,192,61739,1,0,0:0:0:0:
64,192,61833,1,0,0:0:0:60:kick.wav
192,192,61927,1,0,0:0:0:100:funny_orchestra_hit_(g).ogg
320,192,61927,1,0,0:0:0:60:kick.wav
448,192,61927,1,0,0:0:0:70:cymbal.wav
192,192,62021,1,0,0:0:0:60:kick.wav
320,192,62021,1,0,0:0:0:0:
64,192,62116,1,0,0:0:0:60:kick.wav
448,192,62116,1,0,0:0:0:0:
192,192,62210,1,0,0:0:0:60:kick.wav
64,192,62304,1,0,0:0:0:100:funny_orchestra_hit_(c).ogg
320,192,62304,1,0,0:0:0:60:kick.wav
448,192,62304,1,0,0:0:0:70:cymbal.wav
320,192,62398,1,0,0:0:0:0:
448,192,62398,1,0,0:0:0:0:
64,192,62493,1,0,0:0:0:0:
192,192,62493,1,0,0:0:0:0:
64,192,62681,1,0,0:0:0:85:snare.wav
192,192,62681,1,0,0:0:0:0:
320,192,62681,1,0,0:0:0:0:
64,192,62775,1,0,0:0:0:0:
448,192,62775,1,0,0:0:0:0:
320,192,62964,1,0,0:0:0:0:
448,192,62964,1,0,0:0:0:0:
64,192,63058,1,0,0:0:0:60:kick.wav
192,192,63058,1,0,0:0:0:0:
192,192,63152,1,0,0:0:0:0:
320,192,63152,1,0,0:0:0:0:
64,192,63247,1,0,0:0:0:0:
448,192,63247,1,0,0:0:0:0:
64,192,63435,1,0,0:0:0:85:snare.wav
320,192,63435,1,0,0:0:0:0:
448,192,63435,1,0,0:0:0:0:
192,192,63529,1,0,0:0:0:0:
448,192,63529,1,0,0:0:0:0:
64,192,63624,1,0,0:0:0:0:
320,192,63624,1,0,0:0:0:0:
192,192,63718,1,0,0:0:0:0:
64,192,63812,1,0,0:0:0:100:funny_orchestra_hit_(f).ogg
320,192,63812,1,0,0:0:0:60:kick.wav
448,192,63812,1,0,0:0:0:0:
64,192,64001,1,0,0:0:0:0:
448,192,64001,1,0,0:0:0:0:
192,192,64189,1,0,0:0:0:85:snare.wav
320,192,64189,1,0,0:0:0:0:
448,192,64189,1,0,0:0:0:0:
64,192,64283,1,0,0:0:0:0:
448,192,64283,1,0,0:0:0:0:
64,192,64566,1,0,0:0:0:60:kick.wav
448,192,64566,1,0,0:0:0:0:
320,192,64660,1,0,0:0:0:0:
448,192,64660,1,0,0:0:0:0:
64,192,64755,1,0,0:0:0:0:
192,192,64849,1,0,0:0:0:0:
64,192,64943,1,0,0:0:0:85:snare.wav
320,192,64943,1,0,0:0:0:0:
448,192,64943,1,0,0:0:0:0:
192,192,65037,1,0,0:0:0:0:
320,192,65037,1,0,0:0:0:0:
448,192,65132,1,0,0:0:0:0:
192,192,65226,1,0,0:0:0:0:
64,192,65320,1,0,0:0:0:100:funny_orchestra_hit_(g#).ogg
320,192,65320,1,0,0:0:0:60:kick.wav
448,192,65320,1,0,0:0:0:0:
320,192,65414,1,0,0:0:0:0:
448,192,65414,1,0,0:0:0:0:
64,192,65509,1,0,0:0:0:0:
192,192,65509,1,0,0:0:0:0:
64,192,65697,1,0,0:0:0:85:snare.wav
192,192,65697,1,0,0:0:0:0:
448,192,65697,1,0,0:0:0:0:
320,192,65791,1,0,0:0:0:0:
448,192,65791,1,0,0:0:0:0:
64,192,65886,1,0,0:0:0:0:
192,192,65886,1,0,0:0:0:0:
64,192,65980,1,0,0:0:0:0:
448,192,65980,1,0,0:0:0:0:
320,192,66074,1,0,0:0:0:60:kick.wav
448,192,66074,1,0,0:0:0:0:
192,192,66168,1,0,0:0:0:0:
320,192,66168,1,0,0:0:0:0:
64,192,66263,1,0,0:0:0:0:
448,192,66263,1,0,0:0:0:0:
64,192,66451,1,0,0:0:0:85:snare.wav
192,192,66451,1,0,0:0:0:0:
448,192,66451,1,0,0:0:0:0:
64,192,66545,1,0,0:0:0:0:
320,192,66545,1,0,0:0:0:0:
192,192,66640,1,0,0:0:0:0:
448,192,66640,1,0,0:0:0:0:
320,192,66734,1,0,0:0:0:0:
64,192,66828,1,0,0:0:0:100:funny_orchestra_hit_(f).ogg
192,192,66828,1,0,0:0:0:60:kick.wav
448,192,66828,1,0,0:0:0:70:cymbal.wav
320,192,66922,1,0,0:0:0:0:
448,192,66922,1,0,0:0:0:0:
64,192,67017,1,0,0:0:0:0:
192,192,67111,1,0,0:0:0:0:
64,192,67205,1,0,0:0:0:100:funny_orchestra_hit_(g).ogg
320,192,67205,1,0,0:0:0:60:kick.wav
448,192,67205,1,0,0:0:0:70:cymbal.wav
192,192,67299,1,0,0:0:0:0:
320,192,67299,1,0,0:0:0:0:
448,192,67394,1,0,0:0:0:0:
192,192,67488,1,0,0:0:0:0:
64,192,67582,1,0,0:0:0:100:funny_orchestra_hit_(g#).ogg
320,192,67582,1,0,0:0:0:60:kick.wav
448,192,67582,1,0,0:0:0:70:cymbal.wav
64,192,67676,1,0,0:0:0:0:
192,192,67676,1,0,0:0:0:0:
448,192,67771,1,0,0:0:0:0:
320,192,67865,1,0,0:0:0:0:
64,192,67959,1,0,0:0:0:100:funny_orchestra_hit_(f#).ogg
192,192,67959,1,0,0:0:0:60:kick.wav
448,192,67959,1,0,0:0:0:70:cymbal.wav
192,192,68053,1,0,0:0:0:0:
320,192,68053,1,0,0:0:0:0:
64,192,68148,1,0,0:0:0:0:
320,192,68242,1,0,0:0:0:0:
64,192,68336,1,0,0:0:0:100:funny_orchestra_hit_(c).ogg
192,192,68336,1,0,0:0:0:60:kick.wav
448,192,68336,1,0,0:0:0:70:cymbal.wav
64,192,68430,1,0,0:0:0:0:
448,192,68430,1,0,0:0:0:0:
192,192,68525,1,0,0:0:0:0:
320,192,68525,1,0,0:0:0:0:
64,192,68713,1,0,0:0:0:85:snare.wav
192,192,68713,1,0,0:0:0:0:
320,192,68713,1,0,0:0:0:0:
64,192,68807,1,0,0:0:0:0:
448,192,68807,1,0,0:0:0:0:
320,192,68996,1,0,0:0:0:0:
448,192,68996,1,0,0:0:0:0:
64,192,69090,1,0,0:0:0:60:kick.wav
192,192,69090,1,0,0:0:0:0:
320,192,69184,1,0,0:0:0:0:
448,192,69184,1,0,0:0:0:0:
64,192,69279,1,0,0:0:0:0:
448,192,69279,1,0,0:0:0:0:
64,192,69467,1,0,0:0:0:85:snare.wav
192,192,69467,1,0,0:0:0:0:
448,192,69467,1,0,0:0:0:0:
64,192,69561,1,0,0:0:0:0:
320,192,69561,1,0,0:0:0:0:
192,192,69656,1,0,0:0:0:0:
448,192,69656,1,0,0:0:0:0:
320,192,69750,1,0,0:0:0:0:
64,192,69844,1,0,0:0:0:100:funny_orchestra_hit_(f).ogg
192,192,69844,1,0,0:0:0:60:kick.wav
448,192,69844,1,0,0:0:0:0:
64,192,70033,1,0,0:0:0:0:
448,192,70033,1,0,0:0:0:0:
64,192,70221,1,0,0:0:0:85:snare.wav
192,192,70221,1,0,0:0:0:0:
320,192,70221,1,0,0:0:0:0:
64,192,70315,1,0,0:0:0:0:
448,192,70315,1,0,0:0:0:0:
64,192,70598,1,0,0:0:0:60:kick.wav
448,192,70598,1,0,0:0:0:0:
320,192,70692,1,0,0:0:0:0:
448,192,70692,1,0,0:0:0:0:
64,192,70787,1,0,0:0:0:0:
192,192,70881,1,0,0:0:0:0:
64,192,70975,1,0,0:0:0:85:snare.wav
320,192,70975,1,0,0:0:0:0:
448,192,70975,1,0,0:0:0:0:
192,192,71069,1,0,0:0:0:0:
320,192,71069,1,0,0:0:0:0:
448,192,71164,1,0,0:0:0:0:
192,192,71258,1,0,0:0:0:0:
64,192,71352,1,0,0:0:0:100:funny_orchestra_hit_(g#).ogg
320,192,71352,1,0,0:0:0:60:kick.wav
448,192,71352,1,0,0:0:0:0:
320,192,71446,1,0,0:0:0:0:
448,192,71446,1,0,0:0:0:0:
64,192,71541,1,0,0:0:0:0:
192,192,71541,1,0,0:0:0:0:
64,192,71729,1,0,0:0:0:85:snare.wav
192,192,71729,1,0,0:0:0:0:
448,192,71729,1,0,0:0:0:0:
64,192,71823,1,0,0:0:0:0:
192,192,71823,1,0,0:0:0:0:
320,192,71918,1,0,0:0:0:0:
448,192,71918,1,0,0:0:0:0:
64,192,72106,1,0,0:0:0:60:kick.wav
320,192,72106,1,0,0:0:0:0:
320,192,72200,1,0,0:0:0:0:
448,192,72200,1,0,0:0:0:0:
64,192,72295,1,0,0:0:0:0:
192,192,72295,1,0,0:0:0:0:
320,192,72389,1,0,0:0:0:0:
64,192,72483,1,0,0:0:0:85:snare.wav
192,192,72483,1,0,0:0:0:0:
448,192,72483,1,0,0:0:0:0:
64,192,72577,1,0,0:0:0:0:
320,192,72577,1,0,0:0:0:0:
320,192,72672,1,0,0:0:0:0:
448,192,72672,1,0,0:0:0:0:
192,192,72766,1,0,0:0:0:0:
64,192,72860,1,0,0:0:0:100:funny_orchestra_hit_(f).ogg
320,192,72860,1,0,0:0:0:60:kick.wav
448,192,72860,1,0,0:0:0:70:cymbal.wav
64,192,72954,1,0,0:0:0:60:kick.wav
192,192,72954,1,0,0:0:0:0:
320,192,73049,1,0,0:0:0:60:kick.wav
448,192,73049,1,0,0:0:0:0:
192,192,73143,1,0,0:0:0:60:kick.wav
64,192,73237,1,0,0:0:0:100:funny_orchestra_hit_(g).ogg
320,192,73237,1,0,0:0:0:60:kick.wav
448,192,73237,1,0,0:0:0:70:cymbal.wav
192,192,73331,1,0,0:0:0:60:kick.wav
320,192,73331,1,0,0:0:0:0:
64,192,73426,1,0,0:0:0:60:kick.wav
448,192,73426,1,0,0:0:0:0:
320,192,73520,1,0,0:0:0:60:kick.wav
64,192,73614,1,0,0:0:0:100:funny_orchestra_hit_(g#).ogg
192,192,73614,1,0,0:0:0:60:kick.wav
448,192,73614,1,0,0:0:0:70:cymbal.wav
320,192,73708,1,0,0:0:0:60:kick.wav
448,192,73708,1,0,0:0:0:0:
64,192,73803,1,0,0:0:0:60:kick.wav
192,192,73803,1,0,0:0:0:0:
320,192,73897,1,0,0:0:0:60:kick.wav
64,192,73991,1,0,0:0:0:100:funny_orchestra_hit_(f#).ogg
192,192,73991,1,0,0:0:0:60:kick.wav
448,192,73991,1,0,0:0:0:70:cymbal.wav
192,192,74085,1,0,0:0:0:60:kick.wav
320,192,74085,1,0,0:0:0:0:
320,192,74180,1,0,0:0:0:60:kick.wav
448,192,74180,1,0,0:0:0:0:
64,192,74274,1,0,0:0:0:60:kick.wav
192,192,74274,1,0,0:0:0:0:
64,192,74368,1,0,0:0:0:100:funny_orchestra_hit_(c).ogg
192,192,74368,1,0,0:0:0:60:kick.wav
320,192,74368,1,0,0:0:0:70:cymbal.wav
448,192,74368,1,0,0:0:0:0:
