osu file format v14

[General]
AudioFilename: audio.mp3
AudioLeadIn: 0
PreviewTime: 126396
Countdown: 0
SampleSet: Normal
StackLeniency: 0.7
Mode: 1
LetterboxInBreaks: 0
WidescreenStoryboard: 0

[Editor]
Bookmarks: 66053,108567,120910,192255,208712,230655,252567
DistanceSpacing: 1
BeatDivisor: 4
GridSize: 4
TimelineZoom: 2.699999

[Metadata]
Title:Purple syndrome
TitleUnicode:Purple syndrome
Artist:cobalt green
ArtistUnicode:cobalt green
Creator:uranosu1030
Version:Hyperdimension
Source:超次元ゲイム ネプテューヌ
Tags:THE ANIMATION Hyperdimension Neptunia Ending ED Choujigen Game Neptune Kosuke Oshima Momoi Haruko East bootleg remix japanese electronic jcore j-core
BeatmapID:3562763
BeatmapSetID:1742799

[Difficulty]
HPDrainRate:5
CircleSize:5
OverallDifficulty:6.5
ApproachRate:5
SliderMultiplier:1.4
SliderTickRate:1

[Events]
//Background and Video events
0,0,"neptune.jpg",0,50
//Break Periods
//Storyboard Layer 0 (Background)
//Storyboard Layer 1 (Fail)
//Storyboard Layer 2 (Pass)
//Storyboard Layer 3 (Foreground)
//Storyboard Layer 4 (Overlay)
//Storyboard Sound Samples

[TimingPoints]
255,342.857142857143,4,1,0,70,1,0
255,-111.111111111111,4,1,0,70,0,0
11226,-100,4,1,0,70,0,0
16690,-100,4,1,0,70,0,0
16862,-99.339283644372,4,1,0,70,0,0
17033,-98.683452961271,4,1,0,70,0,0
17205,-98.039963392312,4,1,0,70,0,0
17290,-97.719498289624,4,1,0,70,0,0
17376,-97.404811517333,4,1,0,70,0,0
17547,-96.774193548387,4,1,0,70,0,0
17740,-96.151688544822,4,1,0,70,0,0
17890,-95.540691192865,4,1,0,70,0,0
17976,-95.239859233191,4,1,0,70,0,0
18062,-94.937409992245,4,1,0,70,0,0
18233,-94.338237992148,4,1,0,70,0,0
18405,-93.75,4,1,0,70,0,0
18490,-93.456924754635,4,1,0,70,0,0
18576,-93.169052364559,4,1,0,70,0,0
18662,-92.879592500271,4,1,0,70,0,0
18747,-92.591925667159,4,1,0,70,0,0
18919,-92.025198654163,4,1,0,70,0,0
19090,-91.462113127001,4,1,0,70,0,0
19262,-90.909090909091,4,1,0,70,0,0
22347,-90.909090909091,4,1,0,70,0,0
22519,-91.547848954267,4,1,0,70,0,0
22690,-92.199462031864,4,1,0,70,0,0
22776,-92.524916943522,4,1,0,70,0,0
22862,-92.856547470201,4,1,0,70,0,0
23033,-93.526991856267,4,1,0,70,0,0
23205,-94.20320493848,4,1,0,70,0,0
23547,-95.589497168354,4,1,0,70,0,0
23890,-97.017200087089,4,1,0,70,0,0
24062,-97.745020619461,4,1,0,70,0,0
24147,-98.115201691034,4,1,0,70,0,0
24233,-98.488197330033,4,1,0,70,0,0
24405,-99.238341276558,4,1,0,70,0,0
24576,-100,4,1,0,70,0,0
38633,-100,4,1,0,70,0,0
38805,-98.68724090281,4,1,0,70,0,0
38997,-97.401121382028,4,1,0,70,0,0
39147,-96.155284613658,4,1,0,70,0,0
39233,-95.540691192865,4,1,0,70,0,0
39340,-94.933904438372,4,1,0,70,0,0
39490,-93.75,4,1,0,70,0,0
39683,-92.588591184097,4,1,0,70,0,0
39833,-91.462113127001,4,1,0,70,0,0
40026,-90.356364658747,4,1,0,70,0,0
40197,-89.28323378247,4,1,0,70,0,0
40347,-88.235294117647,4,1,0,70,0,0
40540,-87.205752662642,4,1,0,70,0,0
40626,-86.699939299926,4,1,0,70,0,0
40690,-86.205740343348,4,1,0,70,0,0
40883,-85.222752585521,4,1,0,70,0,0
41033,-84.267453294002,4,1,0,70,0,0
41205,-83.333333333333,4,1,0,70,0,0
44462,-90.909090909091,4,1,0,70,0,0
44719,-91.953509164059,4,1,0,70,0,0
44805,-92.308382696105,4,1,0,70,0,0
44976,-93.022204133315,4,1,0,70,0,0
45147,-93.75142427419,4,1,0,70,0,0
45490,-95.24030002778,4,1,0,70,0,0
45662,-96.000373360713,4,1,0,70,0,0
45833,-96.777228887321,4,1,0,70,0,0
46005,-97.56213242269,4,1,0,70,0,0
46176,-98.359871850045,4,1,0,70,0,0
46262,-98.766024871561,4,1,0,70,0,0
46347,-99.17554601996,4,1,0,70,0,0
46519,-100,4,1,0,70,0,0
60576,-100,4,1,0,70,0,0
60747,-98.680171884592,4,1,0,70,0,0
60919,-97.402105582065,4,1,0,70,0,0
61090,-96.14953271028,4,1,0,70,0,0
61176,-95.54234769688,4,1,0,70,0,0
61262,-94.935774398346,4,1,0,70,0,0
61433,-93.745443942266,4,1,0,70,0,0
61605,-92.591259269926,4,1,0,70,0,0
61776,-91.465149359886,4,1,0,70,0,0
61862,-90.909090909091,4,1,0,70,0,0
61947,-90.359752670039,4,1,0,70,0,0
62119,-89.286954106783,4,1,0,70,0,0
62290,-88.233276157804,4,1,0,70,0,0
62462,-87.210090872101,4,1,0,70,0,0
62547,-86.704422869471,4,1,0,70,0,0
62633,-86.204585065022,4,1,0,70,0,0
62805,-85.227649280933,4,1,0,70,0,0
62976,-84.272608125819,4,1,0,70,0,0
63147,-83.333333333333,4,1,0,70,0,0
66062,-83.333333333333,4,1,0,70,0,0
66233,-83.771072562912,4,1,0,70,0,0
66405,-84.21084947656,4,1,0,70,0,0
66576,-84.655268193321,4,1,0,70,0,0
66919,-85.560996911944,4,1,0,70,0,0
67090,-86.022517013203,4,1,0,70,0,0
67433,-86.957900076084,4,1,0,70,0,0
67776,-87.911031344145,4,1,0,70,0,0
67947,-88.398324202385,4,1,0,70,0,0
68462,-89.887272250623,4,1,0,70,0,0
68805,-90.909090909091,4,1,0,70,0,0
69147,-91.954408313778,4,1,0,70,0,0
69319,-92.484574665363,4,1,0,70,0,0
69833,-94.118858083997,4,1,0,70,0,0
70176,-95.236441913756,4,1,0,70,0,0
70519,-96.384272110756,4,1,0,70,0,0
70690,-96.970339732032,4,1,0,70,0,0
71205,-98.764987577863,4,1,0,70,0,0
71376,-99.376856749511,4,1,0,70,0,0
71547,-100,4,1,0,70,0,0
71890,-101.266290102263,4,1,0,70,0,0
72062,-101.909644820924,4,1,0,70,0,0
72576,-103.893644420877,4,1,0,70,0,0
72919,-105.261138186423,4,1,0,70,0,0
73090,-105.960520724688,4,1,0,70,0,0
73262,-106.665111214808,4,1,0,70,0,0
73433,-107.383338553085,4,1,0,70,0,0
73947,-109.588493807431,4,1,0,70,0,0
74290,-111.111111111111,4,1,0,70,0,0
74633,-112.67663489977,4,1,0,70,0,0
74805,-113.47371033798,4,1,0,70,0,0
75147,-115.107007973143,4,1,0,70,0,0
75319,-115.938966143962,4,1,0,70,0,0
75662,-117.644535940985,4,1,0,70,0,0
76005,-119.401035998781,4,1,0,70,0,0
76176,-120.296465222349,4,1,0,70,0,0
76690,-123.076232781442,4,1,0,70,0,0
77033,-125,4,1,0,70,0,0
98976,-125,4,1,0,70,0,0
99319,-123.076232781442,4,1,0,70,0,0
99490,-122.133665790997,4,1,0,70,0,0
99833,-120.296465222349,4,1,0,70,0,0
100005,-119.401035998781,4,1,0,70,0,0
100347,-117.644535940985,4,1,0,70,0,0
100519,-116.788010388726,4,1,0,70,0,0
100690,-115.938966143962,4,1,0,70,0,0
100862,-115.107007973143,4,1,0,70,0,0
101205,-113.47371033798,4,1,0,70,0,0
101376,-112.67663489977,4,1,0,70,0,0
101547,-111.88611519008,4,1,0,70,0,0
101719,-111.111111111111,4,1,0,70,0,0
102062,-109.588493807431,4,1,0,70,0,0
102233,-108.840568208872,4,1,0,70,0,0
102597,-107.379134860051,4,1,0,70,0,0
102747,-106.665111214808,4,1,0,70,0,0
103090,-105.261138186423,4,1,0,70,0,0
103262,-104.574914220358,4,1,0,70,0,0
103433,-103.893644420877,4,1,0,70,0,0
103605,-103.22507808678,4,1,0,70,0,0
103947,-101.909644820924,4,1,0,70,0,0
104119,-101.266290102263,4,1,0,70,0,0
104290,-100.627315748927,4,1,0,70,0,0
104462,-100,4,1,0,70,0,0
109969,-111.111111111111,4,1,0,70,0,0
120919,-111.111111111111,4,1,0,70,0,0
121090,-110.342330745404,4,1,0,70,0,0
121262,-109.588493807431,4,1,0,70,0,0
121605,-108.107042919639,4,1,0,70,0,0
121776,-107.383338553085,4,1,0,70,0,0
121947,-106.665111214808,4,1,0,70,0,0
122290,-105.261138186423,4,1,0,70,0,0
122462,-104.574914220358,4,1,0,70,0,0
122633,-103.893644420877,4,1,0,70,0,0
122805,-103.22507808678,4,1,0,70,0,0
122976,-102.565061322166,4,1,0,70,0,0
123319,-101.266290102263,4,1,0,70,0,0
123662,-100,4,1,0,70,0,0
123833,-99.376856749511,4,1,0,70,0,0
124005,-98.764987577863,4,1,0,70,0,0
124347,-97.560108123488,4,1,0,70,0,0
124519,-96.970339732032,4,1,0,70,0,0
124690,-96.384272110756,4,1,0,70,0,0
125033,-95.236441913756,4,1,0,70,0,0
125205,-94.674351982881,4,1,0,70,0,0
125397,-94.115628752788,4,1,0,70,0,0
125547,-93.56665302224,4,1,0,70,0,0
125719,-93.024044494184,4,1,0,70,0,0
126062,-91.954408313778,4,1,0,70,0,0
126233,-91.427238184121,4,1,0,70,0,0
126405,-90.909090909091,4,1,0,70,0,0
126597,-90.393804580656,4,1,0,70,0,0
126662,-90.141307919816,4,1,0,70,0,0
126747,-89.887272250623,4,1,0,70,0,0
126940,-89.383472367049,4,1,0,70,0,0
127090,-88.88816876762,4,1,0,70,0,0
127176,-88.644002068252,4,1,0,70,0,0
127262,-88.398324202385,4,1,0,70,0,0
127433,-87.911031344145,4,1,0,70,0,0
127605,-87.431868166895,4,1,0,70,0,0
127797,-86.955143445871,4,1,0,70,0,0
127862,-86.721466961745,4,1,0,70,0,0
127947,-86.486316054988,4,1,0,70,0,0
128033,-86.252436953651,4,1,0,70,0,0
128140,-86.019819367787,4,1,0,70,0,0
128205,-85.791136271229,4,1,0,70,0,0
128290,-85.560996911944,4,1,0,70,0,0
128376,-85.334743653559,4,1,0,70,0,0
128462,-85.107043127521,4,1,0,70,0,0
128547,-84.880554524075,4,1,0,70,0,0
128633,-84.655268193321,4,1,0,70,0,0
128719,-84.433773509404,4,1,0,70,0,0
128805,-84.21084947656,4,1,0,70,0,0
128890,-83.989099482532,4,1,0,70,0,0
128976,-83.771072562912,4,1,0,70,0,0
129062,-83.551629607067,4,1,0,70,0,0
129147,-83.333333333333,4,1,0,70,0,0
129512,-111.111111111111,4,1,0,70,0,0
129855,-111.021093022828,4,1,0,70,0,0
130197,-110.398134348742,4,1,0,70,0,0
130369,-109.723448644589,4,1,0,70,0,0
130540,-108.737547879577,4,1,0,70,0,0
130712,-107.382731604044,4,1,0,70,0,0
130883,-105.64111200766,4,1,0,70,0,0
131226,-100.902294088184,4,1,0,70,0,0
131483,-96.295848211802,4,1,0,70,0,0
131569,-94.57215524564,4,1,0,70,0,0
131655,-92.766813808278,4,1,0,70,0,0
131740,-90.909090909091,4,1,0,70,0,0
131912,-86.95652173913,4,1,0,80,0,1
152805,-90.909090909091,4,1,0,70,0,1
152976,-89.556135770235,4,1,0,70,0,1
153062,-88.890808569454,4,1,0,70,0,1
153147,-88.242860818112,4,1,0,70,0,1
153233,-87.596833234017,4,1,0,70,0,1
153319,-86.960196061861,4,1,0,70,0,1
153405,-86.332746035741,4,1,0,70,0,1
153490,-85.72142619127,4,1,0,70,0,1
153662,-84.510512483574,4,1,0,70,0,1
153833,-83.333333333333,4,1,0,70,0,1
175776,-83.333333333333,4,1,0,70,0,1
175797,-83.333333333333,4,1,0,70,0,0
176119,-84.656574541302,4,1,0,70,0,0
176462,-86.022517013203,4,1,0,70,0,0
176633,-86.724208795725,4,1,0,70,0,0
176805,-87.433261614471,4,1,0,70,0,0
177147,-88.891049322704,4,1,0,70,0,0
177490,-90.398273106267,4,1,0,70,0,0
177662,-91.168943397481,4,1,0,70,0,0
177833,-91.957491032217,4,1,0,70,0,0
178005,-92.75509341449,4,1,0,70,0,0
178176,-93.56665302224,4,1,0,70,0,0
178519,-95.238095238095,4,1,0,70,0,0
178862,-96.970339732032,4,1,0,70,0,0
179205,-98.76676568548,4,1,0,70,0,0
179376,-99.687454571885,4,1,0,70,0,0
179547,-100.631007410668,4,1,0,70,0,0
179890,-102.566978892067,4,1,0,70,0,0
180062,-103.560237097444,4,1,0,70,0,0
180233,-104.578901216211,4,1,0,70,0,0
180405,-105.61170468765,4,1,0,70,0,0
180597,-106.671333294445,4,1,0,70,0,0
180747,-107.746091601854,4,1,0,70,0,0
180919,-108.84272761542,4,1,0,70,0,0
181262,-111.111111111111,4,1,0,70,0,0
186747,-111.111111111111,4,1,0,70,0,0
187090,-110.293802273215,4,1,0,70,0,0
187262,-109.89081429884,4,1,0,70,0,0
187433,-109.488429523343,4,1,0,70,0,0
187776,-108.697030539998,4,1,0,70,0,0
188119,-107.914725754333,4,1,0,70,0,0
188462,-107.143601174976,4,1,0,70,0,0
188633,-106.761048720237,4,1,0,70,0,0
188805,-106.383418831706,4,1,0,70,0,0
189147,-105.633947460308,4,1,0,70,0,0
189490,-104.894962267999,4,1,0,70,0,0
189833,-104.166244708646,4,1,0,70,0,0
190005,-103.806717261424,4,1,0,70,0,0
190176,-103.449663079553,4,1,0,70,0,0
190519,-102.740820648048,4,1,0,70,0,0
190862,-102.041626158211,4,1,0,70,0,0
191205,-101.351883966577,4,1,0,70,0,0
191376,-101.011489737798,4,1,0,70,0,0
191547,-100.671403683912,4,1,0,70,0,0
191719,-100.33555737641,4,1,0,70,0,0
191890,-100,4,1,0,70,0,0
192233,-100,4,1,0,70,0,0
192405,-98.68724090281,4,1,0,70,0,0
192597,-97.401121382028,4,1,0,70,0,0
192747,-96.155284613658,4,1,0,70,0,0
192833,-95.540691192865,4,1,0,70,0,0
192919,-94.940915805022,4,1,0,70,0,0
193090,-93.75,4,1,0,70,0,0
193283,-92.588591184097,4,1,0,70,0,0
193433,-91.462113127001,4,1,0,70,0,0
193519,-90.912305516266,4,1,0,70,0,0
193605,-90.362716153522,4,1,0,70,0,0
193797,-89.28323378247,4,1,0,70,0,0
193947,-88.235294117647,4,1,0,70,0,0
194033,-87.717502558854,4,1,0,70,0,0
194119,-87.211668928087,4,1,0,70,0,0
194205,-86.705787130716,4,1,0,70,0,0
194290,-86.205740343348,4,1,0,70,0,0
194462,-85.228402837632,4,1,0,70,0,0
194633,-84.267453294002,4,1,0,70,0,0
194805,-83.333333333333,4,1,0,70,0,0
197719,-83.333333333333,4,1,0,70,0,0
198062,-84.21084947656,4,1,0,70,0,0
198319,-84.880554524075,4,1,0,70,0,0
198405,-85.107043127521,4,1,0,70,0,0
198576,-85.560996911944,4,1,0,70,0,0
198747,-86.022517013203,4,1,0,70,0,0
199090,-86.957900076084,4,1,0,70,0,0
199262,-87.431868166895,4,1,0,70,0,0
199433,-87.913848915099,4,1,0,70,0,0
199605,-88.398324202385,4,1,0,70,0,0
199776,-88.88816876762,4,1,0,70,0,0
199862,-89.136580768856,4,1,0,70,0,0
199947,-89.386385114218,4,1,0,70,0,0
200119,-89.887272250623,4,1,0,70,0,0
200462,-90.909090909091,4,1,0,70,0,0
200805,-91.954408313778,4,1,0,70,0,0
200976,-92.484574665363,4,1,0,70,0,0
201147,-93.024044494184,4,1,0,70,0,0
201233,-93.296146389579,4,1,0,70,0,0
201319,-93.56665302224,4,1,0,70,0,0
201490,-94.118858083997,4,1,0,70,0,0
201833,-95.23974861984,4,1,0,70,0,0
202176,-96.384272110756,4,1,0,70,0,0
202347,-96.970339732032,4,1,0,70,0,0
202519,-97.560108123488,4,1,0,70,0,0
202690,-98.160606928142,4,1,0,70,0,0
202862,-98.764987577863,4,1,0,70,0,0
203205,-100,4,1,0,70,0,0
214176,-100,4,1,0,70,0,0
214347,-98.680171884592,4,1,0,70,0,0
214519,-97.402105582065,4,1,0,70,0,0
214690,-96.14953271028,4,1,0,70,0,0
214776,-95.54234769688,4,1,0,70,0,0
214862,-94.935774398346,4,1,0,70,0,0
215033,-93.745443942266,4,1,0,70,0,0
215205,-92.591259269926,4,1,0,70,0,0
215376,-91.465149359886,4,1,0,70,0,0
215462,-90.909090909091,4,1,0,70,0,0
215547,-90.359752670039,4,1,0,70,0,0
215719,-89.286954106783,4,1,0,70,0,0
215890,-88.233276157804,4,1,0,70,0,0
216062,-87.210090872101,4,1,0,70,0,0
216147,-86.704422869471,4,1,0,70,0,0
216233,-86.204585065022,4,1,0,70,0,0
216405,-85.227649280933,4,1,0,70,0,0
216576,-84.272608125819,4,1,0,70,0,0
216747,-83.333333333333,4,1,0,70,0,0
219662,-83.333333333333,4,1,0,70,0,0
220005,-83.769793400418,4,1,0,70,0,0
220176,-83.989099482532,4,1,0,70,0,0
220519,-84.432474028472,4,1,0,70,0,0
220690,-84.656574541302,4,1,0,70,0,0
221033,-85.107043127521,4,1,0,70,0,0
221376,-85.560996911944,4,1,0,70,0,0
221547,-85.791136271229,4,1,0,70,0,0
221740,-86.252436953651,4,1,0,70,0,0
222062,-86.486316054988,4,1,0,70,0,0
222233,-86.720096109767,4,1,0,70,0,0
222405,-86.95652173913,4,1,0,70,0,0
222747,-87.431868166895,4,1,0,70,0,0
223112,-88.154004370742,4,1,0,70,0,0
223433,-88.398324202385,4,1,0,70,0,0
223626,-88.88816876762,4,1,0,70,0,0
223797,-89.135132500366,4,1,0,70,0,0
224119,-89.384928716904,4,1,0,70,0,0
224290,-89.636128947927,4,1,0,70,0,0
224462,-89.887272250623,4,1,0,70,0,0
224805,-90.395294040106,4,1,0,70,0,0
225147,-90.909090909091,4,1,0,70,0,0
225319,-91.167428334026,4,1,0,70,0,0
225490,-91.428761895239,4,1,0,70,0,0
225662,-91.69006551678,4,1,0,70,0,0
226005,-92.217179357875,4,1,0,70,0,0
226176,-92.484574665363,4,1,0,70,0,0
226519,-93.022467147096,4,1,0,70,0,0
226690,-93.294559801371,4,1,0,70,0,0
226862,-93.56665302224,4,1,0,70,0,0
227033,-93.841943209032,4,1,0,70,0,0
227226,-94.394163598197,4,1,0,70,0,0
227547,-94.674351982881,4,1,0,70,0,0
227719,-94.954565123323,4,1,0,70,0,0
227890,-95.238095238095,4,1,0,70,0,0
228233,-95.80859238561,4,1,0,70,0,0
228405,-96.095570074795,4,1,0,70,0,0
228576,-96.384272110756,4,1,0,70,0,0
228919,-96.968625718073,4,1,0,70,0,0
229090,-97.26432991153,4,1,0,70,0,0
229262,-97.560108123488,4,1,0,70,0,0
229605,-98.158850578826,4,1,0,70,0,0
229776,-98.460102659823,4,1,0,70,0,0
229947,-98.763209534268,4,1,0,70,0,0
230312,-99.069977426637,4,1,0,70,0,0
230483,-99.378656957049,4,1,0,70,0,0
230633,-99.998177211498,4,1,0,70,0,0
244540,-99.998177211498,4,1,0,60,0,0
247026,-99.998177211498,4,1,0,70,0,0
249940,-99.998177211498,4,1,0,60,0,0
251183,-99.998177211498,4,1,0,70,0,0
255319,-100,4,1,0,70,0,0
255490,-99.135113390657,4,1,0,70,0,0
255662,-98.289959118556,4,1,0,70,0,0
256005,-96.637419734327,4,1,0,70,0,0
256176,-95.834143496014,4,1,0,70,0,0
256347,-95.039529502507,4,1,0,70,0,0
256690,-93.493621662636,4,1,0,70,0,0
256862,-92.741556120049,4,1,0,70,0,0
257033,-91.997200186654,4,1,0,70,0,0
257205,-91.268922735059,4,1,0,70,0,0
257376,-90.552085247106,4,1,0,70,0,0
257719,-89.147637350215,4,1,0,70,0,0
257890,-88.459640148966,4,1,0,70,0,0
258062,-87.786089589456,4,1,0,70,0,0
258233,-87.118868758285,4,1,0,70,0,0
258319,-86.7928681488,4,1,0,70,0,0
258405,-86.465505898864,4,1,0,70,0,0
258597,-85.818134331607,4,1,0,70,0,0
258747,-85.184064984445,4,1,0,70,0,0
258833,-84.872357828576,4,1,0,70,0,0
258919,-84.559296590178,4,1,0,70,0,0
259005,-84.248536387334,4,1,0,70,0,0
259090,-83.940051943628,4,1,0,70,0,0
259262,-83.333333333333,4,1,0,70,0,0
261169,-111.111111111111,4,1,0,70,0,0
261512,-111.021093022828,4,1,0,70,0,0
261854,-110.398134348742,4,1,0,70,0,0
262026,-109.723448644589,4,1,0,70,0,0
262197,-108.737547879577,4,1,0,70,0,0
262369,-107.382731604044,4,1,0,70,0,0
262540,-105.64111200766,4,1,0,70,0,0
262883,-100.902294088184,4,1,0,70,0,0
263140,-96.295848211802,4,1,0,70,0,0
263226,-94.57215524564,4,1,0,70,0,0
263312,-92.766813808278,4,1,0,70,0,0
263397,-90.909090909091,4,1,0,70,0,0
263569,-86.95652173913,4,1,0,80,0,1
284462,-90.909090909091,4,1,0,70,0,1
284633,-89.556135770235,4,1,0,70,0,1
284719,-88.890808569454,4,1,0,70,0,1
284805,-88.242860818112,4,1,0,70,0,1
284890,-87.596833234017,4,1,0,70,0,1
284976,-86.960196061861,4,1,0,70,0,1
285062,-86.332746035741,4,1,0,70,0,1
285147,-85.72142619127,4,1,0,70,0,1
285319,-84.510512483574,4,1,0,70,0,1
285490,-83.333333333333,4,1,0,70,0,1
307455,-83.333333333333,4,1,0,70,0,0
307605,-83.659323313431,4,1,0,70,0,0
307947,-84.320959188379,4,1,0,70,0,0
308119,-84.65473737818,4,1,0,70,0,0
308462,-85.332275527347,4,1,0,70,0,0
308633,-85.676131571549,4,1,0,70,0,0
308805,-86.020746595159,4,1,0,70,0,0
308976,-86.368145104152,4,1,0,70,0,0
309147,-86.720417358312,4,1,0,70,0,0
309490,-87.431563344251,4,1,0,70,0,0
309662,-87.790474361437,4,1,0,70,0,0
309833,-88.154469192942,4,1,0,70,0,0
310005,-88.519352262,4,1,0,70,0,0
310176,-88.88726848476,4,1,0,70,0,0
310347,-89.260434464242,4,1,0,70,0,0
310519,-89.634549866418,4,1,0,70,0,0
310862,-90.394502669567,4,1,0,70,0,0
311033,-90.780458742925,4,1,0,70,0,0
311205,-91.167451948246,4,1,0,70,0,0
311376,-91.557758750188,4,1,0,70,0,0
311547,-91.953733970329,4,1,0,70,0,0
311719,-92.350816939822,4,1,0,70,0,0
311890,-92.753696705303,4,1,0,70,0,0
312233,-93.567700337734,4,1,0,70,0,0
312405,-93.978875954051,4,1,0,70,0,0
312597,-94.396117808007,4,1,0,70,0,0
312747,-94.814622763806,4,1,0,70,0,0
312919,-95.236855126436,4,1,0,70,0,0
313090,-95.665367410469,4,1,0,70,0,0
313262,-96.095228084927,4,1,0,70,0,0
313605,-96.969214859597,4,1,0,70,0,0
313797,-97.41349457926,4,1,0,70,0,0
313947,-97.859245383998,4,1,0,70,0,0
314119,-98.309094330493,4,1,0,70,0,0
314290,-98.765765522457,4,1,0,70,0,0
314462,-99.224006945952,4,1,0,70,0,0
314633,-99.689237814851,4,1,0,70,0,0
314976,-100.627373287106,4,1,0,70,0,0
315147,-101.10309363855,4,1,0,70,0,0
315319,-101.586155170977,4,1,0,70,0,0
315490,-102.07100591716,4,1,0,70,0,0
315662,-102.560507053314,4,1,0,70,0,0
315833,-103.0576299845,4,1,0,70,0,0
316005,-103.556663079798,4,1,0,70,0,0
316347,-104.572359955392,4,1,0,70,0,0
316519,-105.089226701917,4,1,0,70,0,0
316690,-105.608178352778,4,1,0,70,0,0
316862,-106.132280813768,4,1,0,70,0,0
317033,-106.664722181712,4,1,0,70,0,0
317205,-107.199390279651,4,1,0,70,0,0
317376,-107.742619763125,4,1,0,70,0,0
317719,-108.842525075151,4,1,0,70,0,0
317890,-109.399305971042,4,1,0,70,0,0
318062,-109.965119076257,4,1,0,70,0,0
318405,-111.111111111111,4,1,0,70,0,0

[HitObjects]
274,167,255,5,4,0:0:0:0:
227,209,769,1,0,0:0:0:0:
227,209,940,1,2,0:0:0:0:
218,196,1626,1,0,0:0:0:0:
218,196,1969,1,0,0:0:0:0:
208,168,2140,1,0,0:0:0:0:
218,196,2312,1,2,0:0:0:0:
218,196,2997,1,0,0:0:0:0:
218,196,3512,1,0,0:0:0:0:
218,196,3683,1,2,0:0:0:0:
236,144,4369,1,0,0:0:0:0:
248,128,4712,1,0,0:0:0:0:
219,148,4883,1,0,0:0:0:0:
219,148,5055,1,2,0:0:0:0:
148,116,5397,1,0,0:0:0:0:
219,148,5740,1,0,0:0:0:0:
77,192,6255,1,0,0:0:0:0:
219,148,6426,1,2,0:0:0:0:
219,148,7112,1,0,0:0:0:0:
247,117,7455,1,0,0:0:0:0:
219,148,7626,1,0,0:0:0:0:
219,148,7797,1,2,0:0:0:0:
219,148,8483,1,0,0:0:0:0:
253,149,8997,1,0,0:0:0:0:
219,148,9169,1,2,0:0:0:0:
212,102,9512,1,0,0:0:0:0:
200,163,9855,1,0,0:0:0:0:
256,192,10026,12,0,11055,0:0:0:0:
259,235,11226,5,8,0:0:0:0:
265,162,11569,1,2,0:0:0:0:
139,84,11740,1,2,0:0:0:0:
178,115,11912,1,0,0:0:0:0:
249,148,12083,1,0,0:0:0:0:
249,148,12255,1,2,0:0:0:0:
204,62,12597,1,8,0:0:0:0:
139,84,12769,1,2,0:0:0:0:
251,107,12940,1,0,0:0:0:0:
166,124,13112,1,0,0:0:0:0:
169,107,13283,1,8,0:0:0:0:
198,117,13455,1,0,0:0:0:0:
206,102,13626,1,2,0:0:0:0:
259,235,13969,1,2,0:0:0:0:
265,162,14312,1,2,0:0:0:0:
131,64,14483,1,0,0:0:0:0:
156,131,14655,1,8,0:0:0:0:
249,148,14826,1,0,0:0:0:0:
249,148,14998,1,2,0:0:0:0:
182,117,15340,1,8,0:0:0:0:
131,64,15512,1,0,0:0:0:0:
251,107,15683,1,2,0:0:0:0:
169,107,15855,1,0,0:0:0:0:
156,138,16026,1,8,0:0:0:0:
156,138,16197,1,0,0:0:0:0:
153,147,16369,1,8,0:0:0:0:
139,151,16540,1,2,0:0:0:0:
259,235,16712,1,4,0:0:0:0:
265,162,16883,1,0,0:0:0:0:
265,162,17055,1,2,0:0:0:0:
171,79,17226,1,0,0:0:0:0:
171,79,17312,1,0,0:0:0:0:
218,174,17397,1,2,0:0:0:0:
249,148,17569,1,0,0:0:0:0:
249,148,17741,1,2,0:0:0:0:
185,81,17912,1,2,0:0:0:0:
179,82,17997,1,2,0:0:0:0:
239,158,18083,1,0,0:0:0:0:
251,107,18255,1,0,0:0:0:0:
251,107,18426,1,2,0:0:0:0:
224,167,18512,1,2,0:0:0:0:
230,143,18597,1,0,0:0:0:0:
251,107,18683,1,0,0:0:0:0:
186,106,18769,1,2,0:0:0:0:
186,106,18940,1,0,0:0:0:0:
186,106,19112,1,2,0:0:0:0:
215,67,19283,1,2,0:0:0:0:
246,141,19455,1,0,0:0:0:0:
246,141,19540,1,0,0:0:0:0:
246,141,19626,1,2,0:0:0:0:
221,95,19712,1,0,0:0:0:0:
247,79,19797,1,2,0:0:0:0:
242,82,19883,1,2,0:0:0:0:
242,82,19969,1,0,0:0:0:0:
216,80,20055,1,2,0:0:0:0:
216,80,20140,1,0,0:0:0:0:
216,80,20226,1,0,0:0:0:0:
216,80,20312,1,0,0:0:0:0:
216,80,20397,1,0,0:0:0:0:
216,80,20483,1,2,0:0:0:0:
216,80,20569,1,2,0:0:0:0:
216,80,20655,1,0,0:0:0:0:
225,46,20740,1,2,0:0:0:0:
183,82,20826,1,0,0:0:0:0:
149,112,20883,1,0,0:0:0:0:
159,117,20940,1,0,0:0:0:0:
159,117,20997,1,2,0:0:0:0:
91,118,21083,1,0,0:0:0:0:
169,81,21169,1,2,0:0:0:0:
169,81,21255,1,2,0:0:0:0:
190,54,21340,1,0,0:0:0:0:
190,54,21397,1,2,0:0:0:0:
198,52,21455,1,2,0:0:0:0:
199,51,21512,1,0,0:0:0:0:
196,92,21597,1,0,0:0:0:0:
155,66,21683,1,2,0:0:0:0:
149,112,21769,1,0,0:0:0:0:
162,77,21855,1,2,0:0:0:0:
318,140,21912,1,2,0:0:0:0:
318,140,21969,1,2,0:0:0:0:
318,140,22026,1,2,0:0:0:0:
318,140,22083,1,2,0:0:0:0:
318,140,22140,1,2,0:0:0:0:
318,140,22197,1,0,0:0:0:0:
226,189,22369,1,2,0:0:0:0:
300,156,22540,1,0,0:0:0:0:
195,94,22712,1,2,0:0:0:0:
195,94,22797,1,2,0:0:0:0:
195,94,22883,1,0,0:0:0:0:
195,94,23055,1,2,0:0:0:0:
195,94,23226,1,0,0:0:0:0:
234,145,23569,1,0,0:0:0:0:
191,177,23912,1,0,0:0:0:0:
190,191,24083,1,2,0:0:0:0:
190,191,24169,1,2,0:0:0:0:
190,191,24255,1,0,0:0:0:0:
190,191,24426,1,2,0:0:0:0:
190,191,24597,1,0,0:0:0:0:
231,138,24940,1,0,0:0:0:0:
231,138,25112,1,2,0:0:0:0:
231,138,25283,1,0,0:0:0:0:
161,163,25455,1,2,0:0:0:0:
153,168,25540,1,2,0:0:0:0:
150,170,25626,1,0,0:0:0:0:
153,169,25797,1,2,0:0:0:0:
156,168,25969,1,0,0:0:0:0:
201,118,26312,1,0,0:0:0:0:
183,147,26655,1,0,0:0:0:0:
146,110,26826,1,8,0:0:0:0:
150,116,26997,1,0,0:0:0:0:
151,122,27083,1,0,0:0:0:0:
151,122,27169,1,8,0:0:0:0:
151,129,27340,1,0,0:0:0:0:
203,112,27512,1,2,0:0:0:0:
203,112,27597,1,2,0:0:0:0:
224,118,27683,1,0,0:0:0:0:
247,222,28026,5,2,0:0:0:0:
237,77,28197,1,0,0:0:0:0:
237,77,28283,1,0,0:0:0:0:
237,77,28369,1,0,0:0:0:0:
237,77,28540,1,0,0:0:0:0:
247,222,28712,1,2,0:0:0:0:
166,119,29055,1,0,0:0:0:0:
166,119,29226,1,0,0:0:0:0:
247,222,29397,1,2,0:0:0:0:
187,86,29569,1,2,0:0:0:0:
187,86,29655,1,2,0:0:0:0:
187,86,29740,1,0,0:0:0:0:
178,102,29912,1,0,0:0:0:0:
247,222,30083,1,2,0:0:0:0:
81,165,30426,1,0,0:0:0:0:
247,222,30769,1,2,0:0:0:0:
190,45,30940,1,0,0:0:0:0:
190,45,31026,1,0,0:0:0:0:
174,121,31112,1,0,0:0:0:0:
174,121,31283,1,0,0:0:0:0:
247,222,31455,1,2,0:0:0:0:
152,196,31797,1,2,0:0:0:0:
152,196,31883,1,2,0:0:0:0:
152,196,31969,1,0,0:0:0:0:
152,196,32055,1,0,0:0:0:0:
301,214,32140,1,2,0:0:0:0:
160,143,32226,1,0,0:0:0:0:
160,143,32312,1,2,0:0:0:0:
160,143,32397,1,2,0:0:0:0:
160,143,32483,1,0,0:0:0:0:
160,143,32569,1,0,0:0:0:0:
160,143,32655,1,2,0:0:0:0:
160,143,32740,1,0,0:0:0:0:
301,214,32826,1,2,0:0:0:0:
171,138,32912,1,2,0:0:0:0:
171,138,32997,1,2,0:0:0:0:
171,138,33083,1,2,0:0:0:0:
318,140,33169,1,0,0:0:0:0:
173,40,33340,1,0,0:0:0:0:
300,156,33512,1,2,0:0:0:0:
195,94,33684,1,0,0:0:0:0:
195,94,33769,1,0,0:0:0:0:
195,94,33855,1,2,0:0:0:0:
195,94,34027,1,0,0:0:0:0:
195,94,34198,1,2,0:0:0:0:
197,78,34369,1,8,0:0:0:0:
234,145,34541,1,0,0:0:0:0:
190,122,34712,1,0,0:0:0:0:
191,177,34884,1,2,0:0:0:0:
190,191,35055,1,0,0:0:0:0:
190,191,35141,1,2,0:0:0:0:
190,191,35227,1,0,0:0:0:0:
185,91,35397,1,0,0:0:0:0:
197,78,35569,1,8,0:0:0:0:
231,138,35912,1,0,0:0:0:0:
231,138,36083,1,0,0:0:0:0:
231,138,36255,1,2,0:0:0:0:
161,163,36426,1,0,0:0:0:0:
153,168,36512,1,0,0:0:0:0:
150,170,36598,1,2,0:0:0:0:
153,169,36769,1,0,0:0:0:0:
156,168,36940,1,2,0:0:0:0:
260,122,37112,1,2,0:0:0:0:
201,118,37284,1,0,0:0:0:0:
216,129,37455,1,0,0:0:0:0:
216,129,37627,1,2,0:0:0:0:
191,91,37798,1,0,0:0:0:0:
191,91,37884,1,0,0:0:0:0:
191,91,37969,1,2,0:0:0:0:
191,91,38055,1,2,0:0:0:0:
191,91,38141,1,0,0:0:0:0:
212,116,38312,1,2,0:0:0:0:
224,118,38655,1,4,0:0:0:0:
102,148,38826,1,0,0:0:0:0:
247,222,38998,5,2,0:0:0:0:
237,77,39169,1,0,0:0:0:0:
237,77,39255,1,0,0:0:0:0:
237,77,39341,1,0,0:0:0:0:
237,77,39512,1,0,0:0:0:0:
247,222,39684,1,2,0:0:0:0:
185,91,39855,1,8,0:0:0:0:
166,119,40027,1,4,0:0:0:0:
166,119,40198,1,0,0:0:0:0:
247,222,40369,1,2,0:0:0:0:
187,86,40541,1,2,0:0:0:0:
187,86,40627,1,2,0:0:0:0:
187,86,40712,1,0,0:0:0:0:
178,102,40884,1,0,0:0:0:0:
247,222,41055,1,2,0:0:0:0:
159,136,41226,1,2,0:0:0:0:
81,165,41398,1,0,0:0:0:0:
69,117,41483,1,0,0:0:0:0:
101,92,41569,1,2,0:0:0:0:
119,104,41655,1,0,0:0:0:0:
247,222,41741,1,2,0:0:0:0:
169,64,41826,1,0,0:0:0:0:
174,121,41912,1,2,0:0:0:0:
174,121,41998,1,2,0:0:0:0:
174,121,42084,1,0,0:0:0:0:
192,62,42169,1,0,0:0:0:0:
174,121,42255,1,2,0:0:0:0:
156,107,42340,1,0,0:0:0:0:
247,222,42427,1,2,0:0:0:0:
156,107,42512,1,2,0:0:0:0:
188,123,42598,1,0,0:0:0:0:
125,132,42683,1,2,0:0:0:0:
291,133,42769,1,0,0:0:0:0:
291,133,42826,1,0,0:0:0:0:
291,133,42883,1,0,0:0:0:0:
291,133,42940,1,2,0:0:0:0:
216,58,43026,1,0,0:0:0:0:
291,133,43112,1,2,0:0:0:0:
291,133,43169,1,2,0:0:0:0:
291,133,43226,1,2,0:0:0:0:
291,133,43283,1,0,0:0:0:0:
231,64,43369,1,2,0:0:0:0:
226,139,43455,1,0,0:0:0:0:
226,139,43513,1,0,0:0:0:0:
226,139,43570,1,0,0:0:0:0:
226,139,43627,1,2,0:0:0:0:
172,67,43684,1,2,0:0:0:0:
186,66,43741,1,2,0:0:0:0:
186,66,43798,1,0,0:0:0:0:
135,132,43883,1,0,0:0:0:0:
202,102,43969,1,2,0:0:0:0:
209,113,44026,1,2,0:0:0:0:
209,113,44083,1,2,0:0:0:0:
209,113,44140,1,0,0:0:0:0:
294,199,44483,1,2,0:0:0:0:
248,153,44740,1,2,0:0:0:0:
248,153,44826,1,0,0:0:0:0:
215,168,44997,1,0,0:0:0:0:
190,165,45169,1,2,0:0:0:0:
217,206,45512,1,0,0:0:0:0:
155,138,45683,1,0,0:0:0:0:
229,67,45855,1,2,0:0:0:0:
254,95,46026,1,0,0:0:0:0:
254,95,46197,1,2,0:0:0:0:
254,95,46283,1,2,0:0:0:0:
254,95,46369,1,0,0:0:0:0:
254,95,46540,1,2,0:0:0:0:
151,143,46883,1,0,0:0:0:0:
156,156,47226,1,2,0:0:0:0:
205,133,47397,1,0,0:0:0:0:
146,47,47569,1,8,0:0:0:0:
158,88,47655,1,0,0:0:0:0:
236,161,47740,1,0,0:0:0:0:
205,145,47912,1,2,0:0:0:0:
160,94,48083,1,8,0:0:0:0:
185,84,48255,1,0,0:0:0:0:
196,95,48597,1,0,0:0:0:0:
139,114,48769,1,8,0:0:0:0:
201,86,48940,1,0,0:0:0:0:
150,96,49112,1,0,0:0:0:0:
172,78,49197,1,0,0:0:0:0:
150,96,49283,1,8,0:0:0:0:
227,59,49455,1,8,0:0:0:0:
261,159,49626,1,0,0:0:0:0:
201,86,49969,1,8,0:0:0:0:
248,153,50226,1,2,0:0:0:0:
248,153,50312,1,0,0:0:0:0:
215,168,50483,1,0,0:0:0:0:
190,165,50655,1,2,0:0:0:0:
217,206,50998,1,0,0:0:0:0:
155,138,51169,1,0,0:0:0:0:
229,67,51341,1,2,0:0:0:0:
254,95,51512,1,0,0:0:0:0:
254,95,51598,1,0,0:0:0:0:
254,95,51683,1,2,0:0:0:0:
181,60,51769,1,2,0:0:0:0:
254,95,51855,1,0,0:0:0:0:
254,95,52026,1,2,0:0:0:0:
88,181,52369,1,8,0:0:0:0:
170,95,52540,1,0,0:0:0:0:
88,181,52626,1,0,0:0:0:0:
156,156,52712,1,2,0:0:0:0:
205,133,52883,1,0,0:0:0:0:
143,118,53055,1,2,0:0:0:0:
202,153,53141,1,2,0:0:0:0:
236,161,53226,1,0,0:0:0:0:
205,145,53398,1,2,0:0:0:0:
170,82,53569,1,8,0:0:0:0:
144,81,53740,1,0,0:0:0:0:
144,81,53912,1,8,0:0:0:0:
144,81,54255,1,8,0:0:0:0:
136,43,54597,1,0,0:0:0:0:
170,72,54769,1,8,0:0:0:0:
136,43,54940,1,8,0:0:0:0:
136,43,55112,1,4,0:0:0:0:
250,122,55283,1,0,0:0:0:0:
231,183,55455,1,2,0:0:0:0:
172,124,55626,1,0,0:0:0:0:
196,91,55712,1,0,0:0:0:0:
196,91,55797,1,0,0:0:0:0:
196,91,55969,1,0,0:0:0:0:
266,152,56140,1,2,0:0:0:0:
215,116,56312,1,0,0:0:0:0:
215,116,56397,1,0,0:0:0:0:
215,116,56483,1,2,0:0:0:0:
217,143,56655,1,0,0:0:0:0:
266,152,56826,1,2,0:0:0:0:
221,92,56997,1,2,0:0:0:0:
221,93,57083,1,2,0:0:0:0:
221,93,57169,1,0,0:0:0:0:
221,94,57340,1,0,0:0:0:0:
266,152,57512,1,2,0:0:0:0:
149,138,57683,1,0,0:0:0:0:
186,119,57769,1,2,0:0:0:0:
154,129,57855,1,0,0:0:0:0:
161,138,58026,1,0,0:0:0:0:
266,152,58197,1,2,0:0:0:0:
157,130,58369,1,0,0:0:0:0:
194,102,58540,1,2,0:0:0:0:
196,101,58626,1,2,0:0:0:0:
198,100,58712,1,0,0:0:0:0:
266,152,58883,1,2,0:0:0:0:
155,144,59055,1,2,0:0:0:0:
176,118,59226,1,0,0:0:0:0:
176,118,59397,1,0,0:0:0:0:
193,123,59483,1,0,0:0:0:0:
266,152,59569,1,2,0:0:0:0:
198,123,59740,1,0,0:0:0:0:
211,113,59912,1,2,0:0:0:0:
201,134,59997,1,2,0:0:0:0:
156,92,60083,1,0,0:0:0:0:
193,123,60169,1,0,0:0:0:0:
266,152,60255,1,2,0:0:0:0:
241,150,60426,1,0,0:0:0:0:
159,107,60597,1,6,0:0:0:0:
200,80,60769,1,0,0:0:0:0:
266,152,60940,1,2,0:0:0:0:
190,73,61112,1,0,0:0:0:0:
190,73,61197,1,0,0:0:0:0:
192,72,61283,1,2,0:0:0:0:
192,72,61455,1,0,0:0:0:0:
266,152,61626,1,2,0:0:0:0:
181,93,61797,1,2,0:0:0:0:
181,92,61883,1,2,0:0:0:0:
181,92,61969,1,0,0:0:0:0:
176,74,62140,1,0,0:0:0:0:
266,152,62312,1,2,0:0:0:0:
175,113,62483,1,0,0:0:0:0:
175,113,62569,1,2,0:0:0:0:
175,113,62655,1,0,0:0:0:0:
188,119,62826,1,0,0:0:0:0:
266,152,62997,1,2,0:0:0:0:
167,94,63169,1,2,0:0:0:0:
209,112,63340,1,0,0:0:0:0:
216,52,63426,1,0,0:0:0:0:
209,112,63512,1,0,0:0:0:0:
216,52,63597,1,0,0:0:0:0:
209,112,63683,1,2,0:0:0:0:
207,50,63769,1,2,0:0:0:0:
167,94,63855,1,0,0:0:0:0:
167,94,63940,1,0,0:0:0:0:
209,112,64026,1,2,0:0:0:0:
84,111,64112,1,0,0:0:0:0:
129,95,64197,1,2,0:0:0:0:
177,66,64283,1,2,0:0:0:0:
173,57,64369,1,0,0:0:0:0:
186,60,64455,1,2,0:0:0:0:
201,133,64540,1,0,0:0:0:0:
186,60,64626,1,0,0:0:0:0:
218,114,64712,1,2,0:0:0:0:
284,93,64769,1,2,0:0:0:0:
284,93,64826,1,2,0:0:0:0:
284,93,64883,1,0,0:0:0:0:
135,32,64969,1,0,0:0:0:0:
152,65,65055,1,2,0:0:0:0:
172,25,65140,1,0,0:0:0:0:
219,142,65226,1,2,0:0:0:0:
217,141,65283,1,0,0:0:0:0:
213,143,65340,1,0,0:0:0:0:
217,142,65397,1,2,0:0:0:0:
207,138,65483,1,2,0:0:0:0:
111,92,65569,1,0,0:0:0:0:
209,134,65655,1,2,0:0:0:0:
209,134,65740,1,0,0:0:0:0:
201,133,65797,1,0,0:0:0:0:
189,19,65855,1,0,0:0:0:0:
203,124,65912,1,2,0:0:0:0:
201,127,65969,1,2,0:0:0:0:
197,130,66026,1,2,0:0:0:0:
40,177,66083,1,0,0:0:0:0:
224,130,66255,1,0,0:0:0:0:
224,129,66426,1,0,0:0:0:0:
201,18,66597,1,2,0:0:0:0:
170,115,66940,1,0,0:0:0:0:
170,115,67112,1,2,0:0:0:0:
225,92,67455,1,0,0:0:0:0:
198,116,67797,1,0,0:0:0:0:
168,129,67969,1,2,0:0:0:0:
168,129,68483,1,2,0:0:0:0:
193,112,68826,1,2,0:0:0:0:
295,138,69169,1,0,0:0:0:0:
193,112,69340,1,2,0:0:0:0:
193,112,69855,1,2,0:0:0:0:
193,112,70197,1,2,0:0:0:0:
295,138,70540,1,0,0:0:0:0:
193,112,70712,1,2,0:0:0:0:
193,112,71226,1,2,0:0:0:0:
165,83,71397,1,0,0:0:0:0:
193,112,71569,1,2,0:0:0:0:
295,138,71912,1,0,0:0:0:0:
193,112,72083,1,2,0:0:0:0:
193,112,72597,1,2,0:0:0:0:
193,112,72940,1,2,0:0:0:0:
200,87,73112,1,2,0:0:0:0:
206,116,73283,1,0,0:0:0:0:
193,112,73455,1,2,0:0:0:0:
193,112,73969,1,2,0:0:0:0:
193,112,74312,1,2,0:0:0:0:
199,126,74655,1,0,0:0:0:0:
193,112,74826,1,2,0:0:0:0:
96,86,74997,1,0,0:0:0:0:
210,87,75169,1,0,0:0:0:0:
193,112,75340,1,2,0:0:0:0:
263,108,75512,1,0,0:0:0:0:
193,112,75683,1,2,0:0:0:0:
202,81,76026,1,0,0:0:0:0:
193,112,76197,1,2,0:0:0:0:
171,125,76368,1,0,0:0:0:0:
260,103,76540,5,0,0:0:0:0:
193,112,76712,1,2,0:0:0:0:
241,139,77055,1,2,0:0:0:0:
164,184,77569,5,0,0:0:0:0:
107,149,77741,1,8,0:0:0:0:
122,182,78084,1,0,0:0:0:0:
122,182,78427,1,8,0:0:0:0:
148,111,78769,1,0,0:0:0:0:
139,70,78940,1,8,0:0:0:0:
103,153,79112,1,8,0:0:0:0:
188,109,79455,1,8,0:0:0:0:
139,136,79626,1,8,0:0:0:0:
122,182,79798,1,0,0:0:0:0:
122,182,80312,1,0,0:0:0:0:
107,149,80484,1,8,0:0:0:0:
156,136,80826,1,8,0:0:0:0:
156,136,81169,1,0,0:0:0:0:
159,127,81512,1,0,0:0:0:0:
140,102,81684,1,8,0:0:0:0:
107,149,81855,1,0,0:0:0:0:
145,153,82026,1,0,0:0:0:0:
122,182,82198,1,8,0:0:0:0:
157,147,82369,1,8,0:0:0:0:
151,164,82541,1,0,0:0:0:0:
164,184,83055,1,0,0:0:0:0:
107,149,83227,1,8,0:0:0:0:
122,182,83570,1,0,0:0:0:0:
122,182,83913,1,8,0:0:0:0:
193,145,84083,1,0,0:0:0:0:
154,79,84255,1,0,0:0:0:0:
157,147,84427,1,8,0:0:0:0:
103,153,84598,1,8,0:0:0:0:
186,127,84941,1,8,0:0:0:0:
122,182,85284,1,0,0:0:0:0:
122,182,85798,1,0,0:0:0:0:
102,153,85969,1,8,0:0:0:0:
207,34,86312,1,0,0:0:0:0:
207,34,86655,1,8,0:0:0:0:
153,80,86826,1,8,0:0:0:0:
102,153,86998,1,0,0:0:0:0:
157,62,87169,1,8,0:0:0:0:
102,153,87341,5,0,0:0:0:0:
122,182,87684,1,8,0:0:0:0:
206,129,87855,1,8,0:0:0:0:
153,80,88026,1,4,0:0:0:0:
121,166,88369,5,8,0:0:0:0:
143,112,88712,1,0,0:0:0:0:
137,130,88883,1,0,0:0:0:0:
106,138,89055,1,8,0:0:0:0:
121,166,89397,1,0,0:0:0:0:
143,112,89569,1,0,0:0:0:0:
106,138,89740,1,8,0:0:0:0:
143,112,89912,1,0,0:0:0:0:
184,110,90083,1,8,0:0:0:0:
101,166,90426,1,8,0:0:0:0:
194,142,90597,1,8,0:0:0:0:
101,166,90769,1,0,0:0:0:0:
194,142,91112,1,0,0:0:0:0:
194,142,91455,1,8,0:0:0:0:
194,142,91797,1,0,0:0:0:0:
136,120,91969,1,8,0:0:0:0:
136,120,92140,1,0,0:0:0:0:
136,120,92483,1,8,0:0:0:0:
136,120,92655,1,0,0:0:0:0:
136,120,92826,1,8,0:0:0:0:
136,120,93169,1,8,0:0:0:0:
136,120,93512,1,0,0:0:0:0:
148,88,93683,1,0,0:0:0:0:
136,120,93855,1,8,0:0:0:0:
195,116,94197,1,0,0:0:0:0:
180,107,94369,1,0,0:0:0:0:
180,107,94540,1,8,0:0:0:0:
180,107,94883,1,0,0:0:0:0:
149,122,95055,1,0,0:0:0:0:
149,122,95226,1,8,0:0:0:0:
149,122,95397,1,0,0:0:0:0:
180,107,95569,1,8,0:0:0:0:
142,122,95912,1,8,0:0:0:0:
137,119,96083,1,0,0:0:0:0:
149,165,96255,1,8,0:0:0:0:
200,139,96597,1,8,0:0:0:0:
137,119,96769,1,8,0:0:0:0:
149,165,96940,1,0,0:0:0:0:
142,122,97283,1,8,0:0:0:0:
137,119,97455,1,0,0:0:0:0:
149,165,97626,1,8,0:0:0:0:
137,119,97969,1,0,0:0:0:0:
200,139,98140,1,8,0:0:0:0:
142,122,98312,1,8,0:0:0:0:
137,119,98655,1,0,0:0:0:0:
149,122,98826,1,8,0:0:0:0:
123,124,98997,1,4,0:0:0:0:
121,166,99340,5,8,0:0:0:0:
143,112,99512,1,0,0:0:0:0:
137,130,99854,1,0,0:0:0:0:
106,138,100026,1,8,0:0:0:0:
121,166,100368,1,0,0:0:0:0:
143,112,100540,1,0,0:0:0:0:
106,138,100711,1,8,0:0:0:0:
143,112,100883,1,0,0:0:0:0:
184,110,101226,1,0,0:0:0:0:
101,166,101397,1,8,0:0:0:0:
194,142,101568,1,8,0:0:0:0:
101,166,101740,1,0,0:0:0:0:
140,133,102083,1,8,0:0:0:0:
159,95,102255,1,0,0:0:0:0:
286,92,102597,1,0,0:0:0:0:
159,110,102769,1,8,0:0:0:0:
136,120,103111,1,0,0:0:0:0:
159,110,103283,1,0,0:0:0:0:
136,120,103454,1,8,0:0:0:0:
136,120,103626,1,0,0:0:0:0:
136,120,103969,1,0,0:0:0:0:
136,120,104140,1,8,0:0:0:0:
159,110,104312,1,8,0:0:0:0:
136,120,104483,1,0,0:0:0:0:
148,88,104654,1,0,0:0:0:0:
136,120,104826,1,8,0:0:0:0:
195,116,105168,1,0,0:0:0:0:
174,111,105512,1,8,0:0:0:0:
124,142,105683,1,0,0:0:0:0:
180,107,105854,1,0,0:0:0:0:
149,122,106197,1,8,0:0:0:0:
160,105,106369,1,8,0:0:0:0:
160,105,106540,1,8,0:0:0:0:
142,122,106883,1,8,0:0:0:0:
124,142,107055,1,0,0:0:0:0:
144,58,107226,1,0,0:0:0:0:
200,139,107568,5,8,0:0:0:0:
176,38,107740,1,0,0:0:0:0:
150,111,107912,1,8,0:0:0:0:
150,111,108255,1,8,0:0:0:0:
256,192,108597,12,0,109626,0:0:0:0:
156,133,109969,5,4,0:0:0:0:
157,141,110312,1,8,0:0:0:0:
157,141,110655,1,0,0:0:0:0:
254,66,110912,1,2,0:0:0:0:
254,66,110997,1,0,0:0:0:0:
215,112,111169,1,2,0:0:0:0:
184,74,111340,1,0,0:0:0:0:
157,141,111512,1,0,0:0:0:0:
157,141,111683,1,8,0:0:0:0:
157,141,112026,1,0,0:0:0:0:
157,141,112369,1,8,0:0:0:0:
157,141,112540,1,8,0:0:0:0:
157,141,112712,1,0,0:0:0:0:
157,141,113055,1,8,0:0:0:0:
157,141,113397,1,0,0:0:0:0:
157,141,113569,1,0,0:0:0:0:
157,141,113740,1,8,0:0:0:0:
157,141,113912,1,0,0:0:0:0:
157,141,114255,1,0,0:0:0:0:
157,141,114426,1,8,0:0:0:0:
157,141,114597,1,8,0:0:0:0:
157,141,114769,1,0,0:0:0:0:
157,141,115112,1,8,0:0:0:0:
157,141,115283,1,8,0:0:0:0:
168,134,115455,1,0,0:0:0:0:
157,141,115798,1,8,0:0:0:0:
157,141,116141,1,0,0:0:0:0:
210,56,116397,1,2,0:0:0:0:
210,56,116483,1,0,0:0:0:0:
210,56,116655,1,2,0:0:0:0:
210,56,116826,1,0,0:0:0:0:
157,141,116998,1,0,0:0:0:0:
157,141,117169,1,8,0:0:0:0:
157,141,117512,1,0,0:0:0:0:
157,141,117855,1,8,0:0:0:0:
157,141,118026,1,8,0:0:0:0:
157,141,118198,1,0,0:0:0:0:
157,141,118541,1,8,0:0:0:0:
157,141,118883,1,0,0:0:0:0:
157,141,119055,1,0,0:0:0:0:
157,141,119226,1,8,0:0:0:0:
157,141,119398,1,0,0:0:0:0:
205,162,119569,1,4,0:0:0:0:
205,162,119912,1,8,0:0:0:0:
196,182,120083,1,0,0:0:0:0:
211,96,120255,1,8,0:0:0:0:
205,162,120597,1,8,0:0:0:0:
208,145,120683,1,8,0:0:0:0:
208,145,120769,1,8,0:0:0:0:
207,82,120940,1,4,0:0:0:0:
114,189,121112,1,0,0:0:0:0:
140,174,121283,1,8,0:0:0:0:
140,174,121626,1,0,0:0:0:0:
114,189,121797,1,0,0:0:0:0:
140,174,121969,1,8,0:0:0:0:
140,174,122312,1,0,0:0:0:0:
150,92,122483,1,0,0:0:0:0:
140,174,122655,1,8,0:0:0:0:
156,94,122826,1,8,0:0:0:0:
140,174,122997,1,0,0:0:0:0:
140,174,123340,1,8,0:0:0:0:
156,94,123683,1,4,0:0:0:0:
140,174,123855,1,0,0:0:0:0:
140,174,124026,1,8,0:0:0:0:
140,174,124369,1,0,0:0:0:0:
140,174,124540,1,0,0:0:0:0:
140,174,124712,1,8,0:0:0:0:
156,94,125055,1,0,0:0:0:0:
156,94,125226,1,0,0:0:0:0:
156,94,125397,1,8,0:0:0:0:
156,94,125569,1,8,0:0:0:0:
156,94,125740,1,0,0:0:0:0:
156,94,126083,1,8,0:0:0:0:
156,94,126255,1,8,0:0:0:0:
209,242,126426,1,4,0:0:0:0:
154,117,126597,1,0,0:0:0:0:
152,107,126683,1,0,0:0:0:0:
154,122,126769,1,8,0:0:0:0:
152,107,126940,1,8,0:0:0:0:
170,92,127112,1,0,0:0:0:0:
170,100,127197,1,8,0:0:0:0:
170,100,127283,1,0,0:0:0:0:
170,97,127369,1,0,0:0:0:0:
170,99,127455,1,8,0:0:0:0:
170,103,127626,1,8,0:0:0:0:
201,126,127798,5,0,0:0:0:0:
177,56,127883,1,0,0:0:0:0:
171,107,127969,1,2,0:0:0:0:
177,56,128055,1,0,0:0:0:0:
171,107,128141,1,2,0:0:0:0:
171,107,128226,1,2,0:0:0:0:
171,107,128312,1,0,0:0:0:0:
133,97,128397,1,2,0:0:0:0:
171,107,128483,1,0,0:0:0:0:
157,92,128569,1,0,0:0:0:0:
137,95,128655,1,0,0:0:0:0:
137,95,128740,1,0,0:0:0:0:
245,150,128826,1,2,0:0:0:0:
158,74,128912,1,0,0:0:0:0:
157,82,128997,1,8,0:0:0:0:
157,87,129083,1,8,0:0:0:0:
157,92,129169,1,0,0:0:0:0:
118,181,129512,1,8,0:0:0:0:
164,119,129855,1,2,0:0:0:0:
178,149,130197,1,0,0:0:0:0:
196,177,130369,1,2,0:0:0:0:
176,163,130540,1,0,0:0:0:0:
176,163,130712,1,0,0:0:0:0:
176,163,130883,1,2,0:0:0:0:
151,137,131226,1,0,0:0:0:0:
226,72,131483,1,0,0:0:0:0:
216,77,131569,1,2,0:0:0:0:
216,77,131655,1,2,0:0:0:0:
216,77,131740,1,0,0:0:0:0:
170,162,131912,1,4,0:0:0:0:
142,182,132083,1,0,0:0:0:0:
157,163,132169,1,0,0:0:0:0:
191,82,132255,1,0,0:0:0:0:
155,185,132340,1,8,0:0:0:0:
155,190,132512,1,0,0:0:0:0:
153,188,132683,1,0,0:0:0:0:
153,191,132769,1,8,0:0:0:0:
158,119,132855,1,8,0:0:0:0:
183,141,132940,1,0,0:0:0:0:
183,141,133112,1,8,0:0:0:0:
202,134,133197,1,8,0:0:0:0:
183,141,133283,1,0,0:0:0:0:
142,182,133455,1,0,0:0:0:0:
157,163,133540,1,0,0:0:0:0:
189,102,133626,1,0,0:0:0:0:
181,89,133712,1,8,0:0:0:0:
181,89,133797,1,0,0:0:0:0:
206,138,133883,1,8,0:0:0:0:
207,140,134055,1,8,0:0:0:0:
207,140,134140,1,0,0:0:0:0:
178,37,134226,1,0,0:0:0:0:
178,37,134312,1,8,0:0:0:0:
207,138,134397,1,0,0:0:0:0:
207,138,134483,1,8,0:0:0:0:
209,145,134569,1,8,0:0:0:0:
145,131,134655,1,0,0:0:0:0:
142,182,134826,1,0,0:0:0:0:
155,181,134912,1,0,0:0:0:0:
189,103,134997,1,0,0:0:0:0:
155,185,135083,1,8,0:0:0:0:
155,190,135255,1,0,0:0:0:0:
153,188,135426,1,0,0:0:0:0:
153,191,135512,1,8,0:0:0:0:
189,103,135597,1,8,0:0:0:0:
183,141,135683,1,0,0:0:0:0:
183,141,135855,1,8,0:0:0:0:
196,133,136026,1,0,0:0:0:0:
144,179,136112,1,8,0:0:0:0:
196,158,136197,1,0,0:0:0:0:
206,138,136283,1,0,0:0:0:0:
293,185,136369,1,0,0:0:0:0:
206,138,136455,1,0,0:0:0:0:
175,108,136540,1,8,0:0:0:0:
175,108,136712,1,8,0:0:0:0:
207,140,136798,1,8,0:0:0:0:
207,140,136883,1,0,0:0:0:0:
172,80,136969,1,0,0:0:0:0:
172,80,137055,1,8,0:0:0:0:
207,138,137140,1,0,0:0:0:0:
207,138,137226,1,8,0:0:0:0:
209,145,137312,1,8,0:0:0:0:
209,146,137398,1,0,0:0:0:0:
166,108,137569,1,0,0:0:0:0:
172,80,137655,1,8,0:0:0:0:
189,111,137740,1,0,0:0:0:0:
184,65,137826,1,8,0:0:0:0:
186,103,137997,1,0,0:0:0:0:
148,168,138083,1,0,0:0:0:0:
164,97,138169,1,8,0:0:0:0:
189,111,138255,1,0,0:0:0:0:
167,98,138340,1,0,0:0:0:0:
211,96,138426,1,8,0:0:0:0:
200,112,138597,1,8,0:0:0:0:
173,104,138769,1,0,0:0:0:0:
211,87,138940,1,0,0:0:0:0:
213,77,139026,1,8,0:0:0:0:
172,80,139112,1,0,0:0:0:0:
170,140,139197,1,8,0:0:0:0:
176,166,139283,1,8,0:0:0:0:
206,108,139369,1,0,0:0:0:0:
158,117,139540,1,8,0:0:0:0:
146,119,139626,1,0,0:0:0:0:
189,111,139712,1,0,0:0:0:0:
205,108,139797,1,8,0:0:0:0:
200,112,139969,1,0,0:0:0:0:
154,106,140140,1,8,0:0:0:0:
189,111,140226,1,8,0:0:0:0:
169,53,140312,1,0,0:0:0:0:
201,161,140397,1,0,0:0:0:0:
169,53,140569,1,8,0:0:0:0:
185,80,140655,1,0,0:0:0:0:
138,120,140740,1,0,0:0:0:0:
169,53,140826,1,8,0:0:0:0:
189,111,140912,1,8,0:0:0:0:
169,53,140997,1,0,0:0:0:0:
201,161,141083,1,0,0:0:0:0:
169,53,141255,1,8,0:0:0:0:
185,80,141340,1,0,0:0:0:0:
169,53,141426,1,0,0:0:0:0:
153,82,141512,1,8,0:0:0:0:
189,111,141597,1,8,0:0:0:0:
172,82,141683,1,0,0:0:0:0:
182,91,141769,1,8,0:0:0:0:
164,43,141940,1,8,0:0:0:0:
164,44,142026,1,0,0:0:0:0:
169,53,142112,1,0,0:0:0:0:
169,53,142197,1,8,0:0:0:0:
169,53,142283,1,8,0:0:0:0:
169,53,142369,1,0,0:0:0:0:
169,53,142455,1,0,0:0:0:0:
166,57,142540,1,8,0:0:0:0:
172,82,142626,1,8,0:0:0:0:
166,57,142712,1,0,0:0:0:0:
170,162,142883,1,4,0:0:0:0:
142,182,143054,1,0,0:0:0:0:
157,163,143140,1,0,0:0:0:0:
135,165,143226,1,8,0:0:0:0:
155,185,143311,1,8,0:0:0:0:
155,190,143483,1,0,0:0:0:0:
153,188,143654,1,0,0:0:0:0:
153,191,143740,1,8,0:0:0:0:
169,148,143912,1,8,0:0:0:0:
183,141,144083,1,8,0:0:0:0:
202,134,144168,1,8,0:0:0:0:
183,141,144254,1,0,0:0:0:0:
142,182,144426,1,0,0:0:0:0:
157,163,144511,1,0,0:0:0:0:
169,148,144597,1,8,0:0:0:0:
181,89,144683,1,8,0:0:0:0:
181,89,144768,1,0,0:0:0:0:
206,138,144854,1,8,0:0:0:0:
207,140,145026,1,8,0:0:0:0:
207,140,145111,1,0,0:0:0:0:
178,37,145197,1,0,0:0:0:0:
178,37,145283,1,8,0:0:0:0:
207,138,145368,1,0,0:0:0:0:
207,138,145454,1,8,0:0:0:0:
209,145,145540,1,8,0:0:0:0:
145,131,145626,1,0,0:0:0:0:
142,182,145797,1,0,0:0:0:0:
155,181,145883,1,0,0:0:0:0:
165,148,145969,1,8,0:0:0:0:
155,185,146054,1,8,0:0:0:0:
155,190,146226,1,0,0:0:0:0:
153,188,146397,1,0,0:0:0:0:
153,191,146483,1,8,0:0:0:0:
162,124,146569,1,0,0:0:0:0:
162,124,146655,1,8,0:0:0:0:
183,141,146826,1,8,0:0:0:0:
196,133,146997,1,0,0:0:0:0:
144,179,147083,1,8,0:0:0:0:
194,161,147169,1,0,0:0:0:0:
206,138,147254,5,0,0:0:0:0:
162,124,147340,1,8,0:0:0:0:
206,138,147426,1,0,0:0:0:0:
175,108,147511,1,8,0:0:0:0:
175,108,147683,1,8,0:0:0:0:
207,140,147769,1,8,0:0:0:0:
207,140,147854,1,0,0:0:0:0:
172,80,147940,1,0,0:0:0:0:
172,80,148026,1,8,0:0:0:0:
207,138,148111,1,0,0:0:0:0:
207,138,148197,1,8,0:0:0:0:
209,146,148369,1,4,0:0:0:0:
139,82,148540,1,0,0:0:0:0:
171,66,148626,1,0,0:0:0:0:
146,67,148712,1,8,0:0:0:0:
194,161,148797,1,8,0:0:0:0:
173,124,148883,1,0,0:0:0:0:
139,82,148969,1,0,0:0:0:0:
164,97,149140,1,8,0:0:0:0:
176,74,149226,1,0,0:0:0:0:
167,98,149311,1,0,0:0:0:0:
211,96,149397,1,8,0:0:0:0:
200,112,149568,1,8,0:0:0:0:
171,84,149740,1,4,0:0:0:0:
211,87,149911,1,0,0:0:0:0:
171,67,149997,1,0,0:0:0:0:
171,67,150083,1,8,0:0:0:0:
173,125,150169,1,8,0:0:0:0:
190,97,150255,1,0,0:0:0:0:
171,77,150340,1,8,0:0:0:0:
171,84,150512,1,8,0:0:0:0:
171,84,150597,1,8,0:0:0:0:
205,108,150683,1,0,0:0:0:0:
205,108,150768,1,8,0:0:0:0:
200,112,150940,1,0,0:0:0:0:
133,129,151112,1,8,0:0:0:0:
133,129,151197,1,0,0:0:0:0:
133,129,151283,1,8,0:0:0:0:
133,133,151369,1,8,0:0:0:0:
133,134,151455,1,0,0:0:0:0:
133,134,151540,1,8,0:0:0:0:
133,135,151626,1,0,0:0:0:0:
133,138,151712,1,0,0:0:0:0:
134,139,151797,1,8,0:0:0:0:
134,139,151883,1,0,0:0:0:0:
134,139,151969,1,8,0:0:0:0:
135,143,152055,1,8,0:0:0:0:
140,149,152140,1,0,0:0:0:0:
140,149,152226,1,8,0:0:0:0:
140,150,152312,1,0,0:0:0:0:
141,154,152397,1,0,0:0:0:0:
141,154,152483,1,8,0:0:0:0:
181,77,152826,1,8,0:0:0:0:
164,44,152997,1,0,0:0:0:0:
136,87,153083,1,0,0:0:0:0:
169,53,153168,1,8,0:0:0:0:
169,53,153254,1,8,0:0:0:0:
169,53,153340,1,0,0:0:0:0:
169,53,153426,1,0,0:0:0:0:
166,57,153511,1,8,0:0:0:0:
121,92,153683,1,8,0:0:0:0:
259,235,153855,5,4,0:0:0:0:
265,162,154026,1,0,0:0:0:0:
265,162,154198,1,2,0:0:0:0:
171,79,154369,1,0,0:0:0:0:
171,79,154455,1,0,0:0:0:0:
218,174,154540,1,2,0:0:0:0:
249,148,154712,1,0,0:0:0:0:
249,148,154884,1,2,0:0:0:0:
185,81,155055,1,2,0:0:0:0:
179,82,155140,1,2,0:0:0:0:
239,158,155226,1,0,0:0:0:0:
251,107,155398,1,0,0:0:0:0:
251,107,155569,1,2,0:0:0:0:
224,167,155655,1,2,0:0:0:0:
230,143,155740,1,0,0:0:0:0:
251,107,155826,1,0,0:0:0:0:
186,106,155912,1,2,0:0:0:0:
186,106,156083,1,0,0:0:0:0:
186,106,156255,1,2,0:0:0:0:
129,143,156340,1,0,0:0:0:0:
101,120,156426,1,8,0:0:0:0:
101,127,156597,1,0,0:0:0:0:
141,146,156769,1,0,0:0:0:0:
139,100,156940,1,8,0:0:0:0:
149,82,157112,1,0,0:0:0:0:
151,82,157197,1,0,0:0:0:0:
149,97,157283,1,8,0:0:0:0:
139,163,157369,1,8,0:0:0:0:
191,77,157455,1,0,0:0:0:0:
191,77,157626,1,2,0:0:0:0:
167,106,157797,1,0,0:0:0:0:
167,106,157969,1,8,0:0:0:0:
167,106,158055,1,0,0:0:0:0:
152,130,158140,1,0,0:0:0:0:
170,13,158226,1,0,0:0:0:0:
240,122,158312,1,2,0:0:0:0:
164,112,158397,1,8,0:0:0:0:
131,173,158483,1,0,0:0:0:0:
133,178,158655,1,8,0:0:0:0:
241,124,158826,1,0,0:0:0:0:
241,124,158997,1,2,0:0:0:0:
178,85,159169,1,2,0:0:0:0:
167,106,159255,1,0,0:0:0:0:
136,138,159340,1,0,0:0:0:0:
265,162,159511,1,0,0:0:0:0:
265,162,159683,1,2,0:0:0:0:
171,79,159854,1,0,0:0:0:0:
171,79,159940,1,0,0:0:0:0:
218,174,160025,1,2,0:0:0:0:
249,148,160197,1,0,0:0:0:0:
249,148,160369,1,2,0:0:0:0:
185,81,160540,1,2,0:0:0:0:
179,82,160625,1,2,0:0:0:0:
239,158,160711,1,0,0:0:0:0:
251,107,160883,1,0,0:0:0:0:
251,107,161054,1,2,0:0:0:0:
224,167,161140,1,2,0:0:0:0:
230,143,161225,1,0,0:0:0:0:
251,107,161311,1,0,0:0:0:0:
186,106,161397,1,2,0:0:0:0:
186,106,161568,1,0,0:0:0:0:
186,106,161740,1,2,0:0:0:0:
129,143,161825,1,0,0:0:0:0:
101,120,161911,1,8,0:0:0:0:
136,138,161997,1,8,0:0:0:0:
101,127,162082,1,0,0:0:0:0:
141,146,162254,1,0,0:0:0:0:
139,100,162425,1,8,0:0:0:0:
136,138,162512,1,8,0:0:0:0:
149,82,162597,1,0,0:0:0:0:
95,132,162683,1,8,0:0:0:0:
92,132,162769,1,0,0:0:0:0:
161,114,162940,1,0,0:0:0:0:
191,77,163111,1,2,0:0:0:0:
161,114,163197,1,0,0:0:0:0:
191,77,163282,1,2,0:0:0:0:
161,114,163369,1,8,0:0:0:0:
201,153,163454,1,0,0:0:0:0:
152,130,163625,1,0,0:0:0:0:
240,122,163797,1,2,0:0:0:0:
181,127,163883,1,8,0:0:0:0:
181,127,163969,1,0,0:0:0:0:
129,95,164055,1,8,0:0:0:0:
129,97,164140,1,0,0:0:0:0:
129,100,164226,1,0,0:0:0:0:
241,124,164311,1,0,0:0:0:0:
129,100,164397,1,0,0:0:0:0:
241,124,164482,1,2,0:0:0:0:
178,85,164654,1,2,0:0:0:0:
163,77,164826,1,4,0:0:0:0:
175,106,164997,1,0,0:0:0:0:
179,97,165169,1,8,0:0:0:0:
159,123,165255,1,0,0:0:0:0:
173,92,165340,1,0,0:0:0:0:
173,107,165512,1,8,0:0:0:0:
182,120,165683,1,0,0:0:0:0:
159,123,165769,1,0,0:0:0:0:
182,120,165855,1,8,0:0:0:0:
217,128,166026,1,0,0:0:0:0:
217,128,166197,1,8,0:0:0:0:
187,128,166369,1,0,0:0:0:0:
221,148,166455,1,0,0:0:0:0:
187,128,166540,1,8,0:0:0:0:
176,113,166626,1,8,0:0:0:0:
187,128,166712,1,0,0:0:0:0:
187,128,166883,1,8,0:0:0:0:
176,119,167055,1,0,0:0:0:0:
187,128,167226,1,8,0:0:0:0:
176,119,167312,1,0,0:0:0:0:
187,128,167397,1,8,0:0:0:0:
171,95,167569,1,4,0:0:0:0:
215,148,167826,1,0,0:0:0:0:
187,128,167912,1,8,0:0:0:0:
159,85,168083,1,0,0:0:0:0:
159,85,168255,1,8,0:0:0:0:
159,85,168340,1,0,0:0:0:0:
159,85,168426,1,0,0:0:0:0:
161,92,168512,1,0,0:0:0:0:
187,128,168597,1,8,0:0:0:0:
187,128,168769,1,8,0:0:0:0:
171,95,168940,1,4,0:0:0:0:
204,80,169112,1,0,0:0:0:0:
238,133,169283,5,8,0:0:0:0:
238,133,169626,1,8,0:0:0:0:
238,133,169969,1,8,0:0:0:0:
238,133,170055,1,8,0:0:0:0:
238,133,170140,1,8,0:0:0:0:
171,95,170312,1,4,0:0:0:0:
189,104,170483,1,0,0:0:0:0:
189,104,170655,1,8,0:0:0:0:
189,104,170826,1,8,0:0:0:0:
189,104,170997,1,0,0:0:0:0:
189,104,171169,1,0,0:0:0:0:
189,104,171340,1,8,0:0:0:0:
189,104,171512,1,8,0:0:0:0:
171,125,171683,1,4,0:0:0:0:
189,104,171855,1,0,0:0:0:0:
189,104,172026,1,8,0:0:0:0:
189,104,172197,1,8,0:0:0:0:
171,125,172369,1,0,0:0:0:0:
189,104,172540,1,0,0:0:0:0:
189,104,172712,1,8,0:0:0:0:
189,104,172883,1,0,0:0:0:0:
189,104,173055,1,8,0:0:0:0:
171,125,173140,1,8,0:0:0:0:
171,125,173226,1,0,0:0:0:0:
207,92,173312,1,0,0:0:0:0:
207,92,173397,1,8,0:0:0:0:
177,117,173483,1,0,0:0:0:0:
208,99,173569,1,0,0:0:0:0:
208,99,173655,1,0,0:0:0:0:
208,99,173740,1,8,0:0:0:0:
208,99,173826,1,0,0:0:0:0:
207,100,173912,1,8,0:0:0:0:
208,99,173997,1,8,0:0:0:0:
208,99,174083,1,0,0:0:0:0:
208,99,174169,1,0,0:0:0:0:
208,99,174255,1,8,0:0:0:0:
207,102,174340,1,0,0:0:0:0:
142,148,174426,1,8,0:0:0:0:
151,107,174483,1,8,0:0:0:0:
151,107,174540,1,8,0:0:0:0:
151,107,174597,1,0,0:0:0:0:
197,103,174683,1,0,0:0:0:0:
151,107,174769,1,8,0:0:0:0:
151,107,174826,1,0,0:0:0:0:
151,107,174883,1,0,0:0:0:0:
152,112,174940,1,8,0:0:0:0:
184,103,175026,1,8,0:0:0:0:
154,119,175112,1,0,0:0:0:0:
154,121,175169,1,8,0:0:0:0:
155,129,175226,1,8,0:0:0:0:
155,130,175283,1,0,0:0:0:0:
184,103,175369,1,0,0:0:0:0:
209,134,175454,1,8,0:0:0:0:
201,133,175511,1,8,0:0:0:0:
189,19,175569,1,8,0:0:0:0:
203,124,175626,1,2,0:0:0:0:
201,127,175683,1,2,0:0:0:0:
197,130,175740,1,2,0:0:0:0:
168,179,175797,1,0,0:0:0:0:
256,97,176140,5,2,0:0:0:0:
176,54,176483,1,0,0:0:0:0:
172,77,176655,1,0,0:0:0:0:
188,71,176826,1,2,0:0:0:0:
226,104,177169,1,0,0:0:0:0:
216,100,177512,1,2,0:0:0:0:
216,100,177683,1,2,0:0:0:0:
214,101,177855,1,0,0:0:0:0:
218,88,178026,1,0,0:0:0:0:
180,108,178197,1,2,0:0:0:0:
193,86,178540,1,0,0:0:0:0:
256,92,178883,1,2,0:0:0:0:
256,92,179226,1,0,0:0:0:0:
218,87,179397,1,0,0:0:0:0:
173,144,179569,1,2,0:0:0:0:
226,104,179912,1,0,0:0:0:0:
201,104,180083,1,0,0:0:0:0:
216,100,180255,1,2,0:0:0:0:
216,100,180426,1,2,0:0:0:0:
214,101,180598,1,0,0:0:0:0:
56,120,180769,1,0,0:0:0:0:
180,108,180940,1,2,0:0:0:0:
196,105,181283,1,0,0:0:0:0:
196,106,181626,1,2,0:0:0:0:
196,106,181797,1,2,0:0:0:0:
196,106,181969,1,0,0:0:0:0:
196,105,182312,1,2,0:0:0:0:
196,106,182655,1,0,0:0:0:0:
196,106,182826,1,0,0:0:0:0:
196,105,182997,1,2,0:0:0:0:
196,105,183340,1,0,0:0:0:0:
196,106,183683,1,2,0:0:0:0:
207,118,184026,1,0,0:0:0:0:
207,118,184369,1,2,0:0:0:0:
207,118,184540,1,2,0:0:0:0:
207,118,184712,1,0,0:0:0:0:
208,107,185055,1,2,0:0:0:0:
216,112,185397,1,0,0:0:0:0:
216,112,185569,1,0,0:0:0:0:
216,112,185740,1,2,0:0:0:0:
216,112,185912,1,2,0:0:0:0:
207,112,186255,1,2,0:0:0:0:
207,115,186597,1,0,0:0:0:0:
211,96,186769,1,6,0:0:0:0:
252,128,187112,1,2,0:0:0:0:
184,112,187283,1,2,0:0:0:0:
209,90,187455,1,0,0:0:0:0:
228,124,187797,1,2,0:0:0:0:
228,124,188140,1,0,0:0:0:0:
228,124,188483,1,2,0:0:0:0:
311,135,188655,1,2,0:0:0:0:
228,124,188826,1,0,0:0:0:0:
228,124,189169,1,2,0:0:0:0:
200,118,189512,1,0,0:0:0:0:
211,154,189855,1,2,0:0:0:0:
311,135,190026,1,2,0:0:0:0:
211,154,190197,1,0,0:0:0:0:
211,154,190540,1,2,0:0:0:0:
218,153,190883,1,0,0:0:0:0:
219,153,191226,1,2,0:0:0:0:
208,113,191397,1,2,0:0:0:0:
218,153,191569,1,0,0:0:0:0:
201,137,191740,1,0,0:0:0:0:
218,153,191912,1,2,0:0:0:0:
259,235,192255,5,4,0:0:0:0:
265,162,192426,1,0,0:0:0:0:
265,162,192598,1,2,0:0:0:0:
171,79,192769,1,0,0:0:0:0:
171,79,192855,1,0,0:0:0:0:
218,174,192940,1,2,0:0:0:0:
249,148,193112,1,0,0:0:0:0:
249,148,193284,1,2,0:0:0:0:
185,81,193455,1,2,0:0:0:0:
131,64,193540,1,2,0:0:0:0:
239,158,193626,1,0,0:0:0:0:
251,107,193798,1,0,0:0:0:0:
251,107,193969,1,2,0:0:0:0:
224,167,194055,1,2,0:0:0:0:
230,143,194140,1,0,0:0:0:0:
251,107,194226,1,0,0:0:0:0:
186,106,194312,1,2,0:0:0:0:
186,106,194483,1,0,0:0:0:0:
186,106,194655,1,2,0:0:0:0:
215,67,194826,1,2,0:0:0:0:
246,141,194998,1,0,0:0:0:0:
246,141,195083,1,0,0:0:0:0:
246,141,195169,1,2,0:0:0:0:
221,95,195255,1,0,0:0:0:0:
247,79,195340,1,2,0:0:0:0:
242,82,195426,1,2,0:0:0:0:
242,82,195512,1,0,0:0:0:0:
216,80,195598,1,2,0:0:0:0:
216,80,195683,1,0,0:0:0:0:
216,80,195769,1,0,0:0:0:0:
216,80,195855,1,0,0:0:0:0:
216,80,195940,1,0,0:0:0:0:
216,80,196026,1,2,0:0:0:0:
216,80,196112,1,2,0:0:0:0:
216,80,196198,1,0,0:0:0:0:
225,46,196283,1,2,0:0:0:0:
183,82,196369,1,0,0:0:0:0:
149,112,196426,1,0,0:0:0:0:
159,117,196483,1,0,0:0:0:0:
159,117,196540,1,2,0:0:0:0:
169,81,196626,1,2,0:0:0:0:
91,118,196712,1,0,0:0:0:0:
169,81,196798,1,2,0:0:0:0:
190,54,196883,1,0,0:0:0:0:
190,54,196940,1,2,0:0:0:0:
198,52,196998,1,2,0:0:0:0:
199,51,197055,1,0,0:0:0:0:
196,92,197140,1,0,0:0:0:0:
155,66,197226,1,2,0:0:0:0:
149,112,197312,1,0,0:0:0:0:
162,77,197398,1,2,0:0:0:0:
318,140,197455,1,2,0:0:0:0:
318,140,197512,1,2,0:0:0:0:
318,140,197569,1,2,0:0:0:0:
318,140,197626,1,2,0:0:0:0:
318,140,197683,1,2,0:0:0:0:
209,113,197740,1,0,0:0:0:0:
294,199,198083,1,2,0:0:0:0:
248,153,198340,1,2,0:0:0:0:
248,153,198426,1,0,0:0:0:0:
215,168,198597,1,0,0:0:0:0:
190,165,198769,1,2,0:0:0:0:
217,206,199112,1,0,0:0:0:0:
155,138,199283,1,0,0:0:0:0:
229,67,199455,1,2,0:0:0:0:
254,95,199626,1,0,0:0:0:0:
254,95,199797,1,2,0:0:0:0:
254,95,199883,1,2,0:0:0:0:
254,95,199969,1,0,0:0:0:0:
254,95,200140,1,2,0:0:0:0:
151,143,200483,1,0,0:0:0:0:
156,156,200826,1,2,0:0:0:0:
205,133,200997,1,0,0:0:0:0:
146,47,201169,1,8,0:0:0:0:
158,88,201255,1,0,0:0:0:0:
236,161,201340,1,0,0:0:0:0:
205,145,201512,1,2,0:0:0:0:
160,94,201683,1,8,0:0:0:0:
185,84,201855,1,0,0:0:0:0:
196,95,202197,1,0,0:0:0:0:
139,114,202369,1,8,0:0:0:0:
201,86,202540,1,0,0:0:0:0:
150,96,202712,1,0,0:0:0:0:
172,78,202797,1,0,0:0:0:0:
150,96,202883,1,8,0:0:0:0:
227,59,203055,1,8,0:0:0:0:
261,159,203226,1,0,0:0:0:0:
201,86,203569,1,8,0:0:0:0:
248,153,203826,1,2,0:0:0:0:
248,153,203912,1,0,0:0:0:0:
215,168,204083,1,0,0:0:0:0:
190,165,204255,1,2,0:0:0:0:
217,206,204598,1,0,0:0:0:0:
155,138,204769,1,0,0:0:0:0:
229,67,204941,1,2,0:0:0:0:
254,95,205112,1,0,0:0:0:0:
254,95,205198,1,0,0:0:0:0:
254,95,205283,1,2,0:0:0:0:
181,60,205369,1,2,0:0:0:0:
254,95,205455,1,0,0:0:0:0:
254,95,205626,1,2,0:0:0:0:
88,181,205969,1,8,0:0:0:0:
170,95,206140,1,0,0:0:0:0:
88,181,206226,1,0,0:0:0:0:
156,156,206312,1,2,0:0:0:0:
205,133,206483,1,0,0:0:0:0:
143,118,206655,1,2,0:0:0:0:
202,153,206741,1,2,0:0:0:0:
236,161,206826,1,0,0:0:0:0:
205,145,206998,1,2,0:0:0:0:
170,82,207169,1,8,0:0:0:0:
144,81,207340,1,0,0:0:0:0:
144,81,207512,1,8,0:0:0:0:
144,81,207855,1,8,0:0:0:0:
136,43,208197,1,0,0:0:0:0:
170,72,208369,1,8,0:0:0:0:
136,43,208540,1,8,0:0:0:0:
136,43,208712,1,4,0:0:0:0:
250,122,208883,1,0,0:0:0:0:
231,183,209055,1,2,0:0:0:0:
172,124,209226,1,0,0:0:0:0:
196,91,209312,1,0,0:0:0:0:
196,91,209397,1,0,0:0:0:0:
196,91,209569,1,0,0:0:0:0:
266,152,209740,1,2,0:0:0:0:
215,116,209912,1,0,0:0:0:0:
215,116,209997,1,0,0:0:0:0:
215,116,210083,1,2,0:0:0:0:
217,143,210255,1,0,0:0:0:0:
266,152,210426,1,2,0:0:0:0:
221,92,210597,1,2,0:0:0:0:
221,93,210683,1,2,0:0:0:0:
221,93,210769,1,0,0:0:0:0:
221,94,210940,1,0,0:0:0:0:
266,152,211112,1,2,0:0:0:0:
149,138,211283,1,0,0:0:0:0:
186,119,211369,1,2,0:0:0:0:
154,129,211455,1,0,0:0:0:0:
161,138,211626,1,0,0:0:0:0:
266,152,211797,1,2,0:0:0:0:
157,130,211969,1,0,0:0:0:0:
194,102,212140,1,2,0:0:0:0:
196,101,212226,1,2,0:0:0:0:
198,100,212312,1,0,0:0:0:0:
266,152,212483,1,2,0:0:0:0:
155,144,212655,1,2,0:0:0:0:
176,118,212826,1,0,0:0:0:0:
176,118,212997,1,0,0:0:0:0:
193,123,213083,1,0,0:0:0:0:
266,152,213169,1,2,0:0:0:0:
198,123,213340,1,0,0:0:0:0:
211,113,213512,1,2,0:0:0:0:
201,134,213597,1,2,0:0:0:0:
156,92,213683,1,0,0:0:0:0:
193,123,213769,1,0,0:0:0:0:
266,152,213855,1,2,0:0:0:0:
241,150,214026,1,0,0:0:0:0:
159,107,214197,1,6,0:0:0:0:
200,80,214369,1,0,0:0:0:0:
266,152,214540,1,2,0:0:0:0:
190,73,214712,1,0,0:0:0:0:
190,73,214797,1,0,0:0:0:0:
192,72,214883,1,2,0:0:0:0:
192,72,215055,1,0,0:0:0:0:
266,152,215226,1,2,0:0:0:0:
181,93,215397,1,2,0:0:0:0:
181,92,215483,1,2,0:0:0:0:
181,92,215569,1,0,0:0:0:0:
176,74,215740,1,0,0:0:0:0:
266,152,215912,5,2,0:0:0:0:
175,113,216083,1,0,0:0:0:0:
175,113,216169,1,2,0:0:0:0:
175,113,216255,1,0,0:0:0:0:
188,119,216426,1,0,0:0:0:0:
266,152,216597,1,2,0:0:0:0:
167,94,216769,1,2,0:0:0:0:
209,112,216940,5,0,0:0:0:0:
216,52,217026,1,0,0:0:0:0:
209,112,217112,1,0,0:0:0:0:
216,52,217197,1,0,0:0:0:0:
209,112,217283,1,2,0:0:0:0:
207,50,217369,1,2,0:0:0:0:
167,94,217455,1,0,0:0:0:0:
167,94,217540,1,0,0:0:0:0:
209,112,217626,1,2,0:0:0:0:
84,111,217712,1,0,0:0:0:0:
129,95,217797,1,2,0:0:0:0:
177,66,217883,1,2,0:0:0:0:
173,57,217969,1,0,0:0:0:0:
186,60,218055,1,2,0:0:0:0:
201,133,218140,1,0,0:0:0:0:
186,60,218226,1,0,0:0:0:0:
218,114,218312,1,2,0:0:0:0:
284,93,218369,1,2,0:0:0:0:
284,93,218426,1,2,0:0:0:0:
284,93,218483,1,0,0:0:0:0:
135,32,218569,1,0,0:0:0:0:
152,65,218655,1,2,0:0:0:0:
172,25,218740,1,0,0:0:0:0:
219,142,218826,1,2,0:0:0:0:
217,141,218883,1,0,0:0:0:0:
213,143,218940,1,0,0:0:0:0:
217,142,218997,1,2,0:0:0:0:
207,138,219083,1,2,0:0:0:0:
111,92,219169,1,0,0:0:0:0:
209,134,219255,1,2,0:0:0:0:
209,134,219340,1,0,0:0:0:0:
201,133,219397,1,0,0:0:0:0:
189,19,219455,1,0,0:0:0:0:
203,124,219512,1,2,0:0:0:0:
201,127,219569,1,2,0:0:0:0:
197,130,219626,1,2,0:0:0:0:
153,80,219683,1,0,0:0:0:0:
121,166,220026,5,8,0:0:0:0:
143,112,220369,1,0,0:0:0:0:
137,130,220540,1,0,0:0:0:0:
106,138,220712,1,8,0:0:0:0:
121,166,221054,1,0,0:0:0:0:
143,112,221226,1,0,0:0:0:0:
106,138,221397,1,8,0:0:0:0:
143,112,221569,1,0,0:0:0:0:
184,110,221740,1,8,0:0:0:0:
101,166,222083,1,8,0:0:0:0:
194,142,222254,1,8,0:0:0:0:
101,166,222426,1,0,0:0:0:0:
194,142,222769,1,0,0:0:0:0:
194,142,223112,1,8,0:0:0:0:
194,142,223454,1,0,0:0:0:0:
136,120,223626,1,8,0:0:0:0:
136,120,223797,1,0,0:0:0:0:
136,120,224140,1,8,0:0:0:0:
136,120,224312,1,0,0:0:0:0:
136,120,224483,1,8,0:0:0:0:
136,120,224826,1,8,0:0:0:0:
136,120,225169,1,0,0:0:0:0:
148,88,225340,1,0,0:0:0:0:
136,120,225512,1,8,0:0:0:0:
195,116,225854,1,0,0:0:0:0:
180,107,226026,1,0,0:0:0:0:
180,107,226197,1,8,0:0:0:0:
180,107,226540,1,0,0:0:0:0:
149,122,226712,1,0,0:0:0:0:
149,122,226883,1,8,0:0:0:0:
149,122,227054,1,0,0:0:0:0:
180,107,227226,1,8,0:0:0:0:
142,122,227569,1,8,0:0:0:0:
137,119,227740,1,0,0:0:0:0:
149,165,227912,1,8,0:0:0:0:
200,139,228254,1,8,0:0:0:0:
137,119,228426,1,8,0:0:0:0:
149,165,228597,1,0,0:0:0:0:
142,122,228940,1,8,0:0:0:0:
137,119,229112,1,0,0:0:0:0:
149,165,229283,1,8,0:0:0:0:
137,119,229626,1,0,0:0:0:0:
200,139,229797,1,8,0:0:0:0:
142,122,229969,5,8,0:0:0:0:
137,119,230312,1,0,0:0:0:0:
149,122,230483,1,8,0:0:0:0:
123,124,230654,1,4,0:0:0:0:
121,166,230998,5,8,0:0:0:0:
143,112,231170,1,0,0:0:0:0:
137,130,231512,1,0,0:0:0:0:
106,138,231684,1,8,0:0:0:0:
121,166,232026,1,0,0:0:0:0:
143,112,232198,1,0,0:0:0:0:
106,138,232369,1,8,0:0:0:0:
143,112,232541,1,0,0:0:0:0:
184,110,232884,1,0,0:0:0:0:
101,166,233055,1,8,0:0:0:0:
194,142,233226,1,8,0:0:0:0:
101,166,233398,1,0,0:0:0:0:
140,133,233741,1,8,0:0:0:0:
159,95,233913,1,0,0:0:0:0:
286,92,234255,1,0,0:0:0:0:
159,110,234427,1,8,0:0:0:0:
136,120,234769,1,0,0:0:0:0:
159,110,234941,1,0,0:0:0:0:
136,120,235112,1,8,0:0:0:0:
136,120,235284,1,0,0:0:0:0:
136,120,235627,1,0,0:0:0:0:
136,120,235798,1,8,0:0:0:0:
159,110,235970,1,8,0:0:0:0:
136,120,236141,1,0,0:0:0:0:
148,88,236312,1,0,0:0:0:0:
136,120,236484,1,8,0:0:0:0:
195,116,236826,1,0,0:0:0:0:
174,111,237170,1,8,0:0:0:0:
124,142,237341,1,0,0:0:0:0:
180,107,237512,1,0,0:0:0:0:
149,122,237855,1,8,0:0:0:0:
160,105,238027,1,8,0:0:0:0:
160,105,238198,1,8,0:0:0:0:
142,122,238541,1,8,0:0:0:0:
124,142,238713,1,0,0:0:0:0:
144,58,238884,1,0,0:0:0:0:
200,139,239226,5,8,0:0:0:0:
176,38,239398,1,0,0:0:0:0:
150,111,239570,1,8,0:0:0:0:
150,111,239913,1,8,0:0:0:0:
256,192,240255,12,0,241284,0:0:0:0:
251,167,241626,5,4,0:0:0:0:
201,156,241883,1,0,0:0:0:0:
195,114,241969,1,2,0:0:0:0:
201,156,242140,1,0,0:0:0:0:
154,83,242397,1,2,0:0:0:0:
128,179,242483,1,0,0:0:0:0:
219,114,242655,1,0,0:0:0:0:
219,114,242826,1,2,0:0:0:0:
173,92,242997,1,0,0:0:0:0:
212,102,243169,1,2,0:0:0:0:
173,92,243255,1,0,0:0:0:0:
222,127,243426,1,2,0:0:0:0:
114,81,243512,1,0,0:0:0:0:
245,47,243597,1,2,0:0:0:0:
265,51,243769,1,2,0:0:0:0:
173,92,243855,1,0,0:0:0:0:
151,70,244026,1,0,0:0:0:0:
151,70,244197,1,0,0:0:0:0:
151,70,244369,1,6,0:0:0:0:
251,173,244626,1,2,0:0:0:0:
164,131,244797,1,2,0:0:0:0:
171,119,244969,1,0,0:0:0:0:
153,152,245140,1,0,0:0:0:0:
144,140,245226,1,2,0:0:0:0:
189,137,245397,1,0,0:0:0:0:
189,137,245569,1,2,0:0:0:0:
219,103,245740,1,2,0:0:0:0:
219,103,245826,1,2,0:0:0:0:
225,99,245912,1,0,0:0:0:0:
225,99,245997,1,0,0:0:0:0:
225,99,246083,1,0,0:0:0:0:
168,87,246255,1,2,0:0:0:0:
166,61,246426,1,2,0:0:0:0:
166,61,246512,1,2,0:0:0:0:
166,61,246597,1,0,0:0:0:0:
166,61,246683,1,2,0:0:0:0:
166,61,246769,1,0,0:0:0:0:
157,139,246855,1,0,0:0:0:0:
169,116,246940,1,2,0:0:0:0:
250,166,247112,1,4,0:0:0:0:
200,155,247369,1,0,0:0:0:0:
257,118,247455,1,2,0:0:0:0:
200,155,247626,1,0,0:0:0:0:
279,97,247883,1,2,0:0:0:0:
127,178,247969,1,0,0:0:0:0:
218,113,248141,1,0,0:0:0:0:
161,164,248226,1,0,0:0:0:0:
218,113,248312,1,2,0:0:0:0:
172,91,248483,1,4,0:0:0:0:
172,91,248741,1,0,0:0:0:0:
218,113,248826,1,2,0:0:0:0:
172,91,248998,1,0,0:0:0:0:
172,91,249083,1,2,0:0:0:0:
253,111,249255,1,2,0:0:0:0:
253,111,249340,1,0,0:0:0:0:
229,82,249512,1,0,0:0:0:0:
150,267,249683,1,0,0:0:0:0:
224,80,249769,1,0,0:0:0:0:
224,80,249855,1,2,0:0:0:0:
191,88,250026,1,0,0:0:0:0:
191,87,250112,1,2,0:0:0:0:
160,40,250283,1,2,0:0:0:0:
171,56,250455,1,0,0:0:0:0:
166,58,250540,1,2,0:0:0:0:
175,50,250712,1,0,0:0:0:0:
175,53,250797,1,0,0:0:0:0:
181,50,250969,1,2,0:0:0:0:
157,25,251140,1,0,0:0:0:0:
198,111,251226,1,2,0:0:0:0:
226,95,251397,1,0,0:0:0:0:
226,95,251483,1,2,0:0:0:0:
196,51,251655,1,2,0:0:0:0:
196,37,251826,1,0,0:0:0:0:
174,107,251912,1,2,0:0:0:0:
174,107,251997,1,2,0:0:0:0:
176,93,252083,1,0,0:0:0:0:
177,84,252169,1,0,0:0:0:0:
176,94,252255,1,2,0:0:0:0:
176,94,252340,1,2,0:0:0:0:
176,94,252426,1,0,0:0:0:0:
207,82,252597,1,4,0:0:0:0:
114,189,252769,1,0,0:0:0:0:
140,174,252940,1,8,0:0:0:0:
140,174,253283,1,0,0:0:0:0:
114,189,253454,1,0,0:0:0:0:
140,174,253626,1,8,0:0:0:0:
140,174,253969,1,0,0:0:0:0:
150,92,254140,1,0,0:0:0:0:
140,174,254312,1,8,0:0:0:0:
156,94,254483,1,8,0:0:0:0:
140,174,254654,1,0,0:0:0:0:
140,174,254997,1,8,0:0:0:0:
156,94,255340,1,4,0:0:0:0:
140,174,255512,1,0,0:0:0:0:
140,174,255683,1,8,0:0:0:0:
140,174,256026,1,0,0:0:0:0:
140,174,256197,1,0,0:0:0:0:
140,174,256369,1,8,0:0:0:0:
156,94,256712,1,0,0:0:0:0:
156,94,256883,1,0,0:0:0:0:
156,94,257054,1,8,0:0:0:0:
156,94,257226,1,8,0:0:0:0:
156,94,257397,1,0,0:0:0:0:
156,94,257740,1,8,0:0:0:0:
156,94,257912,1,8,0:0:0:0:
209,242,258083,1,4,0:0:0:0:
154,117,258254,1,0,0:0:0:0:
152,107,258340,1,0,0:0:0:0:
154,122,258426,1,8,0:0:0:0:
152,107,258597,1,8,0:0:0:0:
170,92,258769,1,0,0:0:0:0:
170,100,258854,1,8,0:0:0:0:
170,100,258940,1,0,0:0:0:0:
170,97,259026,1,0,0:0:0:0:
170,99,259112,1,8,0:0:0:0:
170,103,259283,1,8,0:0:0:0:
201,126,259455,5,0,0:0:0:0:
177,56,259540,1,0,0:0:0:0:
171,107,259626,1,2,0:0:0:0:
177,56,259712,1,0,0:0:0:0:
171,107,259798,1,2,0:0:0:0:
171,107,259883,1,2,0:0:0:0:
171,107,259969,1,0,0:0:0:0:
133,97,260054,1,2,0:0:0:0:
171,107,260140,1,0,0:0:0:0:
157,92,260226,1,0,0:0:0:0:
137,95,260312,1,0,0:0:0:0:
137,95,260397,1,0,0:0:0:0:
245,150,260483,1,2,0:0:0:0:
158,74,260569,1,0,0:0:0:0:
157,82,260654,1,8,0:0:0:0:
157,87,260740,1,8,0:0:0:0:
157,92,260826,1,0,0:0:0:0:
118,181,261169,1,8,0:0:0:0:
164,119,261512,1,2,0:0:0:0:
178,149,261854,1,0,0:0:0:0:
196,177,262026,1,2,0:0:0:0:
176,163,262197,1,0,0:0:0:0:
176,163,262369,1,0,0:0:0:0:
176,163,262540,1,2,0:0:0:0:
151,137,262883,1,0,0:0:0:0:
226,72,263140,1,0,0:0:0:0:
216,77,263226,1,2,0:0:0:0:
216,77,263312,1,2,0:0:0:0:
216,77,263397,1,0,0:0:0:0:
170,162,263569,1,4,0:0:0:0:
142,182,263740,1,0,0:0:0:0:
157,163,263826,1,0,0:0:0:0:
191,82,263912,1,0,0:0:0:0:
155,185,263997,1,8,0:0:0:0:
155,190,264169,1,0,0:0:0:0:
153,188,264340,1,0,0:0:0:0:
153,191,264426,1,8,0:0:0:0:
158,119,264512,1,8,0:0:0:0:
183,141,264597,1,0,0:0:0:0:
183,141,264769,1,8,0:0:0:0:
202,134,264854,1,8,0:0:0:0:
183,141,264940,1,0,0:0:0:0:
142,182,265112,1,0,0:0:0:0:
157,163,265197,1,0,0:0:0:0:
189,102,265283,1,0,0:0:0:0:
181,89,265369,1,8,0:0:0:0:
181,89,265454,1,0,0:0:0:0:
206,138,265540,1,8,0:0:0:0:
207,140,265712,1,8,0:0:0:0:
207,140,265797,1,0,0:0:0:0:
178,37,265883,1,0,0:0:0:0:
178,37,265969,1,8,0:0:0:0:
207,138,266054,1,0,0:0:0:0:
207,138,266140,1,8,0:0:0:0:
209,145,266226,1,8,0:0:0:0:
145,131,266312,1,0,0:0:0:0:
142,182,266483,1,0,0:0:0:0:
155,181,266569,1,0,0:0:0:0:
189,103,266654,1,0,0:0:0:0:
155,185,266740,1,8,0:0:0:0:
155,190,266912,1,0,0:0:0:0:
153,188,267083,1,0,0:0:0:0:
153,191,267169,1,8,0:0:0:0:
189,103,267254,1,8,0:0:0:0:
183,141,267340,1,0,0:0:0:0:
183,141,267512,1,8,0:0:0:0:
196,133,267683,1,0,0:0:0:0:
144,179,267769,1,8,0:0:0:0:
196,158,267854,1,0,0:0:0:0:
206,138,267940,1,0,0:0:0:0:
293,185,268026,1,0,0:0:0:0:
206,138,268112,1,0,0:0:0:0:
175,108,268197,1,8,0:0:0:0:
175,108,268369,1,8,0:0:0:0:
207,140,268455,1,8,0:0:0:0:
207,140,268540,1,0,0:0:0:0:
172,80,268626,1,0,0:0:0:0:
172,80,268712,1,8,0:0:0:0:
207,138,268797,1,0,0:0:0:0:
207,138,268883,1,8,0:0:0:0:
209,145,268969,1,8,0:0:0:0:
209,146,269055,1,0,0:0:0:0:
166,108,269226,1,0,0:0:0:0:
172,80,269312,1,8,0:0:0:0:
189,111,269397,1,0,0:0:0:0:
184,65,269483,1,8,0:0:0:0:
186,103,269654,1,0,0:0:0:0:
148,168,269740,1,0,0:0:0:0:
164,97,269826,1,8,0:0:0:0:
189,111,269912,1,0,0:0:0:0:
167,98,269997,1,0,0:0:0:0:
211,96,270083,1,8,0:0:0:0:
200,112,270254,1,8,0:0:0:0:
173,104,270426,1,0,0:0:0:0:
211,87,270597,1,0,0:0:0:0:
213,77,270683,1,8,0:0:0:0:
172,80,270769,1,0,0:0:0:0:
170,140,270854,1,8,0:0:0:0:
176,166,270940,1,8,0:0:0:0:
206,108,271026,1,0,0:0:0:0:
158,117,271197,1,8,0:0:0:0:
146,119,271283,1,0,0:0:0:0:
189,111,271369,1,0,0:0:0:0:
205,108,271454,1,8,0:0:0:0:
200,112,271626,1,0,0:0:0:0:
154,106,271797,1,8,0:0:0:0:
189,111,271883,1,8,0:0:0:0:
169,53,271969,1,0,0:0:0:0:
201,161,272054,1,0,0:0:0:0:
169,53,272226,1,8,0:0:0:0:
185,80,272312,1,0,0:0:0:0:
138,120,272397,1,0,0:0:0:0:
169,53,272483,1,8,0:0:0:0:
189,111,272569,1,8,0:0:0:0:
169,53,272654,1,0,0:0:0:0:
201,161,272740,1,0,0:0:0:0:
169,53,272912,1,8,0:0:0:0:
185,80,272997,1,0,0:0:0:0:
169,53,273083,1,0,0:0:0:0:
153,82,273169,1,8,0:0:0:0:
189,111,273254,1,8,0:0:0:0:
172,82,273340,1,0,0:0:0:0:
182,91,273426,1,8,0:0:0:0:
164,43,273597,1,8,0:0:0:0:
164,44,273683,1,0,0:0:0:0:
169,53,273769,1,0,0:0:0:0:
169,53,273854,1,8,0:0:0:0:
169,53,273940,1,8,0:0:0:0:
169,53,274026,1,0,0:0:0:0:
169,53,274112,1,0,0:0:0:0:
166,57,274197,1,8,0:0:0:0:
172,82,274283,1,8,0:0:0:0:
166,57,274369,1,0,0:0:0:0:
170,162,274540,1,4,0:0:0:0:
142,182,274711,1,0,0:0:0:0:
157,163,274797,1,0,0:0:0:0:
135,165,274883,1,8,0:0:0:0:
155,185,274968,1,8,0:0:0:0:
155,190,275140,1,0,0:0:0:0:
153,188,275311,1,0,0:0:0:0:
153,191,275397,1,8,0:0:0:0:
169,148,275569,1,8,0:0:0:0:
183,141,275740,1,8,0:0:0:0:
202,134,275825,1,8,0:0:0:0:
183,141,275911,1,0,0:0:0:0:
142,182,276083,1,0,0:0:0:0:
157,163,276168,1,0,0:0:0:0:
169,148,276254,1,8,0:0:0:0:
181,89,276340,1,8,0:0:0:0:
181,89,276425,1,0,0:0:0:0:
206,138,276511,1,8,0:0:0:0:
207,140,276683,1,8,0:0:0:0:
207,140,276768,1,0,0:0:0:0:
178,37,276854,1,0,0:0:0:0:
178,37,276940,1,8,0:0:0:0:
207,138,277025,1,0,0:0:0:0:
207,138,277111,1,8,0:0:0:0:
209,145,277197,1,8,0:0:0:0:
145,131,277283,1,0,0:0:0:0:
142,182,277454,1,0,0:0:0:0:
155,181,277540,1,0,0:0:0:0:
165,148,277626,1,8,0:0:0:0:
155,185,277711,1,8,0:0:0:0:
155,190,277883,1,0,0:0:0:0:
153,188,278054,1,0,0:0:0:0:
153,191,278140,1,8,0:0:0:0:
162,124,278226,1,0,0:0:0:0:
162,124,278312,1,8,0:0:0:0:
183,141,278483,1,8,0:0:0:0:
196,133,278654,1,0,0:0:0:0:
144,179,278740,1,8,0:0:0:0:
194,161,278826,1,0,0:0:0:0:
206,138,278911,5,0,0:0:0:0:
162,124,278997,1,8,0:0:0:0:
206,138,279083,1,0,0:0:0:0:
175,108,279168,1,8,0:0:0:0:
175,108,279340,1,8,0:0:0:0:
207,140,279426,1,8,0:0:0:0:
207,140,279511,1,0,0:0:0:0:
172,80,279597,1,0,0:0:0:0:
172,80,279683,1,8,0:0:0:0:
207,138,279768,1,0,0:0:0:0:
207,138,279854,1,8,0:0:0:0:
209,146,280026,1,4,0:0:0:0:
139,82,280197,1,0,0:0:0:0:
171,66,280283,1,0,0:0:0:0:
146,67,280369,1,8,0:0:0:0:
194,161,280454,1,8,0:0:0:0:
173,124,280540,1,0,0:0:0:0:
139,82,280626,1,0,0:0:0:0:
164,97,280797,1,8,0:0:0:0:
176,74,280883,1,0,0:0:0:0:
167,98,280968,1,0,0:0:0:0:
211,96,281054,1,8,0:0:0:0:
200,112,281225,1,8,0:0:0:0:
171,84,281397,1,4,0:0:0:0:
211,87,281568,1,0,0:0:0:0:
171,67,281654,1,0,0:0:0:0:
171,67,281740,1,8,0:0:0:0:
173,125,281826,1,8,0:0:0:0:
190,97,281912,1,0,0:0:0:0:
171,77,281997,1,8,0:0:0:0:
171,84,282169,1,8,0:0:0:0:
171,84,282254,1,8,0:0:0:0:
205,108,282340,1,0,0:0:0:0:
205,108,282425,1,8,0:0:0:0:
200,112,282597,1,0,0:0:0:0:
133,129,282769,1,8,0:0:0:0:
133,129,282854,1,0,0:0:0:0:
133,129,282940,1,8,0:0:0:0:
133,133,283026,1,8,0:0:0:0:
133,134,283112,1,0,0:0:0:0:
133,134,283197,1,8,0:0:0:0:
133,135,283283,1,0,0:0:0:0:
133,138,283369,1,0,0:0:0:0:
134,139,283454,1,8,0:0:0:0:
134,139,283540,1,0,0:0:0:0:
134,139,283626,1,8,0:0:0:0:
135,143,283712,1,8,0:0:0:0:
140,149,283797,1,0,0:0:0:0:
140,149,283883,1,8,0:0:0:0:
140,150,283969,1,0,0:0:0:0:
141,154,284054,1,0,0:0:0:0:
141,154,284140,1,8,0:0:0:0:
181,77,284483,1,8,0:0:0:0:
164,44,284654,1,0,0:0:0:0:
136,87,284740,1,0,0:0:0:0:
169,53,284825,1,8,0:0:0:0:
169,53,284911,1,8,0:0:0:0:
169,53,284997,1,0,0:0:0:0:
169,53,285083,1,0,0:0:0:0:
166,57,285168,1,8,0:0:0:0:
121,92,285340,1,8,0:0:0:0:
259,235,285512,5,4,0:0:0:0:
265,162,285683,1,0,0:0:0:0:
265,162,285855,1,2,0:0:0:0:
171,79,286026,1,0,0:0:0:0:
171,79,286112,1,0,0:0:0:0:
218,174,286197,1,2,0:0:0:0:
249,148,286369,1,0,0:0:0:0:
249,148,286541,1,2,0:0:0:0:
185,81,286712,1,2,0:0:0:0:
179,82,286797,1,2,0:0:0:0:
239,158,286883,1,0,0:0:0:0:
251,107,287055,1,0,0:0:0:0:
251,107,287226,1,2,0:0:0:0:
224,167,287312,1,2,0:0:0:0:
230,143,287397,1,0,0:0:0:0:
251,107,287483,1,0,0:0:0:0:
186,106,287569,1,2,0:0:0:0:
186,106,287740,1,0,0:0:0:0:
186,106,287912,1,2,0:0:0:0:
129,143,287997,1,0,0:0:0:0:
101,120,288083,1,8,0:0:0:0:
101,127,288254,1,0,0:0:0:0:
141,146,288426,1,0,0:0:0:0:
139,100,288597,1,8,0:0:0:0:
149,82,288769,1,0,0:0:0:0:
151,82,288854,1,0,0:0:0:0:
149,97,288940,1,8,0:0:0:0:
139,163,289026,1,8,0:0:0:0:
191,77,289112,1,0,0:0:0:0:
191,77,289283,1,2,0:0:0:0:
167,106,289454,1,0,0:0:0:0:
167,106,289626,1,8,0:0:0:0:
167,106,289712,1,0,0:0:0:0:
152,130,289797,1,0,0:0:0:0:
170,13,289883,1,0,0:0:0:0:
240,122,289969,1,2,0:0:0:0:
164,112,290054,1,8,0:0:0:0:
131,173,290140,1,0,0:0:0:0:
133,178,290312,1,8,0:0:0:0:
241,124,290483,1,0,0:0:0:0:
241,124,290654,1,2,0:0:0:0:
178,85,290826,1,2,0:0:0:0:
167,106,290912,1,0,0:0:0:0:
136,138,290997,1,0,0:0:0:0:
265,162,291168,1,0,0:0:0:0:
265,162,291340,1,2,0:0:0:0:
171,79,291511,1,0,0:0:0:0:
171,79,291597,1,0,0:0:0:0:
218,174,291682,1,2,0:0:0:0:
249,148,291854,1,0,0:0:0:0:
249,148,292026,1,2,0:0:0:0:
185,81,292197,1,2,0:0:0:0:
179,82,292282,1,2,0:0:0:0:
239,158,292368,1,0,0:0:0:0:
251,107,292540,1,0,0:0:0:0:
251,107,292711,1,2,0:0:0:0:
224,167,292797,1,2,0:0:0:0:
230,143,292882,1,0,0:0:0:0:
251,107,292968,1,0,0:0:0:0:
186,106,293054,1,2,0:0:0:0:
186,106,293225,1,0,0:0:0:0:
186,106,293397,1,2,0:0:0:0:
129,143,293482,1,0,0:0:0:0:
101,120,293568,1,8,0:0:0:0:
136,138,293654,1,8,0:0:0:0:
101,127,293739,1,0,0:0:0:0:
141,146,293911,1,0,0:0:0:0:
139,100,294082,1,8,0:0:0:0:
136,138,294169,1,8,0:0:0:0:
149,82,294254,1,0,0:0:0:0:
95,132,294340,1,8,0:0:0:0:
92,132,294426,1,0,0:0:0:0:
161,114,294597,1,0,0:0:0:0:
191,77,294768,1,2,0:0:0:0:
161,114,294854,1,0,0:0:0:0:
191,77,294939,1,2,0:0:0:0:
161,114,295026,1,8,0:0:0:0:
201,153,295111,1,0,0:0:0:0:
152,130,295282,1,0,0:0:0:0:
240,122,295454,1,2,0:0:0:0:
181,127,295540,1,8,0:0:0:0:
181,127,295626,1,0,0:0:0:0:
129,95,295712,1,8,0:0:0:0:
129,97,295797,1,0,0:0:0:0:
129,100,295883,1,0,0:0:0:0:
241,124,295968,1,0,0:0:0:0:
129,100,296054,1,0,0:0:0:0:
241,124,296139,1,2,0:0:0:0:
178,85,296311,1,2,0:0:0:0:
163,77,296483,1,4,0:0:0:0:
175,106,296654,1,0,0:0:0:0:
179,97,296826,1,8,0:0:0:0:
159,123,296912,1,0,0:0:0:0:
173,92,296997,1,0,0:0:0:0:
173,107,297169,1,8,0:0:0:0:
182,120,297340,1,0,0:0:0:0:
159,123,297426,1,0,0:0:0:0:
182,120,297512,1,8,0:0:0:0:
217,128,297683,1,0,0:0:0:0:
217,128,297854,1,8,0:0:0:0:
187,128,298026,1,0,0:0:0:0:
221,148,298112,1,0,0:0:0:0:
187,128,298197,1,8,0:0:0:0:
176,113,298283,1,8,0:0:0:0:
187,128,298369,1,0,0:0:0:0:
187,128,298540,1,8,0:0:0:0:
176,119,298712,1,0,0:0:0:0:
187,128,298883,1,8,0:0:0:0:
176,119,298969,1,0,0:0:0:0:
187,128,299054,1,8,0:0:0:0:
171,95,299226,1,4,0:0:0:0:
215,148,299483,1,0,0:0:0:0:
187,128,299569,1,8,0:0:0:0:
159,85,299740,1,0,0:0:0:0:
159,85,299912,1,8,0:0:0:0:
159,85,299997,1,0,0:0:0:0:
159,85,300083,1,0,0:0:0:0:
161,92,300169,1,0,0:0:0:0:
187,128,300254,1,8,0:0:0:0:
187,128,300426,1,8,0:0:0:0:
171,95,300597,1,4,0:0:0:0:
204,80,300769,1,0,0:0:0:0:
238,133,300940,5,8,0:0:0:0:
238,133,301283,1,8,0:0:0:0:
238,133,301626,1,8,0:0:0:0:
238,133,301712,1,8,0:0:0:0:
238,133,301797,1,8,0:0:0:0:
171,95,301969,1,4,0:0:0:0:
189,104,302140,1,0,0:0:0:0:
189,104,302312,1,8,0:0:0:0:
189,104,302483,1,8,0:0:0:0:
189,104,302654,1,0,0:0:0:0:
189,104,302826,1,0,0:0:0:0:
189,104,302997,1,8,0:0:0:0:
189,104,303169,1,8,0:0:0:0:
171,125,303340,1,4,0:0:0:0:
189,104,303512,1,0,0:0:0:0:
189,104,303683,1,8,0:0:0:0:
189,104,303854,1,8,0:0:0:0:
171,125,304026,1,0,0:0:0:0:
189,104,304197,1,0,0:0:0:0:
189,104,304369,1,8,0:0:0:0:
189,104,304540,1,0,0:0:0:0:
189,104,304712,1,8,0:0:0:0:
171,125,304797,1,8,0:0:0:0:
171,125,304883,1,0,0:0:0:0:
207,92,304969,1,0,0:0:0:0:
207,92,305054,1,8,0:0:0:0:
177,117,305140,1,0,0:0:0:0:
208,99,305226,1,0,0:0:0:0:
208,99,305312,1,0,0:0:0:0:
208,99,305397,1,8,0:0:0:0:
208,99,305483,1,0,0:0:0:0:
207,100,305569,1,8,0:0:0:0:
208,99,305654,1,8,0:0:0:0:
208,99,305740,1,0,0:0:0:0:
208,99,305826,1,0,0:0:0:0:
208,99,305912,1,8,0:0:0:0:
207,102,305997,1,0,0:0:0:0:
142,148,306083,1,8,0:0:0:0:
151,107,306140,1,8,0:0:0:0:
151,107,306197,1,8,0:0:0:0:
151,107,306254,1,0,0:0:0:0:
197,103,306340,1,0,0:0:0:0:
151,107,306426,1,8,0:0:0:0:
151,107,306483,5,0,0:0:0:0:
151,107,306540,1,0,0:0:0:0:
152,112,306597,1,8,0:0:0:0:
184,103,306683,1,8,0:0:0:0:
154,119,306769,1,0,0:0:0:0:
154,121,306826,1,8,0:0:0:0:
155,129,306883,1,8,0:0:0:0:
155,130,306940,1,0,0:0:0:0:
184,103,307026,1,0,0:0:0:0:
209,134,307111,1,8,0:0:0:0:
201,133,307168,1,8,0:0:0:0:
189,19,307226,1,8,0:0:0:0:
203,124,307283,1,2,0:0:0:0:
201,127,307340,1,2,0:0:0:0:
197,130,307397,1,2,0:0:0:0:
168,179,307454,1,0,0:0:0:0:
231,155,307626,1,2,0:0:0:0:
194,126,307797,1,0,0:0:0:0:
181,147,307969,1,0,0:0:0:0:
181,147,308140,1,2,0:0:0:0:
188,151,308483,1,2,0:0:0:0:
188,151,308655,1,2,0:0:0:0:
188,151,308826,1,0,0:0:0:0:
188,151,308997,1,2,0:0:0:0:
188,151,309169,1,2,0:0:0:0:
211,140,309512,1,2,0:0:0:0:
211,140,309683,1,0,0:0:0:0:
211,140,309855,1,2,0:0:0:0:
211,140,310026,1,2,0:0:0:0:
211,140,310197,1,0,0:0:0:0:
211,140,310369,1,0,0:0:0:0:
211,140,310540,1,2,0:0:0:0:
236,101,310883,1,2,0:0:0:0:
236,101,311055,1,0,0:0:0:0:
149,86,311226,1,2,0:0:0:0:
161,85,311397,1,2,0:0:0:0:
166,83,311569,1,0,0:0:0:0:
214,87,311740,1,2,0:0:0:0:
176,77,311912,1,2,0:0:0:0:
211,140,312255,1,2,0:0:0:0:
211,140,312426,1,0,0:0:0:0:
211,140,312598,1,2,0:0:0:0:
211,140,312769,1,2,0:0:0:0:
211,140,312940,1,0,0:0:0:0:
211,140,313112,1,0,0:0:0:0:
211,140,313283,1,2,0:0:0:0:
236,101,313626,1,2,0:0:0:0:
236,101,313798,1,0,0:0:0:0:
149,86,313969,1,2,0:0:0:0:
161,85,314140,1,2,0:0:0:0:
166,83,314312,1,0,0:0:0:0:
214,87,314483,1,2,0:0:0:0:
176,77,314655,1,2,0:0:0:0:
211,140,314997,1,2,0:0:0:0:
211,140,315168,1,0,0:0:0:0:
211,140,315340,1,2,0:0:0:0:
211,140,315511,1,2,0:0:0:0:
211,140,315682,1,0,0:0:0:0:
211,140,315854,1,0,0:0:0:0:
211,140,316025,1,2,0:0:0:0:
236,101,316368,1,2,0:0:0:0:
236,101,316540,1,0,0:0:0:0:
149,86,316711,1,2,0:0:0:0:
161,85,316882,1,2,0:0:0:0:
166,83,317054,1,0,0:0:0:0:
214,87,317225,1,2,0:0:0:0:
176,77,317397,1,2,0:0:0:0:
211,140,317740,1,0,0:0:0:0:
211,140,317911,1,0,0:0:0:0:
211,140,318083,1,2,0:0:0:0:
211,140,318426,1,6,0:0:0:0:
211,140,318597,1,0,0:0:0:0:
211,140,318768,1,2,0:0:0:0:
236,101,319111,1,2,0:0:0:0:
236,101,319283,1,0,0:0:0:0:
149,86,319454,1,2,0:0:0:0:
161,85,319625,1,2,0:0:0:0:
166,83,319797,1,0,0:0:0:0:
214,87,319968,1,2,0:0:0:0:
176,77,320140,1,2,0:0:0:0:
211,140,320483,1,2,0:0:0:0:
211,140,320654,1,0,0:0:0:0:
211,140,320826,1,2,0:0:0:0:
211,140,320997,1,2,0:0:0:0:
211,140,321168,1,0,0:0:0:0:
211,140,321340,1,0,0:0:0:0:
211,140,321511,1,2,0:0:0:0:
236,101,321854,1,2,0:0:0:0:
236,101,322026,1,0,0:0:0:0:
149,86,322197,1,2,0:0:0:0:
161,85,322368,1,2,0:0:0:0:
166,83,322540,1,0,0:0:0:0:
214,87,322711,1,2,0:0:0:0:
176,77,322883,1,2,0:0:0:0:
211,140,323226,1,2,0:0:0:0:
211,140,323397,1,0,0:0:0:0:
211,140,323569,1,2,0:0:0:0:
211,140,323911,1,4,0:0:0:0:
211,140,324254,1,2,0:0:0:0:
236,101,324597,1,2,0:0:0:0:
149,86,324940,1,2,0:0:0:0:
166,83,325283,1,0,0:0:0:0:
176,77,325626,1,2,0:0:0:0:
211,140,325969,1,2,0:0:0:0:
211,140,326312,1,2,0:0:0:0:
211,140,326654,1,4,0:0:0:0:
211,140,326997,1,2,0:0:0:0:
236,101,327340,1,2,0:0:0:0:
149,86,327683,1,2,0:0:0:0:
166,83,328026,1,0,0:0:0:0:
176,77,328369,1,2,0:0:0:0:
211,140,328712,1,2,0:0:0:0:
211,140,329055,1,2,0:0:0:0:
211,140,329226,1,2,0:0:0:0:
