osu file format v14

[General]
AudioFilename: audio.mp3
AudioLeadIn: 0
PreviewTime: 73531
Countdown: 0
SampleSet: Normal
StackLeniency: 0.7
Mode: 1
LetterboxInBreaks: 0
WidescreenStoryboard: 0

[Editor]
DistanceSpacing: 1.2
BeatDivisor: 12
GridSize: 4
TimelineZoom: 2.1

[Metadata]
Title:Wriggle
TitleUnicode:Wriggle
Artist:clipping.
ArtistUnicode:clipping.
Creator:Nifty
Version:Ophidicism
Source:
Tags:experimental electronic english hip hop rap daveed diggs william hutson jonathan snipes sub pop records clppng hiphop hip-hop
BeatmapID:2304989
BeatmapSetID:1103315

[Difficulty]
HPDrainRate:5.5
CircleSize:2
OverallDifficulty:6.5
ApproachRate:10
SliderMultiplier:1.4
SliderTickRate:1

[Events]
//Background and Video events
0,0,"wrig.jpg",0,60
//Break Periods
2,145778,150565
//Storyboard Layer 0 (Background)
//Storyboard Layer 1 (Fail)
//Storyboard Layer 2 (Pass)
//Storyboard Layer 3 (Foreground)
//Storyboard Layer 4 (Overlay)
//Storyboard Sound Samples

[TimingPoints]
78,375,4,1,0,20,1,0
78,-166.666666666667,4,1,0,20,0,0
3118,-25,4,1,0,20,0,0
4525,-166.666666666667,4,1,0,20,0,0
6118,-25,4,1,0,20,0,0
7525,-166.666666666667,4,1,0,20,0,0
9118,-25,4,1,0,20,0,0
10478,-166.666666666667,4,1,0,20,0,0
11743,-25,4,1,0,20,0,0
12025,-166.666666666667,4,1,0,20,0,0
13495,-125,4,1,0,25,0,0
14603,-111.111111111111,4,1,0,25,0,0
14743,-125,4,1,0,25,0,0
16197,-111.111111111111,4,1,0,25,0,0
16243,-125,4,1,0,25,0,0
17697,-111.111111111111,4,1,0,25,0,0
17743,-125,4,1,0,25,0,0
19056,-111.111111111111,4,1,0,35,0,0
25109,-109.118129104206,4,1,0,35,0,0
25203,-107.195267972091,4,1,0,35,0,0
25296,-105.33911293933,4,1,0,35,0,0
25390,-103.546144821709,4,1,0,35,0,0
25484,-101.813087461515,4,1,0,35,0,0
25578,-100.137187947488,4,1,0,40,0,0
31531,-91.0224552397076,4,1,0,70,0,0
31953,-89.8889332340959,4,1,0,70,0,0
32140,-89.38739244462,4,1,0,70,0,0
32328,-88.8914963727825,4,1,0,70,0,0
32609,-88.1577671400739,4,1,0,70,0,0
32703,-87.915875057475,4,1,0,70,0,0
32890,-87.436051457865,4,1,0,70,0,0
32984,-87.1980983838704,4,1,0,70,0,0
33078,-86.9614369507842,4,1,0,70,0,0
33453,-86.0274995505063,4,1,0,70,0,0
33640,-85.5680133075374,4,1,0,70,0,0
33734,-85.3401059241395,4,1,0,70,0,0
33828,-85.113481805291,4,1,0,70,0,0
34109,-84.4405601786762,4,1,0,70,0,0
34203,-84.2186113024745,4,1,0,70,0,0
34390,-83.7781955517129,4,1,0,70,0,0
34484,-83.5597105157389,4,1,0,70,0,0
34578,-83.3423620892263,4,1,0,70,0,0
34953,-82.4841589172799,4,1,0,70,0,0
35140,-82.0616512773717,4,1,0,70,0,0
35328,-81.6435166475213,4,1,0,70,0,0
35609,-81.0241451952682,4,1,0,70,0,0
35703,-80.8197711022443,4,1,0,70,0,0
35890,-80.414100451686,4,1,0,70,0,0
35984,-80.2127884852938,4,1,0,70,0,0
36078,-80.0124819471838,4,1,0,70,0,0
36265,-79.6148551765977,4,1,0,70,0,0
36453,-79.2211609227364,4,1,0,70,0,0
36640,-78.8313411339573,4,1,0,70,0,0
36734,-78.6379281736892,4,1,0,70,0,0
36828,-78.445400432391,4,1,0,70,0,0
37015,-78.0631593409596,4,1,0,70,0,0
37109,-77.8734323104658,4,1,0,70,0,0
37203,-77.6846252804415,4,1,0,70,0,0
37390,-77.3097445840658,4,1,0,70,0,0
37578,-76.9384646160001,4,1,0,70,0,0
49578,-76.9230769230769,4,1,0,70,0,0
49765,-78.4273742907224,4,1,0,70,0,0
49953,-79.99168086519,4,1,0,70,0,0
50328,-83.3152816889674,4,1,0,70,0,0
50515,-85.0828494246272,4,1,0,70,0,0
50703,-86.9270421335373,4,1,0,70,0,0
51078,-90.8662185750541,4,1,0,70,0,0
51265,-92.9727478281566,4,1,0,70,0,0
51453,-95.1792653873939,4,1,0,70,0,0
51828,-99.9221606368639,4,1,0,70,0,0
52015,-102.475395657503,4,1,0,70,0,0
52203,-105.162533954353,4,1,0,70,0,0
52578,-111.111111111111,4,1,0,70,0,0
52765,-108.115705427949,4,1,0,70,0,0
52953,-105.277564298272,4,1,0,70,0,0
53140,-102.584619488,4,1,0,70,0,0
53328,-100.026006761758,4,1,0,70,0,0
53515,-97.5919193890746,4,1,0,70,0,0
53703,-95.273482531607,4,1,0,70,0,0
53890,-93.0626451195622,4,1,0,70,0,0
54078,-90.9520037181179,4,1,0,70,0,0
54265,-88.9350560646593,4,1,0,70,0,0
54453,-87.0056231734257,4,1,0,70,0,0
54640,-85.1581301318418,4,1,0,70,0,0
54828,-83.3874656964813,4,1,0,70,0,0
55015,-81.6889350703669,4,1,0,70,0,0
55203,-80.0582183363742,4,1,0,70,0,0
55390,-78.4913337718382,4,1,0,70,0,0
55578,-76.9846053884605,4,1,0,70,0,0
55765,-83.4055486375287,4,1,0,70,0,0
55953,-80,4,1,0,70,0,0
56046,-81.6326530612245,4,1,0,70,0,0
56140,-83.3333333333333,4,1,0,70,0,0
56328,-76.9230769230769,4,1,0,70,0,0
56421,-80,4,1,0,70,0,0
56515,-83.3333333333333,4,1,0,70,0,0
56703,-76.9230769230769,4,1,0,70,0,0
56843,-80,4,1,0,70,0,0
57031,-76.9230769230769,4,1,0,70,0,0
57265,-83.3333333333333,4,1,0,70,0,0
57453,-80,4,1,0,70,0,0
57546,-81.6326530612245,4,1,0,70,0,0
57640,-83.3333333333333,4,1,0,70,0,0
57828,-76.9230769230769,4,1,0,70,0,0
57890,-78.9473476454348,4,1,0,70,0,0
57953,-81.0811029948927,4,1,0,70,0,0
58015,-83.3333333333333,4,1,0,70,0,0
58203,-76.9230769230769,4,1,0,70,0,0
58390,-80,4,1,0,70,0,0
58484,-78.4929356357928,4,1,0,70,0,0
58578,-77.0416024653313,4,1,0,70,0,0
58765,-83.4724540901503,4,1,0,70,0,0
58953,-80,4,1,0,70,0,0
59046,-81.6326530612245,4,1,0,70,0,0
59140,-83.3333333333333,4,1,0,70,0,0
59328,-76.9230769230769,4,1,0,70,0,0
59515,-83.3333333333333,4,1,0,70,0,0
59609,-80.1282051282051,4,1,0,70,0,0
59703,-77.1604938271605,4,1,0,70,0,0
59890,-80,4,1,0,70,0,0
60078,-76.9230769230769,4,1,0,70,0,0
60265,-78.9330150754165,4,1,0,70,0,0
60453,-81.0508732015824,4,1,0,70,0,0
60640,-83.2854442029167,4,1,0,70,0,0
60734,-84.4496165142914,4,1,0,70,0,0
60828,-85.646796039007,4,1,0,70,0,0
60921,-86.8784067195235,4,1,0,70,0,0
61109,-89.4509589590055,4,1,0,70,0,0
61203,-90.7952666611584,4,1,0,70,0,0
61390,-83.3333333333333,4,1,0,70,0,0
61484,-80.1282051282051,4,1,0,70,0,0
61578,-77.1604938271605,4,1,0,70,0,0
61741,-83.4055486375287,4,1,0,70,0,0
61929,-80,4,1,0,70,0,0
62022,-81.6326530612245,4,1,0,70,0,0
62116,-83.3333333333333,4,1,0,70,0,0
62304,-76.9230769230769,4,1,0,70,0,0
62397,-80,4,1,0,70,0,0
62491,-83.3333333333333,4,1,0,70,0,0
62679,-76.9230769230769,4,1,0,70,0,0
62819,-80,4,1,0,70,0,0
63007,-76.9230769230769,4,1,0,70,0,0
63241,-83.3333333333333,4,1,0,70,0,0
63429,-80,4,1,0,70,0,0
63522,-81.6326530612245,4,1,0,70,0,0
63616,-83.3333333333333,4,1,0,70,0,0
63804,-76.9230769230769,4,1,0,70,0,0
63866,-78.9473476454348,4,1,0,70,0,0
63929,-81.0811029948927,4,1,0,70,0,0
63991,-83.3333333333333,4,1,0,70,0,0
64179,-76.9230769230769,4,1,0,70,0,0
64366,-80,4,1,0,70,0,0
64460,-78.4929356357928,4,1,0,70,0,0
64554,-77.0416024653313,4,1,0,70,0,0
64741,-83.4724540901503,4,1,0,70,0,0
64929,-80,4,1,0,70,0,0
65022,-81.6326530612245,4,1,0,70,0,0
65116,-83.3333333333333,4,1,0,70,0,0
65304,-76.9230769230769,4,1,0,70,0,0
65491,-83.3333333333333,4,1,0,70,0,0
65585,-80.1282051282051,4,1,0,70,0,0
65679,-77.1604938271605,4,1,0,70,0,0
65866,-80,4,1,0,70,0,0
66078,-76.9230769230769,4,1,0,70,0,0
66265,-77.8576683964045,4,1,0,70,0,0
66453,-78.8151870560242,4,1,0,70,0,0
66546,-79.3028958245439,4,1,0,70,0,0
66734,-80.296518985309,4,1,0,70,0,0
66828,-80.8027918980657,4,1,0,70,0,0
67015,-81.834600814909,4,1,0,70,0,0
67109,-82.3605183441583,4,1,0,70,0,0
67203,-82.8931705974608,4,1,0,70,0,0
67296,-83.4327573691983,4,1,0,70,0,0
67390,-83.9794854912842,4,1,0,70,0,0
67484,-84.5333547484499,4,1,0,70,0,0
67578,-85.0945783691284,4,1,0,70,0,0
67953,-87.4161788115421,4,1,0,70,0,0
68328,-89.8679300899398,4,1,0,70,0,0
68703,-92.461263353718,4,1,0,70,0,0
69078,-95.2086259015067,4,1,0,70,0,0
69453,-98.1242567087554,4,1,0,70,0,0
69828,-101.224205541823,4,1,0,70,0,0
70203,-104.526302476124,4,1,0,70,0,0
70578,-108.051103850077,4,1,0,70,0,0
70953,-111.822050861142,4,1,0,70,0,0
71328,-115.865591279492,4,1,0,70,0,0
71703,-120.212535763229,4,1,0,70,0,0
72078,-125,4,1,0,70,0,0
72265,-117.682917500744,4,1,0,70,0,0
72453,-111.175098556725,4,1,0,70,0,0
72640,-105.349322551181,4,1,0,70,0,0
72828,-100.103707440909,4,1,0,70,0,0
73015,-95.3557006021713,4,1,0,70,0,0
73203,-91.0377023540529,4,1,0,70,0,0
73390,-87.0938270508201,4,1,0,70,0,0
73578,-76.9230769230769,4,1,0,70,0,1
73647,-77.6621216204357,4,1,0,70,0,1
73741,-78.415504940961,4,1,0,70,0,1
73835,-79.1836482598997,4,1,0,70,0,1
73929,-79.9670535739275,4,1,0,70,0,1
74022,-80.7660498294221,4,1,0,70,0,1
74116,-81.5811736757132,4,1,0,70,0,1
74210,-82.4129183897834,4,1,0,70,0,1
74304,-83.3333333333333,4,1,0,70,0,1
74397,-82.4830023152979,4,1,0,70,0,1
74491,-81.6498495193273,4,1,0,70,0,1
74585,-80.8333596041752,4,1,0,70,0,1
74679,-80.0329735851171,4,1,0,70,0,1
74772,-79.2483452945502,4,1,0,70,0,1
74819,-78.8618033644023,4,1,0,70,0,1
74866,-78.4789523373779,4,1,0,70,0,1
74960,-77.7243552376111,4,1,0,70,0,1
75054,-76.9230769230769,4,1,0,70,0,1
75147,-77.6621216204357,4,1,0,70,0,1
75241,-78.415504940961,4,1,0,70,0,1
75335,-79.1836482598997,4,1,0,70,0,1
75429,-79.9670535739275,4,1,0,70,0,1
75522,-80.7660498294221,4,1,0,70,0,1
75616,-81.5811736757132,4,1,0,70,0,1
75710,-82.4129183897834,4,1,0,70,0,1
75804,-83.3333333333333,4,1,0,70,0,1
75897,-82.4830023152979,4,1,0,70,0,1
75991,-81.6498495193273,4,1,0,70,0,1
76085,-80.8333596041752,4,1,0,70,0,1
76179,-80.0329735851171,4,1,0,70,0,1
76272,-79.2483452945502,4,1,0,70,0,1
76366,-78.4789523373779,4,1,0,70,0,1
76460,-77.7243552376111,4,1,0,70,0,1
76507,-77.3524424807238,4,1,0,70,0,1
76554,-76.9230769230769,4,1,0,70,0,1
76647,-77.6621216204357,4,1,0,70,0,1
76741,-78.415504940961,4,1,0,70,0,1
76835,-79.1836482598997,4,1,0,70,0,1
76929,-79.9670535739275,4,1,0,70,0,1
77022,-80.7660498294221,4,1,0,70,0,1
77116,-81.5811736757132,4,1,0,70,0,1
77210,-82.4129183897834,4,1,0,70,0,1
77304,-83.3333333333333,4,1,0,70,0,1
77397,-82.4830023152979,4,1,0,70,0,1
77491,-81.6498495193273,4,1,0,70,0,1
77585,-80.8333596041752,4,1,0,70,0,1
77679,-80.0329735851171,4,1,0,70,0,1
77772,-79.2483452945502,4,1,0,70,0,1
77819,-78.8618033644023,4,1,0,70,0,1
77866,-78.4789523373779,4,1,0,70,0,1
77960,-77.7243552376111,4,1,0,70,0,1
78054,-76.9230769230769,4,1,0,70,0,1
78147,-77.6621216204357,4,1,0,70,0,1
78241,-78.415504940961,4,1,0,70,0,1
78335,-79.1836482598997,4,1,0,70,0,1
78429,-79.9670535739275,4,1,0,70,0,1
78522,-80.7660498294221,4,1,0,70,0,1
78616,-81.5811736757132,4,1,0,70,0,1
78710,-82.4129183897834,4,1,0,70,0,1
78804,-83.3333333333333,4,1,0,70,0,1
78897,-82.4830023152979,4,1,0,70,0,1
78991,-81.6498495193273,4,1,0,70,0,1
79085,-80.8333596041752,4,1,0,70,0,1
79179,-80.0329735851171,4,1,0,70,0,1
79272,-79.2483452945502,4,1,0,70,0,1
79366,-78.4789523373779,4,1,0,70,0,1
79460,-77.7243552376111,4,1,0,70,0,1
79507,-77.3524424807238,4,1,0,70,0,1
79578,-76.9230769230769,4,1,0,40,0,0
79765,-77.8576683964045,4,1,0,40,0,0
79953,-78.8151870560242,4,1,0,40,0,0
80046,-79.3028958245439,4,1,0,40,0,0
80234,-80.296518985309,4,1,0,40,0,0
80421,-81.3154233402912,4,1,0,40,0,0
80609,-82.3605183441583,4,1,0,40,0,0
80703,-82.8931705974608,4,1,0,40,0,0
80890,-83.9794854912842,4,1,0,40,0,0
80984,-84.5333547484499,4,1,0,40,0,0
81078,-85.0945783691284,4,1,0,40,0,0
81265,-86.2397568728774,4,1,0,40,0,0
81453,-87.4161788115421,4,1,0,40,0,0
81546,-88.0164696417994,4,1,0,40,0,0
81734,-89.2422087089687,4,1,0,40,0,0
82109,-91.7989566130591,4,1,0,40,0,0
82203,-92.461263353718,4,1,0,40,0,0
82390,-93.8147908399238,4,1,0,40,0,0
82484,-94.506614045384,4,1,0,40,0,0
82578,-95.2086259015067,4,1,0,40,0,0
82765,-96.6445028606773,4,1,0,40,0,0
82953,-98.1242567087554,4,1,0,40,0,0
83046,-98.8813552283022,4,1,0,40,0,0
83234,-100.43094920303,4,1,0,40,0,0
83421,-102.029988654265,4,1,0,40,0,0
83609,-103.680771053158,4,1,0,40,0,0
83703,-104.526302476124,4,1,0,40,0,0
83890,-106.259536793427,4,1,0,40,0,0
83984,-107.147831863622,4,1,0,40,0,0
84078,-108.051103850077,4,1,0,40,0,0
84265,-109.904240435309,4,1,0,40,0,0
84453,-111.822050861142,4,1,0,40,0,0
84546,-112.806212463733,4,1,0,40,0,0
84734,-114.82756918074,4,1,0,40,0,0
84828,-115.865591279492,4,1,0,40,0,0
85015,-117.999112646673,4,1,0,40,0,0
85109,-119.09554082476,4,1,0,40,0,0
85203,-120.212535763229,4,1,0,40,0,0
85390,-122.510735003155,4,1,0,40,0,0
85484,-123.693028537219,4,1,0,40,0,0
85531,-124.898519952539,4,1,0,70,0,0
85671,-83.2972378635924,4,1,0,70,0,0
102640,-83.3333333333333,4,1,0,70,0,0
102734,-82.6502974997459,4,1,0,70,0,0
102828,-81.978300343899,4,1,0,70,0,0
103015,-80.6666940933427,4,1,0,70,0,0
103109,-80.0264407360192,4,1,0,70,0,0
103203,-79.3963337948907,4,1,0,70,0,0
103390,-78.1653650830624,4,1,0,70,0,0
103484,-77.5641144970433,4,1,0,70,0,0
103531,-77.2669146934628,4,1,0,70,0,0
103578,-76.9230769230769,4,1,0,50,0,0
103765,-78.4273742907224,4,1,0,50,0,0
103953,-79.99168086519,4,1,0,50,0,0
104140,-81.6196605438318,4,1,0,50,0,0
104328,-83.3152816889674,4,1,0,50,0,0
104515,-85.0828494246272,4,1,0,50,0,0
104609,-85.9950965595942,4,1,0,50,0,0
104703,-86.9270421335373,4,1,0,50,0,0
104890,-88.8529528057541,4,1,0,50,0,0
105078,-90.8662185750541,4,1,0,50,0,0
105171,-91.9073720741288,4,1,0,50,0,0
105265,-92.9727478281566,4,1,0,50,0,0
105453,-95.1792653873939,4,1,0,50,0,0
105640,-97.4930633685413,4,1,0,50,0,0
105734,-98.6926188777268,4,1,0,50,0,0
105828,-99.9221606368639,4,1,0,50,0,0
106015,-102.475395657503,4,1,0,50,0,0
106203,-105.162533954353,4,1,0,50,0,0
106296,-106.559595585023,4,1,0,50,0,0
106390,-107.994392931119,4,1,0,50,0,0
106484,-109.468355982336,4,1,0,50,0,0
106578,-111.111111111111,4,1,0,50,0,0
106671,-109.968538001278,4,1,0,50,0,0
106765,-108.849342713244,4,1,0,50,0,0
106859,-107.75258282941,4,1,0,50,0,0
106953,-106.677704253133,4,1,0,50,0,0
107046,-105.624170190113,4,1,0,50,0,0
107140,-104.591132345435,4,1,0,50,0,0
107234,-103.578105660026,4,1,0,50,0,0
107328,-102.584619488,4,1,0,50,0,0
107421,-101.609907372408,4,1,0,50,0,0
107515,-100.653644769131,4,1,0,50,0,0
107609,-99.7151139195319,4,1,0,50,0,0
107703,-98.7939237785119,4,1,0,50,0,0
107796,-97.8896939772387,4,1,0,50,0,0
107890,-97.0017722223785,4,1,0,50,0,0
107984,-96.1298137004211,4,1,0,50,0,0
108078,-95.273482531607,4,1,0,50,0,0
108171,-94.4321839992219,4,1,0,50,0,0
108265,-93.6056133414209,4,1,0,50,0,0
108359,-92.7934732782635,4,1,0,50,0,0
108453,-91.9952199283725,4,1,0,50,0,0
108546,-91.2105833464069,4,1,0,50,0,0
108640,-90.4392998551162,4,1,0,50,0,0
108734,-89.680870621892,4,1,0,50,0,0
108828,-88.9350560646593,4,1,0,50,0,0
108921,-88.2016218514226,4,1,0,50,0,0
109015,-87.4801092101683,4,1,0,50,0,0
109109,-86.7703051191009,4,1,0,50,0,0
109203,-86.0720009502349,4,1,0,50,0,0
109296,-85.3847736748497,4,1,0,50,0,0
109390,-84.7085053268944,4,1,0,50,0,0
109484,-84.0427945910057,4,1,0,50,0,0
109531,-83.3874656964813,4,1,0,70,0,0
114078,-83.3333333333333,4,1,0,70,0,0
114265,-81.6413170377265,4,1,0,70,0,0
114359,-80.8207508894324,4,1,0,70,0,0
114453,-80.016579435259,4,1,0,70,0,0
114640,-78.4553091099951,4,1,0,70,0,0
114734,-77.6972402717228,4,1,0,70,0,0
114828,-76.9537400287191,4,1,0,70,0,0
115015,-75.5086261054463,4,1,0,70,0,0
115109,-74.806177194888,4,1,0,70,0,0
115203,-74.1167323711499,4,1,0,70,0,0
115296,-73.4398799111084,4,1,0,70,0,0
115390,-72.7752779469803,4,1,0,70,0,0
115484,-72.1225968750721,4,1,0,70,0,0
115578,-71.4814677146803,4,1,0,70,0,1
121578,-71.4814677146803,4,1,0,70,0,0
121624,-76.9844275899871,4,1,0,70,0,0
127717,-83.4055486375287,4,1,0,70,0,0
127905,-80,4,1,0,70,0,0
127998,-81.6326530612245,4,1,0,70,0,0
128092,-83.3333333333333,4,1,0,70,0,0
128280,-76.9230769230769,4,1,0,70,0,0
128373,-80,4,1,0,70,0,0
128467,-83.3333333333333,4,1,0,70,0,0
128655,-76.9230769230769,4,1,0,70,0,0
128795,-80,4,1,0,70,0,0
128983,-76.9230769230769,4,1,0,70,0,0
129217,-83.3333333333333,4,1,0,70,0,0
129405,-80,4,1,0,70,0,0
129498,-81.6326530612245,4,1,0,70,0,0
129592,-83.3333333333333,4,1,0,70,0,0
129780,-76.9230769230769,4,1,0,70,0,0
129842,-78.9473476454348,4,1,0,70,0,0
129905,-81.0811029948927,4,1,0,70,0,0
129967,-83.3333333333333,4,1,0,70,0,0
130155,-76.9230769230769,4,1,0,70,0,0
130342,-80,4,1,0,70,0,0
130436,-78.4929356357928,4,1,0,70,0,0
130530,-77.0416024653313,4,1,0,70,0,0
130717,-83.4724540901503,4,1,0,70,0,0
130905,-80,4,1,0,70,0,0
130998,-81.6326530612245,4,1,0,70,0,0
131092,-83.3333333333333,4,1,0,70,0,0
131280,-76.9230769230769,4,1,0,70,0,0
131467,-83.3333333333333,4,1,0,70,0,0
131561,-80.1282051282051,4,1,0,70,0,0
131655,-77.1604938271605,4,1,0,70,0,0
131842,-80,4,1,0,70,0,0
132078,-76.9230769230769,4,1,0,70,0,0
132265,-78.1736753275281,4,1,0,70,0,0
132453,-79.4656096681039,4,1,0,70,0,0
132546,-80.127755693678,4,1,0,70,0,0
132734,-81.4856463034037,4,1,0,70,0,0
132828,-82.1820315562565,4,1,0,70,0,0
133015,-83.6110614089802,4,1,0,70,0,0
133109,-84.3444119718458,4,1,0,70,0,0
133203,-85.0906683616728,4,1,0,70,0,0
133296,-85.8503216811554,4,1,0,70,0,0
133390,-86.623660906482,4,1,0,70,0,0
133484,-87.41098284035,4,1,0,70,0,0
133578,-88.2128257920189,4,1,0,70,0,0
133953,-91.572743556026,4,1,0,70,0,0
134328,-95.1988370510066,4,1,0,70,0,0
134703,-99.1238443398798,4,1,0,70,0,0
135078,-103.386529148798,4,1,0,70,0,0
135453,-108.032193593691,4,1,0,70,0,0
135828,-113.115134239386,4,1,0,70,0,0
136203,-118.699856729273,4,1,0,70,0,0
136578,-125,4,1,0,70,0,0
136765,-120.312475561528,4,1,0,70,0,0
136953,-115.963810014171,4,1,0,70,0,0
137140,-111.918666466705,4,1,0,70,0,0
137328,-108.14610538838,4,1,0,70,0,0
137515,-104.619582274932,4,1,0,70,0,0
137703,-101.315788140582,4,1,0,70,0,0
137890,-98.2142681760236,4,1,0,70,0,0
138078,-95.2969978586765,4,1,0,70,0,0
138265,-92.5481180802929,4,1,0,70,0,0
138453,-89.9532962485877,4,1,0,70,0,0
138640,-87.5000109375014,4,1,0,70,0,0
138828,-85.1769892659958,4,1,0,70,0,0
139015,-82.9741245192687,4,1,0,70,0,0
139203,-80.8823291522561,4,1,0,70,0,0
139390,-78.8934717230019,4,1,0,70,0,0
139578,-76.9230769230769,4,1,0,70,0,1
139647,-77.6621216204357,4,1,0,70,0,1
139741,-78.415504940961,4,1,0,70,0,1
139835,-79.1836482598997,4,1,0,70,0,1
139929,-79.9670535739275,4,1,0,70,0,1
140022,-80.7660498294221,4,1,0,70,0,1
140116,-81.5811736757132,4,1,0,70,0,1
140210,-82.4129183897834,4,1,0,70,0,1
140304,-83.3333333333333,4,1,0,70,0,1
140397,-82.4830023152979,4,1,0,70,0,1
140491,-81.6498495193273,4,1,0,70,0,1
140585,-80.8333596041752,4,1,0,70,0,1
140679,-80.0329735851171,4,1,0,70,0,1
140772,-79.2483452945502,4,1,0,70,0,1
140819,-78.8618033644023,4,1,0,70,0,1
140866,-78.4789523373779,4,1,0,70,0,1
140960,-77.7243552376111,4,1,0,70,0,1
141054,-76.9230769230769,4,1,0,70,0,1
141147,-77.6621216204357,4,1,0,70,0,1
141241,-78.415504940961,4,1,0,70,0,1
141335,-79.1836482598997,4,1,0,70,0,1
141429,-79.9670535739275,4,1,0,70,0,1
141522,-80.7660498294221,4,1,0,70,0,1
141616,-81.5811736757132,4,1,0,70,0,1
141710,-82.4129183897834,4,1,0,70,0,1
141804,-83.3333333333333,4,1,0,70,0,1
141897,-82.4830023152979,4,1,0,70,0,1
141991,-81.6498495193273,4,1,0,70,0,1
142085,-80.8333596041752,4,1,0,70,0,1
142179,-80.0329735851171,4,1,0,70,0,1
142272,-79.2483452945502,4,1,0,70,0,1
142366,-78.4789523373779,4,1,0,70,0,1
142460,-77.7243552376111,4,1,0,70,0,1
142507,-77.3524424807238,4,1,0,70,0,1
142554,-76.9230769230769,4,1,0,70,0,1
142647,-77.6621216204357,4,1,0,70,0,1
142741,-78.415504940961,4,1,0,70,0,1
142835,-79.1836482598997,4,1,0,70,0,1
142929,-79.9670535739275,4,1,0,70,0,1
143022,-80.7660498294221,4,1,0,70,0,1
143116,-81.5811736757132,4,1,0,70,0,1
143210,-82.4129183897834,4,1,0,70,0,1
143304,-83.3333333333333,4,1,0,70,0,1
143397,-82.4830023152979,4,1,0,70,0,1
143491,-81.6498495193273,4,1,0,70,0,1
143585,-80.8333596041752,4,1,0,70,0,1
143679,-80.0329735851171,4,1,0,70,0,1
143772,-79.2483452945502,4,1,0,70,0,1
143819,-78.8618033644023,4,1,0,70,0,1
143866,-78.4789523373779,4,1,0,70,0,1
143960,-77.7243552376111,4,1,0,70,0,1
144054,-76.9230769230769,4,1,0,70,0,1
144147,-77.6621216204357,4,1,0,70,0,1
144241,-78.415504940961,4,1,0,70,0,1
144335,-79.1836482598997,4,1,0,70,0,1
144429,-79.9670535739275,4,1,0,70,0,1
144522,-80.7660498294221,4,1,0,70,0,1
144616,-81.5811736757132,4,1,0,70,0,1
144710,-82.4129183897834,4,1,0,70,0,1
144804,-83.3333333333333,4,1,0,70,0,1
144897,-82.4830023152979,4,1,0,70,0,1
144991,-81.6498495193273,4,1,0,70,0,1
145085,-80.8333596041752,4,1,0,70,0,1
145179,-80.0329735851171,4,1,0,70,0,1
145272,-79.2483452945502,4,1,0,70,0,1
145366,-78.4789523373779,4,1,0,70,0,1
145460,-77.7243552376111,4,1,0,70,0,1
145507,-77.3524424807238,4,1,0,70,0,1
145546,-77.3524424807238,4,1,0,20,0,1
145578,-76.9841312610232,4,1,0,20,0,0
147061,-91.0165732078154,4,1,0,20,0,0
148531,-111.271713283951,4,1,0,20,0,0
150031,-143.122737766226,4,1,0,20,0,0
150921,-167.028282899143,4,1,0,50,0,0
151015,-166.666666666667,4,1,0,50,0,0
151203,-158.008586186573,4,1,0,50,0,0
151390,-150.205857127193,4,1,0,50,0,0
151578,-142.857142857143,4,1,0,50,0,0
151953,-153.724356855722,4,1,0,50,0,0
152328,-166.666666666667,4,1,0,50,0,0
152515,-160.066075275874,4,1,0,50,0,0
152703,-153.968143991008,4,1,0,50,0,0
152890,-148.317999724129,4,1,0,50,0,0
153078,-142.857142857143,4,1,0,50,0,0
153453,-153.724356855722,4,1,0,50,0,0
153828,-166.666666666667,4,1,0,50,0,0
154015,-160.066075275874,4,1,0,50,0,0
154109,-156.958027853772,4,1,0,50,0,0
154203,-153.968143991008,4,1,0,50,0,0
154390,-148.317999724129,4,1,0,50,0,0
154578,-142.857142857143,4,1,0,50,0,0
154953,-153.724356855722,4,1,0,50,0,0
155328,-166.666666666667,4,1,0,50,0,0
155515,-160.066075275874,4,1,0,50,0,0
155609,-156.958027853772,4,1,0,50,0,0
155703,-153.968143991008,4,1,0,50,0,0
155890,-148.317999724129,4,1,0,50,0,0
156078,-142.857142857143,4,1,0,50,0,0
156453,-153.724356855722,4,1,0,50,0,0
156828,-166.666666666667,4,1,0,50,0,0
157015,-160.066075275874,4,1,0,50,0,0
157109,-156.958027853772,4,1,0,50,0,0
157203,-153.968143991008,4,1,0,50,0,0
157390,-148.317999724129,4,1,0,50,0,0
157578,-143.067861378688,4,1,0,50,0,0
157906,-133.333333333333,4,1,0,50,0,0
158515,-142.857142857143,4,1,0,50,0,0
158609,-140.861537334646,4,1,0,50,0,0
158703,-138.920724888342,4,1,0,50,0,0
158796,-137.032854997314,4,1,0,50,0,0
158890,-135.195607765095,4,1,0,50,0,0
159078,-131.664876024353,4,1,0,50,0,0
159453,-125.129195894761,4,1,0,50,0,0
159921,-133.333333333333,4,1,0,50,0,0
160015,-131.748313292219,4,1,0,50,0,0
160203,-128.688866354039,4,1,0,50,0,0
160390,-125.768287023354,4,1,0,50,0,0
160578,-122.977330358922,4,1,0,50,0,0
160953,-117.751234032933,4,1,0,50,0,0
161515,-125,4,1,0,50,0,0
161703,-121.975763415809,4,1,0,50,0,0
161890,-119.094547970688,4,1,0,50,0,0
162078,-116.346171745565,4,1,0,50,0,0
162453,-111.2131800964,4,1,0,50,0,0
163546,-100,4,1,0,70,0,0
163765,-99.379672086834,4,1,0,70,0,0
163859,-99.0723852568402,4,1,0,70,0,0
163953,-98.7669928611218,4,1,0,70,0,0
164140,-98.1618217263523,4,1,0,70,0,0
164234,-97.8620086960181,4,1,0,70,0,0
164328,-97.5641166983913,4,1,0,70,0,0
164515,-96.9735524030531,4,1,0,70,0,0
164609,-96.6809432192821,4,1,0,70,0,0
164703,-96.3900945683218,4,1,0,70,0,0
164796,-96.1009906090112,4,1,0,70,0,0
164843,-95.9570419514592,4,1,0,70,0,0
164890,-95.8136156896712,4,1,0,70,0,0
164984,-95.5279543452801,4,1,0,70,0,0
165078,-95.2439912946992,4,1,0,70,0,0
165265,-94.6810998535284,4,1,0,70,0,0
165359,-94.4021417957931,4,1,0,70,0,0
165453,-94.1248226923653,4,1,0,70,0,0
165546,-93.8491281415996,4,1,0,70,0,0
165640,-93.5750439100893,4,1,0,70,0,0
165734,-93.3025559302172,4,1,0,70,0,0
165828,-93.0317368467079,4,1,0,70,0,0
165921,-92.7623993180109,4,1,0,70,0,0
166015,-92.4946168133015,4,1,0,70,0,0
166109,-92.2283759044145,4,1,0,70,0,0
166203,-91.9636633173501,4,1,0,70,0,0
166390,-91.4387707703168,4,1,0,70,0,0
166484,-91.1785650135081,4,1,0,70,0,0
166531,-91.049058143018,4,1,0,70,0,0
166578,-90.9198359806159,4,1,0,70,0,0
166671,-90.6625711361199,4,1,0,70,0,0
166765,-90.4067580859804,4,1,0,70,0,0
166859,-90.1523845756482,4,1,0,70,0,0
166953,-89.8994384881072,4,1,0,70,0,0
167140,-89.3977807894897,4,1,0,70,0,0
167234,-89.1490456148922,4,1,0,70,0,0
167328,-88.9017697675308,4,1,0,70,0,0
167515,-88.4111543048717,4,1,0,70,0,0
167609,-88.1678716275789,4,1,0,70,0,0
167703,-87.9259241674074,4,1,0,70,0,0
167796,-87.6853009622585,4,1,0,70,0,0
167843,-87.6853009622585,4,1,0,70,0,0
167890,-87.4459911697038,4,1,0,70,0,0
167984,-87.2079840653572,4,1,0,70,0,0
168078,-86.9712690412722,4,1,0,70,0,0
168265,-86.5016733748714,4,1,0,70,0,0
168359,-86.2687720848057,4,1,0,70,0,0
168453,-86.0371215764754,4,1,0,70,0,0
168640,-85.5775328168444,4,1,0,70,0,0
168828,-85.1229004436606,4,1,0,70,0,0
168921,-84.8973548531148,4,1,0,70,0,0
169015,-84.67300133614,4,1,0,70,0,0
169109,-84.4498304669653,4,1,0,70,0,0
169203,-84.2278329189324,4,1,0,70,0,0
169390,-83.7873209674419,4,1,0,70,0,0
169484,-83.5687883946352,4,1,0,70,0,0
169531,-83.4599838588391,4,1,0,70,0,0
169578,-83.3513928017737,4,1,0,70,0,0
171828,-86.2068965517241,4,1,0,70,0,0
172015,-89.2857142857143,4,1,0,70,0,0
172156,-92.5925925925926,4,1,0,70,0,0
172343,-83.3513928017737,4,1,0,70,0,0
180828,-81.9672131147541,4,1,0,70,0,0
180898,-83.3333333333333,4,1,0,70,0,0
180968,-81.3008130081301,4,1,0,70,0,0
181085,-83.3333333333333,4,1,0,70,0,0
181179,-80.6451612903226,4,1,0,70,0,0
181273,-83.3333333333333,4,1,0,70,0,0
181367,-80,4,1,0,70,0,0
181484,-83.3333333333333,4,1,0,70,0,0
181531,-81.9672131147541,4,1,0,70,0,0
181578,-80.6451612903226,4,1,0,70,0,0
187578,-80.6451612903226,4,1,0,70,0,0
187953,-83.0980964719041,4,1,0,70,0,0
188328,-85.704931633176,4,1,0,70,0,0
188703,-88.4806196474755,4,1,0,70,0,0
189078,-91.4421153121651,4,1,0,70,0,0
189453,-94.6088114862666,4,1,0,70,0,0
189828,-98.002608829447,4,1,0,70,0,0
190203,-101.648949254812,4,1,0,70,0,0
190578,-105.577110882361,4,1,0,70,0,0
190953,-109.821079497283,4,1,0,70,0,0
191328,-114.42053436678,4,1,0,70,0,0
191703,-119.422092609444,4,1,0,70,0,0
192078,-124.88089484654,4,1,0,70,0,0
192265,-114.336545046884,4,1,0,70,0,0
192453,-105.349322551181,4,1,0,70,0,0
192640,-97.6720835604209,4,1,0,70,0,0
192828,-91.0377023540529,4,1,0,70,0,0
193015,-85.2473494467873,4,1,0,70,0,0
193203,-80.1495269574919,4,1,0,70,0,0
193390,-75.6269473938954,4,1,0,70,0,0
193578,-71.5875469166886,4,1,0,70,0,1
199578,-71.5875469166886,4,1,0,70,0,0
199742,-77.1074824329878,4,1,0,70,0,0
204078,-76.9230769230769,4,1,0,70,0,0
204265,-77.7777950617322,4,1,0,70,0,0
204453,-78.6516588814633,4,1,0,70,0,0
204546,-79.0960273229317,4,1,0,70,0,0
204734,-80,4,1,0,70,0,0
204828,-80.459779363193,4,1,0,70,0,0
204921,-80.9248742022831,4,1,0,70,0,0
205109,-81.8713163024621,4,1,0,70,0,0
205203,-82.3529217993125,4,1,0,70,0,0
205390,-83.3333333333333,4,1,0,70,0,0
205578,-76.9230769230769,4,1,0,70,0,0
205671,-77.7777950617322,4,1,0,70,0,0
205765,-78.6516588814633,4,1,0,70,0,0
205859,-79.5454455061994,4,1,0,70,0,0
205953,-80.459779363193,4,1,0,70,0,0
206046,-81.3953772309455,4,1,0,70,0,0
206140,-82.3529217993125,4,1,0,70,0,0
206234,-83.3333333333333,4,1,0,70,0,0
206328,-76.9230769230769,4,1,0,70,0,0
206421,-77.7777950617322,4,1,0,70,0,0
206515,-78.6516588814633,4,1,0,70,0,0
206609,-79.5454455061994,4,1,0,70,0,0
206703,-80.459779363193,4,1,0,70,0,0
206796,-81.3953772309455,4,1,0,70,0,0
206843,-81.8713163024621,4,1,0,70,0,0
206890,-82.3529217993125,4,1,0,70,0,0
206984,-83.3333333333333,4,1,0,70,0,0
207078,-76.9230769230769,4,1,0,70,0,0
207171,-77.7777950617322,4,1,0,70,0,0
207265,-78.6516588814633,4,1,0,70,0,0
207359,-79.5454455061994,4,1,0,70,0,0
207453,-80.459779363193,4,1,0,70,0,0
207546,-81.3953772309455,4,1,0,70,0,0
207640,-82.3529217993125,4,1,0,70,0,0
207734,-83.3333333333333,4,1,0,70,0,0
207828,-76.9230769230769,4,1,0,70,0,0
207890,-77.4526744795761,4,1,0,70,0,0
207953,-77.9896149028795,4,1,0,70,0,0
208015,-78.5340519722649,4,1,0,70,0,0
208109,-79.3650793650794,4,1,0,70,0,0
208203,-80.2138822957534,4,1,0,70,0,0
208296,-81.0811029948927,4,1,0,70,0,0
208390,-81.9672131147541,4,1,0,70,0,0
208484,-82.8729052837278,4,1,0,70,0,0
208578,-76.9230769230769,4,1,0,70,0,0
208671,-77.7777950617322,4,1,0,70,0,0
208765,-78.6516588814633,4,1,0,70,0,0
208859,-79.5454455061994,4,1,0,70,0,0
208953,-80.459779363193,4,1,0,70,0,0
209046,-81.3953772309455,4,1,0,70,0,0
209140,-82.3529217993125,4,1,0,70,0,0
209234,-83.3333333333333,4,1,0,70,0,0
209328,-76.9230769230769,4,1,0,70,0,0
209421,-77.7777950617322,4,1,0,70,0,0
209515,-78.6516588814633,4,1,0,70,0,0
209609,-79.5454455061994,4,1,0,70,0,0
209703,-80.459779363193,4,1,0,70,0,0
209796,-81.3953772309455,4,1,0,70,0,0
209843,-81.8713163024621,4,1,0,70,0,0
209890,-82.3529217993125,4,1,0,70,0,0
209984,-83.3333333333333,4,1,0,70,0,0
210078,-76.9230769230769,4,1,0,70,0,0
210171,-77.5433641878379,4,1,0,70,0,0
210265,-78.1736753275281,4,1,0,70,0,0
210359,-78.8143795259157,4,1,0,70,0,0
210453,-79.4656096681039,4,1,0,70,0,0
210546,-80.127755693678,4,1,0,70,0,0
210640,-80.8010290819064,4,1,0,70,0,0
210734,-81.4856463034037,4,1,0,70,0,0
210828,-82.1820315562565,4,1,0,70,0,0
210921,-82.8904221774982,4,1,0,70,0,0
211015,-83.6110614089802,4,1,0,70,0,0
211109,-84.3444119718458,4,1,0,70,0,0
211203,-85.0906683616728,4,1,0,70,0,0
211296,-85.8503216811554,4,1,0,70,0,0
211390,-86.623660906482,4,1,0,70,0,0
211484,-87.41098284035,4,1,0,70,0,0
211531,-87.8101123881628,4,1,0,70,0,0
211578,-88.2128257920189,4,1,0,70,0,0
211953,-91.572743556026,4,1,0,70,0,0
212328,-95.1988370510066,4,1,0,70,0,0
212703,-99.1238443398798,4,1,0,70,0,0
213078,-103.386529148798,4,1,0,70,0,0
213453,-108.032193593691,4,1,0,70,0,0
213828,-113.115134239386,4,1,0,70,0,0
214203,-118.699856729273,4,1,0,70,0,0
214578,-125,4,1,0,70,0,0
214765,-120.312475561528,4,1,0,70,0,0
214953,-115.963810014171,4,1,0,70,0,0
215140,-111.918666466705,4,1,0,70,0,0
215328,-108.14610538838,4,1,0,70,0,0
215515,-104.619582274932,4,1,0,70,0,0
215703,-101.315788140582,4,1,0,70,0,0
215890,-98.2142681760236,4,1,0,70,0,0
216078,-95.2969978586765,4,1,0,70,0,0
216265,-92.5481180802929,4,1,0,70,0,0
216453,-89.9532962485877,4,1,0,70,0,0
216640,-87.5000109375014,4,1,0,70,0,0
216828,-85.1769892659958,4,1,0,70,0,0
217015,-82.9741245192687,4,1,0,70,0,0
217203,-80.8823291522561,4,1,0,70,0,0
217390,-78.8934717230019,4,1,0,70,0,0
217578,-76.9230769230769,4,1,0,70,0,1
217647,-77.6621216204357,4,1,0,70,0,1
217741,-78.415504940961,4,1,0,70,0,1
217835,-79.1836482598997,4,1,0,70,0,1
217929,-79.9670535739275,4,1,0,70,0,1
218022,-80.7660498294221,4,1,0,70,0,1
218116,-81.5811736757132,4,1,0,70,0,1
218210,-82.4129183897834,4,1,0,70,0,1
218304,-83.3333333333333,4,1,0,70,0,1
218397,-82.4830023152979,4,1,0,70,0,1
218491,-81.6498495193273,4,1,0,70,0,1
218585,-80.8333596041752,4,1,0,70,0,1
218679,-80.0329735851171,4,1,0,70,0,1
218772,-79.2483452945502,4,1,0,70,0,1
218819,-78.8618033644023,4,1,0,70,0,1
218866,-78.4789523373779,4,1,0,70,0,1
218960,-77.7243552376111,4,1,0,70,0,1
219054,-76.9230769230769,4,1,0,70,0,1
219147,-77.6621216204357,4,1,0,70,0,1
219241,-78.415504940961,4,1,0,70,0,1
219335,-79.1836482598997,4,1,0,70,0,1
219429,-79.9670535739275,4,1,0,70,0,1
219522,-80.7660498294221,4,1,0,70,0,1
219616,-81.5811736757132,4,1,0,70,0,1
219710,-82.4129183897834,4,1,0,70,0,1
219804,-83.3333333333333,4,1,0,70,0,1
219897,-82.4830023152979,4,1,0,70,0,1
219991,-81.6498495193273,4,1,0,70,0,1
220085,-80.8333596041752,4,1,0,70,0,1
220179,-80.0329735851171,4,1,0,70,0,1
220272,-79.2483452945502,4,1,0,70,0,1
220366,-78.4789523373779,4,1,0,70,0,1
220460,-77.7243552376111,4,1,0,70,0,1
220507,-77.3524424807238,4,1,0,70,0,1
220554,-76.9230769230769,4,1,0,70,0,1
220647,-77.6621216204357,4,1,0,70,0,1
220741,-78.415504940961,4,1,0,70,0,1
220835,-79.1836482598997,4,1,0,70,0,1
220929,-79.9670535739275,4,1,0,70,0,1
221022,-80.7660498294221,4,1,0,70,0,1
221116,-81.5811736757132,4,1,0,70,0,1
221210,-82.4129183897834,4,1,0,70,0,1
221304,-83.3333333333333,4,1,0,70,0,1
221397,-82.4830023152979,4,1,0,70,0,1
221491,-81.6498495193273,4,1,0,70,0,1
221585,-80.8333596041752,4,1,0,70,0,1
221679,-80.0329735851171,4,1,0,70,0,1
221772,-79.2483452945502,4,1,0,70,0,1
221819,-78.8618033644023,4,1,0,70,0,1
221866,-78.4789523373779,4,1,0,70,0,1
221960,-77.7243552376111,4,1,0,70,0,1
222054,-76.9230769230769,4,1,0,70,0,1
222147,-77.6621216204357,4,1,0,70,0,1
222241,-78.415504940961,4,1,0,70,0,1
222335,-79.1836482598997,4,1,0,70,0,1
222429,-79.9670535739275,4,1,0,70,0,1
222522,-80.7660498294221,4,1,0,70,0,1
222616,-81.5811736757132,4,1,0,70,0,1
222710,-82.4129183897834,4,1,0,70,0,1
222804,-83.3333333333333,4,1,0,70,0,1
222897,-82.4830023152979,4,1,0,70,0,1
222991,-81.6498495193273,4,1,0,70,0,1
223085,-80.8333596041752,4,1,0,70,0,1
223179,-80.0329735851171,4,1,0,70,0,1
223272,-79.2483452945502,4,1,0,70,0,1
223366,-78.4789523373779,4,1,0,70,0,1
223460,-77.7243552376111,4,1,0,70,0,1
223507,-77.3524424807238,4,1,0,70,0,1
223578,-76.9841312610232,4,1,0,70,0,0
223953,-82.4587891586482,4,1,0,70,0,0
224328,-88.8529528057541,4,1,0,70,0,0
224703,-96.3222248122198,4,1,0,70,0,0
225078,-105.162533954353,4,1,0,70,0,0
225453,-115.789522437694,4,1,0,70,0,0
225828,-128.805560278426,4,1,0,70,0,0
226203,-145.118714364286,4,1,0,70,0,0
226578,-166.163192194318,4,1,0,70,0,0
226765,-155.367319416565,4,1,0,70,0,0
226953,-145.502587763523,4,1,0,70,0,0
227140,-136.815937414918,4,1,0,70,0,0
227328,-129.108056988296,4,1,0,70,0,0
227515,-122.222195061734,4,1,0,70,0,0
227703,-116.033779753962,4,1,0,70,0,0
227890,-110.441711625647,4,1,0,70,0,0
228078,-105.363974581995,4,1,0,70,0,0
228265,-100.7326284064,4,1,0,70,0,0
228453,-96.4911942136161,4,1,0,70,0,0
228640,-92.5925925925926,4,1,0,70,0,0
228828,-88.9967925555963,4,1,0,70,0,0
229015,-85.6697619151647,4,1,0,70,0,0
229203,-82.5825887824766,4,1,0,70,0,0
229390,-79.710173808034,4,1,0,70,0,0
229578,-76.9230769230769,4,1,0,70,0,1
229671,-77.6621216204357,4,1,0,70,0,1
229765,-78.415504940961,4,1,0,70,0,1
229859,-79.1836482598997,4,1,0,70,0,1
229953,-79.9670535739275,4,1,0,70,0,1
230046,-80.7660498294221,4,1,0,70,0,1
230140,-81.5811736757132,4,1,0,70,0,1
230234,-82.4129183897834,4,1,0,70,0,1
230328,-83.3333333333333,4,1,0,70,0,1
230421,-82.4830023152979,4,1,0,70,0,1
230515,-81.6498495193273,4,1,0,70,0,1
230609,-80.8333596041752,4,1,0,70,0,1
230703,-80.0329735851171,4,1,0,70,0,1
230796,-79.2483452945502,4,1,0,70,0,1
230843,-78.8618033644023,4,1,0,70,0,1
230890,-78.4789523373779,4,1,0,70,0,1
230984,-77.7243552376111,4,1,0,70,0,1
231078,-76.9230769230769,4,1,0,70,0,1
231171,-77.6621216204357,4,1,0,70,0,1
231265,-78.415504940961,4,1,0,70,0,1
231359,-79.1836482598997,4,1,0,70,0,1
231453,-79.9670535739275,4,1,0,70,0,1
231546,-80.7660498294221,4,1,0,70,0,1
231640,-81.5811736757132,4,1,0,70,0,1
231734,-82.4129183897834,4,1,0,70,0,1
231828,-83.3333333333333,4,1,0,70,0,1
231921,-82.4830023152979,4,1,0,70,0,1
232015,-81.6498495193273,4,1,0,70,0,1
232109,-80.8333596041752,4,1,0,70,0,1
232203,-80.0329735851171,4,1,0,70,0,1
232296,-79.2483452945502,4,1,0,70,0,1
232390,-78.4789523373779,4,1,0,70,0,1
232484,-77.7243552376111,4,1,0,70,0,1
232531,-77.3524424807238,4,1,0,70,0,1
232578,-76.9230769230769,4,1,0,70,0,1
232671,-77.6621216204357,4,1,0,70,0,1
232765,-78.415504940961,4,1,0,70,0,1
232859,-79.1836482598997,4,1,0,70,0,1
232953,-79.9670535739275,4,1,0,70,0,1
233046,-80.7660498294221,4,1,0,70,0,1
233140,-81.5811736757132,4,1,0,70,0,1
233234,-82.4129183897834,4,1,0,70,0,1
233328,-83.3333333333333,4,1,0,70,0,1
233421,-82.4830023152979,4,1,0,70,0,1
233515,-81.6498495193273,4,1,0,70,0,1
233609,-80.8333596041752,4,1,0,70,0,1
233703,-80.0329735851171,4,1,0,70,0,1
233796,-79.2483452945502,4,1,0,70,0,1
233843,-78.8618033644023,4,1,0,70,0,1
233890,-78.4789523373779,4,1,0,70,0,1
233984,-77.7243552376111,4,1,0,70,0,1
234078,-76.9230769230769,4,1,0,70,0,1
234171,-77.6621216204357,4,1,0,70,0,1
234265,-78.415504940961,4,1,0,70,0,1
234359,-79.1836482598997,4,1,0,70,0,1
234453,-79.9670535739275,4,1,0,70,0,1
234546,-80.7660498294221,4,1,0,70,0,1
234640,-81.5811736757132,4,1,0,70,0,1
234734,-82.4129183897834,4,1,0,70,0,1
234828,-83.3333333333333,4,1,0,70,0,1
234921,-82.4830023152979,4,1,0,70,0,1
235015,-81.6498495193273,4,1,0,70,0,1
235109,-80.8333596041752,4,1,0,70,0,1
235203,-80.0329735851171,4,1,0,70,0,1
235296,-79.2483452945502,4,1,0,70,0,1
235390,-78.4789523373779,4,1,0,70,0,1
235484,-77.7243552376111,4,1,0,70,0,1
235531,-77.3524424807238,4,1,0,70,0,1
235546,-77.3524424807238,4,1,0,20,0,1
235578,-76.9841312610232,4,1,0,20,0,0

[HitObjects]
256,192,1015,12,0,3078,0:0:0:0:
264,171,3171,6,4,L|434:143,15,140
256,192,4765,12,0,6078,0:0:0:0:
125,182,6171,6,4,L|276:153,19,140
256,192,8140,12,0,9078,0:0:0:0:
219,167,9171,6,4,L|367:152,15,140
256,192,10765,12,0,11703,0:0:0:0:
162,151,11796,6,4,L|326:130,15,140
321,131,13578,5,0,0:0:0:0:
328,130,13765,1,0,0:0:0:0:
332,126,14046,1,0,0:0:0:0:
332,126,14234,1,0,0:0:0:0:
322,115,14421,1,0,0:0:0:0:
338,116,14609,1,8,0:0:0:0:
343,120,14890,1,0,0:0:0:0:
343,120,15078,1,0,0:0:0:0:
359,112,15265,1,0,0:0:0:0:
338,116,15546,1,0,0:0:0:0:
338,112,15734,1,0,0:0:0:0:
338,112,15921,1,0,0:0:0:0:
342,109,16109,1,0,0:0:0:0:
342,109,16203,1,8,0:0:0:0:
344,94,16390,1,0,0:0:0:0:
344,96,16484,1,0,0:0:0:0:
344,97,16578,1,0,0:0:0:0:
350,92,16765,1,0,0:0:0:0:
351,93,17046,1,0,0:0:0:0:
351,93,17234,1,0,0:0:0:0:
344,96,17421,1,0,0:0:0:0:
344,97,17609,1,0,0:0:0:0:
350,92,17703,1,8,0:0:0:0:
331,85,17890,1,0,0:0:0:0:
343,86,18078,1,0,0:0:0:0:
343,86,18265,1,0,0:0:0:0:
346,86,18546,1,0,0:0:0:0:
346,86,18734,1,0,0:0:0:0:
346,86,18921,1,0,0:0:0:0:
343,86,19109,1,8,0:0:0:0:
355,80,19296,1,8,0:0:0:0:
356,80,19390,1,0,0:0:0:0:
357,79,19484,1,0,0:0:0:0:
357,79,19578,1,0,0:0:0:0:
355,78,19765,1,8,0:0:0:0:
354,78,19859,1,0,0:0:0:0:
359,78,19953,1,8,0:0:0:0:
359,78,20140,1,0,0:0:0:0:
355,80,20234,1,0,0:0:0:0:
355,80,20328,1,8,0:0:0:0:
357,79,20515,1,0,0:0:0:0:
357,79,20609,1,8,0:0:0:0:
355,78,20796,1,0,0:0:0:0:
354,78,20890,1,8,0:0:0:0:
359,78,20984,1,8,0:0:0:0:
359,78,21078,1,0,0:0:0:0:
355,80,21265,1,8,0:0:0:0:
357,79,21359,1,0,0:0:0:0:
357,79,21453,1,8,0:0:0:0:
357,79,21640,1,0,0:0:0:0:
354,69,21828,1,8,0:0:0:0:
355,69,21921,1,0,0:0:0:0:
355,69,22015,1,0,0:0:0:0:
359,61,22109,1,8,0:0:0:0:
359,61,22296,1,0,0:0:0:0:
359,61,22390,1,8,0:0:0:0:
359,61,22484,1,8,0:0:0:0:
359,61,22578,1,0,0:0:0:0:
366,56,22765,1,8,0:0:0:0:
366,56,22859,1,0,0:0:0:0:
366,56,23046,1,0,0:0:0:0:
366,56,23140,1,0,0:0:0:0:
366,56,23328,1,8,0:0:0:0:
366,56,23515,1,0,0:0:0:0:
366,56,23609,1,8,0:0:0:0:
373,46,23890,1,0,0:0:0:0:
374,47,23984,1,0,0:0:0:0:
375,48,24078,1,8,0:0:0:0:
355,54,24265,1,0,0:0:0:0:
380,44,24359,1,8,0:0:0:0:
380,44,24546,1,0,0:0:0:0:
380,44,24640,1,0,0:0:0:0:
380,44,24828,1,8,0:0:0:0:
380,44,25015,1,0,0:0:0:0:
375,48,25109,1,8,0:0:0:0:
371,48,25203,1,0,0:0:0:0:
383,47,25296,1,0,0:0:0:0:
380,44,25390,1,8,0:0:0:0:
380,44,25484,1,8,0:0:0:0:
388,43,25578,1,0,0:0:0:0:
380,44,25765,1,8,0:0:0:0:
380,44,25859,1,0,0:0:0:0:
380,44,25953,1,8,0:0:0:0:
380,44,26046,1,8,0:0:0:0:
386,44,26140,1,0,0:0:0:0:
386,44,26234,1,0,0:0:0:0:
383,47,26328,1,8,0:0:0:0:
388,32,26421,1,0,0:0:0:0:
388,32,26515,1,0,0:0:0:0:
388,32,26609,1,0,0:0:0:0:
388,32,26703,1,8,0:0:0:0:
388,35,26890,1,0,0:0:0:0:
388,35,26984,1,0,0:0:0:0:
388,35,27078,1,8,0:0:0:0:
388,35,27265,1,0,0:0:0:0:
388,32,27453,1,8,0:0:0:0:
388,32,27546,1,0,0:0:0:0:
388,32,27640,1,0,0:0:0:0:
388,32,27734,1,0,0:0:0:0:
388,35,27828,1,8,0:0:0:0:
388,35,28015,1,0,0:0:0:0:
388,35,28203,1,8,0:0:0:0:
388,35,28296,1,0,0:0:0:0:
388,32,28390,1,8,0:0:0:0:
388,32,28484,1,8,0:0:0:0:
385,40,28578,1,0,0:0:0:0:
381,39,28671,1,0,0:0:0:0:
381,39,28765,1,8,0:0:0:0:
381,39,28953,1,8,0:0:0:0:
381,39,29046,1,0,0:0:0:0:
381,39,29140,1,8,0:0:0:0:
381,39,29234,1,8,0:0:0:0:
381,39,29328,1,0,0:0:0:0:
381,39,29515,1,0,0:0:0:0:
381,39,29703,1,8,0:0:0:0:
381,39,29796,1,8,0:0:0:0:
381,39,29890,1,0,0:0:0:0:
381,39,29984,1,0,0:0:0:0:
381,39,30078,1,8,0:0:0:0:
381,39,30171,1,0,0:0:0:0:
381,39,30265,1,0,0:0:0:0:
381,39,30359,1,0,0:0:0:0:
381,39,30453,1,8,0:0:0:0:
381,39,30546,1,8,0:0:0:0:
381,39,30640,1,0,0:0:0:0:
381,39,30734,1,8,0:0:0:0:
381,39,30828,1,0,0:0:0:0:
381,39,31015,1,0,0:0:0:0:
381,39,31203,1,8,0:0:0:0:
381,39,31296,1,8,0:0:0:0:
381,39,31390,1,0,0:0:0:0:
381,39,31578,1,8,0:0:0:0:
344,102,31953,1,8,0:0:0:0:
344,102,32140,1,0,0:0:0:0:
350,87,32328,1,8,0:0:0:0:
344,82,32609,1,8,0:0:0:0:
365,81,32703,1,0,0:0:0:0:
367,77,32890,1,8,0:0:0:0:
367,79,32984,1,0,0:0:0:0:
367,79,33078,1,8,0:0:0:0:
351,78,33453,1,8,0:0:0:0:
344,82,33640,1,0,0:0:0:0:
348,76,33734,1,0,0:0:0:0:
348,76,33828,1,8,0:0:0:0:
352,71,34109,1,8,0:0:0:0:
356,69,34203,1,0,0:0:0:0:
356,69,34390,1,8,0:0:0:0:
356,69,34484,1,0,0:0:0:0:
356,69,34578,1,8,0:0:0:0:
352,71,34953,1,8,0:0:0:0:
359,67,35140,1,0,0:0:0:0:
356,69,35328,1,8,0:0:0:0:
356,69,35609,1,8,0:0:0:0:
361,62,35703,1,0,0:0:0:0:
361,62,35890,1,8,0:0:0:0:
349,64,35984,1,0,0:0:0:0:
348,64,36078,1,8,0:0:0:0:
360,60,36265,1,0,0:0:0:0:
368,69,36453,1,8,0:0:0:0:
360,60,36640,1,0,0:0:0:0:
361,62,36734,1,0,0:0:0:0:
361,62,36828,1,8,0:0:0:0:
362,64,37015,1,0,0:0:0:0:
362,64,37109,1,8,0:0:0:0:
360,60,37203,1,0,0:0:0:0:
361,64,37390,1,8,0:0:0:0:
360,60,37578,1,0,0:0:0:0:
376,56,37671,1,8,0:0:0:0:
359,54,37765,1,0,0:0:0:0:
376,56,37859,1,0,0:0:0:0:
368,52,37953,1,8,0:0:0:0:
358,54,38046,1,0,0:0:0:0:
358,54,38140,1,8,0:0:0:0:
373,72,38234,1,8,0:0:0:0:
358,54,38328,1,0,0:0:0:0:
373,72,38421,1,0,0:0:0:0:
373,58,38515,1,8,0:0:0:0:
373,58,38609,1,0,0:0:0:0:
373,58,38703,1,8,0:0:0:0:
354,62,38749,1,8,0:0:0:0:
357,57,38796,1,8,0:0:0:0:
359,56,38890,1,0,0:0:0:0:
363,71,38984,1,8,0:0:0:0:
359,63,39078,1,0,0:0:0:0:
360,62,39171,1,0,0:0:0:0:
360,62,39265,1,8,0:0:0:0:
358,54,39359,1,0,0:0:0:0:
354,57,39453,1,8,0:0:0:0:
373,58,39546,1,0,0:0:0:0:
352,54,39640,1,0,0:0:0:0:
352,54,39734,1,0,0:0:0:0:
355,49,39828,1,8,0:0:0:0:
403,67,39921,1,0,0:0:0:0:
355,49,40015,1,8,0:0:0:0:
392,61,40109,1,8,0:0:0:0:
355,49,40203,1,0,0:0:0:0:
350,47,40296,1,0,0:0:0:0:
350,47,40390,1,8,0:0:0:0:
354,57,40484,1,0,0:0:0:0:
352,54,40531,1,0,0:0:0:0:
359,47,40578,1,8,0:0:0:0:
352,54,40671,1,8,0:0:0:0:
355,49,40765,1,0,0:0:0:0:
363,53,40859,1,8,0:0:0:0:
363,51,40953,1,8,0:0:0:0:
355,49,41046,1,0,0:0:0:0:
355,49,41140,1,8,0:0:0:0:
355,49,41234,1,0,0:0:0:0:
359,45,41328,1,8,0:0:0:0:
359,45,41421,1,0,0:0:0:0:
359,45,41515,1,0,0:0:0:0:
359,44,41609,1,8,0:0:0:0:
359,44,41703,1,0,0:0:0:0:
355,49,41796,1,8,0:0:0:0:
338,46,41843,1,8,0:0:0:0:
338,46,41890,1,0,0:0:0:0:
369,41,41984,1,8,0:0:0:0:
373,40,42078,1,0,0:0:0:0:
372,46,42171,1,0,0:0:0:0:
372,46,42265,1,8,0:0:0:0:
372,46,42359,1,0,0:0:0:0:
372,46,42453,1,8,0:0:0:0:
372,46,42546,1,8,0:0:0:0:
372,46,42640,1,0,0:0:0:0:
372,46,42734,1,8,0:0:0:0:
372,46,42828,1,0,0:0:0:0:
372,46,42921,1,8,0:0:0:0:
369,41,43015,1,0,0:0:0:0:
372,46,43109,1,0,0:0:0:0:
372,46,43203,1,8,0:0:0:0:
372,46,43296,1,0,0:0:0:0:
369,58,43390,1,8,0:0:0:0:
372,46,43484,1,0,0:0:0:0:
368,63,43531,1,0,0:0:0:0:
372,46,43578,1,8,0:0:0:0:
372,46,43765,1,0,0:0:0:0:
372,46,43859,1,8,0:0:0:0:
372,46,43953,1,0,0:0:0:0:
372,46,44140,1,8,0:0:0:0:
372,46,44328,1,8,0:0:0:0:
372,46,44421,1,0,0:0:0:0:
372,46,44515,1,0,0:0:0:0:
372,46,44609,1,0,0:0:0:0:
372,46,44703,1,8,0:0:0:0:
372,46,44890,1,8,0:0:0:0:
376,57,44984,1,0,0:0:0:0:
386,49,45031,1,0,0:0:0:0:
386,49,45078,1,8,0:0:0:0:
380,44,45265,1,0,0:0:0:0:
372,46,45359,1,8,0:0:0:0:
372,46,45453,1,0,0:0:0:0:
372,46,45546,1,0,0:0:0:0:
372,46,45640,1,8,0:0:0:0:
372,46,45734,1,0,0:0:0:0:
372,46,45828,1,8,0:0:0:0:
372,41,46015,1,0,0:0:0:0:
372,41,46109,1,8,0:0:0:0:
372,41,46203,1,0,0:0:0:0:
372,46,46390,1,0,0:0:0:0:
369,53,46484,1,8,0:0:0:0:
370,54,46531,1,8,0:0:0:0:
382,72,46578,1,8,0:0:0:0:
382,73,46765,1,0,0:0:0:0:
384,47,46859,1,8,0:0:0:0:
382,72,46953,1,0,0:0:0:0:
388,45,47046,1,0,0:0:0:0:
388,45,47140,1,8,0:0:0:0:
395,45,47234,1,0,0:0:0:0:
395,45,47328,1,8,0:0:0:0:
395,45,47515,1,0,0:0:0:0:
396,47,47609,1,0,0:0:0:0:
396,47,47703,1,8,0:0:0:0:
397,35,47796,1,0,0:0:0:0:
440,47,47843,1,0,0:0:0:0:
440,47,47890,1,8,0:0:0:0:
406,50,47984,1,8,0:0:0:0:
389,58,48078,1,0,0:0:0:0:
430,60,48265,1,8,0:0:0:0:
430,60,48359,1,0,0:0:0:0:
430,60,48453,1,8,0:0:0:0:
430,60,48546,1,8,0:0:0:0:
430,60,48640,1,0,0:0:0:0:
430,60,48734,1,8,0:0:0:0:
431,60,48828,1,0,0:0:0:0:
440,57,48921,1,0,0:0:0:0:
440,57,49015,1,8,0:0:0:0:
440,57,49109,1,0,0:0:0:0:
440,56,49203,1,8,0:0:0:0:
440,56,49296,1,0,0:0:0:0:
406,83,49390,1,8,0:0:0:0:
407,79,49484,1,0,0:0:0:0:
407,68,49531,1,0,0:0:0:0:
407,68,49578,1,8,0:0:0:0:
436,95,49765,1,0,0:0:0:0:
432,94,49953,1,8,0:0:0:0:
426,55,50328,1,8,0:0:0:0:
426,55,50515,1,0,0:0:0:0:
420,66,50703,1,8,0:0:0:0:
421,96,51078,1,8,0:0:0:0:
421,96,51265,1,0,0:0:0:0:
418,93,51453,1,8,0:0:0:0:
421,98,51828,1,8,0:0:0:0:
421,96,52015,1,0,0:0:0:0:
421,96,52203,1,8,0:0:0:0:
421,98,52578,1,8,0:0:0:0:
416,110,52765,1,8,0:0:0:0:
417,110,52953,1,8,0:0:0:0:
417,109,53140,1,8,0:0:0:0:
417,109,53328,1,8,0:0:0:0:
416,106,53515,1,8,0:0:0:0:
416,110,53703,1,8,0:0:0:0:
417,110,53890,1,8,0:0:0:0:
417,109,54078,1,8,0:0:0:0:
417,109,54265,1,8,0:0:0:0:
416,106,54453,1,8,0:0:0:0:
416,110,54640,1,8,0:0:0:0:
417,110,54828,1,8,0:0:0:0:
417,109,55015,1,8,0:0:0:0:
417,109,55203,1,8,0:0:0:0:
416,106,55390,1,8,0:0:0:0:
406,98,55578,1,0,0:0:0:0:
406,98,55765,1,0,0:0:0:0:
406,98,55953,1,8,0:0:0:0:
419,88,56046,1,0,0:0:0:0:
402,100,56140,1,0,0:0:0:0:
413,99,56328,1,8,0:0:0:0:
398,96,56421,1,8,0:0:0:0:
413,99,56515,1,0,0:0:0:0:
410,80,56703,1,8,0:0:0:0:
412,91,56890,1,8,0:0:0:0:
404,83,57078,1,0,0:0:0:0:
404,83,57265,1,0,0:0:0:0:
404,83,57453,1,8,0:0:0:0:
405,78,57546,1,0,0:0:0:0:
410,80,57640,1,0,0:0:0:0:
399,66,57828,1,8,0:0:0:0:
392,75,57890,1,8,0:0:0:0:
392,75,57953,1,8,0:0:0:0:
392,74,58015,1,0,0:0:0:0:
403,71,58203,1,8,0:0:0:0:
403,71,58390,1,0,0:0:0:0:
407,69,58484,1,0,0:0:0:0:
405,78,58578,1,0,0:0:0:0:
421,91,58765,1,0,0:0:0:0:
419,80,58953,1,8,0:0:0:0:
395,62,59046,1,0,0:0:0:0:
419,79,59140,1,0,0:0:0:0:
396,61,59328,1,8,0:0:0:0:
397,61,59515,1,8,0:0:0:0:
397,61,59609,1,0,0:0:0:0:
397,61,59703,1,8,0:0:0:0:
397,61,59890,1,8,0:0:0:0:
395,62,60078,1,0,0:0:0:0:
420,61,60265,1,0,0:0:0:0:
420,61,60453,1,8,0:0:0:0:
420,61,60640,1,0,0:0:0:0:
420,61,60734,1,0,0:0:0:0:
421,61,60828,1,8,0:0:0:0:
414,56,60921,1,0,0:0:0:0:
414,56,61109,1,0,0:0:0:0:
414,54,61203,1,8,0:0:0:0:
414,54,61390,1,0,0:0:0:0:
414,54,61484,1,0,0:0:0:0:
420,61,61578,1,8,0:0:0:0:
420,61,61765,1,0,0:0:0:0:
414,56,61953,1,8,0:0:0:0:
414,56,62046,1,0,0:0:0:0:
414,54,62140,1,0,0:0:0:0:
414,54,62328,1,8,0:0:0:0:
414,54,62421,1,8,0:0:0:0:
420,61,62515,1,0,0:0:0:0:
420,61,62703,1,8,0:0:0:0:
422,54,62890,1,8,0:0:0:0:
421,55,63078,1,8,0:0:0:0:
421,55,63265,1,0,0:0:0:0:
421,55,63453,1,8,0:0:0:0:
420,61,63546,1,0,0:0:0:0:
420,61,63640,1,0,0:0:0:0:
422,54,63828,1,8,0:0:0:0:
410,45,63890,1,8,0:0:0:0:
409,50,63953,1,8,0:0:0:0:
429,44,64015,1,0,0:0:0:0:
421,55,64203,1,8,0:0:0:0:
421,55,64390,1,8,0:0:0:0:
420,53,64578,1,8,0:0:0:0:
405,46,64765,1,0,0:0:0:0:
412,61,64953,1,8,0:0:0:0:
421,45,65046,1,0,0:0:0:0:
421,45,65140,1,0,0:0:0:0:
421,55,65328,1,8,0:0:0:0:
428,42,65515,1,8,0:0:0:0:
403,38,65609,1,0,0:0:0:0:
428,42,65703,1,8,0:0:0:0:
408,36,65890,1,8,0:0:0:0:
408,36,66078,1,0,0:0:0:0:
414,27,66265,1,0,0:0:0:0:
414,23,66453,1,8,0:0:0:0:
419,20,66546,1,0,0:0:0:0:
434,21,66734,1,0,0:0:0:0:
445,32,66828,1,8,0:0:0:0:
434,29,67015,1,0,0:0:0:0:
424,34,67109,1,0,0:0:0:0:
424,24,67203,1,8,0:0:0:0:
434,29,67296,1,0,0:0:0:0:
434,29,67390,1,8,0:0:0:0:
434,29,67484,1,0,0:0:0:0:
435,19,67578,1,8,0:0:0:0:
430,18,67953,1,8,0:0:0:0:
430,18,68328,1,8,0:0:0:0:
430,18,68703,1,8,0:0:0:0:
430,18,69078,1,8,0:0:0:0:
430,18,69453,1,8,0:0:0:0:
430,18,69828,1,8,0:0:0:0:
430,18,70203,1,8,0:0:0:0:
430,18,70578,1,8,0:0:0:0:
422,43,70953,1,8,0:0:0:0:
421,41,71328,1,8,0:0:0:0:
422,43,71703,1,8,0:0:0:0:
421,41,72078,1,8,0:0:0:0:
422,43,72265,1,8,0:0:0:0:
419,64,72453,1,8,0:0:0:0:
419,64,72640,1,8,0:0:0:0:
419,64,72828,1,8,0:0:0:0:
419,64,73015,1,8,0:0:0:0:
420,65,73203,1,8,0:0:0:0:
420,65,73390,1,8,0:0:0:0:
419,64,73578,1,0,0:0:0:0:
334,125,73671,1,8,0:0:0:0:
334,125,73765,1,0,0:0:0:0:
334,125,73859,1,0,0:0:0:0:
334,125,73953,1,8,0:0:0:0:
334,125,74046,1,0,0:0:0:0:
334,125,74140,1,0,0:0:0:0:
334,125,74234,1,8,0:0:0:0:
334,125,74328,1,0,0:0:0:0:
334,125,74421,1,8,0:0:0:0:
334,125,74515,1,0,0:0:0:0:
334,125,74609,1,0,0:0:0:0:
334,125,74703,1,8,0:0:0:0:
301,142,74796,1,0,0:0:0:0:
301,142,74843,1,0,0:0:0:0:
301,142,74890,1,8,0:0:0:0:
337,113,74984,1,8,0:0:0:0:
316,118,75078,1,0,0:0:0:0:
320,90,75171,1,8,0:0:0:0:
322,103,75265,1,0,0:0:0:0:
320,109,75359,1,0,0:0:0:0:
320,109,75453,1,8,0:0:0:0:
320,109,75546,1,8,0:0:0:0:
320,109,75640,1,0,0:0:0:0:
320,109,75734,1,8,0:0:0:0:
320,110,75828,1,0,0:0:0:0:
320,109,75921,1,8,0:0:0:0:
324,114,76015,1,0,0:0:0:0:
323,111,76109,1,0,0:0:0:0:
323,111,76203,1,8,0:0:0:0:
322,103,76296,1,8,0:0:0:0:
327,102,76390,1,0,0:0:0:0:
331,109,76484,1,8,0:0:0:0:
331,109,76531,1,8,0:0:0:0:
331,109,76578,1,0,0:0:0:0:
337,78,76671,1,8,0:0:0:0:
334,80,76765,1,0,0:0:0:0:
334,80,76859,1,0,0:0:0:0:
334,86,76953,1,8,0:0:0:0:
334,86,77046,1,0,0:0:0:0:
334,86,77140,1,0,0:0:0:0:
334,86,77234,1,8,0:0:0:0:
334,86,77328,1,0,0:0:0:0:
334,86,77421,1,8,0:0:0:0:
343,91,77515,1,0,0:0:0:0:
343,94,77609,1,0,0:0:0:0:
342,94,77703,1,8,0:0:0:0:
350,84,77796,1,0,0:0:0:0:
350,84,77843,1,0,0:0:0:0:
349,81,77890,1,8,0:0:0:0:
349,82,77984,1,8,0:0:0:0:
349,82,78078,1,0,0:0:0:0:
345,77,78171,1,8,0:0:0:0:
346,73,78265,1,0,0:0:0:0:
346,73,78359,1,0,0:0:0:0:
349,78,78453,1,8,0:0:0:0:
350,75,78546,1,8,0:0:0:0:
350,75,78640,1,0,0:0:0:0:
350,75,78734,1,8,0:0:0:0:
350,75,78828,1,0,0:0:0:0:
350,72,78921,1,8,0:0:0:0:
357,68,79015,1,8,0:0:0:0:
357,67,79109,1,0,0:0:0:0:
357,67,79203,1,8,0:0:0:0:
357,69,79296,1,8,0:0:0:0:
355,69,79390,1,0,0:0:0:0:
368,62,79484,1,8,0:0:0:0:
368,62,79531,1,8,0:0:0:0:
368,62,79578,1,0,0:0:0:0:
356,67,79765,1,0,0:0:0:0:
356,67,79953,1,8,0:0:0:0:
357,67,80046,1,0,0:0:0:0:
357,67,80234,1,0,0:0:0:0:
358,62,80421,1,0,0:0:0:0:
358,62,80609,1,0,0:0:0:0:
356,67,80703,1,8,0:0:0:0:
356,67,80890,1,0,0:0:0:0:
356,67,80984,1,0,0:0:0:0:
357,67,81078,1,0,0:0:0:0:
357,67,81265,1,0,0:0:0:0:
358,62,81453,1,8,0:0:0:0:
358,62,81546,1,0,0:0:0:0:
365,62,81734,1,0,0:0:0:0:
358,81,82109,1,0,0:0:0:0:
358,81,82203,1,8,0:0:0:0:
349,72,82390,1,0,0:0:0:0:
349,72,82484,1,0,0:0:0:0:
349,72,82578,1,0,0:0:0:0:
360,75,82765,1,0,0:0:0:0:
358,81,82953,1,8,0:0:0:0:
358,81,83046,1,0,0:0:0:0:
358,81,83234,1,0,0:0:0:0:
360,77,83421,1,0,0:0:0:0:
360,77,83609,1,0,0:0:0:0:
360,75,83703,1,8,0:0:0:0:
358,81,83890,1,0,0:0:0:0:
366,79,83984,1,0,0:0:0:0:
366,79,84078,1,0,0:0:0:0:
364,83,84265,1,0,0:0:0:0:
364,83,84453,1,8,0:0:0:0:
364,83,84546,1,0,0:0:0:0:
364,83,84734,1,0,0:0:0:0:
364,83,84828,1,8,0:0:0:0:
366,79,85015,1,0,0:0:0:0:
360,74,85109,1,8,0:0:0:0:
364,74,85203,1,8,0:0:0:0:
365,74,85390,1,0,0:0:0:0:
366,73,85484,1,0,0:0:0:0:
366,73,85578,1,8,0:0:0:0:
371,64,85765,1,0,0:0:0:0:
368,69,85859,1,8,0:0:0:0:
374,70,85953,1,0,0:0:0:0:
369,72,86046,1,0,0:0:0:0:
369,72,86140,1,8,0:0:0:0:
364,74,86234,1,0,0:0:0:0:
365,74,86328,1,8,0:0:0:0:
365,74,86421,1,0,0:0:0:0:
366,73,86515,1,0,0:0:0:0:
371,64,86703,1,8,0:0:0:0:
334,82,86796,1,0,0:0:0:0:
335,81,86843,1,0,0:0:0:0:
373,56,86890,1,8,0:0:0:0:
373,56,86984,1,8,0:0:0:0:
373,58,87078,1,0,0:0:0:0:
373,58,87171,1,8,0:0:0:0:
372,58,87265,1,0,0:0:0:0:
372,58,87359,1,0,0:0:0:0:
377,62,87453,1,8,0:0:0:0:
378,60,87546,1,8,0:0:0:0:
378,60,87640,1,0,0:0:0:0:
378,60,87734,1,0,0:0:0:0:
379,60,87828,1,8,0:0:0:0:
378,60,87921,1,0,0:0:0:0:
373,58,88015,1,8,0:0:0:0:
373,58,88109,1,0,0:0:0:0:
373,58,88203,1,8,0:0:0:0:
378,63,88390,1,0,0:0:0:0:
399,64,88484,1,8,0:0:0:0:
399,64,88531,1,8,0:0:0:0:
398,64,88578,1,0,0:0:0:0:
385,56,88671,1,0,0:0:0:0:
386,51,88765,1,8,0:0:0:0:
384,56,88859,1,0,0:0:0:0:
378,60,88953,1,8,0:0:0:0:
381,58,89046,1,0,0:0:0:0:
389,55,89140,1,0,0:0:0:0:
389,55,89234,1,8,0:0:0:0:
389,56,89328,1,0,0:0:0:0:
389,56,89421,1,8,0:0:0:0:
389,52,89515,1,0,0:0:0:0:
388,52,89609,1,0,0:0:0:0:
385,56,89703,1,8,0:0:0:0:
386,51,89796,1,0,0:0:0:0:
384,56,89843,1,0,0:0:0:0:
384,56,89890,1,0,0:0:0:0:
389,55,89984,1,8,0:0:0:0:
389,55,90078,1,0,0:0:0:0:
390,47,90171,1,0,0:0:0:0:
390,47,90265,1,8,0:0:0:0:
389,56,90359,1,0,0:0:0:0:
389,56,90453,1,8,0:0:0:0:
388,52,90546,1,0,0:0:0:0:
388,52,90640,1,0,0:0:0:0:
396,45,90734,1,0,0:0:0:0:
396,45,90828,1,8,0:0:0:0:
392,47,90921,1,8,0:0:0:0:
389,55,91015,1,0,0:0:0:0:
396,42,91109,1,8,0:0:0:0:
396,42,91203,1,8,0:0:0:0:
401,57,91296,1,0,0:0:0:0:
401,57,91390,1,0,0:0:0:0:
352,97,91484,1,8,0:0:0:0:
352,97,91531,1,8,0:0:0:0:
352,97,91578,1,0,0:0:0:0:
379,74,91671,1,0,0:0:0:0:
386,66,91765,1,8,0:0:0:0:
408,49,91953,1,8,0:0:0:0:
394,49,92046,1,0,0:0:0:0:
394,49,92140,1,8,0:0:0:0:
394,49,92234,1,8,0:0:0:0:
394,49,92421,1,0,0:0:0:0:
388,45,92515,1,0,0:0:0:0:
388,45,92703,1,8,0:0:0:0:
375,58,92796,1,0,0:0:0:0:
375,58,92843,1,0,0:0:0:0:
394,39,92890,1,0,0:0:0:0:
395,39,92984,1,8,0:0:0:0:
394,38,93078,1,0,0:0:0:0:
393,37,93171,1,0,0:0:0:0:
383,37,93265,1,8,0:0:0:0:
383,37,93453,1,8,0:0:0:0:
383,37,93546,1,0,0:0:0:0:
383,37,93640,1,0,0:0:0:0:
383,37,93734,1,8,0:0:0:0:
383,37,93921,1,0,0:0:0:0:
383,37,94015,1,8,0:0:0:0:
383,37,94109,1,0,0:0:0:0:
383,37,94203,1,8,0:0:0:0:
383,37,94296,1,8,0:0:0:0:
383,37,94390,1,0,0:0:0:0:
418,35,94484,1,8,0:0:0:0:
418,35,94531,1,8,0:0:0:0:
418,31,94578,1,0,0:0:0:0:
403,37,94671,1,0,0:0:0:0:
403,37,94765,1,8,0:0:0:0:
403,37,94953,1,8,0:0:0:0:
403,37,95046,1,0,0:0:0:0:
404,36,95140,1,8,0:0:0:0:
404,36,95234,1,0,0:0:0:0:
405,39,95421,1,0,0:0:0:0:
424,42,95515,1,0,0:0:0:0:
424,42,95703,1,8,0:0:0:0:
426,49,95796,1,0,0:0:0:0:
426,49,95843,1,0,0:0:0:0:
415,48,95890,1,8,0:0:0:0:
419,45,95984,1,0,0:0:0:0:
419,45,96078,1,8,0:0:0:0:
420,39,96171,1,0,0:0:0:0:
420,37,96265,1,0,0:0:0:0:
430,36,96453,1,8,0:0:0:0:
429,36,96546,1,8,0:0:0:0:
430,35,96640,1,0,0:0:0:0:
430,35,96734,1,0,0:0:0:0:
429,36,96921,1,8,0:0:0:0:
429,36,97015,1,0,0:0:0:0:
432,46,97109,1,0,0:0:0:0:
427,35,97203,1,8,0:0:0:0:
422,37,97390,1,0,0:0:0:0:
440,34,97484,1,8,0:0:0:0:
440,34,97531,1,8,0:0:0:0:
440,34,97578,1,0,0:0:0:0:
437,26,97765,1,8,0:0:0:0:
437,26,97859,1,0,0:0:0:0:
437,26,97953,1,8,0:0:0:0:
437,26,98140,1,0,0:0:0:0:
437,26,98234,1,0,0:0:0:0:
441,27,98328,1,8,0:0:0:0:
441,27,98515,1,0,0:0:0:0:
440,34,98609,1,8,0:0:0:0:
437,26,98703,1,0,0:0:0:0:
447,34,98796,1,8,0:0:0:0:
447,34,98843,1,8,0:0:0:0:
447,34,98890,1,0,0:0:0:0:
427,27,98984,1,8,0:0:0:0:
437,26,99078,1,0,0:0:0:0:
430,52,99265,1,8,0:0:0:0:
430,52,99359,1,8,0:0:0:0:
430,52,99453,1,0,0:0:0:0:
429,52,99640,1,8,0:0:0:0:
429,52,99734,1,0,0:0:0:0:
429,51,99828,1,8,0:0:0:0:
427,52,100015,1,0,0:0:0:0:
427,52,100109,1,0,0:0:0:0:
430,52,100203,1,8,0:0:0:0:
382,76,100296,1,8,0:0:0:0:
424,57,100390,1,0,0:0:0:0:
430,52,100484,1,8,0:0:0:0:
429,52,100531,1,8,0:0:0:0:
429,52,100578,1,0,0:0:0:0:
411,63,100765,1,8,0:0:0:0:
436,47,100859,1,0,0:0:0:0:
436,47,100953,1,8,0:0:0:0:
436,43,101140,1,0,0:0:0:0:
437,43,101234,1,8,0:0:0:0:
437,43,101328,1,8,0:0:0:0:
433,45,101515,1,8,0:0:0:0:
397,73,101609,1,8,0:0:0:0:
440,48,101703,1,0,0:0:0:0:
416,52,101796,1,8,0:0:0:0:
416,52,101843,1,8,0:0:0:0:
429,45,101890,1,0,0:0:0:0:
388,69,101984,1,0,0:0:0:0:
408,55,102078,1,8,0:0:0:0:
409,50,102265,1,0,0:0:0:0:
409,50,102359,1,0,0:0:0:0:
411,49,102453,1,8,0:0:0:0:
403,49,102640,1,0,0:0:0:0:
422,40,102734,1,8,0:0:0:0:
406,44,102828,1,8,0:0:0:0:
397,63,103015,1,8,0:0:0:0:
397,63,103109,1,0,0:0:0:0:
422,35,103203,1,8,0:0:0:0:
422,35,103390,1,8,0:0:0:0:
411,49,103484,1,0,0:0:0:0:
404,76,103531,1,0,0:0:0:0:
410,68,103578,1,0,0:0:0:0:
405,33,103765,1,0,0:0:0:0:
404,32,103953,1,0,0:0:0:0:
405,30,104140,1,0,0:0:0:0:
405,30,104328,1,8,0:0:0:0:
405,33,104515,1,0,0:0:0:0:
426,34,104609,1,0,0:0:0:0:
426,34,104703,1,0,0:0:0:0:
426,34,104890,1,8,0:0:0:0:
426,34,105078,1,0,0:0:0:0:
426,33,105171,1,0,0:0:0:0:
426,34,105265,1,0,0:0:0:0:
426,33,105453,1,8,0:0:0:0:
426,34,105640,1,8,0:0:0:0:
438,34,105734,1,0,0:0:0:0:
438,34,105828,1,0,0:0:0:0:
433,35,106015,1,8,0:0:0:0:
432,35,106203,1,8,0:0:0:0:
432,35,106296,1,8,0:0:0:0:
435,34,106390,1,0,0:0:0:0:
435,34,106484,1,0,0:0:0:0:
443,29,106578,1,8,0:0:0:0:
443,27,106671,1,0,0:0:0:0:
443,27,106765,1,8,0:0:0:0:
443,27,106859,1,0,0:0:0:0:
443,27,106953,1,0,0:0:0:0:
446,23,107046,1,8,0:0:0:0:
446,23,107140,1,0,0:0:0:0:
446,23,107234,1,8,0:0:0:0:
447,23,107328,1,8,0:0:0:0:
447,23,107421,1,0,0:0:0:0:
443,29,107515,1,8,0:0:0:0:
443,29,107609,1,0,0:0:0:0:
443,27,107703,1,0,0:0:0:0:
443,27,107796,1,8,0:0:0:0:
443,27,107890,1,0,0:0:0:0:
446,23,107984,1,8,0:0:0:0:
446,23,108078,1,8,0:0:0:0:
446,23,108171,1,0,0:0:0:0:
446,23,108265,1,0,0:0:0:0:
447,23,108359,1,8,0:0:0:0:
447,23,108453,1,0,0:0:0:0:
443,29,108546,1,8,0:0:0:0:
434,31,108640,1,8,0:0:0:0:
434,31,108734,1,0,0:0:0:0:
434,31,108828,1,8,0:0:0:0:
443,27,108921,1,0,0:0:0:0:
437,29,109015,1,0,0:0:0:0:
436,28,109109,1,8,0:0:0:0:
436,28,109203,1,0,0:0:0:0:
435,28,109296,1,8,0:0:0:0:
435,28,109390,1,0,0:0:0:0:
435,28,109484,1,0,0:0:0:0:
443,29,109578,1,8,0:0:0:0:
464,2,109765,1,0,0:0:0:0:
459,37,109953,1,8,0:0:0:0:
447,41,110046,1,0,0:0:0:0:
445,41,110234,1,0,0:0:0:0:
459,35,110328,1,8,0:0:0:0:
445,43,110421,1,0,0:0:0:0:
445,43,110609,1,0,0:0:0:0:
388,69,110703,1,8,0:0:0:0:
388,69,110890,1,0,0:0:0:0:
388,69,110984,1,0,0:0:0:0:
388,69,111078,1,8,0:0:0:0:
388,69,111265,1,0,0:0:0:0:
388,69,111453,1,8,0:0:0:0:
388,69,111546,1,8,0:0:0:0:
388,69,111734,1,0,0:0:0:0:
388,69,111828,1,8,0:0:0:0:
372,77,111921,1,0,0:0:0:0:
395,68,112109,1,0,0:0:0:0:
388,69,112203,1,8,0:0:0:0:
388,69,112390,1,0,0:0:0:0:
388,69,112484,1,0,0:0:0:0:
388,69,112578,1,8,0:0:0:0:
388,69,112765,1,0,0:0:0:0:
388,69,112859,1,0,0:0:0:0:
390,69,112953,1,8,0:0:0:0:
395,68,113046,1,8,0:0:0:0:
388,69,113234,1,0,0:0:0:0:
388,69,113328,1,8,0:0:0:0:
388,69,113421,1,0,0:0:0:0:
388,69,113609,1,0,0:0:0:0:
388,69,113703,1,8,0:0:0:0:
388,69,113890,1,0,0:0:0:0:
390,69,113984,1,0,0:0:0:0:
395,68,114078,1,8,0:0:0:0:
388,69,114265,1,8,0:0:0:0:
401,69,114359,1,0,0:0:0:0:
388,69,114453,1,8,0:0:0:0:
388,69,114640,1,8,0:0:0:0:
401,69,114734,1,0,0:0:0:0:
367,90,114828,1,8,0:0:0:0:
362,66,115015,1,8,0:0:0:0:
388,69,115109,1,0,0:0:0:0:
379,79,115203,1,8,0:0:0:0:
386,69,115296,1,0,0:0:0:0:
379,79,115390,1,8,0:0:0:0:
388,69,115484,1,8,0:0:0:0:
388,69,115578,1,0,0:0:0:0:
380,67,115671,1,8,0:0:0:0:
380,67,115765,1,0,0:0:0:0:
380,68,115859,1,0,0:0:0:0:
380,67,115953,1,8,0:0:0:0:
388,69,116046,1,8,0:0:0:0:
388,69,116140,1,8,0:0:0:0:
380,67,116234,1,0,0:0:0:0:
386,69,116328,1,8,0:0:0:0:
391,62,116421,1,0,0:0:0:0:
397,62,116515,1,0,0:0:0:0:
397,62,116609,1,8,0:0:0:0:
397,62,116703,1,0,0:0:0:0:
413,63,116796,1,8,0:0:0:0:
413,63,116843,1,8,0:0:0:0:
412,61,116890,1,0,0:0:0:0:
412,61,116984,1,0,0:0:0:0:
403,57,117078,1,8,0:0:0:0:
402,57,117171,1,0,0:0:0:0:
401,57,117265,1,8,0:0:0:0:
401,57,117359,1,0,0:0:0:0:
400,56,117453,1,8,0:0:0:0:
397,62,117546,1,8,0:0:0:0:
398,51,117640,1,8,0:0:0:0:
405,53,117734,1,0,0:0:0:0:
405,54,117828,1,8,0:0:0:0:
400,57,117921,1,0,0:0:0:0:
400,57,118015,1,0,0:0:0:0:
403,57,118109,1,8,0:0:0:0:
402,57,118203,1,0,0:0:0:0:
401,57,118296,1,8,0:0:0:0:
401,57,118390,1,8,0:0:0:0:
381,63,118484,1,0,0:0:0:0:
382,62,118531,1,0,0:0:0:0:
384,61,118578,1,8,0:0:0:0:
403,59,118671,1,0,0:0:0:0:
405,53,118765,1,8,0:0:0:0:
405,54,118859,1,0,0:0:0:0:
400,57,118953,1,8,0:0:0:0:
402,57,119046,1,8,0:0:0:0:
402,57,119140,1,0,0:0:0:0:
401,57,119234,1,0,0:0:0:0:
392,61,119328,1,8,0:0:0:0:
401,57,119421,1,0,0:0:0:0:
399,61,119515,1,0,0:0:0:0:
402,58,119609,1,8,0:0:0:0:
403,59,119703,1,0,0:0:0:0:
405,53,119796,1,8,0:0:0:0:
400,58,119843,1,8,0:0:0:0:
405,54,119890,1,0,0:0:0:0:
400,57,119984,1,0,0:0:0:0:
400,57,120078,1,8,0:0:0:0:
402,57,120171,1,8,0:0:0:0:
405,48,120265,1,0,0:0:0:0:
405,47,120359,1,8,0:0:0:0:
406,46,120453,1,0,0:0:0:0:
406,46,120546,1,8,0:0:0:0:
406,46,120640,1,8,0:0:0:0:
410,56,120734,1,0,0:0:0:0:
414,66,120828,1,8,0:0:0:0:
401,46,120921,1,0,0:0:0:0:
401,46,121015,1,0,0:0:0:0:
403,47,121109,1,0,0:0:0:0:
403,47,121203,1,8,0:0:0:0:
414,69,121296,1,0,0:0:0:0:
405,47,121390,1,8,0:0:0:0:
417,50,121484,1,0,0:0:0:0:
419,50,121531,1,0,0:0:0:0:
419,50,121578,1,8,0:0:0:0:
413,37,121765,1,0,0:0:0:0:
417,37,121859,1,0,0:0:0:0:
417,39,121953,1,8,0:0:0:0:
417,39,122046,1,0,0:0:0:0:
413,41,122234,1,0,0:0:0:0:
413,41,122328,1,8,0:0:0:0:
416,40,122421,1,8,0:0:0:0:
417,40,122515,1,0,0:0:0:0:
413,37,122703,1,8,0:0:0:0:
417,37,122796,1,0,0:0:0:0:
392,49,122843,1,0,0:0:0:0:
394,47,122890,1,8,0:0:0:0:
424,37,122984,1,8,0:0:0:0:
417,39,123078,1,0,0:0:0:0:
413,41,123265,1,0,0:0:0:0:
413,41,123359,1,0,0:0:0:0:
417,40,123453,1,8,0:0:0:0:
419,32,123546,1,0,0:0:0:0:
419,32,123734,1,0,0:0:0:0:
419,32,123828,1,8,0:0:0:0:
437,33,123890,1,8,0:0:0:0:
437,33,123953,1,8,0:0:0:0:
437,33,124015,1,0,0:0:0:0:
425,34,124109,1,0,0:0:0:0:
425,34,124203,1,8,0:0:0:0:
440,43,124390,1,8,0:0:0:0:
445,45,124484,1,0,0:0:0:0:
411,39,124531,1,0,0:0:0:0:
411,39,124578,1,8,0:0:0:0:
405,76,124765,1,0,0:0:0:0:
405,76,124859,1,0,0:0:0:0:
391,69,124953,1,8,0:0:0:0:
391,69,125046,1,0,0:0:0:0:
398,54,125234,1,0,0:0:0:0:
422,35,125328,1,8,0:0:0:0:
422,35,125421,1,0,0:0:0:0:
421,34,125515,1,8,0:0:0:0:
421,34,125609,1,8,0:0:0:0:
420,34,125703,1,0,0:0:0:0:
419,57,125796,1,8,0:0:0:0:
449,45,125843,1,8,0:0:0:0:
416,54,125890,1,0,0:0:0:0:
424,51,125984,1,0,0:0:0:0:
416,50,126078,1,8,0:0:0:0:
414,48,126265,1,0,0:0:0:0:
422,46,126453,1,8,0:0:0:0:
420,46,126546,1,0,0:0:0:0:
421,44,126734,1,0,0:0:0:0:
421,44,126828,1,8,0:0:0:0:
420,44,126921,1,0,0:0:0:0:
420,44,127109,1,0,0:0:0:0:
420,45,127203,1,8,0:0:0:0:
414,44,127390,1,8,0:0:0:0:
415,41,127484,1,0,0:0:0:0:
449,34,127531,1,0,0:0:0:0:
406,98,127578,1,0,0:0:0:0:
406,98,127765,1,0,0:0:0:0:
406,98,127953,1,8,0:0:0:0:
419,88,128046,1,0,0:0:0:0:
402,100,128140,1,0,0:0:0:0:
413,99,128328,1,8,0:0:0:0:
398,96,128421,1,8,0:0:0:0:
413,99,128515,1,0,0:0:0:0:
410,80,128703,1,8,0:0:0:0:
412,91,128890,1,8,0:0:0:0:
404,83,129078,1,0,0:0:0:0:
404,83,129265,1,0,0:0:0:0:
404,83,129453,1,8,0:0:0:0:
405,78,129546,1,0,0:0:0:0:
410,80,129640,1,0,0:0:0:0:
399,66,129828,1,8,0:0:0:0:
392,75,129890,1,8,0:0:0:0:
392,75,129953,1,8,0:0:0:0:
392,74,130015,1,0,0:0:0:0:
403,71,130203,1,8,0:0:0:0:
403,71,130390,1,0,0:0:0:0:
407,69,130484,1,0,0:0:0:0:
405,78,130578,1,0,0:0:0:0:
421,91,130765,1,0,0:0:0:0:
419,80,130953,1,8,0:0:0:0:
395,62,131046,1,0,0:0:0:0:
419,79,131140,1,0,0:0:0:0:
396,61,131328,1,8,0:0:0:0:
397,61,131515,1,8,0:0:0:0:
397,61,131609,1,0,0:0:0:0:
397,61,131703,1,8,0:0:0:0:
397,61,131890,1,8,0:0:0:0:
395,62,132078,1,0,0:0:0:0:
389,63,132265,1,0,0:0:0:0:
389,63,132453,1,8,0:0:0:0:
390,64,132546,1,0,0:0:0:0:
391,64,132734,1,0,0:0:0:0:
391,64,132828,1,8,0:0:0:0:
397,61,133015,1,0,0:0:0:0:
395,62,133109,1,0,0:0:0:0:
389,63,133203,1,8,0:0:0:0:
409,57,133296,1,8,0:0:0:0:
389,63,133390,1,0,0:0:0:0:
401,65,133484,1,0,0:0:0:0:
435,19,133578,5,8,0:0:0:0:
430,18,133953,1,8,0:0:0:0:
430,18,134328,1,8,0:0:0:0:
430,18,134703,1,8,0:0:0:0:
430,18,135078,1,8,0:0:0:0:
430,18,135453,1,8,0:0:0:0:
430,18,135828,1,8,0:0:0:0:
430,18,136203,1,8,0:0:0:0:
430,18,136578,1,8,0:0:0:0:
335,75,136765,1,8,0:0:0:0:
422,43,136953,1,8,0:0:0:0:
335,75,137140,1,8,0:0:0:0:
421,41,137328,1,8,0:0:0:0:
335,75,137515,1,8,0:0:0:0:
422,43,137703,1,8,0:0:0:0:
335,75,137890,1,8,0:0:0:0:
421,41,138078,1,8,0:0:0:0:
422,43,138265,1,8,0:0:0:0:
419,64,138453,1,8,0:0:0:0:
419,64,138640,1,8,0:0:0:0:
419,64,138828,1,8,0:0:0:0:
419,64,139015,1,8,0:0:0:0:
420,65,139203,1,8,0:0:0:0:
420,65,139390,1,8,0:0:0:0:
419,64,139578,1,0,0:0:0:0:
334,125,139671,1,8,0:0:0:0:
334,125,139765,1,0,0:0:0:0:
334,125,139859,1,0,0:0:0:0:
334,125,139953,1,8,0:0:0:0:
334,125,140046,1,0,0:0:0:0:
334,125,140140,1,8,0:0:0:0:
355,112,140234,1,0,0:0:0:0:
334,125,140328,1,0,0:0:0:0:
334,125,140421,1,8,0:0:0:0:
334,125,140515,1,0,0:0:0:0:
334,125,140609,1,8,0:0:0:0:
334,125,140703,1,8,0:0:0:0:
301,142,140796,1,0,0:0:0:0:
301,142,140843,1,0,0:0:0:0:
301,142,140890,1,8,0:0:0:0:
337,113,140984,1,8,0:0:0:0:
316,118,141078,1,0,0:0:0:0:
320,90,141171,1,8,0:0:0:0:
322,103,141265,1,0,0:0:0:0:
320,109,141359,1,0,0:0:0:0:
320,109,141453,1,8,0:0:0:0:
320,109,141546,1,0,0:0:0:0:
320,109,141640,1,8,0:0:0:0:
314,91,141734,1,8,0:0:0:0:
320,110,141828,1,0,0:0:0:0:
320,109,141921,1,8,0:0:0:0:
324,114,142015,1,0,0:0:0:0:
323,111,142109,1,0,0:0:0:0:
323,111,142203,1,8,0:0:0:0:
322,103,142296,1,8,0:0:0:0:
327,102,142390,1,0,0:0:0:0:
331,109,142484,1,8,0:0:0:0:
331,109,142531,1,8,0:0:0:0:
331,109,142578,1,0,0:0:0:0:
337,78,142671,1,8,0:0:0:0:
334,80,142765,1,0,0:0:0:0:
334,80,142859,1,0,0:0:0:0:
334,86,142953,1,8,0:0:0:0:
334,86,143046,1,0,0:0:0:0:
334,86,143140,1,8,0:0:0:0:
333,85,143234,1,0,0:0:0:0:
334,86,143328,1,0,0:0:0:0:
334,86,143421,1,8,0:0:0:0:
343,91,143515,1,0,0:0:0:0:
343,94,143609,1,8,0:0:0:0:
342,94,143703,1,8,0:0:0:0:
350,84,143796,1,0,0:0:0:0:
350,84,143843,1,0,0:0:0:0:
349,81,143890,1,8,0:0:0:0:
349,82,143984,1,8,0:0:0:0:
349,82,144078,1,0,0:0:0:0:
345,77,144171,1,8,0:0:0:0:
346,73,144265,1,0,0:0:0:0:
346,73,144359,1,0,0:0:0:0:
349,78,144453,1,8,0:0:0:0:
350,75,144546,1,0,0:0:0:0:
350,75,144640,1,8,0:0:0:0:
357,64,144734,1,0,0:0:0:0:
350,75,144828,1,0,0:0:0:0:
350,72,144921,1,8,0:0:0:0:
357,68,145015,1,8,0:0:0:0:
357,67,145109,1,0,0:0:0:0:
357,67,145203,1,8,0:0:0:0:
357,69,145296,1,8,0:0:0:0:
355,69,145390,1,0,0:0:0:0:
368,62,145484,1,8,0:0:0:0:
368,62,145531,1,8,0:0:0:0:
368,62,145578,1,0,0:0:0:0:
389,90,151015,5,0,0:0:0:0:
402,84,151203,1,0,0:0:0:0:
401,85,151390,1,8,0:0:0:0:
401,85,151578,1,0,0:0:0:0:
401,85,151953,1,0,0:0:0:0:
401,85,152328,1,0,0:0:0:0:
401,85,152515,1,0,0:0:0:0:
401,85,152703,1,0,0:0:0:0:
401,85,152890,1,8,0:0:0:0:
401,85,153078,1,0,0:0:0:0:
401,85,153453,1,0,0:0:0:0:
401,85,153828,1,0,0:0:0:0:
401,85,154015,1,0,0:0:0:0:
400,94,154109,1,0,0:0:0:0:
400,94,154203,1,8,0:0:0:0:
400,94,154390,1,8,0:0:0:0:
399,94,154578,1,0,0:0:0:0:
399,94,154953,1,0,0:0:0:0:
400,94,155328,1,0,0:0:0:0:
399,94,155515,1,0,0:0:0:0:
399,94,155609,1,0,0:0:0:0:
399,94,155703,1,8,0:0:0:0:
399,94,155890,1,8,0:0:0:0:
400,94,156078,1,0,0:0:0:0:
399,94,156453,1,0,0:0:0:0:
399,94,156828,1,0,0:0:0:0:
400,94,157015,1,8,0:0:0:0:
399,94,157109,1,0,0:0:0:0:
399,94,157203,1,8,0:0:0:0:
399,94,157390,1,8,0:0:0:0:
399,94,157578,1,0,0:0:0:0:
400,94,157953,1,8,0:0:0:0:
399,94,158515,1,0,0:0:0:0:
399,94,158609,1,0,0:0:0:0:
400,94,158703,1,8,0:0:0:0:
400,94,158796,1,8,0:0:0:0:
400,94,158890,1,0,0:0:0:0:
399,94,159078,1,8,0:0:0:0:
399,94,159453,1,8,0:0:0:0:
392,92,159921,1,0,0:0:0:0:
399,94,160015,1,0,0:0:0:0:
400,85,160203,1,8,0:0:0:0:
400,85,160390,1,8,0:0:0:0:
400,85,160578,1,0,0:0:0:0:
400,85,160953,1,8,0:0:0:0:
406,75,161515,1,0,0:0:0:0:
406,75,161703,1,8,0:0:0:0:
406,75,161890,1,8,0:0:0:0:
406,75,162078,1,0,0:0:0:0:
406,75,162453,1,8,0:0:0:0:
406,75,163578,1,8,0:0:0:0:
416,75,163765,1,0,0:0:0:0:
416,75,163859,1,0,0:0:0:0:
416,75,163953,1,8,0:0:0:0:
406,75,164140,1,0,0:0:0:0:
406,75,164234,1,8,0:0:0:0:
406,75,164328,1,0,0:0:0:0:
406,75,164515,1,8,0:0:0:0:
406,75,164609,1,0,0:0:0:0:
409,72,164703,1,8,0:0:0:0:
415,67,164796,1,0,0:0:0:0:
360,85,164843,1,0,0:0:0:0:
360,85,164890,1,8,0:0:0:0:
416,62,164984,1,8,0:0:0:0:
416,62,165078,1,0,0:0:0:0:
409,56,165265,1,8,0:0:0:0:
409,52,165359,1,0,0:0:0:0:
409,52,165453,1,8,0:0:0:0:
409,52,165546,1,0,0:0:0:0:
408,51,165640,1,0,0:0:0:0:
408,51,165734,1,8,0:0:0:0:
408,51,165828,1,0,0:0:0:0:
408,51,165921,1,8,0:0:0:0:
408,51,166015,1,0,0:0:0:0:
408,51,166109,1,0,0:0:0:0:
409,56,166203,1,8,0:0:0:0:
409,52,166390,1,0,0:0:0:0:
430,44,166484,1,8,0:0:0:0:
430,44,166531,1,8,0:0:0:0:
430,44,166578,1,0,0:0:0:0:
413,64,166671,1,0,0:0:0:0:
425,52,166765,1,8,0:0:0:0:
425,52,166859,1,0,0:0:0:0:
408,51,166953,1,8,0:0:0:0:
408,51,167140,1,0,0:0:0:0:
409,52,167234,1,8,0:0:0:0:
409,52,167328,1,0,0:0:0:0:
420,51,167515,1,0,0:0:0:0:
420,51,167609,1,0,0:0:0:0:
425,52,167703,1,8,0:0:0:0:
425,52,167796,1,0,0:0:0:0:
389,78,167843,1,0,0:0:0:0:
421,34,167890,1,8,0:0:0:0:
418,51,167984,1,8,0:0:0:0:
418,51,168078,1,0,0:0:0:0:
419,37,168265,1,8,0:0:0:0:
419,37,168359,1,0,0:0:0:0:
417,37,168453,1,8,0:0:0:0:
418,38,168640,1,0,0:0:0:0:
418,38,168828,1,8,0:0:0:0:
416,43,168921,1,0,0:0:0:0:
416,43,169015,1,0,0:0:0:0:
416,43,169109,1,0,0:0:0:0:
415,43,169203,1,8,0:0:0:0:
414,44,169390,1,0,0:0:0:0:
439,46,169484,1,8,0:0:0:0:
439,46,169531,1,8,0:0:0:0:
439,46,169578,1,0,0:0:0:0:
426,51,169765,1,8,0:0:0:0:
426,51,169859,1,0,0:0:0:0:
429,50,169953,1,8,0:0:0:0:
429,49,170046,1,0,0:0:0:0:
429,49,170140,1,8,0:0:0:0:
430,48,170234,1,8,0:0:0:0:
430,48,170328,1,0,0:0:0:0:
430,48,170515,1,0,0:0:0:0:
426,51,170703,1,8,0:0:0:0:
426,51,170796,1,0,0:0:0:0:
430,75,170843,1,0,0:0:0:0:
430,75,170890,1,8,0:0:0:0:
429,50,170984,1,0,0:0:0:0:
429,49,171078,1,8,0:0:0:0:
430,56,171265,1,0,0:0:0:0:
430,48,171359,1,0,0:0:0:0:
430,48,171453,1,8,0:0:0:0:
426,51,171640,1,8,0:0:0:0:
439,47,171828,1,0,0:0:0:0:
439,47,172015,1,0,0:0:0:0:
440,40,172203,1,8,0:0:0:0:
440,49,172390,1,0,0:0:0:0:
412,64,172484,1,8,0:0:0:0:
414,63,172531,1,8,0:0:0:0:
414,63,172578,1,0,0:0:0:0:
435,56,172671,1,8,0:0:0:0:
435,56,172765,1,0,0:0:0:0:
435,56,172859,1,0,0:0:0:0:
435,56,172953,1,8,0:0:0:0:
447,49,173140,1,0,0:0:0:0:
446,48,173234,1,8,0:0:0:0:
447,48,173328,1,8,0:0:0:0:
446,47,173421,1,0,0:0:0:0:
446,47,173515,1,8,0:0:0:0:
446,47,173609,1,0,0:0:0:0:
445,46,173703,1,8,0:0:0:0:
445,46,173796,1,0,0:0:0:0:
444,44,173843,1,0,0:0:0:0:
451,42,173890,1,0,0:0:0:0:
444,44,173984,1,8,0:0:0:0:
452,45,174078,1,0,0:0:0:0:
454,58,174171,1,8,0:0:0:0:
455,56,174265,1,0,0:0:0:0:
455,56,174359,1,0,0:0:0:0:
457,57,174453,1,8,0:0:0:0:
446,47,174640,1,0,0:0:0:0:
445,46,174734,1,8,0:0:0:0:
445,46,174828,1,0,0:0:0:0:
451,42,174921,1,8,0:0:0:0:
451,47,175015,1,0,0:0:0:0:
452,45,175109,1,0,0:0:0:0:
451,47,175203,1,8,0:0:0:0:
450,47,175296,1,0,0:0:0:0:
451,48,175390,1,8,0:0:0:0:
451,48,175484,1,0,0:0:0:0:
446,47,175531,1,0,0:0:0:0:
446,47,175578,1,8,0:0:0:0:
445,46,175765,1,0,0:0:0:0:
451,42,175953,1,8,0:0:0:0:
457,42,176046,1,0,0:0:0:0:
452,45,176140,1,0,0:0:0:0:
454,28,176234,1,8,0:0:0:0:
454,28,176328,1,0,0:0:0:0:
454,28,176421,1,8,0:0:0:0:
454,28,176515,1,8,0:0:0:0:
455,28,176609,1,0,0:0:0:0:
455,28,176703,1,8,0:0:0:0:
445,46,176749,1,8,0:0:0:0:
445,46,176796,1,8,0:0:0:0:
441,41,176890,1,0,0:0:0:0:
451,42,176984,1,0,0:0:0:0:
457,42,177078,1,8,0:0:0:0:
453,39,177265,1,0,0:0:0:0:
453,39,177453,1,8,0:0:0:0:
447,41,177546,1,8,0:0:0:0:
446,41,177640,1,0,0:0:0:0:
445,46,177734,1,8,0:0:0:0:
445,46,177828,1,0,0:0:0:0:
441,41,177921,1,8,0:0:0:0:
451,42,178015,1,0,0:0:0:0:
446,41,178109,1,0,0:0:0:0:
453,39,178203,1,8,0:0:0:0:
453,39,178296,1,8,0:0:0:0:
453,39,178390,1,0,0:0:0:0:
433,37,178484,1,8,0:0:0:0:
433,37,178531,1,8,0:0:0:0:
433,37,178578,1,0,0:0:0:0:
462,33,178765,1,0,0:0:0:0:
449,37,178859,1,0,0:0:0:0:
462,33,178953,1,8,0:0:0:0:
461,32,179046,1,8,0:0:0:0:
460,33,179140,1,0,0:0:0:0:
454,31,179234,1,8,0:0:0:0:
456,31,179328,1,0,0:0:0:0:
456,31,179421,1,8,0:0:0:0:
456,31,179515,1,0,0:0:0:0:
456,31,179609,1,0,0:0:0:0:
462,33,179703,1,8,0:0:0:0:
455,31,179796,1,0,0:0:0:0:
455,31,179843,1,0,0:0:0:0:
455,31,179890,1,0,0:0:0:0:
453,30,179984,1,8,0:0:0:0:
461,32,180078,1,0,0:0:0:0:
459,38,180265,1,0,0:0:0:0:
459,38,180359,1,0,0:0:0:0:
459,38,180453,1,8,0:0:0:0:
453,23,180546,1,0,0:0:0:0:
438,36,180640,1,0,0:0:0:0:
439,35,180734,1,0,0:0:0:0:
453,23,180828,1,8,0:0:0:0:
466,38,180921,1,0,0:0:0:0:
453,30,181015,1,8,0:0:0:0:
466,38,181109,1,0,0:0:0:0:
453,23,181203,1,8,0:0:0:0:
466,38,181296,1,0,0:0:0:0:
453,23,181390,1,8,0:0:0:0:
466,38,181484,1,0,0:0:0:0:
464,63,181531,1,0,0:0:0:0:
453,23,181578,1,8,0:0:0:0:
461,35,181765,1,0,0:0:0:0:
472,30,181859,1,0,0:0:0:0:
472,30,181953,1,8,0:0:0:0:
472,29,182046,1,0,0:0:0:0:
473,29,182140,1,8,0:0:0:0:
466,38,182328,1,8,0:0:0:0:
466,38,182515,1,0,0:0:0:0:
461,35,182609,1,0,0:0:0:0:
468,34,182703,1,8,0:0:0:0:
461,35,182796,1,0,0:0:0:0:
464,39,182843,1,0,0:0:0:0:
464,39,182890,1,8,0:0:0:0:
464,39,182984,1,8,0:0:0:0:
464,39,183078,1,0,0:0:0:0:
473,29,183171,1,0,0:0:0:0:
475,34,183265,1,8,0:0:0:0:
474,31,183453,1,8,0:0:0:0:
455,50,183640,1,0,0:0:0:0:
455,50,183734,1,8,0:0:0:0:
451,50,183828,1,0,0:0:0:0:
451,50,183921,1,0,0:0:0:0:
451,50,184015,1,8,0:0:0:0:
448,51,184109,1,0,0:0:0:0:
449,51,184203,1,8,0:0:0:0:
449,50,184296,1,0,0:0:0:0:
449,50,184390,1,0,0:0:0:0:
449,50,184484,1,8,0:0:0:0:
460,44,184531,1,8,0:0:0:0:
460,44,184578,1,0,0:0:0:0:
454,35,184671,1,0,0:0:0:0:
454,36,184765,1,8,0:0:0:0:
454,36,184859,1,0,0:0:0:0:
454,34,184953,1,8,0:0:0:0:
454,34,185046,1,0,0:0:0:0:
454,33,185140,1,0,0:0:0:0:
455,40,185234,1,8,0:0:0:0:
455,40,185328,1,0,0:0:0:0:
455,40,185421,1,8,0:0:0:0:
455,40,185515,1,0,0:0:0:0:
460,44,185609,1,0,0:0:0:0:
454,36,185703,1,8,0:0:0:0:
454,36,185796,1,0,0:0:0:0:
454,36,185843,1,0,0:0:0:0:
454,36,185890,1,8,0:0:0:0:
454,34,185984,1,0,0:0:0:0:
454,34,186078,1,8,0:0:0:0:
441,56,186171,1,8,0:0:0:0:
441,56,186265,1,0,0:0:0:0:
441,56,186359,1,0,0:0:0:0:
442,54,186453,1,8,0:0:0:0:
441,56,186546,1,8,0:0:0:0:
442,54,186640,1,0,0:0:0:0:
440,38,186734,1,0,0:0:0:0:
440,39,186828,1,8,0:0:0:0:
440,41,186921,1,0,0:0:0:0:
440,38,187015,1,0,0:0:0:0:
440,37,187109,1,8,0:0:0:0:
433,42,187203,1,8,0:0:0:0:
432,43,187296,1,0,0:0:0:0:
435,50,187390,1,8,0:0:0:0:
442,54,187484,1,0,0:0:0:0:
435,31,187531,1,0,0:0:0:0:
429,69,187578,1,8,0:0:0:0:
413,55,187953,1,8,0:0:0:0:
413,55,188328,1,8,0:0:0:0:
413,55,188703,1,8,0:0:0:0:
413,55,189078,1,8,0:0:0:0:
416,48,189453,1,8,0:0:0:0:
416,48,189828,1,8,0:0:0:0:
416,48,190203,1,8,0:0:0:0:
416,48,190578,1,8,0:0:0:0:
484,65,190953,1,8,0:0:0:0:
438,60,191328,1,8,0:0:0:0:
438,60,191703,1,8,0:0:0:0:
438,60,192078,1,8,0:0:0:0:
438,60,192265,1,8,0:0:0:0:
438,60,192453,1,8,0:0:0:0:
438,60,192640,1,8,0:0:0:0:
438,60,192828,1,8,0:0:0:0:
438,60,193015,1,8,0:0:0:0:
438,60,193203,1,8,0:0:0:0:
438,60,193390,1,8,0:0:0:0:
388,69,193578,1,0,0:0:0:0:
380,67,193671,1,8,0:0:0:0:
380,67,193765,1,0,0:0:0:0:
380,68,193859,1,0,0:0:0:0:
380,67,193953,1,8,0:0:0:0:
388,69,194046,1,8,0:0:0:0:
388,69,194140,1,0,0:0:0:0:
380,67,194234,1,0,0:0:0:0:
386,69,194328,1,8,0:0:0:0:
391,62,194421,1,0,0:0:0:0:
397,62,194515,1,0,0:0:0:0:
397,62,194609,1,8,0:0:0:0:
397,62,194703,1,0,0:0:0:0:
413,63,194796,1,8,0:0:0:0:
413,63,194843,1,8,0:0:0:0:
412,61,194890,1,0,0:0:0:0:
412,61,194984,1,0,0:0:0:0:
403,57,195078,1,8,0:0:0:0:
402,57,195171,1,0,0:0:0:0:
401,57,195265,1,8,0:0:0:0:
401,57,195359,1,8,0:0:0:0:
400,56,195453,1,0,0:0:0:0:
397,62,195546,1,0,0:0:0:0:
398,51,195640,1,8,0:0:0:0:
405,53,195734,1,0,0:0:0:0:
405,54,195828,1,8,0:0:0:0:
400,57,195921,1,0,0:0:0:0:
400,57,196015,1,0,0:0:0:0:
403,57,196109,1,8,0:0:0:0:
402,57,196203,1,0,0:0:0:0:
401,57,196296,1,8,0:0:0:0:
401,57,196390,1,8,0:0:0:0:
381,63,196484,1,0,0:0:0:0:
382,62,196531,1,0,0:0:0:0:
384,61,196578,1,8,0:0:0:0:
403,59,196671,1,0,0:0:0:0:
405,53,196765,1,8,0:0:0:0:
405,54,196859,1,0,0:0:0:0:
400,57,196953,1,8,0:0:0:0:
400,57,197046,1,0,0:0:0:0:
402,57,197140,1,0,0:0:0:0:
401,57,197234,1,0,0:0:0:0:
392,61,197328,1,8,0:0:0:0:
401,57,197421,1,0,0:0:0:0:
399,61,197515,1,0,0:0:0:0:
402,58,197609,1,8,0:0:0:0:
403,59,197703,1,0,0:0:0:0:
405,53,197796,1,8,0:0:0:0:
400,58,197843,1,8,0:0:0:0:
405,54,197890,1,0,0:0:0:0:
400,57,197984,1,0,0:0:0:0:
400,57,198078,1,8,0:0:0:0:
402,57,198171,1,8,0:0:0:0:
405,48,198265,1,0,0:0:0:0:
405,47,198359,1,8,0:0:0:0:
406,46,198453,1,0,0:0:0:0:
406,46,198546,1,8,0:0:0:0:
406,46,198640,1,8,0:0:0:0:
410,56,198734,1,0,0:0:0:0:
414,66,198828,1,8,0:0:0:0:
401,46,198921,1,0,0:0:0:0:
401,46,199015,1,0,0:0:0:0:
403,47,199109,1,0,0:0:0:0:
403,47,199203,1,8,0:0:0:0:
414,69,199296,1,0,0:0:0:0:
405,47,199390,1,8,0:0:0:0:
417,50,199484,1,0,0:0:0:0:
419,50,199531,1,0,0:0:0:0:
419,50,199578,1,0,0:0:0:0:
413,37,199765,1,0,0:0:0:0:
417,39,199953,1,8,0:0:0:0:
417,39,200046,1,0,0:0:0:0:
413,41,200234,1,0,0:0:0:0:
416,40,200328,1,8,0:0:0:0:
361,74,200421,1,0,0:0:0:0:
417,40,200515,1,0,0:0:0:0:
413,37,200703,1,8,0:0:0:0:
394,47,200890,1,8,0:0:0:0:
417,39,201078,1,0,0:0:0:0:
413,41,201265,1,0,0:0:0:0:
417,40,201453,1,8,0:0:0:0:
419,32,201546,1,0,0:0:0:0:
419,32,201734,1,0,0:0:0:0:
419,32,201828,1,8,0:0:0:0:
437,33,201890,1,8,0:0:0:0:
437,33,201953,1,8,0:0:0:0:
437,33,202015,1,0,0:0:0:0:
425,34,202203,1,8,0:0:0:0:
440,43,202390,1,8,0:0:0:0:
385,76,202484,1,0,0:0:0:0:
385,76,202578,1,0,0:0:0:0:
405,76,202765,1,0,0:0:0:0:
391,69,202953,1,8,0:0:0:0:
391,69,203046,1,0,0:0:0:0:
398,54,203234,1,0,0:0:0:0:
422,35,203328,1,8,0:0:0:0:
422,35,203421,1,0,0:0:0:0:
421,34,203515,1,8,0:0:0:0:
421,34,203609,1,8,0:0:0:0:
420,34,203703,1,0,0:0:0:0:
416,54,203890,1,0,0:0:0:0:
424,51,203984,1,0,0:0:0:0:
416,50,204078,1,8,0:0:0:0:
414,48,204265,1,0,0:0:0:0:
422,46,204453,1,8,0:0:0:0:
420,46,204546,1,0,0:0:0:0:
421,44,204734,1,0,0:0:0:0:
421,44,204828,1,8,0:0:0:0:
420,44,204921,1,0,0:0:0:0:
420,44,205109,1,0,0:0:0:0:
420,45,205203,1,8,0:0:0:0:
414,44,205390,1,0,0:0:0:0:
406,98,205578,1,8,0:0:0:0:
428,42,205671,1,0,0:0:0:0:
406,98,205765,1,0,0:0:0:0:
420,44,205859,1,0,0:0:0:0:
406,98,205953,1,8,0:0:0:0:
419,88,206046,1,0,0:0:0:0:
420,44,206140,1,8,0:0:0:0:
420,36,206234,1,0,0:0:0:0:
413,99,206328,1,8,0:0:0:0:
398,96,206421,1,8,0:0:0:0:
413,99,206515,1,0,0:0:0:0:
441,45,206609,1,0,0:0:0:0:
410,80,206703,1,8,0:0:0:0:
417,88,206796,1,0,0:0:0:0:
409,81,206843,1,0,0:0:0:0:
412,91,206890,1,8,0:0:0:0:
397,69,206984,1,0,0:0:0:0:
397,69,207078,1,8,0:0:0:0:
411,64,207171,1,0,0:0:0:0:
404,83,207265,1,0,0:0:0:0:
411,64,207359,1,0,0:0:0:0:
404,83,207453,1,8,0:0:0:0:
405,68,207546,1,0,0:0:0:0:
405,68,207640,1,8,0:0:0:0:
416,61,207734,1,0,0:0:0:0:
399,66,207828,1,8,0:0:0:0:
392,75,207890,1,8,0:0:0:0:
392,75,207953,1,8,0:0:0:0:
392,74,208015,1,0,0:0:0:0:
416,61,208109,1,0,0:0:0:0:
403,71,208203,1,8,0:0:0:0:
417,58,208296,1,0,0:0:0:0:
403,71,208390,1,8,0:0:0:0:
407,69,208484,1,0,0:0:0:0:
405,78,208578,1,8,0:0:0:0:
410,80,208671,1,0,0:0:0:0:
421,91,208765,1,0,0:0:0:0:
413,75,208859,1,0,0:0:0:0:
419,80,208953,1,8,0:0:0:0:
395,62,209046,1,0,0:0:0:0:
406,73,209140,1,8,0:0:0:0:
420,80,209234,1,8,0:0:0:0:
396,61,209328,1,0,0:0:0:0:
403,71,209421,1,0,0:0:0:0:
407,69,209515,1,8,0:0:0:0:
397,61,209609,1,0,0:0:0:0:
397,61,209703,1,8,0:0:0:0:
395,62,209796,1,0,0:0:0:0:
395,62,209843,1,0,0:0:0:0:
397,61,209890,1,8,0:0:0:0:
395,62,209984,1,8,0:0:0:0:
395,62,210078,1,0,0:0:0:0:
399,63,210171,1,8,0:0:0:0:
389,63,210265,1,0,0:0:0:0:
396,52,210359,1,0,0:0:0:0:
389,63,210453,1,8,0:0:0:0:
396,52,210546,1,8,0:0:0:0:
396,52,210640,1,0,0:0:0:0:
391,47,210734,1,8,0:0:0:0:
391,64,210828,1,0,0:0:0:0:
397,61,210921,1,8,0:0:0:0:
395,51,211015,1,0,0:0:0:0:
395,51,211109,1,8,0:0:0:0:
389,63,211203,1,8,0:0:0:0:
405,47,211296,1,0,0:0:0:0:
391,55,211390,1,8,0:0:0:0:
391,55,211484,1,0,0:0:0:0:
391,55,211531,1,0,0:0:0:0:
435,19,211578,5,8,0:0:0:0:
430,18,211953,1,8,0:0:0:0:
430,18,212328,1,8,0:0:0:0:
430,18,212703,1,8,0:0:0:0:
430,18,213078,1,8,0:0:0:0:
430,18,213453,1,8,0:0:0:0:
430,18,213828,1,8,0:0:0:0:
430,18,214203,1,8,0:0:0:0:
430,18,214578,1,8,0:0:0:0:
335,75,214765,1,8,0:0:0:0:
422,43,214953,1,8,0:0:0:0:
335,75,215140,1,8,0:0:0:0:
421,41,215328,1,8,0:0:0:0:
335,75,215515,1,8,0:0:0:0:
422,43,215703,1,8,0:0:0:0:
335,75,215890,1,8,0:0:0:0:
421,41,216078,1,8,0:0:0:0:
422,43,216265,1,8,0:0:0:0:
419,64,216453,1,8,0:0:0:0:
419,64,216640,1,8,0:0:0:0:
419,64,216828,1,8,0:0:0:0:
419,64,217015,1,8,0:0:0:0:
420,65,217203,1,8,0:0:0:0:
420,65,217390,1,8,0:0:0:0:
419,64,217578,1,0,0:0:0:0:
334,125,217671,1,8,0:0:0:0:
334,125,217765,1,0,0:0:0:0:
334,125,217859,1,0,0:0:0:0:
334,125,217953,1,8,0:0:0:0:
334,125,218046,1,0,0:0:0:0:
334,125,218140,1,8,0:0:0:0:
355,112,218234,1,0,0:0:0:0:
334,125,218328,1,0,0:0:0:0:
334,125,218421,1,8,0:0:0:0:
334,125,218515,1,0,0:0:0:0:
334,125,218609,1,8,0:0:0:0:
334,125,218703,1,8,0:0:0:0:
301,142,218796,1,0,0:0:0:0:
301,142,218843,1,0,0:0:0:0:
301,142,218890,1,8,0:0:0:0:
337,113,218984,1,8,0:0:0:0:
316,118,219078,1,0,0:0:0:0:
320,90,219171,1,8,0:0:0:0:
322,103,219265,1,0,0:0:0:0:
320,109,219359,1,0,0:0:0:0:
320,109,219453,1,8,0:0:0:0:
320,109,219546,1,0,0:0:0:0:
320,109,219640,1,8,0:0:0:0:
314,91,219734,1,8,0:0:0:0:
320,110,219828,1,0,0:0:0:0:
320,109,219921,1,8,0:0:0:0:
324,114,220015,1,0,0:0:0:0:
323,111,220109,1,0,0:0:0:0:
323,111,220203,1,8,0:0:0:0:
322,103,220296,1,8,0:0:0:0:
327,102,220390,1,0,0:0:0:0:
331,109,220484,1,8,0:0:0:0:
331,109,220531,1,8,0:0:0:0:
331,109,220578,1,0,0:0:0:0:
337,78,220671,1,8,0:0:0:0:
334,80,220765,1,0,0:0:0:0:
334,80,220859,1,0,0:0:0:0:
334,86,220953,1,8,0:0:0:0:
334,86,221046,1,0,0:0:0:0:
334,86,221140,1,8,0:0:0:0:
333,85,221234,1,0,0:0:0:0:
334,86,221328,1,0,0:0:0:0:
334,86,221421,1,8,0:0:0:0:
343,91,221515,1,0,0:0:0:0:
343,94,221609,1,8,0:0:0:0:
342,94,221703,1,8,0:0:0:0:
350,84,221796,1,0,0:0:0:0:
350,84,221843,1,0,0:0:0:0:
349,81,221890,1,8,0:0:0:0:
349,82,221984,1,8,0:0:0:0:
349,82,222078,1,0,0:0:0:0:
345,77,222171,1,8,0:0:0:0:
346,73,222265,1,0,0:0:0:0:
346,73,222359,1,0,0:0:0:0:
350,75,222453,1,8,0:0:0:0:
350,75,222546,1,8,0:0:0:0:
350,75,222640,1,0,0:0:0:0:
357,64,222734,1,8,0:0:0:0:
350,75,222828,1,0,0:0:0:0:
350,72,222921,1,8,0:0:0:0:
357,68,223015,1,8,0:0:0:0:
357,67,223109,1,0,0:0:0:0:
357,67,223203,1,8,0:0:0:0:
357,69,223296,1,0,0:0:0:0:
355,69,223390,1,8,0:0:0:0:
368,62,223484,1,0,0:0:0:0:
368,62,223531,1,0,0:0:0:0:
368,62,223578,1,8,0:0:0:0:
363,46,223953,1,8,0:0:0:0:
363,50,224328,1,8,0:0:0:0:
365,60,224703,1,8,0:0:0:0:
372,55,225078,1,8,0:0:0:0:
372,55,225453,1,8,0:0:0:0:
372,55,225828,1,8,0:0:0:0:
372,55,226203,1,8,0:0:0:0:
372,55,226578,1,8,0:0:0:0:
372,55,226765,1,8,0:0:0:0:
372,55,226953,1,8,0:0:0:0:
372,55,227140,1,8,0:0:0:0:
372,55,227328,1,8,0:0:0:0:
372,55,227515,1,8,0:0:0:0:
372,55,227703,1,8,0:0:0:0:
372,55,227890,1,8,0:0:0:0:
372,55,228078,1,8,0:0:0:0:
372,55,228265,1,8,0:0:0:0:
372,55,228453,1,8,0:0:0:0:
372,55,228640,1,8,0:0:0:0:
372,55,228828,1,8,0:0:0:0:
372,55,229015,1,8,0:0:0:0:
372,55,229203,1,8,0:0:0:0:
372,55,229390,1,8,0:0:0:0:
419,64,229578,1,0,0:0:0:0:
334,125,229671,1,8,0:0:0:0:
334,125,229765,1,0,0:0:0:0:
334,125,229859,1,0,0:0:0:0:
334,125,229953,1,8,0:0:0:0:
334,125,230046,1,8,0:0:0:0:
334,125,230140,1,0,0:0:0:0:
355,112,230234,1,8,0:0:0:0:
334,125,230328,1,0,0:0:0:0:
334,125,230421,1,8,0:0:0:0:
334,125,230515,1,0,0:0:0:0:
334,125,230609,1,8,0:0:0:0:
334,125,230703,1,8,0:0:0:0:
301,142,230796,1,0,0:0:0:0:
301,142,230843,1,0,0:0:0:0:
301,142,230890,1,8,0:0:0:0:
337,113,230984,1,8,0:0:0:0:
316,118,231078,1,0,0:0:0:0:
320,90,231171,1,8,0:0:0:0:
322,103,231265,1,0,0:0:0:0:
320,109,231359,1,0,0:0:0:0:
320,109,231453,1,8,0:0:0:0:
320,109,231546,1,0,0:0:0:0:
320,109,231640,1,8,0:0:0:0:
314,91,231734,1,8,0:0:0:0:
320,110,231828,1,0,0:0:0:0:
320,109,231921,1,8,0:0:0:0:
324,114,232015,1,0,0:0:0:0:
323,111,232109,1,8,0:0:0:0:
323,111,232203,1,8,0:0:0:0:
322,103,232296,1,0,0:0:0:0:
327,102,232390,1,0,0:0:0:0:
331,109,232484,1,8,0:0:0:0:
331,109,232531,1,8,0:0:0:0:
331,109,232578,1,0,0:0:0:0:
337,78,232671,1,8,0:0:0:0:
334,80,232765,1,0,0:0:0:0:
334,80,232859,1,0,0:0:0:0:
334,86,232953,1,8,0:0:0:0:
334,86,233046,1,0,0:0:0:0:
334,86,233140,1,8,0:0:0:0:
333,85,233234,1,0,0:0:0:0:
334,86,233328,1,8,0:0:0:0:
334,86,233421,1,8,0:0:0:0:
343,91,233515,1,0,0:0:0:0:
343,94,233609,1,0,0:0:0:0:
342,94,233703,1,8,0:0:0:0:
350,84,233796,1,0,0:0:0:0:
350,84,233843,1,0,0:0:0:0:
349,81,233890,1,8,0:0:0:0:
349,82,233984,1,8,0:0:0:0:
349,82,234078,1,0,0:0:0:0:
345,77,234171,1,8,0:0:0:0:
346,73,234265,1,0,0:0:0:0:
346,73,234359,1,0,0:0:0:0:
350,75,234453,1,8,0:0:0:0:
350,75,234546,1,8,0:0:0:0:
350,75,234640,1,0,0:0:0:0:
357,64,234734,1,8,0:0:0:0:
350,75,234828,1,0,0:0:0:0:
350,72,234921,1,8,0:0:0:0:
357,68,235015,1,8,0:0:0:0:
357,67,235109,1,0,0:0:0:0:
357,67,235203,1,8,0:0:0:0:
357,69,235296,1,0,0:0:0:0:
355,69,235390,1,8,0:0:0:0:
368,62,235484,1,0,0:0:0:0:
368,62,235531,1,0,0:0:0:0:
368,62,235578,1,0,0:0:0:0:
