osu file format v14

[General]
AudioFilename: audio.mp3
AudioLeadIn: 0
PreviewTime: 73531
Countdown: 0
SampleSet: Normal
StackLeniency: 0.7
Mode: 1
LetterboxInBreaks: 0
WidescreenStoryboard: 0

[Editor]
DistanceSpacing: 1.2
BeatDivisor: 12
GridSize: 4
TimelineZoom: 2.1

[Metadata]
Title:Wriggle
TitleUnicode:Wriggle
Artist:clipping.
ArtistUnicode:clipping.
Creator:Nifty
Version:Oni
Source:
Tags:experimental electronic english hip hop rap daveed diggs william hutson jonathan snipes sub pop records clppng hiphop hip-hop
BeatmapID:2304988
BeatmapSetID:1103315

[Difficulty]
HPDrainRate:5
CircleSize:2
OverallDifficulty:5.5
ApproachRate:10
SliderMultiplier:1.4
SliderTickRate:1

[Events]
//Background and Video events
0,0,"wrig.jpg",0,60
//Break Periods
2,145778,150565
//Storyboard Layer 0 (Background)
//Storyboard Layer 1 (Fail)
//Storyboard Layer 2 (Pass)
//Storyboard Layer 3 (Foreground)
//Storyboard Layer 4 (Overlay)
//Storyboard Sound Samples

[TimingPoints]
78,375,4,1,0,20,1,0
78,-166.666666666667,4,1,0,20,0,0
3118,-25,4,1,0,20,0,0
4525,-166.666666666667,4,1,0,20,0,0
6118,-25,4,1,0,20,0,0
7525,-166.666666666667,4,1,0,20,0,0
9118,-25,4,1,0,20,0,0
10478,-166.666666666667,4,1,0,20,0,0
11743,-25,4,1,0,20,0,0
12025,-166.666666666667,4,1,0,20,0,0
13495,-125,4,1,0,25,0,0
19056,-111.111111111111,4,1,0,35,0,0
25484,-100.137187947488,4,1,0,40,0,0
31484,-91.0224552397076,4,1,0,70,0,0
31953,-90.3961339381437,4,1,0,70,0,0
32140,-90.1418201256036,4,1,0,70,0,0
32328,-89.8889332340959,4,1,0,70,0,0
32609,-89.5122922755367,4,1,0,70,0,0
32703,-89.38739244462,4,1,0,70,0,0
32890,-89.1387149941124,4,1,0,70,0,0
32984,-89.0149340354831,4,1,0,70,0,0
33078,-88.8914963727825,4,1,0,70,0,0
33453,-88.4009939807763,4,1,0,70,0,0
33640,-88.1577671400739,4,1,0,70,0,0
33734,-88.0366161894055,4,1,0,70,0,0
33828,-87.915875057475,4,1,0,70,0,0
34109,-87.5554773393291,4,1,0,70,0,0
34203,-87.436051457865,4,1,0,70,0,0
34390,-87.1980983838704,4,1,0,70,0,0
34484,-87.0795689561337,4,1,0,70,0,0
34578,-86.9614369507842,4,1,0,70,0,0
34953,-86.491947167259,4,1,0,70,0,0
35140,-86.2590981783804,4,1,0,70,0,0
35328,-86.0274995505063,4,1,0,70,0,0
35609,-85.6824608002742,4,1,0,70,0,0
35703,-85.5680133075374,4,1,0,70,0,0
35890,-85.3401059241395,4,1,0,70,0,0
35984,-85.2266432122944,4,1,0,70,0,0
36078,-85.113481805291,4,1,0,70,0,0
36265,-84.8879860579972,4,1,0,70,0,0
36453,-84.6636819896643,4,1,0,70,0,0
36640,-84.4405601786762,4,1,0,70,0,0
36734,-84.3294041452962,4,1,0,70,0,0
36828,-84.2186113024745,4,1,0,70,0,0
37015,-83.9978261362596,4,1,0,70,0,0
37109,-83.8878319022069,4,1,0,70,0,0
37203,-83.7781955517129,4,1,0,70,0,0
37390,-83.5597105157389,4,1,0,70,0,0
37578,-83.3423620892263,4,1,0,70,0,0
49578,-83.3333333333333,4,1,0,70,0,0
49765,-84.2082571248606,4,1,0,70,0,0
49953,-85.1016752264768,4,1,0,70,0,0
50328,-86.9466929825324,4,1,0,70,0,0
50515,-87.8995694679087,4,1,0,70,0,0
50703,-88.873484151636,4,1,0,70,0,0
51078,-90.887608383473,4,1,0,70,0,0
51265,-91.9293394325386,4,1,0,70,0,0
51453,-92.9951410038825,4,1,0,70,0,0
51828,-95.2027342225269,4,1,0,70,0,0
52015,-96.3463535795561,4,1,0,70,0,0
52203,-97.5176872705287,4,1,0,70,0,0
52578,-99.9481269221274,4,1,0,70,0,0
52765,-98.7685536728074,4,1,0,70,0,0
52953,-97.5671627956895,4,1,0,70,0,0
53140,-96.3945544788284,4,1,0,70,0,0
53328,-95.2498880813815,4,1,0,70,0,0
53515,-94.1319994201469,4,1,0,70,0,0
53703,-93.0401328613097,4,1,0,70,0,0
53890,-91.9732210769512,4,1,0,70,0,0
54078,-90.9305835924855,4,1,0,70,0,0
54265,-89.9112396242429,4,1,0,70,0,0
54453,-88.9145753217596,4,1,0,70,0,0
54640,-87.9396874447629,4,1,0,70,0,0
54828,-86.9860213463696,4,1,0,70,0,0
55015,-86.0527434475138,4,1,0,70,0,0
55203,-85.1393518341145,4,1,0,70,0,0
55390,-84.3881856540084,4,1,0,70,0,0
55578,-83.3693905947656,4,1,0,70,0,0
67578,-83.3333333333333,4,1,0,70,0,0
67953,-85.1032685612356,4,1,0,70,0,0
68328,-86.9499437868613,4,1,0,70,0,0
68703,-88.8786184707545,4,1,0,70,0,0
69078,-90.8947956366862,4,1,0,70,0,0
69453,-93.0044818859821,4,1,0,70,0,0
69828,-95.2145183097519,4,1,0,70,0,0
70203,-97.5321441564103,4,1,0,70,0,0
70578,-99.9653120367232,4,1,0,70,0,0
70953,-102.523093326772,4,1,0,70,0,0
71328,-105.215201913233,4,1,0,70,0,0
71703,-108.052388119856,4,1,0,70,0,0
72078,-111.046950650735,4,1,0,70,0,0
72265,-105.29186378181,4,1,0,70,0,0
72453,-100.051826846306,4,1,0,70,0,0
72640,-95.3086236195737,4,1,0,70,0,0
72828,-90.9947914581369,4,1,0,70,0,0
73015,-87.0545527354717,4,1,0,70,0,0
73203,-83.441389933297,4,1,0,70,0,0
73390,-80.1162005372592,4,1,0,70,0,0
73578,-76.9230769230769,4,1,0,70,0,1
79578,-76.9230769230769,4,1,0,40,0,0
79953,-83.3333333333333,4,1,0,40,0,0
80046,-83.7064548558533,4,1,0,40,0,0
80234,-84.4628836304175,4,1,0,40,0,0
80421,-85.2330356427508,4,1,0,40,0,0
80609,-86.0173617442945,4,1,0,40,0,0
80703,-86.4149629236602,4,1,0,40,0,0
80890,-87.2213713292886,4,1,0,40,0,0
80984,-87.6302075346205,4,1,0,40,0,0
81078,-88.0428944981995,4,1,0,40,0,0
81265,-88.8801193837764,4,1,0,40,0,0
81453,-89.7333394352004,4,1,0,40,0,0
81546,-90.1661220632894,4,1,0,40,0,0
81734,-91.0443331275731,4,1,0,40,0,0
82109,-92.8531833321108,4,1,0,40,0,0
82203,-93.3166607566115,4,1,0,40,0,0
82390,-94.2577251275071,4,1,0,40,0,0
82484,-94.7353662279788,4,1,0,40,0,0
82578,-95.2178727755915,4,1,0,40,0,0
82765,-96.1977826411101,4,1,0,40,0,0
82953,-97.1981656762174,4,1,0,40,0,0
83046,-97.7061526541388,4,1,0,40,0,0
83234,-98.7382242325325,4,1,0,40,0,0
83421,-99.7924317419767,4,1,0,40,0,0
83609,-100.869291554618,4,1,0,40,0,0
83703,-101.416484032482,4,1,0,40,0,0
83890,-102.528979816145,4,1,0,40,0,0
83984,-103.09437774811,4,1,0,40,0,0
84078,-103.666046052604,4,1,0,40,0,0
84265,-104.828615696198,4,1,0,40,0,0
84453,-106.0176689047,4,1,0,40,0,0
84546,-106.622311784964,4,1,0,40,0,0
84734,-107.852526768997,4,1,0,40,0,0
84828,-108.478459432311,4,1,0,40,0,0
85015,-109.752135776562,4,1,0,40,0,0
85203,-111.056076655346,4,1,0,40,0,0
85484,-83.2882188814392,4,1,0,70,0,0
103578,-83.3333333333333,4,1,0,50,0,0
103953,-86.0143282668027,4,1,0,50,0,0
104140,-87.4205347339269,4,1,0,50,0,0
104328,-88.873484151636,4,1,0,50,0,0
104515,-90.3755465461177,4,1,0,50,0,0
104609,-91.1458214653878,4,1,0,50,0,0
104703,-91.9293394325386,4,1,0,50,0,0
104890,-93.5374070121253,4,1,0,50,0,0
105078,-95.2027342225269,4,1,0,50,0,0
105171,-96.0578806365564,4,1,0,50,0,0
105265,-96.9285287800188,4,1,0,50,0,0
105453,-98.7179499835635,4,1,0,50,0,0
105640,-100.574683742907,4,1,0,50,0,0
105734,-101.529542558646,4,1,0,50,0,0
105828,-102.50270607144,4,1,0,50,0,0
106015,-104.505984535204,4,1,0,50,0,0
106203,-106.589126630014,4,1,0,50,0,0
106296,-107.66221196321,4,1,0,50,0,0
106390,-108.757005310605,4,1,0,50,0,0
106578,-111.015021442551,4,1,0,50,0,0
106765,-109.592884353205,4,1,0,50,0,0
106953,-108.115705427949,4,1,0,50,0,0
107046,-107.391891267858,4,1,0,50,0,0
107140,-106.677704253133,4,1,0,50,0,0
107328,-105.277564298272,4,1,0,50,0,0
107515,-103.91359376851,4,1,0,50,0,0
107703,-102.584619488,4,1,0,50,0,0
107796,-101.932746812308,4,1,0,50,0,0
107890,-101.28910645789,4,1,0,50,0,0
108078,-100.026006761758,4,1,0,50,0,0
108265,-98.7939237785119,4,1,0,50,0,0
108453,-97.5919193890746,4,1,0,50,0,0
108546,-97.0017722223785,4,1,0,50,0,0
108640,-96.4187195015538,4,1,0,50,0,0
108828,-95.273482531607,4,1,0,50,0,0
109015,-94.1550432265803,4,1,0,50,0,0
109203,-93.0626451195622,4,1,0,50,0,0
109296,-92.5258540367642,4,1,0,50,0,0
109390,-91.9952199283725,4,1,0,50,0,0
109484,-91.4706374680196,4,1,0,50,0,0
109546,-90.9520037181179,4,1,0,70,0,0
109953,-89.8889332340959,4,1,0,70,0,0
110140,-89.38739244462,4,1,0,70,0,0
110328,-88.8914963727825,4,1,0,70,0,0
110703,-87.915875057475,4,1,0,70,0,0
110890,-87.436051457865,4,1,0,70,0,0
110984,-87.1980983838704,4,1,0,70,0,0
111078,-86.9614369507842,4,1,0,70,0,0
111453,-86.0274995505063,4,1,0,70,0,0
111640,-85.5680133075374,4,1,0,70,0,0
111828,-85.113481805291,4,1,0,70,0,0
112015,-84.6636819896643,4,1,0,70,0,0
112203,-84.2186113024745,4,1,0,70,0,0
112390,-83.7781955517129,4,1,0,70,0,0
112484,-83.5597105157389,4,1,0,70,0,0
112578,-83.3423620892263,4,1,0,70,0,0
112953,-82.4841589172799,4,1,0,70,0,0
113140,-82.0616512773717,4,1,0,70,0,0
113328,-81.6435166475213,4,1,0,70,0,0
113703,-80.8197711022443,4,1,0,70,0,0
113890,-80.414100451686,4,1,0,70,0,0
113984,-80.2127884852938,4,1,0,70,0,0
114078,-80.0124819471838,4,1,0,70,0,0
114265,-79.6148551765977,4,1,0,70,0,0
114453,-79.2211609227364,4,1,0,70,0,0
114640,-78.8313411339573,4,1,0,70,0,0
114828,-78.445400432391,4,1,0,70,0,0
115015,-78.0631593409596,4,1,0,70,0,0
115109,-77.8734323104658,4,1,0,70,0,0
115203,-77.6846252804415,4,1,0,70,0,0
115390,-77.3097445840658,4,1,0,70,0,0
115578,-76.9844275899871,4,1,0,70,0,1
121578,-76.9844275899871,4,1,0,70,0,0
121640,-83.4053399434845,4,1,0,70,0,0
133578,-83.3333333333333,4,1,0,70,0,0
133953,-86.0143282668027,4,1,0,70,0,0
134328,-88.873484151636,4,1,0,70,0,0
134703,-91.9293394325386,4,1,0,70,0,0
135078,-95.2027342225269,4,1,0,70,0,0
135453,-98.7179499835635,4,1,0,70,0,0
135828,-102.50270607144,4,1,0,70,0,0
136203,-106.589126630014,4,1,0,70,0,0
136578,-111.015021442551,4,1,0,70,0,0
136765,-108.115705427949,4,1,0,70,0,0
136953,-105.277564298272,4,1,0,70,0,0
137140,-102.584619488,4,1,0,70,0,0
137328,-100.026006761758,4,1,0,70,0,0
137515,-97.5919193890746,4,1,0,70,0,0
137703,-95.273482531607,4,1,0,70,0,0
137890,-93.0626451195622,4,1,0,70,0,0
138078,-90.9520037181179,4,1,0,70,0,0
138265,-88.9350560646593,4,1,0,70,0,0
138453,-87.0056231734257,4,1,0,70,0,0
138640,-85.1581301318418,4,1,0,70,0,0
138828,-83.3874656964813,4,1,0,70,0,0
139015,-81.6889350703669,4,1,0,70,0,0
139203,-80.0582183363742,4,1,0,70,0,0
139390,-78.4313725490196,4,1,0,70,0,0
139578,-76.9230769230769,4,1,0,70,0,1
145546,-76.9841312610232,4,1,0,20,0,1
145578,-76.9841312610232,4,1,0,20,0,0
147044,-90.9943774574169,4,1,0,20,0,0
148494,-111.238541039791,4,1,0,20,0,0
150014,-143.067861378688,4,1,0,20,0,0
150921,-167.028282899143,4,1,0,50,0,0
151015,-166.666666666667,4,1,0,50,0,0
151203,-164.422031894586,4,1,0,50,0,0
151390,-162.237054294253,4,1,0,50,0,0
151578,-160.109386733016,4,1,0,50,0,0
151953,-156.016949681413,4,1,0,50,0,0
152328,-152.128737422757,4,1,0,50,0,0
152515,-150.256412568047,4,1,0,50,0,0
152703,-148.42961467672,4,1,0,50,0,0
152890,-146.646703162143,4,1,0,50,0,0
153078,-144.906115327879,4,1,0,50,0,0
153453,-141.545821921201,4,1,0,50,0,0
153828,-138.338034520873,4,1,0,50,0,0
154015,-136.788052384353,4,1,0,50,0,0
154109,-136.025921099525,4,1,0,50,0,0
154203,-135.272418359714,4,1,0,50,0,0
154390,-133.79000321096,4,1,0,50,0,0
154578,-132.339726665529,4,1,0,50,0,0
154953,-129.531329742725,4,1,0,50,0,0
155328,-126.839811465304,4,1,0,50,0,0
155515,-125.535566108912,4,1,0,50,0,0
155609,-124.893372283413,4,1,0,50,0,0
155703,-124.257869872188,4,1,0,50,0,0
155890,-123.005920274943,4,1,0,50,0,0
156078,-121.778946855668,4,1,0,50,0,0
156453,-119.39685484805,4,1,0,50,0,0
156828,-117.106303246772,4,1,0,50,0,0
157015,-115.993671385289,4,1,0,50,0,0
157109,-115.445179701967,4,1,0,50,0,0
157203,-114.901982863518,4,1,0,50,0,0
157390,-113.830651862611,4,1,0,50,0,0
157578,-112.779114210281,4,1,0,50,0,0
157953,-110.733141986464,4,1,0,50,0,0
158515,-107.799858782185,4,1,0,50,0,0
158609,-107.325962901708,4,1,0,50,0,0
158703,-106.856329527823,4,1,0,50,0,0
158890,-105.929173635924,4,1,0,50,0,0
159078,-105.017968574423,4,1,0,50,0,0
159453,-103.241685688947,4,1,0,50,0,0
159921,-101.104260735756,4,1,0,50,0,0
160015,-100.687291451448,4,1,0,50,0,0
160203,-99.8636860685165,4,1,0,50,0,0
160390,-99.0534452769336,4,1,0,50,0,0
160578,-98.256246395224,4,1,0,50,0,0
160953,-96.699641244331,4,1,0,50,0,0
161515,-94.4551965943234,4,1,0,50,0,0
161703,-93.73002378868,4,1,0,50,0,0
161890,-93.0159010682876,4,1,0,50,0,0
162078,-92.3125777733468,4,1,0,50,0,0
162453,-90.9372814663455,4,1,0,50,0,0
163546,-83.3333333333333,4,1,0,70,0,0
187578,-83.3333333333333,4,1,0,70,0,0
187953,-85.1032685612356,4,1,0,70,0,0
188328,-86.9499437868613,4,1,0,70,0,0
188703,-88.8786184707545,4,1,0,70,0,0
189078,-90.8947956366862,4,1,0,70,0,0
189453,-93.0044818859821,4,1,0,70,0,0
189828,-95.2145183097519,4,1,0,70,0,0
190203,-97.5321441564103,4,1,0,70,0,0
190578,-99.9653120367232,4,1,0,70,0,0
190953,-102.523093326772,4,1,0,70,0,0
191328,-105.215201913233,4,1,0,70,0,0
191703,-108.052388119856,4,1,0,70,0,0
192078,-111.046950650735,4,1,0,70,0,0
192265,-105.29186378181,4,1,0,70,0,0
192453,-100.051826846306,4,1,0,70,0,0
192640,-95.3086236195737,4,1,0,70,0,0
192828,-90.9947914581369,4,1,0,70,0,0
193015,-87.0545527354717,4,1,0,70,0,0
193203,-83.441389933297,4,1,0,70,0,0
193390,-80.1162005372592,4,1,0,70,0,0
193578,-77.1074824329878,4,1,0,70,0,1
199578,-77.1074824329878,4,1,0,70,0,0
199685,-83.5497969322186,4,1,0,70,0,0
211578,-83.3333333333333,4,1,0,70,0,0
211953,-86.0143282668027,4,1,0,70,0,0
212328,-88.873484151636,4,1,0,70,0,0
212703,-91.9293394325386,4,1,0,70,0,0
213078,-95.2027342225269,4,1,0,70,0,0
213453,-98.7179499835635,4,1,0,70,0,0
213828,-102.50270607144,4,1,0,70,0,0
214203,-106.589126630014,4,1,0,70,0,0
214578,-111.015021442551,4,1,0,70,0,0
214765,-108.115705427949,4,1,0,70,0,0
214953,-105.277564298272,4,1,0,70,0,0
215140,-102.584619488,4,1,0,70,0,0
215328,-100.026006761758,4,1,0,70,0,0
215515,-97.5919193890746,4,1,0,70,0,0
215703,-95.273482531607,4,1,0,70,0,0
215890,-93.0626451195622,4,1,0,70,0,0
216078,-90.9520037181179,4,1,0,70,0,0
216265,-88.9350560646593,4,1,0,70,0,0
216453,-87.0056231734257,4,1,0,70,0,0
216640,-85.1581301318418,4,1,0,70,0,0
216828,-83.3874656964813,4,1,0,70,0,0
217015,-81.6889350703669,4,1,0,70,0,0
217203,-80.0582183363742,4,1,0,70,0,0
217390,-78.4313725490196,4,1,0,70,0,0
217578,-76.9230769230769,4,1,0,70,0,1
223578,-76.9841312610232,4,1,0,70,0,0
223953,-79.99168086519,4,1,0,70,0,0
224328,-83.3152816889674,4,1,0,70,0,0
224703,-86.9270421335373,4,1,0,70,0,0
225078,-90.8662185750541,4,1,0,70,0,0
225453,-95.1792653873939,4,1,0,70,0,0
225828,-99.9221606368639,4,1,0,70,0,0
226203,-105.162533954353,4,1,0,70,0,0
226578,-110.982987417859,4,1,0,70,0,0
226765,-108.115705427949,4,1,0,70,0,0
226953,-105.277564298272,4,1,0,70,0,0
227140,-102.584619488,4,1,0,70,0,0
227328,-100.026006761758,4,1,0,70,0,0
227515,-97.5919193890746,4,1,0,70,0,0
227703,-95.273482531607,4,1,0,70,0,0
227890,-93.0626451195622,4,1,0,70,0,0
228078,-90.9520037181179,4,1,0,70,0,0
228265,-88.9350560646593,4,1,0,70,0,0
228453,-87.0056231734257,4,1,0,70,0,0
228640,-85.1581301318418,4,1,0,70,0,0
228828,-83.3874656964813,4,1,0,70,0,0
229015,-81.6889350703669,4,1,0,70,0,0
229203,-80.0582183363742,4,1,0,70,0,0
229390,-78.4913337718382,4,1,0,70,0,0
229578,-76.9230769230769,4,1,0,70,0,1
235546,-76.9230769230769,4,1,0,20,0,1
235578,-76.9841312610232,4,1,0,20,0,0

[HitObjects]
256,192,1015,12,0,3078,0:0:0:0:
264,171,3171,6,4,L|434:143,15,140
256,192,4765,12,0,6078,0:0:0:0:
125,182,6171,6,4,L|276:153,19,140
256,192,8140,12,0,9078,0:0:0:0:
219,167,9171,6,4,L|367:152,15,140
256,192,10765,12,0,11703,0:0:0:0:
162,151,11796,6,4,L|326:130,15,140
321,131,13578,5,0,0:0:0:0:
328,130,13765,1,0,0:0:0:0:
332,126,14046,1,0,0:0:0:0:
332,126,14234,1,0,0:0:0:0:
322,115,14421,1,0,0:0:0:0:
338,116,14609,1,8,0:0:0:0:
343,120,14890,1,0,0:0:0:0:
343,120,15078,1,0,0:0:0:0:
359,112,15265,1,0,0:0:0:0:
338,116,15546,1,0,0:0:0:0:
338,112,15734,1,0,0:0:0:0:
338,112,15921,1,0,0:0:0:0:
342,109,16109,1,0,0:0:0:0:
342,109,16203,1,8,0:0:0:0:
344,94,16390,1,0,0:0:0:0:
344,96,16484,1,0,0:0:0:0:
344,97,16578,1,0,0:0:0:0:
350,92,16765,1,0,0:0:0:0:
351,93,17046,1,0,0:0:0:0:
351,93,17234,1,0,0:0:0:0:
344,96,17421,1,0,0:0:0:0:
344,97,17609,1,0,0:0:0:0:
350,92,17703,1,8,0:0:0:0:
331,85,17890,1,0,0:0:0:0:
343,86,18078,1,0,0:0:0:0:
343,86,18265,1,0,0:0:0:0:
346,86,18546,1,0,0:0:0:0:
346,86,18734,1,0,0:0:0:0:
346,86,18921,1,0,0:0:0:0:
343,86,19109,1,8,0:0:0:0:
357,79,19484,1,0,0:0:0:0:
357,79,19578,1,0,0:0:0:0:
351,78,19765,1,0,0:0:0:0:
359,78,19953,1,8,0:0:0:0:
359,78,20140,1,0,0:0:0:0:
355,80,20234,1,0,0:0:0:0:
355,80,20328,1,8,0:0:0:0:
357,79,20515,1,0,0:0:0:0:
357,79,20609,1,8,0:0:0:0:
355,78,20796,1,0,0:0:0:0:
354,78,20890,1,8,0:0:0:0:
359,78,21078,1,0,0:0:0:0:
355,80,21265,1,8,0:0:0:0:
357,79,21359,1,0,0:0:0:0:
357,79,21453,1,8,0:0:0:0:
357,79,21640,1,0,0:0:0:0:
354,69,21828,1,8,0:0:0:0:
355,69,22015,1,0,0:0:0:0:
359,61,22109,1,8,0:0:0:0:
359,61,22390,1,8,0:0:0:0:
359,61,22578,1,0,0:0:0:0:
366,56,22765,1,8,0:0:0:0:
366,56,22859,1,0,0:0:0:0:
366,56,23046,1,0,0:0:0:0:
366,56,23140,1,0,0:0:0:0:
366,56,23328,1,8,0:0:0:0:
366,56,23515,1,0,0:0:0:0:
366,56,23609,1,8,0:0:0:0:
373,46,23890,1,0,0:0:0:0:
374,47,23984,1,0,0:0:0:0:
375,48,24078,1,8,0:0:0:0:
355,54,24265,1,0,0:0:0:0:
380,44,24359,1,8,0:0:0:0:
380,44,24546,1,0,0:0:0:0:
380,44,24640,1,0,0:0:0:0:
380,44,24828,1,8,0:0:0:0:
380,44,25015,1,0,0:0:0:0:
375,48,25109,1,8,0:0:0:0:
371,48,25203,1,0,0:0:0:0:
388,43,25578,1,0,0:0:0:0:
380,44,25765,1,8,0:0:0:0:
380,44,25953,1,8,0:0:0:0:
386,44,26140,1,0,0:0:0:0:
386,44,26234,1,0,0:0:0:0:
383,47,26328,1,8,0:0:0:0:
388,32,26515,1,0,0:0:0:0:
388,32,26703,1,8,0:0:0:0:
388,35,26890,1,0,0:0:0:0:
388,35,26984,1,8,0:0:0:0:
388,35,27078,1,8,0:0:0:0:
388,35,27265,1,0,0:0:0:0:
388,32,27453,1,8,0:0:0:0:
388,32,27640,1,0,0:0:0:0:
383,60,27734,1,0,0:0:0:0:
388,35,27828,1,8,0:0:0:0:
388,35,28015,1,0,0:0:0:0:
388,35,28203,1,8,0:0:0:0:
385,40,28578,1,0,0:0:0:0:
381,39,28765,1,8,0:0:0:0:
381,39,28953,1,8,0:0:0:0:
381,39,29140,1,0,0:0:0:0:
381,39,29234,1,8,0:0:0:0:
381,39,29328,1,0,0:0:0:0:
381,39,29515,1,0,0:0:0:0:
381,39,29703,1,8,0:0:0:0:
381,39,29796,1,8,0:0:0:0:
381,39,29890,1,0,0:0:0:0:
381,39,30078,1,8,0:0:0:0:
381,39,30265,1,0,0:0:0:0:
381,39,30359,1,0,0:0:0:0:
381,39,30453,1,8,0:0:0:0:
381,39,30640,1,0,0:0:0:0:
381,39,30828,1,0,0:0:0:0:
381,39,31015,1,0,0:0:0:0:
381,39,31203,1,8,0:0:0:0:
381,39,31296,1,8,0:0:0:0:
381,39,31390,1,0,0:0:0:0:
381,39,31578,1,8,0:0:0:0:
344,102,31953,1,8,0:0:0:0:
344,102,32140,1,0,0:0:0:0:
350,87,32328,1,8,0:0:0:0:
344,82,32609,1,8,0:0:0:0:
365,81,32703,1,0,0:0:0:0:
367,77,32890,1,8,0:0:0:0:
367,79,32984,1,0,0:0:0:0:
367,79,33078,1,8,0:0:0:0:
351,78,33453,1,8,0:0:0:0:
344,82,33640,1,0,0:0:0:0:
348,76,33734,1,0,0:0:0:0:
348,76,33828,1,8,0:0:0:0:
352,71,34109,1,8,0:0:0:0:
356,69,34203,1,0,0:0:0:0:
356,69,34390,1,8,0:0:0:0:
356,69,34484,1,0,0:0:0:0:
356,69,34578,1,8,0:0:0:0:
352,71,34953,1,8,0:0:0:0:
359,67,35140,1,0,0:0:0:0:
356,69,35328,1,8,0:0:0:0:
356,69,35609,1,8,0:0:0:0:
361,62,35703,1,0,0:0:0:0:
361,62,35890,1,8,0:0:0:0:
349,64,35984,1,0,0:0:0:0:
348,64,36078,1,8,0:0:0:0:
360,60,36265,1,0,0:0:0:0:
368,69,36453,1,8,0:0:0:0:
360,60,36640,1,0,0:0:0:0:
361,62,36734,1,0,0:0:0:0:
361,62,36828,1,8,0:0:0:0:
362,64,37015,1,0,0:0:0:0:
362,64,37109,1,8,0:0:0:0:
360,60,37203,1,0,0:0:0:0:
361,64,37390,1,8,0:0:0:0:
360,60,37578,1,0,0:0:0:0:
359,54,37765,1,0,0:0:0:0:
376,56,37859,1,0,0:0:0:0:
368,52,37953,1,8,0:0:0:0:
358,54,38140,1,8,0:0:0:0:
358,54,38328,1,0,0:0:0:0:
373,58,38515,1,8,0:0:0:0:
373,58,38609,1,0,0:0:0:0:
373,58,38703,1,8,0:0:0:0:
359,56,38890,1,0,0:0:0:0:
359,63,39078,1,0,0:0:0:0:
360,62,39171,1,0,0:0:0:0:
360,62,39265,1,8,0:0:0:0:
354,57,39453,1,8,0:0:0:0:
352,54,39640,1,0,0:0:0:0:
352,54,39734,1,0,0:0:0:0:
355,49,39828,1,8,0:0:0:0:
355,49,40015,1,0,0:0:0:0:
355,49,40203,1,8,0:0:0:0:
350,47,40296,1,0,0:0:0:0:
350,47,40390,1,8,0:0:0:0:
359,47,40578,1,0,0:0:0:0:
363,51,40953,1,8,0:0:0:0:
355,49,41140,1,0,0:0:0:0:
355,49,41234,1,0,0:0:0:0:
359,45,41328,1,8,0:0:0:0:
359,45,41515,1,0,0:0:0:0:
359,44,41703,1,8,0:0:0:0:
338,46,41890,1,0,0:0:0:0:
369,41,41984,1,0,0:0:0:0:
372,46,42078,1,8,0:0:0:0:
372,46,42265,1,8,0:0:0:0:
372,46,42453,1,0,0:0:0:0:
372,46,42640,1,8,0:0:0:0:
372,46,42734,1,8,0:0:0:0:
372,46,42828,1,0,0:0:0:0:
369,41,43015,1,0,0:0:0:0:
372,46,43203,1,8,0:0:0:0:
372,46,43296,1,0,0:0:0:0:
369,58,43390,1,8,0:0:0:0:
372,46,43578,1,8,0:0:0:0:
372,46,43953,1,0,0:0:0:0:
372,46,44140,1,8,0:0:0:0:
372,46,44328,1,8,0:0:0:0:
372,46,44515,1,0,0:0:0:0:
372,46,44609,1,0,0:0:0:0:
372,46,44703,1,8,0:0:0:0:
372,46,44890,1,0,0:0:0:0:
386,49,45078,1,8,0:0:0:0:
372,46,45453,1,8,0:0:0:0:
372,46,45640,1,0,0:0:0:0:
372,46,45828,1,8,0:0:0:0:
372,41,46015,1,0,0:0:0:0:
372,41,46109,1,8,0:0:0:0:
372,41,46203,1,0,0:0:0:0:
372,46,46390,1,0,0:0:0:0:
382,72,46578,1,8,0:0:0:0:
382,72,46953,1,0,0:0:0:0:
388,45,47140,1,8,0:0:0:0:
395,45,47328,1,8,0:0:0:0:
395,45,47515,1,0,0:0:0:0:
396,47,47609,1,0,0:0:0:0:
396,47,47703,1,8,0:0:0:0:
440,47,47890,1,8,0:0:0:0:
389,58,48078,1,0,0:0:0:0:
430,60,48453,1,8,0:0:0:0:
430,60,48640,1,0,0:0:0:0:
431,60,48828,1,0,0:0:0:0:
440,57,49015,1,8,0:0:0:0:
440,57,49109,1,0,0:0:0:0:
440,56,49203,1,8,0:0:0:0:
440,56,49296,1,0,0:0:0:0:
406,83,49390,1,0,0:0:0:0:
407,68,49578,1,8,0:0:0:0:
436,95,49765,1,0,0:0:0:0:
432,94,49953,1,8,0:0:0:0:
426,55,50328,1,8,0:0:0:0:
426,55,50515,1,0,0:0:0:0:
420,66,50703,1,8,0:0:0:0:
421,96,51078,1,8,0:0:0:0:
421,96,51265,1,0,0:0:0:0:
418,93,51453,1,8,0:0:0:0:
421,98,51828,1,8,0:0:0:0:
421,96,52015,1,0,0:0:0:0:
421,96,52203,1,8,0:0:0:0:
421,98,52578,1,8,0:0:0:0:
416,110,52765,1,8,0:0:0:0:
417,110,52953,1,8,0:0:0:0:
417,109,53140,1,8,0:0:0:0:
417,109,53328,1,8,0:0:0:0:
416,106,53515,1,8,0:0:0:0:
416,110,53703,1,8,0:0:0:0:
417,110,53890,1,8,0:0:0:0:
417,109,54078,1,8,0:0:0:0:
417,109,54265,1,8,0:0:0:0:
416,106,54453,1,8,0:0:0:0:
416,110,54640,1,8,0:0:0:0:
417,110,54828,1,8,0:0:0:0:
417,109,55015,1,8,0:0:0:0:
417,109,55203,1,8,0:0:0:0:
424,103,55390,1,8,0:0:0:0:
406,98,55578,1,0,0:0:0:0:
406,98,55765,1,0,0:0:0:0:
406,98,55953,1,8,0:0:0:0:
402,100,56140,1,0,0:0:0:0:
413,99,56328,1,8,0:0:0:0:
398,96,56421,1,8,0:0:0:0:
413,99,56515,1,0,0:0:0:0:
410,80,56703,1,8,0:0:0:0:
412,91,56890,1,8,0:0:0:0:
404,83,57078,1,0,0:0:0:0:
404,83,57265,1,0,0:0:0:0:
404,83,57453,1,8,0:0:0:0:
410,80,57640,1,0,0:0:0:0:
399,66,57828,1,8,0:0:0:0:
392,75,57921,1,8,0:0:0:0:
392,74,58015,1,0,0:0:0:0:
403,71,58203,1,8,0:0:0:0:
412,83,58390,1,8,0:0:0:0:
402,65,58484,1,0,0:0:0:0:
405,78,58578,1,0,0:0:0:0:
421,91,58765,1,0,0:0:0:0:
419,80,58953,1,8,0:0:0:0:
419,79,59140,1,0,0:0:0:0:
396,61,59328,1,8,0:0:0:0:
397,61,59515,1,8,0:0:0:0:
397,61,59609,1,0,0:0:0:0:
397,61,59703,1,8,0:0:0:0:
397,61,59890,1,8,0:0:0:0:
395,62,60078,1,0,0:0:0:0:
420,61,60453,1,8,0:0:0:0:
420,61,60640,1,0,0:0:0:0:
421,61,60828,1,8,0:0:0:0:
414,56,60921,1,0,0:0:0:0:
414,56,61109,1,0,0:0:0:0:
414,54,61203,1,8,0:0:0:0:
414,54,61390,1,0,0:0:0:0:
420,61,61578,1,8,0:0:0:0:
420,61,61765,1,0,0:0:0:0:
414,56,61953,1,8,0:0:0:0:
414,54,62140,1,0,0:0:0:0:
414,54,62328,1,8,0:0:0:0:
414,54,62421,1,8,0:0:0:0:
420,61,62515,1,0,0:0:0:0:
420,61,62703,1,8,0:0:0:0:
422,54,62890,1,8,0:0:0:0:
421,55,63078,1,8,0:0:0:0:
421,55,63265,1,0,0:0:0:0:
421,55,63453,1,8,0:0:0:0:
420,61,63640,1,0,0:0:0:0:
422,54,63828,1,8,0:0:0:0:
410,45,63921,1,8,0:0:0:0:
429,44,64015,1,0,0:0:0:0:
421,55,64203,1,8,0:0:0:0:
421,55,64390,1,8,0:0:0:0:
420,53,64578,1,8,0:0:0:0:
405,46,64765,1,0,0:0:0:0:
412,61,64953,1,8,0:0:0:0:
421,45,65140,1,0,0:0:0:0:
421,55,65328,1,8,0:0:0:0:
428,42,65515,1,8,0:0:0:0:
403,38,65609,1,0,0:0:0:0:
428,42,65703,1,8,0:0:0:0:
408,36,65890,1,8,0:0:0:0:
408,36,66078,1,0,0:0:0:0:
414,23,66453,1,8,0:0:0:0:
419,20,66546,1,0,0:0:0:0:
434,21,66734,1,0,0:0:0:0:
445,32,66828,1,8,0:0:0:0:
434,29,67015,1,0,0:0:0:0:
424,34,67109,1,0,0:0:0:0:
424,24,67203,1,8,0:0:0:0:
434,29,67390,1,8,0:0:0:0:
435,19,67578,1,8,0:0:0:0:
430,18,67953,1,8,0:0:0:0:
430,18,68328,1,8,0:0:0:0:
430,18,68703,1,8,0:0:0:0:
430,18,69078,1,8,0:0:0:0:
430,18,69453,1,8,0:0:0:0:
430,18,69828,1,8,0:0:0:0:
430,18,70203,1,8,0:0:0:0:
430,18,70578,1,8,0:0:0:0:
422,43,70953,1,8,0:0:0:0:
421,41,71328,1,8,0:0:0:0:
422,43,71703,1,8,0:0:0:0:
421,41,72078,1,8,0:0:0:0:
422,43,72265,1,8,0:0:0:0:
419,64,72453,1,8,0:0:0:0:
419,64,72640,1,8,0:0:0:0:
419,64,72828,1,8,0:0:0:0:
419,64,73015,1,8,0:0:0:0:
420,65,73203,1,8,0:0:0:0:
420,65,73390,1,8,0:0:0:0:
419,64,73578,1,0,0:0:0:0:
334,125,73671,1,8,0:0:0:0:
334,125,73765,1,0,0:0:0:0:
334,125,73859,1,0,0:0:0:0:
334,125,73953,1,8,0:0:0:0:
334,125,74140,1,0,0:0:0:0:
334,125,74328,1,8,0:0:0:0:
334,125,74421,1,8,0:0:0:0:
334,125,74515,1,0,0:0:0:0:
334,125,74703,1,8,0:0:0:0:
301,142,74796,1,0,0:0:0:0:
301,142,74890,1,8,0:0:0:0:
316,118,75078,1,0,0:0:0:0:
320,90,75171,1,8,0:0:0:0:
322,103,75265,1,0,0:0:0:0:
320,109,75359,1,0,0:0:0:0:
320,109,75453,1,8,0:0:0:0:
320,109,75640,1,0,0:0:0:0:
320,110,75828,1,8,0:0:0:0:
320,109,75921,1,8,0:0:0:0:
324,114,76015,1,0,0:0:0:0:
323,111,76203,1,8,0:0:0:0:
322,103,76296,1,0,0:0:0:0:
327,102,76390,1,8,0:0:0:0:
331,109,76578,1,0,0:0:0:0:
337,78,76671,1,8,0:0:0:0:
334,80,76765,1,0,0:0:0:0:
334,80,76859,1,0,0:0:0:0:
334,86,76953,1,8,0:0:0:0:
334,86,77140,1,0,0:0:0:0:
334,86,77328,1,0,0:0:0:0:
334,86,77421,1,8,0:0:0:0:
343,91,77515,1,0,0:0:0:0:
342,94,77703,1,8,0:0:0:0:
350,84,77796,1,0,0:0:0:0:
349,81,77890,1,8,0:0:0:0:
349,82,78078,1,0,0:0:0:0:
345,77,78171,1,8,0:0:0:0:
346,73,78265,1,0,0:0:0:0:
346,73,78359,1,0,0:0:0:0:
349,78,78453,1,8,0:0:0:0:
350,75,78640,1,0,0:0:0:0:
350,75,78828,1,0,0:0:0:0:
350,72,78921,1,8,0:0:0:0:
357,68,79015,1,8,0:0:0:0:
357,67,79109,1,0,0:0:0:0:
357,67,79203,1,8,0:0:0:0:
355,69,79390,1,0,0:0:0:0:
368,62,79484,1,8,0:0:0:0:
368,62,79578,1,0,0:0:0:0:
356,67,79953,1,8,0:0:0:0:
357,67,80046,1,0,0:0:0:0:
357,67,80234,1,0,0:0:0:0:
358,62,80421,1,0,0:0:0:0:
358,62,80609,1,0,0:0:0:0:
356,67,80703,1,8,0:0:0:0:
356,67,80890,1,0,0:0:0:0:
356,67,80984,1,0,0:0:0:0:
357,67,81078,1,0,0:0:0:0:
357,67,81265,1,0,0:0:0:0:
358,62,81453,1,8,0:0:0:0:
358,62,81546,1,0,0:0:0:0:
365,62,81734,1,0,0:0:0:0:
358,81,82109,1,0,0:0:0:0:
358,81,82203,1,8,0:0:0:0:
349,72,82390,1,0,0:0:0:0:
349,72,82484,1,0,0:0:0:0:
349,72,82578,1,0,0:0:0:0:
360,75,82765,1,0,0:0:0:0:
358,81,82953,1,8,0:0:0:0:
358,81,83046,1,0,0:0:0:0:
358,81,83234,1,0,0:0:0:0:
360,77,83421,1,0,0:0:0:0:
360,77,83609,1,0,0:0:0:0:
360,75,83703,1,8,0:0:0:0:
358,81,83890,1,0,0:0:0:0:
366,79,83984,1,0,0:0:0:0:
366,79,84078,1,0,0:0:0:0:
364,83,84265,1,0,0:0:0:0:
364,83,84453,1,8,0:0:0:0:
364,83,84546,1,0,0:0:0:0:
364,83,84734,1,0,0:0:0:0:
364,83,84828,1,8,0:0:0:0:
366,79,85015,1,0,0:0:0:0:
364,74,85203,1,8,0:0:0:0:
366,73,85578,1,8,0:0:0:0:
371,64,85765,1,0,0:0:0:0:
368,69,85859,1,8,0:0:0:0:
374,70,85953,1,0,0:0:0:0:
369,72,86140,1,8,0:0:0:0:
365,74,86328,1,8,0:0:0:0:
365,74,86421,1,0,0:0:0:0:
366,73,86515,1,0,0:0:0:0:
371,64,86703,1,8,0:0:0:0:
334,82,86796,1,0,0:0:0:0:
373,56,86890,1,8,0:0:0:0:
373,58,87078,1,0,0:0:0:0:
372,58,87265,1,0,0:0:0:0:
372,58,87359,1,0,0:0:0:0:
377,62,87453,1,8,0:0:0:0:
378,60,87640,1,0,0:0:0:0:
379,60,87828,1,8,0:0:0:0:
378,60,87921,1,0,0:0:0:0:
373,58,88015,1,8,0:0:0:0:
373,58,88203,1,8,0:0:0:0:
399,64,88484,1,8,0:0:0:0:
398,64,88578,1,0,0:0:0:0:
386,51,88765,1,8,0:0:0:0:
378,60,88953,1,8,0:0:0:0:
389,55,89140,1,0,0:0:0:0:
389,55,89234,1,8,0:0:0:0:
389,56,89421,1,8,0:0:0:0:
389,52,89515,1,0,0:0:0:0:
388,52,89609,1,0,0:0:0:0:
385,56,89703,1,8,0:0:0:0:
389,55,89984,1,8,0:0:0:0:
389,55,90078,1,0,0:0:0:0:
390,47,90265,1,8,0:0:0:0:
389,56,90359,1,0,0:0:0:0:
389,56,90453,1,8,0:0:0:0:
388,52,90640,1,0,0:0:0:0:
396,45,90828,1,8,0:0:0:0:
389,55,91015,1,0,0:0:0:0:
396,42,91109,1,8,0:0:0:0:
396,42,91203,1,8,0:0:0:0:
352,97,91484,1,8,0:0:0:0:
352,97,91578,1,0,0:0:0:0:
381,73,91765,1,8,0:0:0:0:
408,49,91953,1,8,0:0:0:0:
394,49,92140,1,0,0:0:0:0:
394,49,92234,1,8,0:0:0:0:
394,49,92421,1,0,0:0:0:0:
388,45,92515,1,0,0:0:0:0:
388,45,92703,1,8,0:0:0:0:
375,58,92796,1,0,0:0:0:0:
394,39,92890,1,0,0:0:0:0:
395,39,92984,1,8,0:0:0:0:
393,37,93171,1,0,0:0:0:0:
383,37,93265,1,0,0:0:0:0:
383,37,93453,1,8,0:0:0:0:
383,37,93640,1,0,0:0:0:0:
383,37,93734,1,8,0:0:0:0:
383,37,93921,1,0,0:0:0:0:
383,37,94015,1,0,0:0:0:0:
383,37,94203,1,8,0:0:0:0:
383,37,94296,1,8,0:0:0:0:
383,37,94390,1,0,0:0:0:0:
418,35,94484,1,8,0:0:0:0:
403,37,94671,1,0,0:0:0:0:
403,37,94765,1,0,0:0:0:0:
403,37,94953,1,8,0:0:0:0:
403,37,95140,1,0,0:0:0:0:
404,36,95234,1,8,0:0:0:0:
405,39,95421,1,0,0:0:0:0:
424,42,95515,1,0,0:0:0:0:
424,42,95703,1,8,0:0:0:0:
426,49,95796,1,0,0:0:0:0:
415,48,95890,1,8,0:0:0:0:
419,45,95984,1,0,0:0:0:0:
420,39,96171,1,8,0:0:0:0:
420,37,96265,1,0,0:0:0:0:
430,36,96453,1,8,0:0:0:0:
430,35,96640,1,0,0:0:0:0:
430,35,96734,1,0,0:0:0:0:
429,36,96921,1,8,0:0:0:0:
429,36,97015,1,0,0:0:0:0:
427,35,97203,1,8,0:0:0:0:
422,37,97390,1,0,0:0:0:0:
440,34,97484,1,8,0:0:0:0:
440,34,97578,1,0,0:0:0:0:
437,26,97953,1,8,0:0:0:0:
437,26,98140,1,0,0:0:0:0:
437,26,98234,1,0,0:0:0:0:
441,27,98328,1,8,0:0:0:0:
441,27,98515,1,0,0:0:0:0:
437,26,98703,1,0,0:0:0:0:
447,34,98796,1,8,0:0:0:0:
447,34,98890,1,8,0:0:0:0:
437,26,99078,1,0,0:0:0:0:
430,52,99453,1,8,0:0:0:0:
429,52,99640,1,0,0:0:0:0:
429,52,99734,1,0,0:0:0:0:
429,51,99828,1,8,0:0:0:0:
427,52,100015,1,0,0:0:0:0:
427,52,100109,1,8,0:0:0:0:
430,52,100203,1,8,0:0:0:0:
424,57,100390,1,0,0:0:0:0:
430,52,100484,1,8,0:0:0:0:
429,52,100578,1,0,0:0:0:0:
436,47,100953,1,8,0:0:0:0:
436,43,101140,1,0,0:0:0:0:
437,43,101234,1,8,0:0:0:0:
437,43,101328,1,8,0:0:0:0:
433,45,101515,1,8,0:0:0:0:
397,73,101609,1,8,0:0:0:0:
440,48,101703,1,0,0:0:0:0:
429,45,101890,1,0,0:0:0:0:
388,69,101984,1,0,0:0:0:0:
408,55,102078,1,8,0:0:0:0:
411,49,102453,1,8,0:0:0:0:
403,49,102640,1,0,0:0:0:0:
422,40,102734,1,8,0:0:0:0:
406,44,102828,1,8,0:0:0:0:
397,63,103015,1,8,0:0:0:0:
397,63,103109,1,0,0:0:0:0:
422,35,103203,1,8,0:0:0:0:
422,35,103390,1,8,0:0:0:0:
411,49,103484,1,0,0:0:0:0:
410,68,103578,1,0,0:0:0:0:
404,32,103953,1,0,0:0:0:0:
405,30,104140,1,0,0:0:0:0:
405,30,104328,1,8,0:0:0:0:
405,33,104515,1,0,0:0:0:0:
426,34,104609,1,0,0:0:0:0:
426,34,104703,1,0,0:0:0:0:
426,34,104890,1,8,0:0:0:0:
426,34,105078,1,0,0:0:0:0:
426,33,105171,1,0,0:0:0:0:
426,34,105265,1,0,0:0:0:0:
426,33,105453,1,8,0:0:0:0:
426,34,105640,1,8,0:0:0:0:
438,34,105734,1,0,0:0:0:0:
438,34,105828,1,0,0:0:0:0:
433,35,106015,1,8,0:0:0:0:
432,35,106203,1,8,0:0:0:0:
432,35,106296,1,8,0:0:0:0:
435,34,106390,1,0,0:0:0:0:
443,29,106578,1,8,0:0:0:0:
443,27,106765,1,8,0:0:0:0:
443,27,106953,1,0,0:0:0:0:
446,23,107046,1,8,0:0:0:0:
446,23,107140,1,0,0:0:0:0:
447,23,107328,1,8,0:0:0:0:
443,29,107515,1,8,0:0:0:0:
443,27,107703,1,0,0:0:0:0:
443,27,107796,1,8,0:0:0:0:
443,27,107890,1,0,0:0:0:0:
446,23,108078,1,8,0:0:0:0:
446,23,108265,1,0,0:0:0:0:
447,23,108453,1,0,0:0:0:0:
443,29,108546,1,8,0:0:0:0:
434,31,108640,1,8,0:0:0:0:
434,31,108828,1,8,0:0:0:0:
437,29,109015,1,0,0:0:0:0:
436,28,109203,1,0,0:0:0:0:
435,28,109296,1,8,0:0:0:0:
435,28,109390,1,0,0:0:0:0:
435,28,109484,1,0,0:0:0:0:
443,29,109578,1,8,0:0:0:0:
459,37,109953,1,8,0:0:0:0:
445,41,110140,1,0,0:0:0:0:
459,35,110328,1,8,0:0:0:0:
388,69,110703,1,8,0:0:0:0:
388,69,110890,1,0,0:0:0:0:
366,99,110984,1,0,0:0:0:0:
388,69,111078,1,8,0:0:0:0:
388,69,111453,1,8,0:0:0:0:
388,69,111640,1,0,0:0:0:0:
388,69,111828,1,8,0:0:0:0:
395,68,112015,1,0,0:0:0:0:
388,69,112203,1,8,0:0:0:0:
388,69,112390,1,0,0:0:0:0:
377,67,112484,1,0,0:0:0:0:
388,69,112578,1,8,0:0:0:0:
390,69,112953,1,8,0:0:0:0:
388,69,113140,1,0,0:0:0:0:
388,69,113328,1,8,0:0:0:0:
388,69,113703,1,8,0:0:0:0:
388,69,113890,1,0,0:0:0:0:
390,69,113984,1,0,0:0:0:0:
395,68,114078,1,8,0:0:0:0:
388,69,114265,1,8,0:0:0:0:
388,69,114453,1,8,0:0:0:0:
388,69,114640,1,8,0:0:0:0:
367,90,114828,1,8,0:0:0:0:
362,66,115015,1,8,0:0:0:0:
388,69,115109,1,0,0:0:0:0:
379,79,115203,1,8,0:0:0:0:
379,79,115390,1,8,0:0:0:0:
388,69,115578,1,0,0:0:0:0:
380,67,115765,1,0,0:0:0:0:
380,67,115953,1,8,0:0:0:0:
388,69,116046,1,8,0:0:0:0:
388,69,116140,1,0,0:0:0:0:
380,67,116234,1,0,0:0:0:0:
386,69,116328,1,8,0:0:0:0:
397,62,116515,1,0,0:0:0:0:
397,62,116703,1,0,0:0:0:0:
413,63,116796,1,8,0:0:0:0:
412,61,116890,1,0,0:0:0:0:
403,57,117078,1,8,0:0:0:0:
401,57,117265,1,0,0:0:0:0:
400,56,117453,1,8,0:0:0:0:
397,62,117546,1,8,0:0:0:0:
398,51,117640,1,0,0:0:0:0:
405,53,117734,1,0,0:0:0:0:
405,54,117828,1,8,0:0:0:0:
400,57,118015,1,0,0:0:0:0:
402,57,118203,1,8,0:0:0:0:
384,61,118578,1,8,0:0:0:0:
405,53,118765,1,0,0:0:0:0:
400,57,118953,1,8,0:0:0:0:
402,57,119046,1,8,0:0:0:0:
402,57,119140,1,0,0:0:0:0:
401,57,119234,1,0,0:0:0:0:
392,61,119328,1,8,0:0:0:0:
399,61,119515,1,0,0:0:0:0:
403,59,119703,1,0,0:0:0:0:
405,53,119796,1,8,0:0:0:0:
405,54,119890,1,0,0:0:0:0:
400,57,120078,1,8,0:0:0:0:
405,48,120265,1,0,0:0:0:0:
406,46,120453,1,0,0:0:0:0:
406,46,120546,1,8,0:0:0:0:
406,46,120640,1,8,0:0:0:0:
410,56,120734,1,0,0:0:0:0:
414,66,120828,1,8,0:0:0:0:
401,46,121015,1,0,0:0:0:0:
403,47,121203,1,8,0:0:0:0:
414,69,121296,1,0,0:0:0:0:
405,47,121390,1,8,0:0:0:0:
419,50,121578,1,8,0:0:0:0:
417,39,121953,1,8,0:0:0:0:
417,39,122046,1,0,0:0:0:0:
413,41,122234,1,0,0:0:0:0:
413,41,122328,1,8,0:0:0:0:
417,40,122515,1,0,0:0:0:0:
413,37,122703,1,8,0:0:0:0:
417,37,122796,1,0,0:0:0:0:
394,47,122890,1,8,0:0:0:0:
417,39,123078,1,0,0:0:0:0:
413,41,123265,1,0,0:0:0:0:
417,40,123453,1,8,0:0:0:0:
419,32,123546,1,0,0:0:0:0:
419,32,123734,1,0,0:0:0:0:
419,32,123828,1,8,0:0:0:0:
437,33,123921,1,8,0:0:0:0:
437,33,124015,1,0,0:0:0:0:
425,34,124203,1,8,0:0:0:0:
440,43,124390,1,0,0:0:0:0:
445,45,124484,1,0,0:0:0:0:
411,39,124578,1,8,0:0:0:0:
391,69,124953,1,8,0:0:0:0:
391,69,125046,1,0,0:0:0:0:
398,54,125234,1,0,0:0:0:0:
422,35,125328,1,8,0:0:0:0:
421,34,125515,1,8,0:0:0:0:
421,34,125609,1,8,0:0:0:0:
420,34,125703,1,0,0:0:0:0:
416,54,125890,1,8,0:0:0:0:
416,50,126078,1,8,0:0:0:0:
414,48,126265,1,0,0:0:0:0:
422,46,126453,1,8,0:0:0:0:
420,46,126546,1,0,0:0:0:0:
421,44,126734,1,0,0:0:0:0:
421,44,126828,1,8,0:0:0:0:
420,44,127015,1,0,0:0:0:0:
420,44,127109,1,0,0:0:0:0:
420,45,127203,1,8,0:0:0:0:
406,98,127578,1,0,0:0:0:0:
406,98,127765,1,0,0:0:0:0:
406,98,127953,1,8,0:0:0:0:
402,100,128140,1,0,0:0:0:0:
413,99,128328,1,8,0:0:0:0:
398,96,128421,1,8,0:0:0:0:
413,99,128515,1,0,0:0:0:0:
410,80,128703,1,8,0:0:0:0:
412,91,128890,1,8,0:0:0:0:
404,83,129078,1,0,0:0:0:0:
404,83,129265,1,0,0:0:0:0:
404,83,129453,1,8,0:0:0:0:
410,80,129640,1,0,0:0:0:0:
399,66,129828,1,8,0:0:0:0:
392,75,129921,1,8,0:0:0:0:
392,74,130015,1,0,0:0:0:0:
403,71,130203,1,8,0:0:0:0:
403,71,130390,1,8,0:0:0:0:
407,69,130484,1,0,0:0:0:0:
405,78,130578,1,0,0:0:0:0:
421,91,130765,1,0,0:0:0:0:
419,80,130953,1,8,0:0:0:0:
419,79,131140,1,0,0:0:0:0:
396,61,131328,1,8,0:0:0:0:
397,61,131515,1,8,0:0:0:0:
397,61,131609,1,0,0:0:0:0:
397,61,131703,1,8,0:0:0:0:
397,61,131890,1,8,0:0:0:0:
395,62,132078,1,0,0:0:0:0:
389,63,132453,1,8,0:0:0:0:
390,64,132546,1,0,0:0:0:0:
391,64,132734,1,0,0:0:0:0:
391,64,132828,1,8,0:0:0:0:
397,61,133015,1,0,0:0:0:0:
395,62,133109,1,0,0:0:0:0:
389,63,133203,1,8,0:0:0:0:
389,63,133390,1,0,0:0:0:0:
435,19,133578,5,8,0:0:0:0:
430,18,133953,1,8,0:0:0:0:
430,18,134328,1,8,0:0:0:0:
430,18,134703,1,8,0:0:0:0:
430,18,135078,1,8,0:0:0:0:
430,18,135453,1,8,0:0:0:0:
430,18,135828,1,8,0:0:0:0:
430,18,136203,1,8,0:0:0:0:
430,18,136578,1,8,0:0:0:0:
335,75,136765,1,8,0:0:0:0:
422,43,136953,1,8,0:0:0:0:
335,75,137140,1,8,0:0:0:0:
421,41,137328,1,8,0:0:0:0:
335,75,137515,1,8,0:0:0:0:
422,43,137703,1,8,0:0:0:0:
335,75,137890,1,8,0:0:0:0:
421,41,138078,1,8,0:0:0:0:
422,43,138265,1,8,0:0:0:0:
419,64,138453,1,8,0:0:0:0:
419,64,138640,1,8,0:0:0:0:
419,64,138828,1,8,0:0:0:0:
419,64,139015,1,8,0:0:0:0:
420,65,139203,1,8,0:0:0:0:
288,134,139390,1,8,0:0:0:0:
419,64,139578,1,0,0:0:0:0:
334,125,139671,1,8,0:0:0:0:
334,125,139765,1,0,0:0:0:0:
334,125,139859,1,0,0:0:0:0:
334,125,139953,1,8,0:0:0:0:
334,125,140140,1,8,0:0:0:0:
334,125,140328,1,0,0:0:0:0:
334,125,140421,1,8,0:0:0:0:
334,125,140515,1,0,0:0:0:0:
334,125,140703,1,8,0:0:0:0:
301,142,140796,1,0,0:0:0:0:
301,142,140890,1,8,0:0:0:0:
316,118,141078,1,0,0:0:0:0:
320,90,141171,1,8,0:0:0:0:
322,103,141265,1,0,0:0:0:0:
320,109,141359,1,0,0:0:0:0:
320,109,141453,1,8,0:0:0:0:
320,109,141640,1,8,0:0:0:0:
320,110,141828,1,0,0:0:0:0:
320,109,141921,1,8,0:0:0:0:
324,114,142015,1,0,0:0:0:0:
323,111,142203,1,8,0:0:0:0:
322,103,142296,1,8,0:0:0:0:
327,102,142390,1,0,0:0:0:0:
331,109,142578,1,0,0:0:0:0:
337,78,142671,1,8,0:0:0:0:
334,80,142765,1,0,0:0:0:0:
334,80,142859,1,0,0:0:0:0:
334,86,142953,1,8,0:0:0:0:
334,86,143140,1,8,0:0:0:0:
334,86,143328,1,0,0:0:0:0:
334,86,143421,1,8,0:0:0:0:
343,91,143515,1,0,0:0:0:0:
342,94,143703,1,8,0:0:0:0:
350,84,143796,1,0,0:0:0:0:
349,81,143890,1,8,0:0:0:0:
349,82,144078,1,0,0:0:0:0:
345,77,144171,1,8,0:0:0:0:
346,73,144265,1,0,0:0:0:0:
346,73,144359,1,0,0:0:0:0:
349,78,144453,1,8,0:0:0:0:
350,75,144640,1,8,0:0:0:0:
350,75,144828,1,0,0:0:0:0:
350,72,144921,1,8,0:0:0:0:
357,68,145015,1,8,0:0:0:0:
357,67,145109,1,0,0:0:0:0:
357,67,145203,1,8,0:0:0:0:
355,69,145390,1,0,0:0:0:0:
368,62,145484,1,8,0:0:0:0:
368,62,145578,1,0,0:0:0:0:
389,90,151015,5,0,0:0:0:0:
402,84,151203,1,0,0:0:0:0:
401,85,151390,1,8,0:0:0:0:
401,85,151578,1,0,0:0:0:0:
401,85,151953,1,0,0:0:0:0:
401,85,152328,1,0,0:0:0:0:
401,85,152515,1,0,0:0:0:0:
401,85,152703,1,0,0:0:0:0:
401,85,152890,1,8,0:0:0:0:
401,85,153078,1,0,0:0:0:0:
401,85,153453,1,0,0:0:0:0:
401,85,153828,1,0,0:0:0:0:
401,85,154015,1,0,0:0:0:0:
400,94,154109,1,0,0:0:0:0:
400,94,154203,1,8,0:0:0:0:
400,94,154390,1,8,0:0:0:0:
399,94,154578,1,0,0:0:0:0:
399,94,154953,1,0,0:0:0:0:
400,94,155328,1,0,0:0:0:0:
399,94,155515,1,0,0:0:0:0:
399,94,155609,1,0,0:0:0:0:
399,94,155703,1,8,0:0:0:0:
399,94,155890,1,8,0:0:0:0:
400,94,156078,1,0,0:0:0:0:
399,94,156453,1,0,0:0:0:0:
399,94,156828,1,0,0:0:0:0:
400,94,157015,1,8,0:0:0:0:
399,94,157109,1,0,0:0:0:0:
399,94,157203,1,8,0:0:0:0:
399,94,157390,1,8,0:0:0:0:
399,94,157578,1,0,0:0:0:0:
400,94,157953,1,8,0:0:0:0:
399,94,158515,1,0,0:0:0:0:
399,94,158609,1,0,0:0:0:0:
400,94,158703,1,8,0:0:0:0:
400,94,158890,1,0,0:0:0:0:
399,94,159078,1,8,0:0:0:0:
399,94,159453,1,8,0:0:0:0:
392,92,159921,1,0,0:0:0:0:
399,94,160015,1,0,0:0:0:0:
400,85,160203,1,8,0:0:0:0:
400,85,160390,1,8,0:0:0:0:
400,85,160578,1,0,0:0:0:0:
400,85,160953,1,8,0:0:0:0:
406,75,161515,1,0,0:0:0:0:
406,75,161703,1,8,0:0:0:0:
406,75,161890,1,8,0:0:0:0:
406,75,162078,1,0,0:0:0:0:
406,75,162453,1,8,0:0:0:0:
406,75,163578,1,8,0:0:0:0:
416,75,163765,1,0,0:0:0:0:
416,75,163859,1,0,0:0:0:0:
416,75,163953,1,8,0:0:0:0:
406,75,164140,1,0,0:0:0:0:
406,75,164328,1,0,0:0:0:0:
406,75,164515,1,8,0:0:0:0:
406,75,164609,1,0,0:0:0:0:
409,72,164703,1,8,0:0:0:0:
360,85,164890,1,8,0:0:0:0:
416,62,165078,1,0,0:0:0:0:
409,56,165265,1,8,0:0:0:0:
409,52,165359,1,0,0:0:0:0:
409,52,165453,1,8,0:0:0:0:
408,51,165640,1,0,0:0:0:0:
408,51,165734,1,8,0:0:0:0:
408,51,165828,1,0,0:0:0:0:
408,51,166015,1,0,0:0:0:0:
408,51,166109,1,0,0:0:0:0:
409,56,166203,1,8,0:0:0:0:
430,44,166578,1,0,0:0:0:0:
425,52,166765,1,8,0:0:0:0:
413,64,166859,1,0,0:0:0:0:
408,51,166953,1,8,0:0:0:0:
408,51,167140,1,0,0:0:0:0:
409,52,167328,1,8,0:0:0:0:
420,51,167515,1,0,0:0:0:0:
420,51,167609,1,0,0:0:0:0:
425,52,167703,1,8,0:0:0:0:
421,34,167890,1,8,0:0:0:0:
418,51,168078,1,0,0:0:0:0:
419,37,168265,1,8,0:0:0:0:
419,37,168359,1,0,0:0:0:0:
417,37,168453,1,8,0:0:0:0:
418,38,168640,1,0,0:0:0:0:
418,38,168828,1,8,0:0:0:0:
416,43,168921,1,0,0:0:0:0:
416,43,169015,1,0,0:0:0:0:
415,43,169203,1,8,0:0:0:0:
414,44,169390,1,0,0:0:0:0:
439,46,169484,1,8,0:0:0:0:
439,46,169578,1,0,0:0:0:0:
429,50,169953,1,8,0:0:0:0:
429,49,170046,1,0,0:0:0:0:
429,49,170140,1,8,0:0:0:0:
430,48,170328,1,0,0:0:0:0:
430,48,170515,1,0,0:0:0:0:
426,51,170703,1,8,0:0:0:0:
426,51,170796,1,0,0:0:0:0:
430,75,170890,1,8,0:0:0:0:
429,49,171078,1,8,0:0:0:0:
430,56,171265,1,0,0:0:0:0:
430,48,171453,1,8,0:0:0:0:
426,51,171640,1,8,0:0:0:0:
439,47,171828,1,0,0:0:0:0:
439,47,172015,1,0,0:0:0:0:
440,40,172203,1,8,0:0:0:0:
440,49,172390,1,0,0:0:0:0:
412,64,172484,1,8,0:0:0:0:
414,63,172671,1,0,0:0:0:0:
435,56,172765,1,0,0:0:0:0:
435,56,172953,1,8,0:0:0:0:
447,49,173140,1,0,0:0:0:0:
446,48,173234,1,8,0:0:0:0:
446,47,173421,1,0,0:0:0:0:
446,47,173515,1,8,0:0:0:0:
445,46,173703,1,8,0:0:0:0:
451,42,173890,1,0,0:0:0:0:
444,44,173984,1,0,0:0:0:0:
431,62,174078,1,8,0:0:0:0:
455,56,174265,1,0,0:0:0:0:
457,57,174453,1,8,0:0:0:0:
446,47,174640,1,0,0:0:0:0:
445,46,174734,1,8,0:0:0:0:
451,42,174921,1,8,0:0:0:0:
451,47,175015,1,0,0:0:0:0:
451,47,175203,1,8,0:0:0:0:
450,47,175296,1,8,0:0:0:0:
451,48,175390,1,0,0:0:0:0:
446,47,175578,1,8,0:0:0:0:
451,42,175953,1,8,0:0:0:0:
452,45,176140,1,0,0:0:0:0:
454,28,176234,1,8,0:0:0:0:
454,28,176421,1,8,0:0:0:0:
454,28,176515,1,0,0:0:0:0:
455,28,176703,1,8,0:0:0:0:
445,46,176796,1,8,0:0:0:0:
441,41,176890,1,0,0:0:0:0:
457,42,177078,1,8,0:0:0:0:
453,39,177453,1,8,0:0:0:0:
446,41,177640,1,0,0:0:0:0:
445,46,177734,1,8,0:0:0:0:
441,41,177921,1,8,0:0:0:0:
451,42,178015,1,0,0:0:0:0:
453,39,178203,1,8,0:0:0:0:
453,39,178296,1,8,0:0:0:0:
453,39,178390,1,0,0:0:0:0:
433,37,178578,1,8,0:0:0:0:
462,33,178953,1,8,0:0:0:0:
460,33,179140,1,0,0:0:0:0:
454,31,179234,1,8,0:0:0:0:
456,31,179421,1,8,0:0:0:0:
456,31,179515,1,0,0:0:0:0:
462,33,179703,1,8,0:0:0:0:
455,31,179796,1,0,0:0:0:0:
455,31,179890,1,0,0:0:0:0:
461,32,180078,1,8,0:0:0:0:
459,38,180453,1,8,0:0:0:0:
438,36,180640,1,0,0:0:0:0:
439,35,180734,1,0,0:0:0:0:
453,23,180828,1,8,0:0:0:0:
453,30,181015,1,8,0:0:0:0:
453,23,181203,1,8,0:0:0:0:
453,23,181390,1,8,0:0:0:0:
466,38,181484,1,0,0:0:0:0:
453,23,181578,1,8,0:0:0:0:
461,35,181765,1,0,0:0:0:0:
472,30,181953,1,8,0:0:0:0:
472,29,182046,1,0,0:0:0:0:
473,29,182140,1,8,0:0:0:0:
466,38,182328,1,8,0:0:0:0:
466,38,182515,1,0,0:0:0:0:
461,35,182609,1,0,0:0:0:0:
468,34,182703,1,8,0:0:0:0:
464,39,182890,1,8,0:0:0:0:
464,39,183078,1,0,0:0:0:0:
473,29,183171,1,0,0:0:0:0:
475,34,183265,1,8,0:0:0:0:
474,31,183453,1,8,0:0:0:0:
455,50,183640,1,0,0:0:0:0:
455,50,183734,1,8,0:0:0:0:
451,50,183828,1,0,0:0:0:0:
451,50,184015,1,8,0:0:0:0:
449,51,184203,1,8,0:0:0:0:
449,50,184296,1,8,0:0:0:0:
449,50,184390,1,0,0:0:0:0:
460,44,184578,1,8,0:0:0:0:
454,35,184671,1,0,0:0:0:0:
454,36,184765,1,8,0:0:0:0:
454,34,184953,1,8,0:0:0:0:
454,33,185140,1,0,0:0:0:0:
455,40,185234,1,8,0:0:0:0:
455,40,185328,1,0,0:0:0:0:
455,40,185515,1,0,0:0:0:0:
454,36,185703,1,8,0:0:0:0:
454,36,185796,1,0,0:0:0:0:
454,36,185890,1,8,0:0:0:0:
454,34,186078,1,8,0:0:0:0:
441,56,186265,1,0,0:0:0:0:
441,56,186359,1,0,0:0:0:0:
442,54,186453,1,8,0:0:0:0:
442,54,186640,1,0,0:0:0:0:
440,39,186828,1,8,0:0:0:0:
440,41,186921,1,0,0:0:0:0:
440,38,187015,1,0,0:0:0:0:
433,42,187203,1,8,0:0:0:0:
435,50,187390,1,0,0:0:0:0:
442,54,187484,1,0,0:0:0:0:
429,69,187578,1,8,0:0:0:0:
413,55,187953,1,8,0:0:0:0:
413,55,188328,1,8,0:0:0:0:
413,55,188703,1,8,0:0:0:0:
413,55,189078,1,8,0:0:0:0:
416,48,189453,1,8,0:0:0:0:
416,48,189828,1,8,0:0:0:0:
416,48,190203,1,8,0:0:0:0:
416,48,190578,1,8,0:0:0:0:
484,65,190953,1,8,0:0:0:0:
438,60,191328,1,8,0:0:0:0:
438,60,191703,1,8,0:0:0:0:
438,60,192078,1,8,0:0:0:0:
438,60,192265,1,8,0:0:0:0:
438,60,192453,1,8,0:0:0:0:
438,60,192640,1,8,0:0:0:0:
438,60,192828,1,8,0:0:0:0:
438,60,193015,1,8,0:0:0:0:
438,60,193203,1,8,0:0:0:0:
438,60,193390,1,8,0:0:0:0:
388,69,193578,1,0,0:0:0:0:
380,67,193765,1,0,0:0:0:0:
380,67,193953,1,8,0:0:0:0:
378,65,194046,1,8,0:0:0:0:
388,69,194140,1,0,0:0:0:0:
378,66,194234,1,0,0:0:0:0:
386,69,194328,1,8,0:0:0:0:
397,62,194515,1,0,0:0:0:0:
397,62,194703,1,8,0:0:0:0:
413,63,194796,1,0,0:0:0:0:
412,61,194890,1,0,0:0:0:0:
403,57,195078,1,8,0:0:0:0:
401,57,195265,1,0,0:0:0:0:
400,56,195453,1,8,0:0:0:0:
397,62,195546,1,0,0:0:0:0:
398,51,195640,1,8,0:0:0:0:
405,53,195734,1,8,0:0:0:0:
405,54,195828,1,0,0:0:0:0:
400,57,196015,1,0,0:0:0:0:
402,57,196203,1,8,0:0:0:0:
384,61,196578,1,8,0:0:0:0:
405,53,196765,1,0,0:0:0:0:
400,57,196953,1,8,0:0:0:0:
400,57,197046,1,8,0:0:0:0:
402,57,197140,1,0,0:0:0:0:
401,57,197234,1,0,0:0:0:0:
392,61,197328,1,8,0:0:0:0:
399,61,197515,1,0,0:0:0:0:
403,59,197703,1,8,0:0:0:0:
405,53,197796,1,0,0:0:0:0:
405,54,197890,1,0,0:0:0:0:
400,57,198078,1,8,0:0:0:0:
405,48,198265,1,0,0:0:0:0:
406,46,198453,1,8,0:0:0:0:
406,46,198546,1,0,0:0:0:0:
406,46,198640,1,8,0:0:0:0:
410,56,198734,1,8,0:0:0:0:
414,66,198828,1,0,0:0:0:0:
401,46,199015,1,0,0:0:0:0:
403,47,199203,1,8,0:0:0:0:
414,69,199296,1,0,0:0:0:0:
405,47,199390,1,8,0:0:0:0:
419,50,199578,1,8,0:0:0:0:
417,39,199953,1,8,0:0:0:0:
417,39,200046,1,0,0:0:0:0:
413,41,200234,1,0,0:0:0:0:
416,40,200328,1,8,0:0:0:0:
417,40,200515,1,0,0:0:0:0:
413,37,200703,1,8,0:0:0:0:
417,39,201078,1,0,0:0:0:0:
413,41,201265,1,0,0:0:0:0:
417,40,201453,1,8,0:0:0:0:
419,32,201546,1,0,0:0:0:0:
419,32,201734,1,0,0:0:0:0:
419,32,201828,1,8,0:0:0:0:
437,33,201921,1,8,0:0:0:0:
437,33,202015,1,0,0:0:0:0:
425,34,202203,1,8,0:0:0:0:
385,76,202578,1,0,0:0:0:0:
405,76,202765,1,0,0:0:0:0:
391,69,202953,1,8,0:0:0:0:
391,69,203046,1,0,0:0:0:0:
398,54,203234,1,0,0:0:0:0:
422,35,203328,1,8,0:0:0:0:
421,34,203515,1,8,0:0:0:0:
421,34,203609,1,8,0:0:0:0:
420,34,203703,1,0,0:0:0:0:
416,50,204078,1,8,0:0:0:0:
414,48,204265,1,0,0:0:0:0:
422,46,204453,1,8,0:0:0:0:
420,46,204546,1,0,0:0:0:0:
421,44,204734,1,0,0:0:0:0:
421,44,204828,1,8,0:0:0:0:
420,44,205015,1,0,0:0:0:0:
420,44,205109,1,0,0:0:0:0:
420,45,205203,1,8,0:0:0:0:
406,98,205578,1,8,0:0:0:0:
406,98,205765,1,0,0:0:0:0:
406,98,205953,1,8,0:0:0:0:
420,44,206140,1,8,0:0:0:0:
413,99,206328,1,8,0:0:0:0:
399,84,206421,1,8,0:0:0:0:
413,99,206515,1,0,0:0:0:0:
410,80,206703,1,8,0:0:0:0:
412,91,206890,1,8,0:0:0:0:
397,69,207078,1,8,0:0:0:0:
404,83,207265,1,0,0:0:0:0:
404,83,207453,1,8,0:0:0:0:
405,68,207640,1,8,0:0:0:0:
399,66,207828,1,8,0:0:0:0:
392,75,207921,1,8,0:0:0:0:
392,74,208015,1,0,0:0:0:0:
403,71,208203,1,8,0:0:0:0:
403,71,208390,1,8,0:0:0:0:
405,78,208578,1,8,0:0:0:0:
421,91,208765,1,0,0:0:0:0:
419,80,208953,1,8,0:0:0:0:
406,73,209140,1,8,0:0:0:0:
396,61,209328,1,8,0:0:0:0:
407,69,209515,1,0,0:0:0:0:
397,61,209609,1,0,0:0:0:0:
397,61,209703,1,8,0:0:0:0:
397,61,209890,1,8,0:0:0:0:
395,62,210078,1,0,0:0:0:0:
389,63,210453,1,8,0:0:0:0:
396,52,210640,1,0,0:0:0:0:
391,47,210734,1,8,0:0:0:0:
397,61,210921,1,8,0:0:0:0:
395,51,211015,1,0,0:0:0:0:
389,63,211203,1,8,0:0:0:0:
405,47,211296,1,0,0:0:0:0:
391,55,211390,1,0,0:0:0:0:
435,19,211578,5,8,0:0:0:0:
430,18,211953,1,8,0:0:0:0:
430,18,212328,1,8,0:0:0:0:
430,18,212703,1,8,0:0:0:0:
430,18,213078,1,8,0:0:0:0:
430,18,213453,1,8,0:0:0:0:
430,18,213828,1,8,0:0:0:0:
430,18,214203,1,8,0:0:0:0:
430,18,214578,1,8,0:0:0:0:
335,75,214765,1,8,0:0:0:0:
422,43,214953,1,8,0:0:0:0:
335,75,215140,1,8,0:0:0:0:
421,41,215328,1,8,0:0:0:0:
335,75,215515,1,8,0:0:0:0:
422,43,215703,1,8,0:0:0:0:
335,75,215890,1,8,0:0:0:0:
421,41,216078,1,8,0:0:0:0:
422,43,216265,1,8,0:0:0:0:
419,64,216453,1,8,0:0:0:0:
419,64,216640,1,8,0:0:0:0:
419,64,216828,1,8,0:0:0:0:
419,64,217015,1,8,0:0:0:0:
420,65,217203,1,8,0:0:0:0:
360,114,217390,1,8,0:0:0:0:
419,64,217578,1,0,0:0:0:0:
334,125,217671,1,8,0:0:0:0:
334,125,217765,1,0,0:0:0:0:
334,125,217859,1,0,0:0:0:0:
334,125,217953,1,8,0:0:0:0:
334,125,218140,1,8,0:0:0:0:
334,125,218328,1,0,0:0:0:0:
334,125,218421,1,8,0:0:0:0:
334,125,218515,1,0,0:0:0:0:
334,125,218703,1,8,0:0:0:0:
301,142,218796,1,0,0:0:0:0:
301,142,218890,1,8,0:0:0:0:
316,118,219078,1,0,0:0:0:0:
320,90,219171,1,8,0:0:0:0:
322,103,219265,1,0,0:0:0:0:
320,109,219359,1,0,0:0:0:0:
320,109,219453,1,8,0:0:0:0:
320,109,219640,1,8,0:0:0:0:
320,110,219828,1,0,0:0:0:0:
320,109,219921,1,8,0:0:0:0:
324,114,220015,1,0,0:0:0:0:
323,111,220203,1,8,0:0:0:0:
322,103,220296,1,8,0:0:0:0:
327,102,220390,1,0,0:0:0:0:
331,109,220578,1,0,0:0:0:0:
337,78,220671,1,8,0:0:0:0:
334,80,220765,1,0,0:0:0:0:
334,80,220859,1,0,0:0:0:0:
334,86,220953,1,8,0:0:0:0:
334,86,221140,1,8,0:0:0:0:
334,86,221328,1,0,0:0:0:0:
334,86,221421,1,8,0:0:0:0:
343,91,221515,1,0,0:0:0:0:
342,94,221703,1,8,0:0:0:0:
350,84,221796,1,0,0:0:0:0:
349,81,221890,1,8,0:0:0:0:
349,82,222078,1,0,0:0:0:0:
345,77,222171,1,8,0:0:0:0:
346,73,222265,1,0,0:0:0:0:
346,73,222359,1,0,0:0:0:0:
350,75,222453,1,8,0:0:0:0:
350,75,222640,1,0,0:0:0:0:
350,75,222828,1,0,0:0:0:0:
350,72,222921,1,8,0:0:0:0:
357,68,223015,1,8,0:0:0:0:
357,67,223109,1,0,0:0:0:0:
357,67,223203,1,8,0:0:0:0:
355,69,223390,1,8,0:0:0:0:
368,62,223484,1,0,0:0:0:0:
368,62,223578,1,8,0:0:0:0:
363,46,223953,1,8,0:0:0:0:
363,50,224328,1,8,0:0:0:0:
365,60,224703,1,8,0:0:0:0:
372,55,225078,1,8,0:0:0:0:
372,55,225453,1,8,0:0:0:0:
372,55,225828,1,8,0:0:0:0:
372,55,226203,1,8,0:0:0:0:
372,55,226578,1,8,0:0:0:0:
372,55,226765,1,8,0:0:0:0:
372,55,226953,1,8,0:0:0:0:
372,55,227140,1,8,0:0:0:0:
372,55,227328,1,8,0:0:0:0:
372,55,227515,1,8,0:0:0:0:
372,55,227703,1,8,0:0:0:0:
372,55,227890,1,8,0:0:0:0:
372,55,228078,1,8,0:0:0:0:
372,55,228265,1,8,0:0:0:0:
372,55,228453,1,8,0:0:0:0:
372,55,228640,1,8,0:0:0:0:
372,55,228828,1,8,0:0:0:0:
372,55,229015,1,8,0:0:0:0:
372,55,229203,1,8,0:0:0:0:
372,55,229390,1,8,0:0:0:0:
419,64,229578,1,0,0:0:0:0:
334,125,229671,1,8,0:0:0:0:
334,125,229765,1,0,0:0:0:0:
334,125,229859,1,0,0:0:0:0:
334,125,229953,1,8,0:0:0:0:
334,125,230140,1,0,0:0:0:0:
334,125,230328,1,8,0:0:0:0:
334,125,230421,1,8,0:0:0:0:
334,125,230515,1,0,0:0:0:0:
334,125,230703,1,8,0:0:0:0:
301,142,230796,1,0,0:0:0:0:
301,142,230890,1,8,0:0:0:0:
316,118,231078,1,0,0:0:0:0:
320,90,231171,1,8,0:0:0:0:
322,103,231265,1,0,0:0:0:0:
320,109,231359,1,0,0:0:0:0:
320,109,231453,1,8,0:0:0:0:
320,109,231640,1,8,0:0:0:0:
320,110,231828,1,0,0:0:0:0:
320,109,231921,1,8,0:0:0:0:
324,114,232015,1,0,0:0:0:0:
323,111,232203,1,8,0:0:0:0:
322,103,232296,1,0,0:0:0:0:
327,102,232390,1,0,0:0:0:0:
331,109,232578,1,0,0:0:0:0:
337,78,232671,1,8,0:0:0:0:
334,80,232765,1,0,0:0:0:0:
334,80,232859,1,0,0:0:0:0:
334,86,232953,1,8,0:0:0:0:
334,86,233140,1,8,0:0:0:0:
334,86,233328,1,8,0:0:0:0:
334,86,233421,1,8,0:0:0:0:
343,91,233515,1,0,0:0:0:0:
342,94,233703,1,8,0:0:0:0:
350,84,233796,1,0,0:0:0:0:
349,81,233890,1,8,0:0:0:0:
349,82,234078,1,0,0:0:0:0:
345,77,234171,1,8,0:0:0:0:
346,73,234265,1,0,0:0:0:0:
346,73,234359,1,0,0:0:0:0:
350,75,234453,1,8,0:0:0:0:
350,75,234640,1,0,0:0:0:0:
350,75,234828,1,0,0:0:0:0:
350,72,234921,1,8,0:0:0:0:
357,68,235015,1,8,0:0:0:0:
357,67,235109,1,0,0:0:0:0:
357,67,235203,1,8,0:0:0:0:
355,69,235390,1,8,0:0:0:0:
368,62,235484,1,0,0:0:0:0:
368,62,235578,1,0,0:0:0:0:
