osu file format v14

[General]
AudioFilename: story 2.mp3
AudioLeadIn: 0
PreviewTime: 20
Countdown: 0
SampleSet: Normal
StackLeniency: 0.7
Mode: 1
LetterboxInBreaks: 0
WidescreenStoryboard: 1

[Editor]
Bookmarks: 3492
DistanceSpacing: 0.6
BeatDivisor: 12
GridSize: 32
TimelineZoom: 1.8

[Metadata]
Title:Story 2
TitleUnicode:Story 2
Artist:clipping.
ArtistUnicode:clipping.
Creator:meiqth
Version:Oni
Source:
Tags:hardcore hip hop hiphop rap english CLPPNG Daveed Diggs experimental progressive electronic west coast william hutson jonathan snipes
BeatmapID:3265987
BeatmapSetID:1595624

[Difficulty]
HPDrainRate:5.8
CircleSize:9.2
OverallDifficulty:5
ApproachRate:10
SliderMultiplier:1.4
SliderTickRate:1

[Events]
//Background and Video events
0,0,"story 2.jpg",0,0
Video,0,"output.mp4"
//Break Periods
//Storyboard Layer 0 (Background)
//Storyboard Layer 1 (Fail)
//Storyboard Layer 2 (Pass)
//Storyboard Layer 3 (Foreground)
//Storyboard Layer 4 (Overlay)
//Storyboard Sound Samples

[TimingPoints]
220,545.454545454546,3,1,0,40,1,0
1038,545.454545454546,3,1,0,40,1,0
1856,545.454545454546,3,1,0,40,1,0
2674,545.454545454546,3,1,0,40,1,0
3492,545.454545454546,3,1,0,40,1,0
4310,545.454545454546,3,1,0,40,1,0
5128,545.454545454546,3,1,0,40,1,0
5946,545.454545454546,3,1,0,40,1,0
6764,545.454545454546,3,1,0,40,1,0
7582,545.454545454546,3,1,0,40,1,0
8400,545.454545454546,3,1,0,40,1,0
9218,545.454545454546,3,1,0,40,1,0
10038,545.454545454546,2,1,0,40,1,0
18765,545.454545454546,5,1,0,40,1,0
20128,545.454545454546,5,1,0,40,1,0
21492,545.454545454546,5,1,0,40,1,0
22855,545.454545454546,5,1,0,40,1,0
24219,545.454545454546,5,1,0,40,1,0
25582,545.454545454546,5,1,0,40,1,0
26946,545.454545454546,5,1,0,40,1,0
28309,545.454545454546,5,1,0,40,1,0
29674,545.454545454546,3,1,0,40,1,0
42764,545.454545454546,4,1,0,40,1,0
44673,545.454545454546,4,1,0,40,1,0
46582,545.454545454546,4,1,0,40,1,0
48491,545.454545454546,4,1,0,40,1,0
50400,545.454545454546,4,1,0,40,1,0
52309,545.454545454546,4,1,0,40,1,0
54218,545.454545454546,4,1,0,40,1,0
56127,545.454545454546,4,1,0,40,1,0
58036,545.454545454546,4,1,0,40,1,0
58308,-99.5984191738909,4,1,0,40,0,0
58581,-99.1999523840229,4,1,0,40,0,0
58854,-98.8047588324044,4,1,0,41,0,0
59126,-98.4127015369112,4,1,0,41,0,0
59399,-98.0237433111048,4,1,0,41,0,0
59672,-97.6377522227234,4,1,0,41,0,0
59945,-97.2548836539827,4,1,0,41,0,0
60217,-96.8750060546879,4,1,0,41,0,0
60490,-96.4980845130224,4,1,0,42,0,0
60763,-96.1239922600961,4,1,0,42,0,0
60945,-95.8762659262462,4,1,0,42,0,0
61126,-95.629813168034,4,1,0,42,0,0
61308,-95.3846241893499,4,1,0,42,0,0
61581,-95.0191891252438,4,1,0,43,0,0
61717,-94.8375196195119,4,1,0,43,0,0
61854,-94.6564538663375,4,1,0,43,0,0
62126,-94.2965664734216,4,1,0,43,0,0
62399,-93.9394053259885,4,1,0,43,0,0
62672,-93.584939562846,4,1,0,43,0,0
63217,-92.8838867819727,4,1,0,44,0,0
63490,-92.5373272443772,4,1,0,44,0,0
63626,-92.3650154572853,4,1,0,44,0,0
63899,-92.0222252078322,4,1,0,44,0,0
64036,-91.8518246364964,4,1,0,44,0,0
64308,-91.5129097261751,4,1,0,45,0,0
64581,-91.1764866782035,4,1,0,45,0,0
64854,-90.8425281112203,4,1,0,45,0,0
65126,-90.5109251212168,4,1,0,45,0,0
65399,-90.1818155583472,4,1,0,45,0,0
65945,-89.5307247064511,4,1,0,45,0,0
66217,-89.2086125562906,4,1,0,46,0,0
66490,-88.8888888888889,4,1,0,46,0,0
66763,-88.5714488163312,4,1,0,46,0,0
67036,-88.2561900685309,4,1,0,46,0,0
67172,-88.0994395994647,4,1,0,46,0,0
67308,-87.9432449474407,4,1,0,47,0,0
67581,-87.6325113111664,4,1,0,47,0,0
67717,-87.477966487191,4,1,0,47,0,0
67854,-87.323965800442,4,1,0,47,0,0
67990,-87.1705063821886,4,1,0,47,0,0
68126,-87.0175096632944,4,1,0,48,0,0
68263,-86.865124521156,4,1,0,48,0,0
68399,-86.7132721600103,4,1,0,48,0,0
68536,-86.5619497906066,4,1,0,48,0,0
68672,-86.4111546431306,4,1,0,48,0,0
68945,-86.1111350308708,4,1,0,48,0,0
69217,-85.8131179080821,4,1,0,49,0,0
69354,-85.6649182456853,4,1,0,49,0,0
69490,-85.5172295838304,4,1,0,49,0,0
69763,-85.2233747263264,4,1,0,49,0,0
69899,-85.077203308142,4,1,0,49,0,0
70036,-84.9315324451194,4,1,0,50,0,0
70172,-84.7863595704723,4,1,0,50,0,0
70445,-84.4974262083977,4,1,0,50,0,0
70581,-84.35373231524,4,1,0,50,0,0
70717,-84.2105263157895,4,1,0,50,0,0
70854,-84.0678057293891,4,1,0,50,0,0
70990,-83.9255680921704,4,1,0,51,0,0
71126,-83.7838109569117,4,1,0,51,0,0
71399,-83.5016587604513,4,1,0,51,0,0
71536,-83.3613288462709,4,1,0,51,0,0
71672,-83.2214698076669,4,1,0,51,0,0
71808,-83.0820792785817,4,1,0,52,0,0
71945,-82.9431549087833,4,1,0,52,0,0
72081,-82.8046943637329,4,1,0,52,0,0
72217,-82.6666953244544,4,1,0,52,0,0
72490,-82.3920046798659,4,1,0,52,0,0
72626,-82.2553766226929,4,1,0,52,0,0
72763,-82.1192009473271,4,1,0,53,0,0
73036,-81.848197784533,4,1,0,53,0,0
73172,-81.7133658552529,4,1,0,53,0,0
73308,-81.5789774238338,4,1,0,53,0,0
73581,-81.3114562150005,4,1,0,53,0,0
73717,-81.1783854430919,4,1,0,54,0,0
73854,-81.0457495151438,4,1,0,54,0,0
74126,-80.7817736930923,4,1,0,54,0,0
74263,-80.6504295845132,4,1,0,54,0,0
74399,-80.5195118907189,4,1,0,54,0,0
74945,-76.9230769230769,4,1,0,54,0,0
75126,-74.0740740740741,4,1,0,55,0,0
75308,-71.4285714285714,4,1,0,55,0,0
75490,-66.6666666666667,4,1,0,55,0,0
88581,363.636363636364,4,1,0,55,1,0
94399,363.636363636364,5,1,0,55,1,0
101671,363.636363636364,6,1,0,55,1,0
110398,363.636363636364,7,1,0,40,1,0
110579,-99.1884401824274,7,1,0,41,0,0
110761,-98.3899469087846,7,1,0,41,0,0
110943,-97.6043023976497,7,1,0,42,0,0
111125,-96.8310114870629,7,1,0,42,0,0
111307,-96.0698773860155,7,1,0,43,0,0
111488,-95.3206156567924,7,1,0,43,0,0
111670,-94.5829506664788,7,1,0,44,0,0
111852,-93.8566152488843,7,1,0,44,0,0
112034,-93.1414371351184,7,1,0,45,0,0
112216,-92.4369903255446,7,1,0,45,0,0
112398,-91.743119266055,7,1,0,46,0,0
112579,-91.059587572916,7,1,0,46,0,0
112761,-90.3861658549989,7,1,0,47,0,0
112943,-89.7227119586917,7,1,0,47,0,0
113125,-89.0688475470885,7,1,0,48,0,0
113307,-88.4244444071097,7,1,0,48,0,0
113488,-87.7892986600719,7,1,0,49,0,0
113670,-87.1632122432934,7,1,0,49,0,0
113852,-86.5459927041728,7,1,0,50,0,0
114034,-85.9375268554771,7,1,0,51,0,0
114216,-85.3374841485623,7,1,0,51,0,0
114398,-84.7457627118644,7,1,0,52,0,0
114579,-84.1621906408277,7,1,0,52,0,0
114761,-83.586600733556,7,1,0,53,0,0
114943,-83.0188992524148,7,1,0,53,0,0
115125,-82.4587891586482,7,1,0,54,0,0
115307,-81.9061862923445,7,1,0,54,0,0
115488,-81.3609407277411,7,1,0,55,0,0
115670,-80.82290650487,7,1,0,55,0,0
115852,-80.2919414992914,7,1,0,56,0,0
116034,-79.76797092617,7,1,0,56,0,0
116216,-79.2507318805089,7,1,0,57,0,0
116398,-78.740157480315,7,1,0,57,0,0
116579,-78.2361197388165,7,1,0,58,0,0
116761,-77.7384939255141,7,1,0,58,0,0
116943,-77.2472181345569,7,1,0,59,0,0
117125,-76.7620537533958,7,1,0,60,0,0
117307,-76.2829456506897,7,1,0,60,0,0
117488,-75.8097811295809,7,1,0,61,0,0
117670,-75.3424502720993,7,1,0,61,0,0
117852,-74.8808458540348,7,1,0,62,0,0
118034,-74.4249186535639,7,1,0,62,0,0
118216,-73.9744551411507,7,1,0,63,0,0
118398,-73.5294117647059,7,1,0,63,0,0
118579,-73.089691283762,7,1,0,64,0,0
118761,-72.6551987700928,7,1,0,64,0,0
118943,-72.2258937051522,7,1,0,65,0,0
119125,-71.8015806399962,7,1,0,65,0,0
119307,-71.3822239702936,7,1,0,66,0,0
119488,-70.9677373569202,7,1,0,66,0,0
119670,-70.5580364545151,7,1,0,67,0,0
119852,-70.1530388542606,7,1,0,67,0,0
120034,-69.7527126829962,7,1,0,68,0,0
120216,-69.3568813817,7,1,0,68,0,0
120398,-68.9655172413793,7,1,0,69,0,0
120577,363.636363636364,4,1,0,78,1,0
120577,-50,4,1,0,78,0,0

[HitObjects]
512,512,220,5,8,0:0:0:0:
256,512,765,1,0,0:0:0:0:
512,512,1038,1,8,0:0:0:0:
256,512,1583,1,0,0:0:0:0:
512,512,1856,1,8,0:0:0:0:
256,512,2401,1,0,0:0:0:0:
512,512,2674,1,8,0:0:0:0:
256,512,3219,1,0,0:0:0:0:
512,512,3492,1,8,0:0:0:0:
512,512,3764,1,8,0:0:0:0:
512,512,4037,1,0,0:0:0:0:
512,512,4310,1,8,0:0:0:0:
256,512,4582,1,0,0:0:0:0:
256,512,4855,1,8,0:0:0:0:
256,512,4991,1,0,0:0:0:0:
512,512,5128,1,8,0:0:0:0:
256,512,5400,1,0,0:0:0:0:
256,512,5673,1,0,0:0:0:0:
512,512,5946,1,8,0:0:0:0:
256,512,6218,1,0,0:0:0:0:
256,512,6491,1,0,0:0:0:0:
256,512,6627,1,0,0:0:0:0:
512,512,6764,1,8,0:0:0:0:
256,512,7036,1,0,0:0:0:0:
256,512,7309,1,0,0:0:0:0:
256,512,7445,1,8,0:0:0:0:
512,512,7582,1,8,0:0:0:0:
256,512,7854,1,0,0:0:0:0:
256,512,8127,1,8,0:0:0:0:
512,512,8400,1,0,0:0:0:0:
256,512,8672,1,0,0:0:0:0:
512,512,9218,1,8,0:0:0:0:
256,512,9490,1,8,0:0:0:0:
256,512,10038,1,12,0:0:0:0:
256,512,10310,1,8,0:0:0:0:
256,512,10447,1,8,0:0:0:0:
256,512,10583,1,0,0:0:0:0:
256,512,10856,1,8,0:0:0:0:
512,512,11128,1,8,0:0:0:0:
256,512,11401,1,0,0:0:0:0:
256,512,11538,1,0,0:0:0:0:
256,512,11674,1,8,0:0:0:0:
256,512,11947,1,8,0:0:0:0:
256,512,12083,1,0,0:0:0:0:
512,512,12219,1,8,0:0:0:0:
256,512,12492,1,0,0:0:0:0:
256,512,12628,1,0,0:0:0:0:
256,512,12765,1,8,0:0:0:0:
256,512,13038,1,0,0:0:0:0:
512,512,13310,1,8,0:0:0:0:
256,512,13583,1,0,0:0:0:0:
256,512,13719,1,0,0:0:0:0:
256,512,13856,1,8,0:0:0:0:
256,512,14128,1,8,0:0:0:0:
512,512,14401,1,0,0:0:0:0:
256,512,14538,1,8,0:0:0:0:
256,512,14674,1,0,0:0:0:0:
256,512,14810,1,0,0:0:0:0:
256,512,14947,1,8,0:0:0:0:
256,512,15219,1,0,0:0:0:0:
512,512,15492,1,8,0:0:0:0:
256,512,15628,1,0,0:0:0:0:
256,512,15765,1,8,0:0:0:0:
256,512,16038,1,0,0:0:0:0:
256,512,16310,1,8,0:0:0:0:
256,512,16447,1,8,0:0:0:0:
512,512,16583,1,0,0:0:0:0:
256,512,16856,1,8,0:0:0:0:
256,512,16992,1,0,0:0:0:0:
256,512,17128,1,8,0:0:0:0:
256,512,17401,1,0,0:0:0:0:
512,512,17674,1,8,0:0:0:0:
256,512,17947,1,0,0:0:0:0:
256,512,18083,1,8,0:0:0:0:
256,512,18219,1,0,0:0:0:0:
256,512,18765,1,12,0:0:0:0:
256,512,19037,1,0,0:0:0:0:
256,512,19310,1,0,0:0:0:0:
256,512,19583,1,0,0:0:0:0:
256,512,19855,1,8,0:0:0:0:
256,512,19992,1,0,0:0:0:0:
512,512,20128,1,8,0:0:0:0:
256,512,20400,1,0,0:0:0:0:
256,512,20673,1,0,0:0:0:0:
256,512,20946,1,0,0:0:0:0:
256,512,21218,1,8,0:0:0:0:
256,512,21355,1,8,0:0:0:0:
512,512,21492,1,0,0:0:0:0:
256,512,21764,1,0,0:0:0:0:
256,512,21901,1,0,0:0:0:0:
256,512,22037,1,8,0:0:0:0:
256,512,22310,1,0,0:0:0:0:
256,512,22582,1,8,0:0:0:0:
512,512,22855,1,0,0:0:0:0:
256,512,23127,1,0,0:0:0:0:
256,512,23264,1,0,0:0:0:0:
256,512,23400,1,8,0:0:0:0:
256,512,23673,1,0,0:0:0:0:
256,512,23809,1,8,0:0:0:0:
256,512,23945,1,0,0:0:0:0:
512,512,24219,1,8,0:0:0:0:
256,512,24491,1,0,0:0:0:0:
256,512,24764,1,0,0:0:0:0:
256,512,24900,1,0,0:0:0:0:
256,512,25037,1,8,0:0:0:0:
256,512,25309,1,8,0:0:0:0:
512,512,25582,1,0,0:0:0:0:
256,512,25854,1,0,0:0:0:0:
256,512,26127,1,8,0:0:0:0:
256,512,26263,1,8,0:0:0:0:
256,512,26400,1,0,0:0:0:0:
256,512,26536,1,0,0:0:0:0:
256,512,26672,1,8,0:0:0:0:
512,512,26945,1,8,0:0:0:0:
256,512,27218,1,8,0:0:0:0:
256,512,27355,1,8,0:0:0:0:
256,512,27491,1,0,0:0:0:0:
256,512,27764,1,0,0:0:0:0:
256,512,27900,1,0,0:0:0:0:
256,512,28036,1,8,0:0:0:0:
256,512,28173,1,8,0:0:0:0:
512,512,28309,1,0,0:0:0:0:
256,512,28581,1,0,0:0:0:0:
256,512,28718,1,0,0:0:0:0:
256,512,28854,1,8,0:0:0:0:
256,512,29127,1,8,0:0:0:0:
256,512,29674,1,12,0:0:0:0:
256,512,29946,1,8,0:0:0:0:
256,512,30219,1,0,0:0:0:0:
256,512,30492,1,0,0:0:0:0:
256,512,30764,1,8,0:0:0:0:
256,512,31037,1,0,0:0:0:0:
256,512,31174,1,0,0:0:0:0:
512,512,31310,1,8,0:0:0:0:
256,512,31583,1,0,0:0:0:0:
256,512,31855,1,8,0:0:0:0:
256,512,32128,1,8,0:0:0:0:
256,512,32401,1,0,0:0:0:0:
512,512,32537,1,8,0:0:0:0:
256,512,32674,1,0,0:0:0:0:
256,512,32810,1,0,0:0:0:0:
512,512,32946,1,8,0:0:0:0:
256,512,33219,1,8,0:0:0:0:
256,512,33355,1,8,0:0:0:0:
256,512,33492,1,0,0:0:0:0:
256,512,33764,1,0,0:0:0:0:
256,512,34037,1,0,0:0:0:0:
256,512,34174,1,0,0:0:0:0:
256,512,34310,1,8,0:0:0:0:
512,512,34583,1,0,0:0:0:0:
256,512,35264,1,0,0:0:0:0:
256,512,35401,1,8,0:0:0:0:
256,512,35674,1,8,0:0:0:0:
256,512,35946,1,0,0:0:0:0:
512,512,36219,1,0,0:0:0:0:
256,512,36492,1,8,0:0:0:0:
256,512,36764,1,0,0:0:0:0:
256,512,36901,1,8,0:0:0:0:
256,512,37037,1,0,0:0:0:0:
256,512,37310,1,8,0:0:0:0:
256,512,37583,1,0,0:0:0:0:
512,512,37855,1,8,0:0:0:0:
256,512,38128,1,8,0:0:0:0:
256,512,38401,1,0,0:0:0:0:
256,512,38537,1,8,0:0:0:0:
256,512,38674,1,8,0:0:0:0:
256,512,38946,1,8,0:0:0:0:
256,512,39219,1,0,0:0:0:0:
512,512,39492,1,0,0:0:0:0:
256,512,39764,1,8,0:0:0:0:
256,512,40037,1,8,0:0:0:0:
256,512,40174,1,0,0:0:0:0:
256,512,40310,1,8,0:0:0:0:
256,512,40583,1,0,0:0:0:0:
256,512,40855,1,8,0:0:0:0:
512,512,41128,1,0,0:0:0:0:
256,512,41401,1,0,0:0:0:0:
256,512,41674,1,8,0:0:0:0:
256,512,41946,1,8,0:0:0:0:
256,512,42492,1,0,0:0:0:0:
256,512,42764,1,12,0:0:0:0:
256,512,43036,1,8,0:0:0:0:
256,512,43309,1,0,0:0:0:0:
256,512,43582,1,8,0:0:0:0:
256,512,43854,1,0,0:0:0:0:
256,512,44127,1,0,0:0:0:0:
256,512,44400,1,8,0:0:0:0:
512,512,44673,1,8,0:0:0:0:
256,512,44945,1,0,0:0:0:0:
256,512,45218,1,0,0:0:0:0:
256,512,45491,1,8,0:0:0:0:
256,512,45763,1,0,0:0:0:0:
256,512,46036,1,0,0:0:0:0:
256,512,46309,1,8,0:0:0:0:
512,512,46582,1,0,0:0:0:0:
256,512,47127,1,8,0:0:0:0:
256,512,47263,1,8,0:0:0:0:
256,512,47400,1,0,0:0:0:0:
256,512,47672,1,0,0:0:0:0:
256,512,47809,1,0,0:0:0:0:
256,512,47945,1,8,0:0:0:0:
256,512,48218,1,8,0:0:0:0:
512,512,48491,1,0,0:0:0:0:
256,512,48763,1,0,0:0:0:0:
256,512,48900,1,8,0:0:0:0:
256,512,49036,1,0,0:0:0:0:
256,512,49309,1,8,0:0:0:0:
256,512,49445,1,8,0:0:0:0:
256,512,49581,1,0,0:0:0:0:
256,512,49854,1,8,0:0:0:0:
256,512,50127,1,8,0:0:0:0:
512,512,50400,1,0,0:0:0:0:
256,512,50672,1,0,0:0:0:0:
256,512,50809,1,8,0:0:0:0:
256,512,50945,1,0,0:0:0:0:
256,512,51218,1,8,0:0:0:0:
256,512,51354,1,8,0:0:0:0:
256,512,51490,1,0,0:0:0:0:
512,512,52309,1,0,0:0:0:0:
256,512,52581,1,0,0:0:0:0:
256,512,52718,1,8,0:0:0:0:
256,512,52854,1,8,0:0:0:0:
256,512,53127,1,0,0:0:0:0:
256,512,53263,1,0,0:0:0:0:
256,512,53399,1,8,0:0:0:0:
256,512,53672,1,8,0:0:0:0:
256,512,53945,1,8,0:0:0:0:
512,512,54218,1,0,0:0:0:0:
256,512,54490,1,0,0:0:0:0:
256,512,54627,1,8,0:0:0:0:
256,512,54763,1,0,0:0:0:0:
256,512,55036,1,8,0:0:0:0:
256,512,55172,1,8,0:0:0:0:
256,512,55308,1,8,0:0:0:0:
512,512,56127,1,0,0:0:0:0:
256,512,56263,1,0,0:0:0:0:
256,512,56399,1,8,0:0:0:0:
256,512,56672,1,8,0:0:0:0:
256,512,56808,1,0,0:0:0:0:
256,512,56945,1,8,0:0:0:0:
256,512,57217,1,0,0:0:0:0:
256,512,57490,1,0,0:0:0:0:
256,512,58036,1,12,0:0:0:0:
256,512,58308,1,0,0:0:0:0:
256,512,58581,1,8,0:0:0:0:
256,512,58854,1,8,0:0:0:0:
256,512,59126,1,0,0:0:0:0:
256,512,59399,1,8,0:0:0:0:
256,512,59672,1,8,0:0:0:0:
256,512,59945,1,0,0:0:0:0:
512,512,60217,1,8,0:0:0:0:
256,512,60490,1,0,0:0:0:0:
256,512,60763,1,0,0:0:0:0:
256,512,60945,1,8,0:0:0:0:
256,512,61126,1,8,0:0:0:0:
256,512,61308,1,0,0:0:0:0:
256,512,61581,1,8,0:0:0:0:
256,512,61854,1,0,0:0:0:0:
256,512,62126,1,0,0:0:0:0:
512,512,62399,1,8,0:0:0:0:
256,512,62672,1,0,0:0:0:0:
256,512,63217,1,0,0:0:0:0:
256,512,63490,1,8,0:0:0:0:
256,512,63626,1,8,0:0:0:0:
256,512,63899,1,0,0:0:0:0:
256,512,64036,1,0,0:0:0:0:
256,512,64308,1,8,0:0:0:0:
512,512,64581,1,0,0:0:0:0:
256,512,64854,1,8,0:0:0:0:
256,512,65126,1,8,0:0:0:0:
256,512,65399,1,0,0:0:0:0:
256,512,65945,1,0,0:0:0:0:
256,512,66217,1,8,0:0:0:0:
256,512,66490,1,0,0:0:0:0:
512,512,66763,1,0,0:0:0:0:
256,512,67036,1,8,0:0:0:0:
256,512,67172,1,8,0:0:0:0:
256,512,67308,1,0,0:0:0:0:
256,512,67581,1,0,0:0:0:0:
256,512,67854,1,0,0:0:0:0:
256,512,67990,1,0,0:0:0:0:
256,512,68126,1,8,0:0:0:0:
256,512,68399,1,8,0:0:0:0:
256,512,68536,1,8,0:0:0:0:
256,512,68672,1,0,0:0:0:0:
512,512,68945,1,0,0:0:0:0:
256,512,69217,1,8,0:0:0:0:
256,512,69490,1,0,0:0:0:0:
256,512,69763,1,8,0:0:0:0:
256,512,70036,1,0,0:0:0:0:
256,512,70172,1,0,0:0:0:0:
256,512,70445,1,8,0:0:0:0:
256,512,70581,1,8,0:0:0:0:
256,512,70854,1,0,0:0:0:0:
256,512,70990,1,0,0:0:0:0:
512,512,71126,1,8,0:0:0:0:
256,512,71399,1,0,0:0:0:0:
256,512,71672,1,8,0:0:0:0:
256,512,71808,1,0,0:0:0:0:
256,512,71945,1,8,0:0:0:0:
256,512,72081,1,8,0:0:0:0:
256,512,72217,1,0,0:0:0:0:
256,512,72490,1,0,0:0:0:0:
256,512,72763,1,8,0:0:0:0:
256,512,73036,1,8,0:0:0:0:
256,512,73172,1,0,0:0:0:0:
512,512,73308,1,8,0:0:0:0:
256,512,73581,1,8,0:0:0:0:
256,512,73854,1,0,0:0:0:0:
256,512,74126,1,0,0:0:0:0:
256,512,74263,1,8,0:0:0:0:
256,512,74399,1,8,0:0:0:0:
256,512,74945,1,8,0:0:0:0:
256,512,75308,1,0,0:0:0:0:
256,512,75490,1,12,0:0:0:0:
256,512,75854,1,0,0:0:0:0:
256,512,76036,1,8,0:0:0:0:
256,512,76217,1,8,0:0:0:0:
256,512,76399,1,0,0:0:0:0:
256,512,76581,1,0,0:0:0:0:
256,512,76763,1,8,0:0:0:0:
256,512,76945,1,0,0:0:0:0:
256,512,77126,1,8,0:0:0:0:
256,512,77490,1,0,0:0:0:0:
256,512,77672,1,8,0:0:0:0:
256,512,77854,1,8,0:0:0:0:
256,512,78036,1,0,0:0:0:0:
256,512,78217,1,8,0:0:0:0:
256,512,78399,1,0,0:0:0:0:
256,512,78581,1,0,0:0:0:0:
256,512,78763,1,8,0:0:0:0:
256,512,78945,1,0,0:0:0:0:
256,512,79126,1,8,0:0:0:0:
256,512,79308,1,0,0:0:0:0:
256,512,79672,1,0,0:0:0:0:
256,512,79854,1,8,0:0:0:0:
256,512,80036,1,0,0:0:0:0:
256,512,80217,1,0,0:0:0:0:
256,512,80399,1,8,0:0:0:0:
256,512,80581,1,0,0:0:0:0:
256,512,80763,1,8,0:0:0:0:
256,512,80945,1,8,0:0:0:0:
256,512,81126,1,0,0:0:0:0:
256,512,81308,1,8,0:0:0:0:
256,512,81490,1,8,0:0:0:0:
256,512,82036,1,0,0:0:0:0:
256,512,82217,1,0,0:0:0:0:
256,512,82399,1,8,0:0:0:0:
256,512,82581,1,0,0:0:0:0:
256,512,82763,1,8,0:0:0:0:
256,512,82945,1,8,0:0:0:0:
256,512,83126,1,0,0:0:0:0:
256,512,83308,1,0,0:0:0:0:
256,512,83490,1,8,0:0:0:0:
256,512,83672,1,0,0:0:0:0:
256,512,84036,1,0,0:0:0:0:
256,512,84217,1,8,0:0:0:0:
256,512,84399,1,8,0:0:0:0:
256,512,84581,1,0,0:0:0:0:
256,512,84763,1,8,0:0:0:0:
256,512,84945,1,0,0:0:0:0:
256,512,85126,1,0,0:0:0:0:
256,512,85308,1,8,0:0:0:0:
256,512,85490,1,8,0:0:0:0:
256,512,85672,1,0,0:0:0:0:
256,512,85854,1,8,0:0:0:0:
256,512,86217,1,8,0:0:0:0:
256,512,86399,1,0,0:0:0:0:
256,512,86581,1,0,0:0:0:0:
256,512,86763,1,8,0:0:0:0:
256,512,86945,1,0,0:0:0:0:
256,512,87126,1,0,0:0:0:0:
256,512,87308,1,8,0:0:0:0:
256,512,87490,1,0,0:0:0:0:
256,512,87672,1,0,0:0:0:0:
256,512,87854,1,0,0:0:0:0:
256,512,88036,1,8,0:0:0:0:
256,512,88581,1,12,0:0:0:0:
256,512,88762,1,0,0:0:0:0:
256,512,88944,1,8,0:0:0:0:
256,512,89035,1,8,0:0:0:0:
256,512,89126,1,8,0:0:0:0:
256,512,89308,1,0,0:0:0:0:
256,512,89490,1,0,0:0:0:0:
256,512,89581,1,0,0:0:0:0:
256,512,89762,1,8,0:0:0:0:
256,512,89853,1,8,0:0:0:0:
256,512,90035,1,0,0:0:0:0:
256,512,90217,1,0,0:0:0:0:
256,512,90399,1,8,0:0:0:0:
256,512,90490,1,8,0:0:0:0:
256,512,90581,1,0,0:0:0:0:
256,512,90762,1,0,0:0:0:0:
256,512,90944,1,0,0:0:0:0:
256,512,91035,1,0,0:0:0:0:
256,512,91217,1,8,0:0:0:0:
256,512,91308,1,8,0:0:0:0:
256,512,91490,1,8,0:0:0:0:
256,512,91671,1,0,0:0:0:0:
256,512,91762,1,0,0:0:0:0:
256,512,91853,1,0,0:0:0:0:
256,512,92035,1,8,0:0:0:0:
256,512,92126,1,8,0:0:0:0:
256,512,92308,1,0,0:0:0:0:
256,512,92399,1,0,0:0:0:0:
256,512,92581,1,8,0:0:0:0:
256,512,92944,1,8,0:0:0:0:
256,512,93035,1,8,0:0:0:0:
256,512,93126,1,8,0:0:0:0:
256,512,93308,1,0,0:0:0:0:
256,512,93490,1,0,0:0:0:0:
256,512,93581,1,0,0:0:0:0:
256,512,93671,1,8,0:0:0:0:
256,512,93853,1,8,0:0:0:0:
256,512,94035,1,0,0:0:0:0:
256,512,94399,1,12,0:0:0:0:
256,512,94580,1,8,0:0:0:0:
256,512,94762,1,0,0:0:0:0:
256,512,94944,1,8,0:0:0:0:
256,512,95126,1,0,0:0:0:0:
256,512,95308,1,8,0:0:0:0:
256,512,95489,1,8,0:0:0:0:
256,512,95671,1,0,0:0:0:0:
256,512,95853,1,8,0:0:0:0:
256,512,96035,1,0,0:0:0:0:
256,512,96217,1,0,0:0:0:0:
256,512,96399,1,8,0:0:0:0:
256,512,96580,1,0,0:0:0:0:
256,512,96762,1,0,0:0:0:0:
256,512,96944,1,8,0:0:0:0:
256,512,97126,1,0,0:0:0:0:
256,512,97308,1,8,0:0:0:0:
256,512,97489,1,0,0:0:0:0:
256,512,97671,1,0,0:0:0:0:
256,512,98035,1,8,0:0:0:0:
256,512,98217,1,0,0:0:0:0:
256,512,98308,1,0,0:0:0:0:
256,512,98399,1,0,0:0:0:0:
256,512,98580,1,8,0:0:0:0:
256,512,98762,1,0,0:0:0:0:
256,512,98944,1,8,0:0:0:0:
256,512,99126,1,8,0:0:0:0:
256,512,99217,1,8,0:0:0:0:
256,512,99308,1,0,0:0:0:0:
256,512,99489,1,0,0:0:0:0:
256,512,99671,1,0,0:0:0:0:
256,512,99853,1,8,0:0:0:0:
256,512,100035,1,0,0:0:0:0:
256,512,100126,1,0,0:0:0:0:
256,512,100217,1,8,0:0:0:0:
256,512,100399,1,0,0:0:0:0:
256,512,100580,1,8,0:0:0:0:
256,512,100762,1,8,0:0:0:0:
256,512,100944,1,0,0:0:0:0:
256,512,101035,1,0,0:0:0:0:
256,512,101126,1,0,0:0:0:0:
256,512,101308,1,0,0:0:0:0:
256,512,101671,1,12,0:0:0:0:
256,512,101852,1,8,0:0:0:0:
256,512,101943,1,8,0:0:0:0:
256,512,102034,1,8,0:0:0:0:
256,512,102216,1,8,0:0:0:0:
256,512,102398,1,0,0:0:0:0:
256,512,102580,1,0,0:0:0:0:
256,512,102671,1,0,0:0:0:0:
256,512,102761,1,8,0:0:0:0:
256,512,102943,1,8,0:0:0:0:
256,512,103125,1,0,0:0:0:0:
256,512,103307,1,8,0:0:0:0:
256,512,103489,1,0,0:0:0:0:
256,512,103671,1,0,0:0:0:0:
256,512,103761,1,0,0:0:0:0:
256,512,103852,1,8,0:0:0:0:
256,512,104034,1,8,0:0:0:0:
256,512,104125,1,8,0:0:0:0:
256,512,104216,1,8,0:0:0:0:
512,512,104398,1,8,0:0:0:0:
0,512,104580,1,0,0:0:0:0:
0,512,104761,1,0,0:0:0:0:
0,512,104852,1,8,0:0:0:0:
512,512,104943,1,0,0:0:0:0:
480,512,105125,1,8,0:0:0:0:
448,512,105216,1,8,0:0:0:0:
32,512,105307,1,8,0:0:0:0:
64,512,105489,1,0,0:0:0:0:
416,512,105671,1,8,0:0:0:0:
128,512,106034,1,0,0:0:0:0:
160,512,106216,1,0,0:0:0:0:
352,512,106307,1,0,0:0:0:0:
512,512,106398,1,0,0:0:0:0:
320,512,106580,1,8,0:0:0:0:
224,512,106761,1,0,0:0:0:0:
256,512,106852,1,0,0:0:0:0:
288,512,106943,1,8,0:0:0:0:
256,512,107125,1,8,0:0:0:0:
96,512,107307,1,8,0:0:0:0:
0,512,107398,1,8,0:0:0:0:
0,512,107489,1,8,0:0:0:0:
480,512,107671,1,0,0:0:0:0:
160,512,107852,1,8,0:0:0:0:
384,512,108034,1,0,0:0:0:0:
384,512,108125,1,0,0:0:0:0:
384,512,108216,1,8,0:0:0:0:
288,512,108398,1,8,0:0:0:0:
64,512,108580,1,0,0:0:0:0:
480,512,108761,1,0,0:0:0:0:
32,512,108943,1,8,0:0:0:0:
512,512,109125,1,8,0:0:0:0:
512,512,109216,1,8,0:0:0:0:
512,512,109307,1,8,0:0:0:0:
384,512,109489,1,0,0:0:0:0:
384,512,109580,1,0,0:0:0:0:
384,512,109671,1,0,0:0:0:0:
288,512,109852,1,8,0:0:0:0:
512,512,110034,1,0,0:0:0:0:
256,512,110398,1,12,0:0:0:0:
256,512,110579,1,8,0:0:0:0:
256,512,110761,1,0,0:0:0:0:
256,512,110943,1,0,0:0:0:0:
256,512,111125,1,8,0:0:0:0:
256,512,111307,1,0,0:0:0:0:
256,512,111488,1,8,0:0:0:0:
256,512,111670,1,8,0:0:0:0:
256,512,111852,1,8,0:0:0:0:
256,512,112034,1,0,0:0:0:0:
256,512,112216,1,8,0:0:0:0:
256,512,112398,1,8,0:0:0:0:
256,512,112579,1,0,0:0:0:0:
256,512,112761,1,0,0:0:0:0:
256,512,112943,1,8,0:0:0:0:
256,512,113125,1,8,0:0:0:0:
256,512,113307,1,0,0:0:0:0:
256,512,113488,1,8,0:0:0:0:
256,512,113670,1,0,0:0:0:0:
256,512,113852,1,0,0:0:0:0:
256,512,114034,1,0,0:0:0:0:
256,512,114216,1,8,0:0:0:0:
256,512,114398,1,0,0:0:0:0:
256,512,114579,1,0,0:0:0:0:
256,512,114761,1,8,0:0:0:0:
256,512,114943,1,8,0:0:0:0:
256,512,115125,1,0,0:0:0:0:
256,512,115307,1,8,0:0:0:0:
256,512,115488,1,0,0:0:0:0:
256,512,115670,1,8,0:0:0:0:
256,512,115852,1,8,0:0:0:0:
256,512,116034,1,0,0:0:0:0:
256,512,116216,1,8,0:0:0:0:
256,512,116398,1,8,0:0:0:0:
256,512,116579,1,0,0:0:0:0:
256,512,116761,1,8,0:0:0:0:
256,512,116943,1,8,0:0:0:0:
256,512,117125,1,8,0:0:0:0:
256,512,117307,1,0,0:0:0:0:
256,512,117488,1,8,0:0:0:0:
256,512,117670,1,0,0:0:0:0:
256,512,117852,1,8,0:0:0:0:
256,512,118034,1,0,0:0:0:0:
256,512,118216,1,0,0:0:0:0:
256,512,118398,1,0,0:0:0:0:
256,512,118579,1,0,0:0:0:0:
256,512,118761,1,8,0:0:0:0:
256,512,118943,1,8,0:0:0:0:
256,512,119125,1,8,0:0:0:0:
256,512,119307,1,0,0:0:0:0:
256,512,119488,1,0,0:0:0:0:
256,512,119670,1,0,0:0:0:0:
256,512,119852,1,0,0:0:0:0:
256,512,120034,1,8,0:0:0:0:
256,512,120216,1,8,0:0:0:0:
256,512,120398,1,8,0:0:0:0:
256,512,120577,2,0,L|1248:512,9,980
